  0
SECTION
  2
HEADER
  9
$ACADVER
  1
AC1009
  9
$INSBASE
 10
0.0
 20
0.0
 30
0.0
  9
$EXTMIN
 10
750.0
 20
900.0
 30
0.0
  9
$EXTMAX
 10
5550.0
 20
8359.9567849999985
 30
0.0
  9
$LIMMIN
 10
0.0
 20
0.0
  9
$LIMMAX
 10
297.0
 20
210.0
  9
$ORTHOMODE
 70
     0
  9
$REGENMODE
 70
     1
  9
$FILLMODE
 70
     0
  9
$QTEXTMODE
 70
     0
  9
$MIRRTEXT
 70
     1
  9
$DRAGMODE
 70
     2
  9
$LTSCALE
 40
100.0
  9
$OSMODE
 70
    37
  9
$ATTMODE
 70
     1
  9
$TEXTSIZE
 40
180.0
  9
$TRACEWID
 40
0.05
  9
$TEXTSTYLE
  7
STANDARD
  9
$CLAYER
  8
3
  9
$CELTYPE
  6
BYLAYER
  9
$CECOLOR
 62
   256
  9
$DIMSCALE
 40
30.0
  9
$DIMASZ
 40
2.0
  9
$DIMEXO
 40
0.5
  9
$DIMDLI
 40
10.0
  9
$DIMRND
 40
0.0
  9
$DIMDLE
 40
0.0
  9
$DIMEXE
 40
1.0
  9
$DIMTP
 40
1.0
  9
$DIMTM
 40
1.0
  9
$DIMTXT
 40
3.0
  9
$DIMCEN
 40
0.0
  9
$DIMTSZ
 40
0.0
  9
$DIMTOL
 70
     0
  9
$DIMLIM
 70
     0
  9
$DIMTIH
 70
     0
  9
$DIMTOH
 70
     0
  9
$DIMSE1
 70
     0
  9
$DIMSE2
 70
     0
  9
$DIMTAD
 70
     1
  9
$DIMZIN
 70
     8
  9
$DIMBLK
  1

  9
$DIMASO
 70
     1
  9
$DIMSHO
 70
     1
  9
$DIMPOST
  1

  9
$DIMAPOST
  1

  9
$DIMALT
 70
     0
  9
$DIMALTD
 70
     2
  9
$DIMALTF
 40
0.039
  9
$DIMLFAC
 40
1.0
  9
$DIMTOFL
 70
     1
  9
$DIMTVP
 40
0.0
  9
$DIMTIX
 70
     0
  9
$DIMSOXD
 70
     0
  9
$DIMSAH
 70
     1
  9
$DIMBLK1
  1
OPEN
  9
$DIMBLK2
  1
OPEN
  9
$DIMSTYLE
  2
IGA
  9
$DIMCLRD
 70
     0
  9
$DIMCLRE
 70
     0
  9
$DIMCLRT
 70
     0
  9
$DIMTFAC
 40
10.0
  9
$DIMGAP
 40
1.0
  9
$LUNITS
 70
     2
  9
$LUPREC
 70
     3
  9
$SKETCHINC
 40
0.1
  9
$FILLETRAD
 40
50.0
  9
$AUNITS
 70
     0
  9
$AUPREC
 70
     0
  9
$MENU
  1
acad
  9
$ELEVATION
 40
0.0
  9
$PELEVATION
 40
0.0
  9
$THICKNESS
 40
0.0
  9
$LIMCHECK
 70
     0
  9
$BLIPMODE
 70
     0
  9
$CHAMFERA
 40
0.5
  9
$CHAMFERB
 40
0.5
  9
$SKPOLY
 70
     0
  9
$TDCREATE
 40
2450738.4693197911
  9
$TDUPDATE
 40
2454953.7713422221
  9
$TDINDWG
 40
0.0087427431
  9
$TDUSRTIMER
 40
0.0087427431
  9
$USRTIMER
 70
     1
  9
$ANGBASE
 50
0.0
  9
$ANGDIR
 70
     0
  9
$PDMODE
 70
     0
  9
$PDSIZE
 40
0.0
  9
$PLINEWID
 40
0.0
  9
$COORDS
 70
     1
  9
$SPLFRAME
 70
     0
  9
$SPLINETYPE
 70
     6
  9
$SPLINESEGS
 70
     8
  9
$ATTDIA
 70
     0
  9
$ATTREQ
 70
     1
  9
$HANDLING
 70
 10241
  9
$HANDSEED
  5
7F6B
  9
$SURFTAB1
 70
     6
  9
$SURFTAB2
 70
     6
  9
$SURFTYPE
 70
     6
  9
$SURFU
 70
     6
  9
$SURFV
 70
     6
  9
$UCSNAME
  2

  9
$UCSORG
 10
0.0
 20
0.0
 30
0.0
  9
$UCSXDIR
 10
1.0
 20
0.0
 30
0.0
  9
$UCSYDIR
 10
0.0
 20
1.0
 30
0.0
  9
$PUCSNAME
  2

  9
$PUCSORG
 10
0.0
 20
0.0
 30
0.0
  9
$PUCSXDIR
 10
1.0
 20
0.0
 30
0.0
  9
$PUCSYDIR
 10
0.0
 20
1.0
 30
0.0
  9
$USERI1
 70
     0
  9
$USERI2
 70
     0
  9
$USERI3
 70
     0
  9
$USERI4
 70
     0
  9
$USERI5
 70
     0
  9
$USERR1
 40
0.0
  9
$USERR2
 40
0.0
  9
$USERR3
 40
0.0
  9
$USERR4
 40
0.0
  9
$USERR5
 40
0.0
  9
$WORLDVIEW
 70
     1
  9
$SHADEDGE
 70
     3
  9
$SHADEDIF
 70
    70
  9
$TILEMODE
 70
     1
  9
$MAXACTVP
 70
    16
  9
$PLIMCHECK
 70
     0
  9
$PEXTMIN
 10
1.0000000000000000E+020
 20
1.0000000000000000E+020
 30
1.0000000000000000E+020
  9
$PEXTMAX
 10
-1.0000000000000000E+020
 20
-1.0000000000000000E+020
 30
-1.0000000000000000E+020
  9
$PLIMMIN
 10
0.0
 20
0.0
  9
$PLIMMAX
 10
12.0
 20
9.0
  9
$UNITMODE
 70
     0
  9
$VISRETAIN
 70
     0
  9
$PLINEGEN
 70
     0
  9
$PSLTSCALE
 70
     1
  0
ENDSEC
  0
SECTION
  2
TABLES
  0
TABLE
  2
VPORT
 70
     2
  0
VPORT
  2
*ACTIVE
 70
     0
 10
0.0
 20
0.0
 11
1.0
 21
1.0
 12
9438.4567678319436
 22
4630.0975558305709
 13
0.0
 23
0.0
 14
10.0
 24
10.0
 15
10.0
 25
10.0
 16
0.0
 26
0.0
 36
1.0
 17
0.0
 27
0.0
 37
0.0
 40
7517.4747125171307
 41
3.1666666666666661
 42
50.0
 43
0.0
 44
0.0
 50
0.0
 51
0.0
 71
     0
 72
   100
 73
     1
 74
     0
 75
     0
 76
     0
 77
     0
 78
     0
  0
ENDTAB
  0
TABLE
  2
LTYPE
 70
     2
  0
LTYPE
  2
CONTINUOUS
 70
     0
  3
Solid line
 72
    65
 73
     0
 40
0.0
  0
LTYPE
  2
CENTER
 70
     0
  3
____ _ ____ _ ____ _ ____ _ ____ _ ____ _ ____ 
 72
    65
 73
     4
 40
2.0
 49
1.25
 49
-0.25
 49
0.25
 49
-0.25
  0
ENDTAB
  0
TABLE
  2
LAYER
 70
     6
  0
LAYER
  2
0
 70
     0
 62
     7
  6
CONTINUOUS
  0
LAYER
  2
3
 70
     0
 62
     2
  6
CONTINUOUS
  0
LAYER
  2
2
 70
     0
 62
     3
  6
CENTER
  0
LAYER
  2
1
 70
     0
 62
     4
  6
CONTINUOUS
  0
LAYER
  2
4
 70
     0
 62
     7
  6
CONTINUOUS
  0
LAYER
  2
DEFPOINTS
 70
     0
 62
     7
  6
CONTINUOUS
  0
ENDTAB
  0
TABLE
  2
STYLE
 70
     1
  0
STYLE
  2
STANDARD
 70
     0
 40
0.0
 41
1.0
 50
0.0
 71
     0
 42
180.0
  3
simplex.shx
  4
extfont.shx
  0
ENDTAB
  0
TABLE
  2
VIEW
 70
     0
  0
ENDTAB
  0
TABLE
  2
UCS
 70
     0
  0
ENDTAB
  0
TABLE
  2
APPID
 70
     1
  0
APPID
  2
ACAD
 70
     0
  0
ENDTAB
  0
TABLE
  2
DIMSTYLE
 70
     1
  0
DIMSTYLE
  2
IGA
 70
     0
  3

  4

  5

  6
OPEN
  7
OPEN
 40
2.0
 41
2.0
 42
0.5
 43
10.0
 44
1.0
 45
0.0
 46
0.0
 47
1.0
 48
1.0
140
3.0
141
0.0
142
0.0
143
0.03937
144
1.0
145
0.0
146
10.0
147
1.0
 71
     0
 72
     0
 73
     0
 74
     0
 75
     0
 76
     0
 77
     1
 78
     8
170
     0
171
     2
172
     0
173
     1
174
     0
175
     0
176
     0
177
     0
178
     0
  0
ENDTAB
  0
ENDSEC
  0
SECTION
  2
BLOCKS
  0
BLOCK
  8
0
  2
$MODEL_SPACE
 70
     0
 10
0.0
 20
0.0
 30
0.0
  3
$MODEL_SPACE
  1

  0
ENDBLK
  5
1B
  8
0
  0
BLOCK
 67
     1
  8
0
  2
$PAPER_SPACE
 70
     0
 10
0.0
 20
0.0
 30
0.0
  3
$PAPER_SPACE
  1

  0
ENDBLK
  5
18
 67
     1
  8
0
  0
BLOCK
  8
0
  2
_OPEN
 70
     0
 10
0.0
 20
0.0
 30
0.0
  3
_OPEN
  1

  0
LINE
  5
7B72
  8
0
  6
BYBLOCK
 62
     0
 10
-1.0
 20
0.166667
 30
0.0
 11
0.0
 21
0.0
 31
0.0
  0
LINE
  5
7B73
  8
0
  6
BYBLOCK
 62
     0
 10
0.0
 20
0.0
 30
0.0
 11
-1.0
 21
-0.166667
 31
0.0
  0
LINE
  5
7B74
  8
0
  6
BYBLOCK
 62
     0
 10
0.0
 20
0.0
 30
0.0
 11
-1.0
 21
0.0
 31
0.0
  0
ENDBLK
  5
7B75
  8
0
  0
BLOCK
  8
0
  2
*D1
 70
     1
 10
0.0
 20
0.0
 30
0.0
  3
*D1
  1

  0
LINE
  5
7EE1
  8
3
  6
CONTINUOUS
 62
     0
 10
3003.7342769035099
 20
3737.8122280000011
 30
0.0
 11
3003.7342769035099
 21
3913.4060204271732
 31
0.0
  0
LINE
  5
7EE2
  8
3
  6
CONTINUOUS
 62
     0
 10
2353.7342769035099
 20
3737.8122280000011
 30
0.0
 11
2353.7342769035099
 21
3913.4060204271732
 31
0.0
  0
LINE
  5
7EE3
  8
3
  6
CONTINUOUS
 62
     0
 10
2943.734276903509
 20
3883.4060204271732
 30
0.0
 11
2413.7342769035099
 21
3883.4060204271732
 31
0.0
  0
INSERT
  5
7EE4
  8
3
  6
CONTINUOUS
 62
     0
  2
_OPEN
 10
3003.7342769035099
 20
3883.4060204271732
 30
0.0
 41
60.0
 42
60.0
 43
60.0
  0
INSERT
  5
7EE5
  8
3
  6
CONTINUOUS
 62
     0
  2
_OPEN
 10
2353.7342769035099
 20
3883.4060204271732
 30
0.0
 41
60.0
 42
60.0
 43
60.0
 50
180.0
  0
TEXT
  8
3
  40
90
  5
7F5C
  62
0
  72
0
  71
0
 10
2495.93
 20
3799.11
 30
0.000000
  1
650
  0
POINT
  5
7EE7
  8
DEFPOINTS
  6
CONTINUOUS
 62
     0
 10
3003.7342769035099
 20
3722.8122279999998
 30
0.0
  0
POINT
  5
7EE8
  8
DEFPOINTS
  6
CONTINUOUS
 62
     0
 10
2353.7342769035099
 20
3722.8122279999998
 30
0.0
  0
POINT
  5
7EE9
  8
DEFPOINTS
  6
CONTINUOUS
 62
     0
 10
2353.7342769035099
 20
3883.4060204271732
 30
0.0
  0
ENDBLK
  5
7D0D
  8
0
  0
BLOCK
  8
0
  2
*D2
 70
     1
 10
0.0
 20
0.0
 30
0.0
  3
*D2
  1

  0
LINE
  5
7EEA
  8
3
  6
CONTINUOUS
 62
     0
 10
3003.7342769035099
 20
3737.8122280000011
 30
0.0
 11
3003.7342769035099
 21
4082.744396933128
 31
0.0
  0
LINE
  5
7EEB
  8
3
  6
CONTINUOUS
 62
     0
 10
2383.7342769035099
 20
3818.6441174271722
 30
0.0
 11
2383.7342769035099
 21
4082.744396933128
 31
0.0
  0
LINE
  5
7EEC
  8
3
  6
CONTINUOUS
 62
     0
 10
2943.734276903509
 20
4052.7443969331271
 30
0.0
 11
2443.7342769035099
 21
4052.7443969331271
 31
0.0
  0
INSERT
  5
7EED
  8
3
  6
CONTINUOUS
 62
     0
  2
_OPEN
 10
3003.7342769035099
 20
4052.7443969331271
 30
0.0
 41
60.0
 42
60.0
 43
60.0
  0
INSERT
  5
7EEE
  8
3
  6
CONTINUOUS
 62
     0
  2
_OPEN
 10
2383.7342769035099
 20
4052.7443969331271
 30
0.0
 41
60.0
 42
60.0
 43
60.0
 50
180.0
  0
TEXT
  8
3
  40
90
  5
7F5D
  62
0
  72
0
  71
0
 10
2489.62
 20
3968.44
 30
0.000000
  1
620
  0
POINT
  5
7EF0
  8
DEFPOINTS
  6
CONTINUOUS
 62
     0
 10
3003.7342769035099
 20
3722.8122279999998
 30
0.0
  0
POINT
  5
7EF1
  8
DEFPOINTS
  6
CONTINUOUS
 62
     0
 10
2383.7342769035099
 20
3803.6441174271731
 30
0.0
  0
POINT
  5
7EF2
  8
DEFPOINTS
  6
CONTINUOUS
 62
     0
 10
2383.7342769035099
 20
4052.7443969331271
 30
0.0
  0
ENDBLK
  5
7D22
  8
0
  0
BLOCK
  8
0
  2
*D3
 70
     1
 10
0.0
 20
0.0
 30
0.0
  3
*D3
  1

  0
LINE
  5
7EF3
  8
3
  6
CONTINUOUS
 62
     0
 10
2298.7342769035099
 20
3722.8122279999998
 30
0.0
 11
1755.2499859035099
 21
3722.8122279999998
 31
0.0
  0
LINE
  5
7EF4
  8
3
  6
CONTINUOUS
 62
     0
 10
1821.32859390351
 20
3237.8122279999998
 30
0.0
 11
1755.2499859035099
 21
3237.8122279999998
 31
0.0
  0
LINE
  5
7EF5
  8
3
  6
CONTINUOUS
 62
     0
 10
1785.2499859035111
 20
3662.8122279999998
 30
0.0
 11
1785.2499859035099
 21
3297.8122279999998
 31
0.0
  0
INSERT
  5
7EF6
  8
3
  6
CONTINUOUS
 62
     0
  2
_OPEN
 10
1785.2499859035111
 20
3722.8122279999998
 30
0.0
 41
60.0
 42
60.0
 43
60.0
 50
90.0
  0
INSERT
  5
7EF7
  8
3
  6
CONTINUOUS
 62
     0
  2
_OPEN
 10
1785.2499859035099
 20
3237.8122279999998
 30
0.0
 41
60.0
 42
60.0
 43
60.0
 50
270.0
  0
TEXT
  8
3
  40
90
  5
7F5E
  62
0
  72
0
  71
0
 10
1530.25
 20
3322.14
 30
0.000000
  1
485
  0
POINT
  5
7EF9
  8
DEFPOINTS
  6
CONTINUOUS
 62
     0
 10
2313.7342769035099
 20
3722.8122279999998
 30
0.0
  0
POINT
  5
7EFA
  8
DEFPOINTS
  6
CONTINUOUS
 62
     0
 10
1836.32859390351
 20
3237.8122279999998
 30
0.0
  0
POINT
  5
7EFB
  8
DEFPOINTS
  6
CONTINUOUS
 62
     0
 10
1785.2499859035099
 20
3237.8122279999998
 30
0.0
  0
ENDBLK
  5
7B9C
  8
0
  0
BLOCK
  8
0
  2
*D4
 70
     1
 10
0.0
 20
0.0
 30
0.0
  3
*D4
  1

  0
LINE
  5
7EFC
  8
3
  6
CONTINUOUS
 62
     0
 10
1938.7342769035099
 20
2667.8122279999998
 30
0.0
 11
1755.2499859035099
 21
2667.8122279999998
 31
0.0
  0
LINE
  5
7EFD
  8
3
  6
CONTINUOUS
 62
     0
 10
1785.2499859035099
 20
3177.8122279999998
 30
0.0
 11
1785.2499859035099
 21
2727.8122279999998
 31
0.0
  0
INSERT
  5
7EFE
  8
3
  6
CONTINUOUS
 62
     0
  2
_OPEN
 10
1785.2499859035099
 20
3237.8122279999998
 30
0.0
 41
60.0
 42
60.0
 43
60.0
 50
90.0
  0
INSERT
  5
7EFF
  8
3
  6
CONTINUOUS
 62
     0
  2
_OPEN
 10
1785.2499859035099
 20
2667.8122279999998
 30
0.0
 41
60.0
 42
60.0
 43
60.0
 50
270.0
  0
TEXT
  8
3
  40
90
  5
7F5F
  62
0
  72
0
  71
0
 10
1530.25
 20
2793.51
 30
0.000000
  1
570
  0
POINT
  5
7F01
  8
DEFPOINTS
  6
CONTINUOUS
 62
     0
 10
1836.32859390351
 20
3237.8122279999998
 30
0.0
  0
POINT
  5
7F02
  8
DEFPOINTS
  6
CONTINUOUS
 62
     0
 10
1953.7342769035099
 20
2667.8122279999998
 30
0.0
  0
POINT
  5
7F03
  8
DEFPOINTS
  6
CONTINUOUS
 62
     0
 10
1785.2499859035099
 20
2667.8122279999998
 30
0.0
  0
ENDBLK
  5
7BA8
  8
0
  0
BLOCK
  8
0
  2
*D5
 70
     1
 10
0.0
 20
0.0
 30
0.0
  3
*D5
  1

  0
LINE
  5
7F04
  8
3
  6
CONTINUOUS
 62
     0
 10
2283.7342769035099
 20
3722.8122279999998
 30
0.0
 11
1540.47511790351
 21
3722.8122279999998
 31
0.0
  0
LINE
  5
7F05
  8
3
  6
CONTINUOUS
 62
     0
 10
1938.7342769035099
 20
2667.8122279999998
 30
0.0
 11
1540.47511790351
 21
2667.8122279999998
 31
0.0
  0
LINE
  5
7F06
  8
3
  6
CONTINUOUS
 62
     0
 10
1570.4751179035111
 20
3662.8122279999998
 30
0.0
 11
1570.47511790351
 21
2727.8122279999998
 31
0.0
  0
INSERT
  5
7F07
  8
3
  6
CONTINUOUS
 62
     0
  2
_OPEN
 10
1570.4751179035111
 20
3722.8122279999998
 30
0.0
 41
60.0
 42
60.0
 43
60.0
 50
90.0
  0
INSERT
  5
7F08
  8
3
  6
CONTINUOUS
 62
     0
  2
_OPEN
 10
1570.47511790351
 20
2667.8122279999998
 30
0.0
 41
60.0
 42
60.0
 43
60.0
 50
270.0
  0
TEXT
  8
3
  40
90
  5
7F60
  62
0
  72
0
  71
0
 10
1315.48
 20
3000.28
 30
0.000000
  1
1055
  0
POINT
  5
7F0A
  8
DEFPOINTS
  6
CONTINUOUS
 62
     0
 10
2298.7342769035099
 20
3722.8122279999998
 30
0.0
  0
POINT
  5
7F0B
  8
DEFPOINTS
  6
CONTINUOUS
 62
     0
 10
1953.7342769035099
 20
2667.8122279999998
 30
0.0
  0
POINT
  5
7F0C
  8
DEFPOINTS
  6
CONTINUOUS
 62
     0
 10
1570.47511790351
 20
2667.8122279999998
 30
0.0
  0
ENDBLK
  5
7BB5
  8
0
  0
BLOCK
  8
0
  2
*D6
 70
     1
 10
0.0
 20
0.0
 30
0.0
  3
*D6
  1

  0
LINE
  5
7F0D
  8
3
  6
CONTINUOUS
 62
     0
 10
1953.7342769035099
 20
2652.8122279999998
 30
0.0
 11
1953.7342769035099
 21
2422.7425539999999
 31
0.0
  0
LINE
  5
7F0E
  8
3
  6
CONTINUOUS
 62
     0
 10
2383.7342769035099
 20
2506.4175319999999
 30
0.0
 11
2383.7342769035099
 21
2422.7425539999999
 31
0.0
  0
LINE
  5
7F0F
  8
3
  6
CONTINUOUS
 62
     0
 10
2013.7342769035099
 20
2452.7425539999999
 30
0.0
 11
2323.7342769035099
 21
2452.7425539999999
 31
0.0
  0
INSERT
  5
7F10
  8
3
  6
CONTINUOUS
 62
     0
  2
_OPEN
 10
1953.7342769035099
 20
2452.7425539999999
 30
0.0
 41
60.0
 42
60.0
 43
60.0
 50
180.0
  0
INSERT
  5
7F11
  8
3
  6
CONTINUOUS
 62
     0
  2
_OPEN
 10
2383.7342769035099
 20
2452.7425539999999
 30
0.0
 41
60.0
 42
60.0
 43
60.0
  0
TEXT
  8
3
  40
90
  5
7F61
  62
0
  72
0
  71
0
 10
1998.02
 20
2368.44
 30
0.000000
  1
430
  0
POINT
  5
7F13
  8
DEFPOINTS
  6
CONTINUOUS
 62
     0
 10
1953.7342769035099
 20
2667.8122279999998
 30
0.0
  0
POINT
  5
7F14
  8
DEFPOINTS
  6
CONTINUOUS
 62
     0
 10
2383.7342769035099
 20
2521.4175319999999
 30
0.0
  0
POINT
  5
7F15
  8
DEFPOINTS
  6
CONTINUOUS
 62
     0
 10
2383.7342769035099
 20
2452.7425539999999
 30
0.0
  0
ENDBLK
  5
7BC2
  8
0
  0
BLOCK
  8
0
  2
*D7
 70
     1
 10
0.0
 20
0.0
 30
0.0
  3
*D7
  1

  0
LINE
  5
7F16
  8
3
  6
CONTINUOUS
 62
     0
 10
3363.7342769035099
 20
2652.8122279999998
 30
0.0
 11
3363.7342769035099
 21
2422.7425539999999
 31
0.0
  0
LINE
  5
7F17
  8
3
  6
CONTINUOUS
 62
     0
 10
2443.7342769035099
 20
2452.7425539999999
 30
0.0
 11
3303.7342769035099
 21
2452.7425539999999
 31
0.0
  0
INSERT
  5
7F18
  8
3
  6
CONTINUOUS
 62
     0
  2
_OPEN
 10
2383.7342769035099
 20
2452.7425539999999
 30
0.0
 41
60.0
 42
60.0
 43
60.0
 50
180.0
  0
INSERT
  5
7F19
  8
3
  6
CONTINUOUS
 62
     0
  2
_OPEN
 10
3363.7342769035099
 20
2452.7425539999999
 30
0.0
 41
60.0
 42
60.0
 43
60.0
  0
TEXT
  8
3
  40
90
  5
7F62
  62
0
  72
0
  71
0
 10
2693.73
 20
2368.44
 30
0.000000
  1
980
  0
POINT
  5
7F1B
  8
DEFPOINTS
  6
CONTINUOUS
 62
     0
 10
2383.7342769035099
 20
2521.4175319999999
 30
0.0
  0
POINT
  5
7F1C
  8
DEFPOINTS
  6
CONTINUOUS
 62
     0
 10
3363.7342769035099
 20
2667.8122279999998
 30
0.0
  0
POINT
  5
7F1D
  8
DEFPOINTS
  6
CONTINUOUS
 62
     0
 10
3363.7342769035099
 20
2452.7425539999999
 30
0.0
  0
ENDBLK
  5
7BCE
  8
0
  0
BLOCK
  8
0
  2
*D8
 70
     1
 10
0.0
 20
0.0
 30
0.0
  3
*D8
  1

  0
LINE
  5
7F1E
  8
3
  6
CONTINUOUS
 62
     0
 10
4644.87328890351
 20
3737.8122280000011
 30
0.0
 11
4644.87328890351
 21
3852.7183813650659
 31
0.0
  0
LINE
  5
7F1F
  8
3
  6
CONTINUOUS
 62
     0
 10
4169.8732889035091
 20
3737.8122280000011
 30
0.0
 11
4169.8732889035091
 21
3852.7183813650659
 31
0.0
  0
LINE
  5
7F20
  8
3
  6
CONTINUOUS
 62
     0
 10
4584.8732889035091
 20
3822.7183813650659
 30
0.0
 11
4229.87328890351
 21
3822.7183813650659
 31
0.0
  0
INSERT
  5
7F21
  8
3
  6
CONTINUOUS
 62
     0
  2
_OPEN
 10
4644.87328890351
 20
3822.7183813650659
 30
0.0
 41
60.0
 42
60.0
 43
60.0
  0
INSERT
  5
7F22
  8
3
  6
CONTINUOUS
 62
     0
  2
_OPEN
 10
4169.8732889035091
 20
3822.7183813650659
 30
0.0
 41
60.0
 42
60.0
 43
60.0
 50
180.0
  0
TEXT
  8
3
  40
90
  5
7F63
  62
0
  72
0
  71
0
 10
4195.59
 20
3738.42
 30
0.000000
  1
475
  0
POINT
  5
7F24
  8
DEFPOINTS
  6
CONTINUOUS
 62
     0
 10
4644.87328890351
 20
3722.8122279999998
 30
0.0
  0
POINT
  5
7F25
  8
DEFPOINTS
  6
CONTINUOUS
 62
     0
 10
4169.8732889035091
 20
3722.8122279999998
 30
0.0
  0
POINT
  5
7F26
  8
DEFPOINTS
  6
CONTINUOUS
 62
     0
 10
4169.8732889035091
 20
3822.7183813650659
 30
0.0
  0
ENDBLK
  5
7CD0
  8
0
  0
BLOCK
  8
0
  2
*D9
 70
     1
 10
0.0
 20
0.0
 30
0.0
  3
*D9
  1

  0
LINE
  5
7F27
  8
3
  6
CONTINUOUS
 62
     0
 10
4659.87328890351
 20
3572.8122279999998
 30
0.0
 11
4958.7351259035122
 21
3572.8122279999998
 31
0.0
  0
LINE
  5
7F28
  8
3
  6
CONTINUOUS
 62
     0
 10
4663.3732889035091
 20
2902.8122279999998
 30
0.0
 11
4958.7351259035122
 21
2902.8122279999998
 31
0.0
  0
LINE
  5
7F29
  8
3
  6
CONTINUOUS
 62
     0
 10
4928.7351259035113
 20
3512.8122279999998
 30
0.0
 11
4928.7351259035113
 21
2962.8122279999998
 31
0.0
  0
INSERT
  5
7F2A
  8
3
  6
CONTINUOUS
 62
     0
  2
_OPEN
 10
4928.7351259035113
 20
3572.8122279999998
 30
0.0
 41
60.0
 42
60.0
 43
60.0
 50
90.0
  0
INSERT
  5
7F2B
  8
3
  6
CONTINUOUS
 62
     0
  2
_OPEN
 10
4928.7351259035113
 20
2902.8122279999998
 30
0.0
 41
60.0
 42
60.0
 43
60.0
 50
270.0
  0
TEXT
  8
3
  40
90
  5
7F64
  62
0
  72
0
  71
0
 10
4673.74
 20
3094.80
 30
0.000000
  1
φ670
  0
POINT
  5
7F2D
  8
DEFPOINTS
  6
CONTINUOUS
 62
     0
 10
4644.87328890351
 20
3572.8122279999998
 30
0.0
  0
POINT
  5
7F2E
  8
DEFPOINTS
  6
CONTINUOUS
 62
     0
 10
4648.37328890351
 20
2902.8122279999998
 30
0.0
  0
POINT
  5
7F2F
  8
DEFPOINTS
  6
CONTINUOUS
 62
     0
 10
4928.7351259035113
 20
2902.8122279999998
 30
0.0
  0
ENDBLK
  5
7C70
  8
0
  0
BLOCK
  8
0
  2
*D10
 70
     1
 10
0.0
 20
0.0
 30
0.0
  3
*D10
  1

  0
LINE
  5
7CBC
  8
0
  6
BYBLOCK
 62
     0
 10
4648.37328890351
 20
3587.8122279999998
 30
0.0
 11
4648.37328890351
 21
4102.053223242352
 31
0.0
  0
LINE
  5
7CBD
  8
0
  6
BYBLOCK
 62
     0
 10
4407.3732889035091
 20
3991.35693912643
 30
0.0
 11
4407.3732889035091
 21
4102.053223242352
 31
0.0
  0
LINE
  5
7CBE
  8
0
  6
BYBLOCK
 62
     0
 10
4588.37328890351
 20
4072.053223242352
 30
0.0
 11
4467.37328890351
 21
4072.053223242352
 31
0.0
  0
TEXT
  5
7CBF
  8
3
 62
     0
 10
4426.4270375860397
 20
4101.683438642317
 30
0.0
 40
90.0
  1
241
  0
INSERT
  5
7CC0
  8
0
  6
BYBLOCK
 62
     0
  2
_OPEN
 10
4648.37328890351
 20
4072.053223242352
 30
0.0
 41
60.0
 42
60.0
 43
60.0
  0
INSERT
  5
7CC1
  8
0
  6
BYBLOCK
 62
     0
  2
_OPEN
 10
4407.3732889035091
 20
4072.053223242352
 30
0.0
 41
60.0
 42
60.0
 43
60.0
 50
180.0
  0
POINT
  5
7CC2
  8
DEFPOINTS
  6
BYBLOCK
 62
     0
 10
4648.37328890351
 20
3572.8122279999998
 30
0.0
  0
POINT
  5
7CC3
  8
DEFPOINTS
  6
BYBLOCK
 62
     0
 10
4407.3732889035091
 20
3976.35693912643
 30
0.0
  0
POINT
  5
7CC4
  8
DEFPOINTS
  6
BYBLOCK
 62
     0
 10
4407.3732889035091
 20
4072.053223242352
 30
0.0
  0
ENDBLK
  5
7CC5
  8
0
  0
BLOCK
  8
0
  2
*D11
 70
     1
 10
0.0
 20
0.0
 30
0.0
  3
*D11
  1

  0
LINE
  5
7F30
  8
3
  6
CONTINUOUS
 62
     0
 10
3996.37328890351
 20
2652.8122279999998
 30
0.0
 11
3996.37328890351
 21
2442.373106999999
 31
0.0
  0
LINE
  5
7F31
  8
3
  6
CONTINUOUS
 62
     0
 10
4407.3732889035091
 20
2538.4207849999998
 30
0.0
 11
4407.3732889035091
 21
2442.373106999999
 31
0.0
  0
LINE
  5
7F32
  8
3
  6
CONTINUOUS
 62
     0
 10
4056.37328890351
 20
2472.3731069999999
 30
0.0
 11
4347.37328890351
 21
2472.3731069999999
 31
0.0
  0
INSERT
  5
7F33
  8
3
  6
CONTINUOUS
 62
     0
  2
_OPEN
 10
3996.37328890351
 20
2472.3731069999999
 30
0.0
 41
60.0
 42
60.0
 43
60.0
 50
180.0
  0
INSERT
  5
7F34
  8
3
  6
CONTINUOUS
 62
     0
  2
_OPEN
 10
4407.3732889035091
 20
2472.3731069999999
 30
0.0
 41
60.0
 42
60.0
 43
60.0
  0
TEXT
  8
3
  40
90
  5
7F65
  62
0
  72
0
  71
0
 10
3994.23
 20
2388.07
 30
0.000000
  1
411
  0
POINT
  5
7F36
  8
DEFPOINTS
  6
CONTINUOUS
 62
     0
 10
3996.37328890351
 20
2667.8122279999998
 30
0.0
  0
POINT
  5
7F37
  8
DEFPOINTS
  6
CONTINUOUS
 62
     0
 10
4407.3732889035091
 20
2553.4207849999998
 30
0.0
  0
POINT
  5
7F38
  8
DEFPOINTS
  6
CONTINUOUS
 62
     0
 10
4407.3732889035091
 20
2472.3731069999999
 30
0.0
  0
ENDBLK
  5
7C06
  8
0
  0
BLOCK
  8
0
  2
*D12
 70
     1
 10
0.0
 20
0.0
 30
0.0
  3
*D12
  1

  0
LINE
  5
7C52
  8
0
  6
BYBLOCK
 62
     0
 10
4696.37328890351
 20
2652.8122279999998
 30
0.0
 11
4696.37328890351
 21
2442.373106999999
 31
0.0
  0
LINE
  5
7C53
  8
0
  6
BYBLOCK
 62
     0
 10
4467.37328890351
 20
2472.3731069999999
 30
0.0
 11
4636.3732889035091
 21
2472.3731069999999
 31
0.0
  0
TEXT
  5
7C54
  8
3
 62
     0
 10
4438.3018603320807
 20
2491.6649465181581
 30
0.0
 40
90.0
  1
289
  0
INSERT
  5
7C55
  8
0
  6
BYBLOCK
 62
     0
  2
_OPEN
 10
4407.3732889035091
 20
2472.3731069999999
 30
0.0
 41
60.0
 42
60.0
 43
60.0
 50
180.0
  0
INSERT
  5
7C56
  8
0
  6
BYBLOCK
 62
     0
  2
_OPEN
 10
4696.37328890351
 20
2472.3731069999999
 30
0.0
 41
60.0
 42
60.0
 43
60.0
  0
POINT
  5
7C57
  8
DEFPOINTS
  6
BYBLOCK
 62
     0
 10
4407.3732889035091
 20
2553.4207849999998
 30
0.0
  0
POINT
  5
7C58
  8
DEFPOINTS
  6
BYBLOCK
 62
     0
 10
4696.37328890351
 20
2667.8122279999998
 30
0.0
  0
POINT
  5
7C59
  8
DEFPOINTS
  6
BYBLOCK
 62
     0
 10
4696.37328890351
 20
2472.3731069999999
 30
0.0
  0
ENDBLK
  5
7C5A
  8
0
  0
BLOCK
  8
0
  2
*D13
 70
     1
 10
0.0
 20
0.0
 30
0.0
  3
*D13
  1

  0
LINE
  5
7F39
  8
3
  6
CONTINUOUS
 62
     0
 10
3927.37328890351
 20
3782.8122279999998
 30
0.0
 11
3927.37328890351
 21
4102.053223242352
 31
0.0
  0
LINE
  5
7F3A
  8
3
  6
CONTINUOUS
 62
     0
 10
4347.37328890351
 20
4072.053223242352
 30
0.0
 11
3987.37328890351
 21
4072.053223242352
 31
0.0
  0
INSERT
  5
7F3B
  8
3
  6
CONTINUOUS
 62
     0
  2
_OPEN
 10
4407.3732889035091
 20
4072.053223242352
 30
0.0
 41
60.0
 42
60.0
 43
60.0
  0
INSERT
  5
7F3C
  8
3
  6
CONTINUOUS
 62
     0
  2
_OPEN
 10
3927.37328890351
 20
4072.053223242352
 30
0.0
 41
60.0
 42
60.0
 43
60.0
 50
180.0
  0
TEXT
  8
3
  40
90
  5
7F66
  62
0
  72
0
  71
0
 10
3987.37
 20
4062.75
 30
0.000000
  1
MAX
  0
TEXT
  8
3
  40
90
  5
7F67
  62
0
  72
0
  71
0
 10
3987.37
 20
3945.75
 30
0.000000
  1
530
  0
POINT
  5
7F3E
  8
DEFPOINTS
  6
CONTINUOUS
 62
     0
 10
4407.3732889035091
 20
3976.35693912643
 30
0.0
  0
POINT
  5
7F3F
  8
DEFPOINTS
  6
CONTINUOUS
 62
     0
 10
3927.37328890351
 20
3767.8122279999998
 30
0.0
  0
POINT
  5
7F40
  8
DEFPOINTS
  6
CONTINUOUS
 62
     0
 10
3927.37328890351
 20
4072.053223242352
 30
0.0
  0
ENDBLK
  5
7D42
  8
0
  0
BLOCK
  8
0
  2
*D14
 70
     1
 10
0.0
 20
0.0
 30
0.0
  3
*D14
  1

  0
LINE
  5
7F41
  8
3
  6
CONTINUOUS
 62
     0
 10
1953.7342769035099
 20
5748.1669917430991
 30
0.0
 11
1953.7342769035099
 21
5948.724561743099
 31
0.0
  0
LINE
  5
7F42
  8
3
  6
CONTINUOUS
 62
     0
 10
3363.7342769035099
 20
5748.1669917430991
 30
0.0
 11
3363.7342769035099
 21
5948.724561743099
 31
0.0
  0
LINE
  5
7F43
  8
3
  6
CONTINUOUS
 62
     0
 10
2013.7342769035099
 20
5918.724561743099
 30
0.0
 11
3303.7342769035099
 21
5918.724561743099
 31
0.0
  0
INSERT
  5
7F44
  8
3
  6
CONTINUOUS
 62
     0
  2
_OPEN
 10
1953.7342769035099
 20
5918.724561743099
 30
0.0
 41
60.0
 42
60.0
 43
60.0
 50
180.0
  0
INSERT
  5
7F45
  8
3
  6
CONTINUOUS
 62
     0
  2
_OPEN
 10
3363.7342769035099
 20
5918.724561743099
 30
0.0
 41
60.0
 42
60.0
 43
60.0
  0
TEXT
  8
3
  40
90
  5
7F68
  62
0
  72
0
  71
0
 10
2514.23
 20
5834.42
 30
0.000000
  1
1410
  0
POINT
  5
7F47
  8
DEFPOINTS
  6
CONTINUOUS
 62
     0
 10
1953.7342769035099
 20
5733.1669917430991
 30
0.0
  0
POINT
  5
7F48
  8
DEFPOINTS
  6
CONTINUOUS
 62
     0
 10
3363.7342769035099
 20
5733.1669917430991
 30
0.0
  0
POINT
  5
7F49
  8
DEFPOINTS
  6
CONTINUOUS
 62
     0
 10
3363.7342769035099
 20
5918.724561743099
 30
0.0
  0
ENDBLK
  5
7C2D
  8
0
  0
BLOCK
  8
0
  2
*D15
 70
     1
 10
0.0
 20
0.0
 30
0.0
  3
*D15
  1

  0
LINE
  5
7F4A
  8
3
  6
CONTINUOUS
 62
     0
 10
3378.7342769035099
 20
5733.1669917430991
 30
0.0
 11
3694.8389089035109
 21
5733.1669917430991
 31
0.0
  0
LINE
  5
7F4B
  8
3
  6
CONTINUOUS
 62
     0
 10
3378.7342769035099
 20
5033.1669917430991
 30
0.0
 11
3694.8389089035099
 21
5033.1669917430991
 31
0.0
  0
LINE
  5
7F4C
  8
3
  6
CONTINUOUS
 62
     0
 10
3664.8389089035099
 20
5673.1669917430991
 30
0.0
 11
3664.8389089035099
 21
5093.1669917431
 31
0.0
  0
INSERT
  5
7F4D
  8
3
  6
CONTINUOUS
 62
     0
  2
_OPEN
 10
3664.8389089035099
 20
5733.1669917430991
 30
0.0
 41
60.0
 42
60.0
 43
60.0
 50
90.0
  0
INSERT
  5
7F4E
  8
3
  6
CONTINUOUS
 62
     0
  2
_OPEN
 10
3664.8389089035099
 20
5033.1669917430991
 30
0.0
 41
60.0
 42
60.0
 43
60.0
 50
270.0
  0
TEXT
  8
3
  40
90
  5
7F69
  62
0
  72
0
  71
0
 10
3409.84
 20
5274.57
 30
0.000000
  1
700
  0
POINT
  5
7F50
  8
DEFPOINTS
  6
CONTINUOUS
 62
     0
 10
3363.7342769035099
 20
5733.1669917430991
 30
0.0
  0
POINT
  5
7F51
  8
DEFPOINTS
  6
CONTINUOUS
 62
     0
 10
3363.7342769035099
 20
5033.1669917430991
 30
0.0
  0
POINT
  5
7F52
  8
DEFPOINTS
  6
CONTINUOUS
 62
     0
 10
3664.8389089035099
 20
5033.1669917430991
 30
0.0
  0
ENDBLK
  5
7C3A
  8
0
  0
BLOCK
  8
0
  2
*D16
 70
     1
 10
0.0
 20
0.0
 30
0.0
  3
*D16
  1

  0
LINE
  5
7F53
  8
3
 62
     0
 10
2383.7342769035099
 20
3818.6441174271722
 30
0.0
 11
2383.7342769035099
 21
4082.744396933128
 31
0.0
  0
LINE
  5
7F54
  8
3
 62
     0
 10
1930.4798299035101
 20
3217.8122279999998
 30
0.0
 11
1930.4798299035101
 21
4082.744396933128
 31
0.0
  0
LINE
  5
7F55
  8
3
 62
     0
 10
2323.7342769035099
 20
4052.7443969331271
 30
0.0
 11
1990.4798299035101
 21
4052.7443969331271
 31
0.0
  0
INSERT
  5
7F56
  8
3
 62
     0
  2
_OPEN
 10
2383.7342769035099
 20
4052.7443969331271
 30
0.0
 41
60.0
 42
60.0
 43
60.0
  0
INSERT
  5
7F57
  8
3
 62
     0
  2
_OPEN
 10
1930.4798299035101
 20
4052.7443969331271
 30
0.0
 41
60.0
 42
60.0
 43
60.0
 50
180.0
  0
TEXT
  8
3
  40
90
  5
7F6A
  62
0
  72
0
  71
0
 10
1977.11
 20
3968.44
 30
0.000000
  1
452
  0
POINT
  5
7F59
  8
DEFPOINTS
 62
     0
 10
2383.7342769035099
 20
3803.6441174271731
 30
0.0
  0
POINT
  5
7F5A
  8
DEFPOINTS
 62
     0
 10
1930.4798299035101
 20
3202.8122279999998
 30
0.0
  0
POINT
  5
7F5B
  8
DEFPOINTS
 62
     0
 10
1930.4798299035101
 20
4052.7443969331271
 30
0.0
  0
ENDBLK
  5
7D75
  8
0
  0
ENDSEC
  0
SECTION
  2
ENTITIES
  0
LINE
  5
7AA9
  8
1
  6
CONTINUOUS
 10
3266.58316790351
 20
5135.8989087430991
 30
0.0
 11
3266.58316790351
 21
5620.8989087430991
 31
0.0
  0
LINE
  5
7AAA
  8
1
  6
CONTINUOUS
 10
3363.7342769035099
 20
5733.1669917430991
 30
0.0
 11
3363.7342769035099
 21
5033.1669917430991
 31
0.0
  0
LINE
  5
7AAB
  8
1
  6
CONTINUOUS
 10
3003.7342769035099
 20
5206.6669917430991
 30
0.0
 11
2353.7342769035099
 21
5681.6669917430991
 31
0.0
  0
LINE
  5
7AAC
  8
1
  6
CONTINUOUS
 10
3003.7342769035099
 20
5681.6669917430991
 30
0.0
 11
2353.7342769035099
 21
5206.6669917430991
 31
0.0
  0
LINE
  5
7AAD
  8
1
  6
CONTINUOUS
 10
2353.7342769035099
 20
5206.6669917430991
 30
0.0
 11
2353.7342769035099
 21
5681.6669917430991
 31
0.0
  0
LINE
  5
7AAE
  8
1
  6
CONTINUOUS
 10
3003.7342769035099
 20
5206.6669917430991
 30
0.0
 11
3003.7342769035099
 21
5681.6669917430991
 31
0.0
  0
LINE
  5
7AAF
  8
1
  6
CONTINUOUS
 10
1930.4798299035101
 20
5206.6669917430991
 30
0.0
 11
1930.4798299035101
 21
5681.6669917430991
 31
0.0
  0
LINE
  5
7AC4
  8
1
  6
CONTINUOUS
 10
1953.7342769035099
 20
2767.8122279999998
 30
0.0
 11
2825.7342769035099
 21
2767.8122279999998
 31
0.0
  0
LINE
  5
7AC5
  8
1
  6
CONTINUOUS
 10
1973.7342769035099
 20
3679.8122279999989
 30
0.0
 11
2793.7342769035099
 21
3679.8122279999989
 31
0.0
  0
LINE
  5
7AC6
  8
1
  6
CONTINUOUS
 10
2313.7342769035099
 20
3722.8122279999998
 30
0.0
 11
3043.7342769035099
 21
3722.8122279999998
 31
0.0
  0
LINE
  5
7AC7
  8
1
  6
CONTINUOUS
 10
3363.7342769035099
 20
2667.8122279999998
 30
0.0
 11
1953.7342769035099
 21
2667.8122279999998
 31
0.0
  0
LINE
  5
7AC8
  8
1
  6
CONTINUOUS
 10
1973.7342769035099
 20
2767.8122279999998
 30
0.0
 11
3363.7342769035099
 21
2767.8122279999998
 31
0.0
  0
LINE
  5
7AC9
  8
1
  6
CONTINUOUS
 10
3313.7342769035099
 20
3067.8122279999998
 30
0.0
 11
2483.7342769035099
 21
3767.8122279999998
 31
0.0
  0
ARC
  5
7ACA
  8
1
  6
CONTINUOUS
 10
2424.7342769035099
 20
3278.8122279999998
 30
0.0
 40
564.49092099999984
 50
265.48601200000002
 51
355.834836
  0
LINE
  5
7ACB
  8
1
  6
CONTINUOUS
 10
2353.7342769035099
 20
3692.8122279999998
 30
0.0
 11
3002.7445859035101
 21
3692.8122279999998
 31
0.0
  0
LINE
  5
7ACC
  8
1
  6
CONTINUOUS
 10
3139.3405879035099
 20
3039.8672190000002
 30
0.0
 11
2448.9044389035098
 21
3372.915336
 31
0.0
  0
LINE
  5
7ACD
  8
1
  6
CONTINUOUS
 10
3083.4513899035101
 20
2890.6536379999989
 30
0.0
 11
2344.1121919035099
 21
3093.1398720000002
 31
0.0
  0
LINE
  5
7AD1
  8
1
  6
CONTINUOUS
 10
2043.7342769035099
 20
2767.8122279999998
 30
0.0
 11
2043.7342769035099
 21
3767.8122279999998
 31
0.0
  0
CIRCLE
  5
7AD2
  8
1
  6
CONTINUOUS
 10
2383.7342769035099
 20
3237.8122279999998
 30
0.0
 40
150.0
  0
LINE
  5
7AD3
  8
2
  6
CENTER
 10
2383.7342769035099
 20
5783.5220207172888
 30
0.0
 11
2383.7342769035099
 21
4893.3914836956756
 31
0.0
  0
ARC
  5
7AD4
  8
1
  6
CONTINUOUS
 10
2418.7342769035099
 20
3202.8122279999998
 30
0.0
 40
488.25444700000003
 50
172.6476209999999
 51
265.48601200000002
  0
LINE
  5
7AD5
  8
1
  6
CONTINUOUS
 10
1953.7342769035099
 20
2667.8122279999998
 30
0.0
 11
1953.7342769035099
 21
2767.8122279999998
 31
0.0
  0
LINE
  5
7AD6
  8
2
  6
CENTER
 10
1836.32859390351
 20
3237.8122279999998
 30
0.0
 11
3289.9726569035101
 21
3237.8122279999998
 31
0.0
  0
LINE
  5
7AD7
  8
1
  6
CONTINUOUS
 10
2043.7342769035099
 20
3767.8122279999998
 30
0.0
 11
2483.7342769035099
 21
3767.8122279999998
 31
0.0
  0
ARC
  5
7AD8
  8
1
  6
CONTINUOUS
 10
2356.7342769035099
 20
3210.8122279999998
 30
0.0
 40
425.74044800000001
 50
90.403740999999997
 51
172.6476209999999
  0
LINE
  5
7AD9
  8
1
  6
CONTINUOUS
 10
2353.7342769035099
 20
3636.5421059999999
 30
0.0
 11
2353.7342769035099
 21
3722.8122279999998
 31
0.0
  0
LINE
  5
7ADB
  8
1
  6
CONTINUOUS
 10
3003.7342769035099
 20
3722.8122279999998
 30
0.0
 11
2987.734276903509
 21
3237.8122279999998
 31
0.0
  0
LINE
  5
7ADC
  8
1
  6
CONTINUOUS
 10
2950.58316790351
 20
2807.8122279999998
 30
0.0
 11
3258.58316790351
 21
2807.8122279999998
 31
0.0
  0
ARC
  5
7ADD
  8
1
  6
CONTINUOUS
 10
3104.58316790351
 20
2967.8122279999998
 30
0.0
 40
162.0
 50
324.972283
 51
215.02771699999991
  0
LINE
  5
7ADE
  8
1
  6
CONTINUOUS
 10
3024.58316790351
 20
2967.8122279999998
 30
0.0
 11
3184.58316790351
 21
2967.8122279999998
 31
0.0
  0
CIRCLE
  5
7ADF
  8
1
  6
CONTINUOUS
 10
3104.58316790351
 20
2967.8122279999998
 30
0.0
 40
80.0
  0
LINE
  5
7AE0
  8
1
  6
CONTINUOUS
 10
2950.58316790351
 20
2767.8122279999998
 30
0.0
 11
2950.58316790351
 21
2825.8122279999998
 31
0.0
  0
LINE
  5
7AE1
  8
1
  6
CONTINUOUS
 10
2950.58316790351
 20
2825.8122279999998
 30
0.0
 11
2971.9255029035098
 21
2874.828661
 31
0.0
  0
LINE
  5
7AE2
  8
1
  6
CONTINUOUS
 10
3104.58316790351
 20
3047.8122279999998
 30
0.0
 11
3104.58316790351
 21
2887.8122279999998
 31
0.0
  0
LINE
  5
7AE3
  8
1
  6
CONTINUOUS
 10
3363.7342769035099
 20
2767.8122279999998
 30
0.0
 11
3363.7342769035099
 21
2667.8122279999998
 31
0.0
  0
LINE
  5
7AE4
  8
1
  6
CONTINUOUS
 10
3258.58316790351
 20
2767.8122279999998
 30
0.0
 11
3258.58316790351
 21
2825.8122279999998
 31
0.0
  0
LINE
  5
7AE5
  8
1
  6
CONTINUOUS
 10
3258.58316790351
 20
2807.8122279999998
 30
0.0
 11
3258.58316790351
 21
2825.8122279999998
 31
0.0
  0
LINE
  5
7AE6
  8
1
  6
CONTINUOUS
 10
3313.7342769035099
 20
2767.8122279999998
 30
0.0
 11
3313.7342769035099
 21
3067.8122279999998
 31
0.0
  0
LINE
  5
7AE7
  8
1
  6
CONTINUOUS
 10
3258.58316790351
 20
2825.8122279999998
 30
0.0
 11
3237.2408339035101
 21
2874.828661
 31
0.0
  0
LINE
  5
7AE8
  8
1
  6
CONTINUOUS
 10
3024.58316790351
 20
5033.1669917430991
 30
0.0
 11
2533.7342769035099
 21
5033.1669917430991
 31
0.0
  0
LINE
  5
7AE9
  8
1
  6
CONTINUOUS
 10
2043.7342769035099
 20
5104.1669917430991
 30
0.0
 11
3313.7342769035099
 21
5104.1669917430991
 31
0.0
  0
LINE
  5
7AEA
  8
1
  6
CONTINUOUS
 10
2043.7342769035099
 20
4964.1669917430982
 30
0.0
 11
3313.7342769035099
 21
4964.1669917430982
 31
0.0
  0
LINE
  5
7AEB
  8
1
  6
CONTINUOUS
 10
3003.7342769035099
 20
5206.6669917430991
 30
0.0
 11
1930.4798299035101
 21
5206.6669917430991
 31
0.0
  0
LINE
  5
7AEC
  8
1
  6
CONTINUOUS
 10
2233.7342769035099
 20
5033.1669917430991
 30
0.0
 11
1953.7342769035099
 21
5033.1669917430991
 31
0.0
  0
LINE
  5
7AED
  8
1
  6
CONTINUOUS
 10
2043.7342769035099
 20
4964.1669917430982
 30
0.0
 11
2043.7342769035099
 21
5104.1669917430991
 31
0.0
  0
LINE
  5
7AEE
  8
1
  6
CONTINUOUS
 10
1953.7342769035099
 20
5033.1669917430991
 30
0.0
 11
1953.7342769035099
 21
5206.6669917430991
 31
0.0
  0
LINE
  5
7AEF
  8
1
  6
CONTINUOUS
 10
2533.7342769035099
 20
4999.1669917430982
 30
0.0
 11
2233.7342769035099
 21
4999.1669917430982
 31
0.0
  0
LINE
  5
7AF0
  8
1
  6
CONTINUOUS
 10
2533.7342769035099
 20
5069.1669917430991
 30
0.0
 11
2233.7342769035099
 21
5069.1669917430991
 31
0.0
  0
LINE
  5
7AF1
  8
1
  6
CONTINUOUS
 10
2233.7342769035099
 20
4999.1669917430982
 30
0.0
 11
2233.7342769035099
 21
5069.1669917430991
 31
0.0
  0
LINE
  5
7AF2
  8
1
  6
CONTINUOUS
 10
2533.7342769035099
 20
4999.1669917430982
 30
0.0
 11
2533.7342769035099
 21
5069.1669917430991
 31
0.0
  0
LINE
  5
7AF3
  8
1
  6
CONTINUOUS
 10
2362.7342769035099
 20
5069.1669917430991
 30
0.0
 11
2362.7342769035099
 21
5206.6669917430991
 31
0.0
  0
LINE
  5
7AF4
  8
1
  6
CONTINUOUS
 10
2404.7342769035099
 20
5069.1669917430991
 30
0.0
 11
2404.7342769035099
 21
5206.6669917430991
 31
0.0
  0
LINE
  5
7AF5
  8
1
  6
CONTINUOUS
 10
3266.58316790351
 20
5135.8989087430991
 30
0.0
 11
2942.58316790351
 21
5135.8989087430991
 31
0.0
  0
LINE
  5
7AF6
  8
1
  6
CONTINUOUS
 10
3184.58316790351
 20
5069.1669917430991
 30
0.0
 11
3024.58316790351
 21
5069.1669917430991
 31
0.0
  0
LINE
  5
7AF7
  8
1
  6
CONTINUOUS
 10
3184.58316790351
 20
4999.1669917430982
 30
0.0
 11
3024.58316790351
 21
4999.1669917430982
 31
0.0
  0
LINE
  5
7AF8
  8
1
  6
CONTINUOUS
 10
2942.58316790351
 20
5135.8989087430991
 30
0.0
 11
2942.58316790351
 21
5206.6669917430991
 31
0.0
  0
LINE
  5
7AF9
  8
1
  6
CONTINUOUS
 10
3024.58316790351
 20
4999.1669917430982
 30
0.0
 11
3024.58316790351
 21
5069.1669917430991
 31
0.0
  0
LINE
  5
7AFA
  8
1
  6
CONTINUOUS
 10
3125.58316790351
 20
5069.1669917430991
 30
0.0
 11
3125.58316790351
 21
5135.8989087430991
 31
0.0
  0
LINE
  5
7AFB
  8
1
  6
CONTINUOUS
 10
3083.58316790351
 20
5069.1669917430991
 30
0.0
 11
3083.58316790351
 21
5135.8989087430991
 31
0.0
  0
LINE
  5
7AFC
  8
1
  6
CONTINUOUS
 10
3313.7342769035099
 20
4964.1669917430982
 30
0.0
 11
3313.7342769035099
 21
5104.1669917430991
 31
0.0
  0
LINE
  5
7AFD
  8
1
  6
CONTINUOUS
 10
3363.7342769035099
 20
5033.1669917430991
 30
0.0
 11
3184.58316790351
 21
5033.1669917430991
 31
0.0
  0
LINE
  5
7AFE
  8
1
  6
CONTINUOUS
 10
3184.58316790351
 20
4999.1669917430982
 30
0.0
 11
3184.58316790351
 21
5069.1669917430991
 31
0.0
  0
LINE
  5
7B28
  8
1
  6
CONTINUOUS
 10
4169.8732889035091
 20
3682.8122279999998
 30
0.0
 11
4644.87328890351
 21
3682.8122279999998
 31
0.0
  0
LINE
  5
7B29
  8
1
  6
CONTINUOUS
 10
4127.37328890351
 20
3722.8122279999998
 30
0.0
 11
4687.37328890351
 21
3722.8122279999998
 31
0.0
  0
LINE
  5
7B2A
  8
1
  6
CONTINUOUS
 10
3996.37328890351
 20
2667.8122279999998
 30
0.0
 11
4696.37328890351
 21
2667.8122279999998
 31
0.0
  0
LINE
  5
7B2B
  8
1
  6
CONTINUOUS
 10
3996.37328890351
 20
2767.8122279999998
 30
0.0
 11
4696.37328890351
 21
2767.8122279999998
 31
0.0
  0
LINE
  5
7B2F
  8
1
  6
CONTINUOUS
 10
3962.37328890351
 20
3387.8122279999998
 30
0.0
 11
3962.37328890351
 21
3087.8122279999998
 31
0.0
  0
LINE
  5
7B30
  8
1
  6
CONTINUOUS
 10
4032.3732889035091
 20
3387.8122279999998
 30
0.0
 11
4032.3732889035091
 21
3087.8122279999998
 31
0.0
  0
LINE
  5
7B31
  8
1
  6
CONTINUOUS
 10
4169.8732889035091
 20
3722.8122279999998
 30
0.0
 11
4169.8732889035091
 21
2767.8122279999998
 31
0.0
  0
LINE
  5
7B32
  8
1
  6
CONTINUOUS
 10
3927.37328890351
 20
3767.8122279999998
 30
0.0
 11
3927.37328890351
 21
2767.8122279999998
 31
0.0
  0
LINE
  5
7B33
  8
1
  6
CONTINUOUS
 10
4067.3732889035091
 20
3767.8122279999998
 30
0.0
 11
4067.3732889035091
 21
2767.8122279999998
 31
0.0
  0
LINE
  5
7B34
  8
1
  6
CONTINUOUS
 10
4032.3732889035091
 20
2946.8122279999998
 30
0.0
 11
4169.8732889035091
 21
2946.8122279999998
 31
0.0
  0
LINE
  5
7B35
  8
1
  6
CONTINUOUS
 10
4032.3732889035091
 20
2988.8122279999998
 30
0.0
 11
4169.8732889035091
 21
2988.8122279999998
 31
0.0
  0
LINE
  5
7B36
  8
1
  6
CONTINUOUS
 10
4032.3732889035091
 20
3216.8122279999998
 30
0.0
 11
4169.8732889035091
 21
3216.8122279999998
 31
0.0
  0
LINE
  5
7B37
  8
1
  6
CONTINUOUS
 10
3962.37328890351
 20
2887.8122279999998
 30
0.0
 11
4032.3732889035091
 21
2887.8122279999998
 31
0.0
  0
LINE
  5
7B38
  8
1
  6
CONTINUOUS
 10
3962.37328890351
 20
3047.8122279999998
 30
0.0
 11
3962.37328890351
 21
2887.8122279999998
 31
0.0
  0
LINE
  5
7B39
  8
1
  6
CONTINUOUS
 10
4032.3732889035091
 20
3047.8122279999998
 30
0.0
 11
4032.3732889035091
 21
2887.8122279999998
 31
0.0
  0
LINE
  5
7B3A
  8
1
  6
CONTINUOUS
 10
3962.37328890351
 20
3047.8122279999998
 30
0.0
 11
4032.3732889035091
 21
3047.8122279999998
 31
0.0
  0
LINE
  5
7B3B
  8
1
  6
CONTINUOUS
 10
3962.37328890351
 20
3087.8122279999998
 30
0.0
 11
4032.3732889035091
 21
3087.8122279999998
 31
0.0
  0
LINE
  5
7B3C
  8
1
  6
CONTINUOUS
 10
3996.37328890351
 20
2767.8122279999998
 30
0.0
 11
3996.37328890351
 21
2667.8122279999998
 31
0.0
  0
LINE
  5
7B3D
  8
1
  6
CONTINUOUS
 10
3927.37328890351
 20
2767.8122279999998
 30
0.0
 11
3996.37328890351
 21
2767.8122279999998
 31
0.0
  0
LINE
  5
7B3E
  8
1
  6
CONTINUOUS
 10
4032.3732889035091
 20
3258.8122279999998
 30
0.0
 11
4169.8732889035091
 21
3258.8122279999998
 31
0.0
  0
LINE
  5
7B3F
  8
1
  6
CONTINUOUS
 10
3962.37328890351
 20
3387.8122279999998
 30
0.0
 11
4032.3732889035091
 21
3387.8122279999998
 31
0.0
  0
LINE
  5
7B40
  8
1
  6
CONTINUOUS
 10
4067.3732889035091
 20
3767.8122279999998
 30
0.0
 11
3927.37328890351
 21
3767.8122279999998
 31
0.0
  0
LINE
  5
7B43
  8
1
  6
CONTINUOUS
 10
4644.87328890351
 20
3722.8122279999998
 30
0.0
 11
4644.87328890351
 21
2767.8122279999998
 31
0.0
  0
LINE
  5
7B44
  8
1
  6
CONTINUOUS
 10
4696.37328890351
 20
2767.8122279999998
 30
0.0
 11
4696.37328890351
 21
2667.8122279999998
 31
0.0
  0
LINE
  5
7B47
  8
1
  6
CONTINUOUS
 10
1953.7342769035099
 20
5733.1669917430991
 30
0.0
 11
3363.7342769035099
 21
5733.1669917430991
 31
0.0
  0
LINE
  5
7B48
  8
1
  6
CONTINUOUS
 10
3003.7342769035099
 20
5681.6669917430991
 30
0.0
 11
1930.4798299035101
 21
5681.6669917430991
 31
0.0
  0
LINE
  5
7B49
  8
1
  6
CONTINUOUS
 10
1953.7342769035099
 20
5681.6669917430991
 30
0.0
 11
1953.7342769035099
 21
5733.1669917430991
 31
0.0
  0
LINE
  5
7B4A
  8
1
  6
CONTINUOUS
 10
3266.58316790351
 20
5620.8989087430991
 30
0.0
 11
3003.7342769035099
 21
5620.8989087430991
 31
0.0
  0
LINE
  5
7B4D
  8
2
  6
CENTER
 10
1828.72474790351
 20
5444.1669917430991
 30
0.0
 11
3442.9978461968458
 21
5444.1669917430991
 31
0.0
  0
LINE
  5
7B4E
  8
2
  6
CENTER
 10
4407.3732889035091
 20
3825.310104103577
 30
0.0
 11
4407.3732889035091
 21
2553.4207849999998
 31
0.0
  0
LINE
  5
7B4F
  8
2
  6
CENTER
 10
2383.7342769035099
 20
3803.6441174271731
 30
0.0
 11
2383.7342769035099
 21
2521.4175319999999
 31
0.0
  0
LINE
  5
7B50
  8
2
  6
CENTER
 10
3842.35739390351
 20
3237.8122279999998
 30
0.0
 11
4768.0597619035098
 21
3237.8122279999998
 31
0.0
  0
LINE
  5
7B51
  8
4
  6
CONTINUOUS
 10
5550.0
 20
1500.0
 30
0.0
 11
5550.0
 21
900.0
 31
0.0
  0
LINE
  5
7B52
  8
4
  6
CONTINUOUS
 10
3450.0
 20
1500.0
 30
0.0
 11
3450.0
 21
900.0
 31
0.0
  0
LINE
  5
7B53
  8
4
  6
CONTINUOUS
 10
1950.0
 20
1500.0
 30
0.0
 11
1950.0
 21
900.0
 31
0.0
  0
LINE
  5
7B56
  8
4
  6
CONTINUOUS
 10
1950.0
 20
900.0
 30
0.0
 11
5550.0
 21
900.0
 31
0.0
  0
LINE
  5
7B57
  8
4
  6
CONTINUOUS
 10
1950.0
 20
1200.0
 30
0.0
 11
5550.0
 21
1200.0
 31
0.0
  0
TEXT
  5
7B58
  8
4
  6
CONTINUOUS
 10
2065.5062429999989
 20
1294.6290779999999
 30
0.0
 40
150.0
  1
機器名称
  0
TEXT
  5
7B59
  8
4
  6
CONTINUOUS
 10
2058.7743179999989
 20
964.9354699999999
 30
0.0
 40
150.0
  1
機器型番
  0
TEXT
  5
7B5A
  8
4
  6
CONTINUOUS
 10
3533.0362359999999
 20
1267.7153069999999
 30
0.0
 40
150.0
  1
ミツヤ多翼送風機
  0
TEXT
  5
7B5B
  8
4
  6
CONTINUOUS
 10
3559.9634869999991
 20
951.47875299999987
 30
0.0
 40
150.0
  1
MF#4-4
  0
TEXT
  5
7B5D
  8
4
  6
CONTINUOUS
 10
2714.3572960000001
 20
7150.2865239999992
 30
0.0
 40
162.0
  1
床置ベット
  0
TEXT
  5
7B5E
  8
4
  6
CONTINUOUS
 10
948.50278000000014
 20
7601.6429289999996
 30
0.0
 40
216.0
  1
ベルト駆動式片吸込両持多翼ファン
  0
LINE
  5
7B5F
  8
4
  6
CONTINUOUS
 10
750.0
 20
7408.2262629999996
 30
0.0
 11
5550.0
 21
7408.2262629999996
 31
0.0
  0
LINE
  5
7B60
  8
4
  6
CONTINUOUS
 10
750.0
 20
8008.2262629999996
 30
0.0
 11
5550.0
 21
8008.2262629999996
 31
0.0
  0
LINE
  5
7B61
  8
4
  6
CONTINUOUS
 10
1950.0
 20
1500.0
 30
0.0
 11
5550.0
 21
1500.0
 31
0.0
  0
LINE
  5
7B62
  8
4
  6
CONTINUOUS
 10
750.0
 20
8008.2262629999996
 30
0.0
 11
750.0
 21
7408.2262629999996
 31
0.0
  0
TEXT
  5
7B63
  8
4
  6
CONTINUOUS
 10
1406.7807999999991
 20
7146.9584329999998
 30
0.0
 40
162.0
  1
左回転上向
  0
TEXT
  5
7B64
  8
4
  6
CONTINUOUS
 10
4406.9086779999989
 20
8118.1832439999989
 30
0.0
 40
168.0
  1
No.
  0
TEXT
  5
7B65
  8
4
  6
CONTINUOUS
 10
3933.8881879999999
 20
7150.2865239999992
 30
0.0
 40
162.0
  1
縮尺：1/30
  0
LINE
  5
7B66
  8
4
  6
CONTINUOUS
 10
5550.0
 20
8008.2262629999996
 30
0.0
 11
5550.0
 21
7408.2262629999996
 31
0.0
  0
LINE
  5
7B68
  8
4
  6
CONTINUOUS
 10
4321.8522670000002
 20
8043.7907490000007
 30
0.0
 11
4321.8522670000002
 21
8359.9567849999985
 31
0.0
  0
LINE
  5
7B69
  8
4
  6
CONTINUOUS
 10
4321.8522670000002
 20
8359.9567849999985
 30
0.0
 11
5550.0
 21
8359.9567849999985
 31
0.0
  0
LINE
  5
7B6A
  8
4
  6
CONTINUOUS
 10
5550.0
 20
8359.9567849999985
 30
0.0
 11
5550.0
 21
8043.7907490000007
 31
0.0
  0
LINE
  5
7B6B
  8
4
  6
CONTINUOUS
 10
5550.0
 20
8043.7907490000007
 30
0.0
 11
4321.8522670000002
 21
8043.7907490000007
 31
0.0
  0
DIMENSION
  5
7B83
  8
3
  6
CONTINUOUS
  2
*D1
 10
2353.7342769035099
 20
3883.4060204271732
 30
0.0
 11
2675.93388690351
 21
3883.4060204271732
 31
0.0
 70
   128
 13
3003.7342769035099
 23
3722.8122279999998
 33
0.0
 14
2353.7342769035099
 24
3722.8122279999998
 34
0.0
1001
ACAD
1000
DSTYLE
1002
{
1070
   287
1070
     3
1070
   287
1070
     3
1070
    40
1040
30.0
1070
   143
1040
0.039
1070
   172
1070
     1
1070
   271
1070
     0
1070
   279
1070
     0
1070
   288
1070
     1
1002
}
  0
DIMENSION
  5
7B90
  8
3
  6
CONTINUOUS
  2
*D2
 10
2383.7342769035099
 20
4052.7443969331271
 30
0.0
 11
2669.6169789035098
 21
4052.7443969331271
 31
0.0
 70
   128
 13
3003.7342769035099
 23
3722.8122279999998
 33
0.0
 14
2383.7342769035099
 24
3803.6441174271731
 34
0.0
1001
ACAD
1000
DSTYLE
1002
{
1070
   287
1070
     3
1070
   287
1070
     3
1070
    40
1040
30.0
1070
   143
1040
0.039
1070
   172
1070
     1
1070
   271
1070
     0
1070
   279
1070
     0
1070
   288
1070
     1
1002
}
  0
DIMENSION
  5
7B9D
  8
3
  6
CONTINUOUS
  2
*D3
 10
1785.2499859035099
 20
3237.8122279999998
 30
0.0
 11
1785.2499859035099
 21
3481.4422330000002
 31
0.0
 70
   128
 13
2313.7342769035099
 23
3722.8122279999998
 33
0.0
 14
1836.32859390351
 24
3237.8122279999998
 34
0.0
 50
90.0
1001
ACAD
1000
DSTYLE
1002
{
1070
   287
1070
     3
1070
   287
1070
     3
1070
    40
1040
30.0
1070
   143
1040
0.039
1070
   172
1070
     1
1070
   271
1070
     0
1070
   279
1070
     0
1070
   288
1070
     1
1002
}
  0
DIMENSION
  5
7BA9
  8
3
  6
CONTINUOUS
  2
*D4
 10
1785.2499859035099
 20
2667.8122279999998
 30
0.0
 11
1710.2499859035099
 21
2952.8122279999998
 31
0.0
 70
     0
 13
1836.32859390351
 23
3237.8122279999998
 33
0.0
 14
1953.7342769035099
 24
2667.8122279999998
 34
0.0
 50
90.0
1001
ACAD
1000
DSTYLE
1002
{
1070
   287
1070
     4
1070
   287
1070
     4
1070
    40
1040
30.0
1070
    75
1070
     1
1070
   143
1040
0.039
1070
   172
1070
     1
1070
   271
1070
     0
1070
   279
1070
     1
1070
   288
1070
     1
1002
}
  0
DIMENSION
  5
7BB6
  8
3
  6
CONTINUOUS
  2
*D5
 10
1570.47511790351
 20
2667.8122279999998
 30
0.0
 11
1570.47511790351
 21
3159.5791370000002
 31
0.0
 70
   128
 13
2298.7342769035099
 23
3722.8122279999998
 33
0.0
 14
1953.7342769035099
 24
2667.8122279999998
 34
0.0
 50
90.0
1001
ACAD
1000
DSTYLE
1002
{
1070
   287
1070
     3
1070
   287
1070
     3
1070
    40
1040
30.0
1070
   143
1040
0.039
1070
   172
1070
     1
1070
   271
1070
     0
1070
   279
1070
     0
1070
   288
1070
     1
1002
}
  0
DIMENSION
  5
7BC3
  8
3
  6
CONTINUOUS
  2
*D6
 10
2383.7342769035099
 20
2452.7425539999999
 30
0.0
 11
2178.01999090351
 21
2452.7425539999999
 31
0.0
 70
   128
 13
1953.7342769035099
 23
2667.8122279999998
 33
0.0
 14
2383.7342769035099
 24
2521.4175319999999
 34
0.0
1001
ACAD
1000
DSTYLE
1002
{
1070
   287
1070
     3
1070
   287
1070
     3
1070
    40
1040
30.0
1070
   143
1040
0.039
1070
   172
1070
     1
1070
   271
1070
     0
1070
   279
1070
     0
1070
   288
1070
     1
1002
}
  0
DIMENSION
  5
7BCF
  8
3
  6
CONTINUOUS
  2
*D7
 10
3363.7342769035099
 20
2452.7425539999999
 30
0.0
 11
2873.7342769035099
 21
2527.7425539999999
 31
0.0
 70
     0
 13
2383.7342769035099
 23
2521.4175319999999
 33
0.0
 14
3363.7342769035099
 24
2667.8122279999998
 34
0.0
1001
ACAD
1000
DSTYLE
1002
{
1070
   287
1070
     4
1070
   287
1070
     4
1070
    40
1040
30.0
1070
    75
1070
     1
1070
   143
1040
0.039
1070
   172
1070
     1
1070
   271
1070
     0
1070
   279
1070
     1
1070
   288
1070
     1
1002
}
  0
DIMENSION
  5
7BDC
  8
3
  6
CONTINUOUS
  2
*D8
 10
4169.8732889035091
 20
3822.7183813650659
 30
0.0
 11
4375.5875746177953
 21
3822.7183813650659
 31
0.0
 70
   128
 13
4644.87328890351
 23
3722.8122279999998
 33
0.0
 14
4169.8732889035091
 24
3722.8122279999998
 34
0.0
1001
ACAD
1000
DSTYLE
1002
{
1070
   287
1070
     3
1070
   287
1070
     3
1070
    40
1040
30.0
1070
   143
1040
0.039
1070
   172
1070
     1
1070
   271
1070
     0
1070
   279
1070
     0
1070
   288
1070
     1
1002
}
  0
LINE
  5
7BDF
  8
1
  6
CONTINUOUS
 10
4648.37328890351
 20
3572.8122279999998
 30
0.0
 11
4648.37328890351
 21
2902.8122279999998
 31
0.0
  0
DIMENSION
  5
7BEC
  8
3
  6
CONTINUOUS
  2
*D9
 10
4928.7351259035113
 20
2902.8122279999998
 30
0.0
 11
4928.7351259035113
 21
3254.0995600000001
 31
0.0
 70
   128
 13
4644.87328890351
 23
3572.8122279999998
 33
0.0
 14
4648.37328890351
 24
2902.8122279999998
 34
0.0
 50
90.0
1001
ACAD
1000
DSTYLE
1002
{
1070
   287
1070
     3
1070
   287
1070
     3
1070
     3
1000
φ<>
1070
    40
1040
30.0
1070
   143
1040
0.039
1070
   172
1070
     1
1070
   271
1070
     0
1070
   279
1070
     0
1070
   288
1070
     1
1002
}
  0
DIMENSION
  5
7BFA
  8
3
  6
CONTINUOUS
  2
*D10
 10
4407.3732889035091
 20
4072.053223242352
 30
0.0
 11
4522.8556090146112
 21
4146.6834386423179
 31
0.0
 70
   128
 13
4648.37328890351
 23
3572.8122279999998
 33
0.0
 14
4407.3732889035091
 24
3976.35693912643
 34
0.0
1001
ACAD
1000
DSTYLE
1002
{
1070
   288
1070
     1
1070
   172
1070
     1
1070
    40
1040
30.0
1070
   271
1070
     0
1070
   143
1040
0.039
1002
}
  0
DIMENSION
  5
7C07
  8
3
  6
CONTINUOUS
  2
*D11
 10
4407.3732889035091
 20
2472.3731069999999
 30
0.0
 11
4174.2304319035093
 21
2472.3731069999999
 31
0.0
 70
   128
 13
3996.37328890351
 23
2667.8122279999998
 33
0.0
 14
4407.3732889035091
 24
2553.4207849999998
 34
0.0
1001
ACAD
1000
DSTYLE
1002
{
1070
   287
1070
     3
1070
   287
1070
     3
1070
    40
1040
30.0
1070
   143
1040
0.039
1070
   172
1070
     1
1070
   271
1070
     0
1070
   279
1070
     0
1070
   288
1070
     1
1002
}
  0
DIMENSION
  5
7C15
  8
3
  6
CONTINUOUS
  2
*D12
 10
4696.37328890351
 20
2472.3731069999999
 30
0.0
 11
4551.87328890351
 21
2536.6649465181581
 31
0.0
 70
   128
 13
4407.3732889035091
 23
2553.4207849999998
 33
0.0
 14
4696.37328890351
 24
2667.8122279999998
 34
0.0
1001
ACAD
1000
DSTYLE
1002
{
1070
   288
1070
     1
1070
   172
1070
     1
1070
    75
1070
     1
1070
    40
1040
30.0
1070
   271
1070
     0
1070
   143
1040
0.039
1002
}
  0
DIMENSION
  5
7C21
  8
3
  6
CONTINUOUS
  2
*D13
 10
3927.37328890351
 20
4072.053223242352
 30
0.0
 11
4167.37328890351
 21
4222.053223242352
 31
0.0
 70
     0
  1
MAX\P530
 13
4407.3732889035091
 23
3976.35693912643
 33
0.0
 14
3927.37328890351
 24
3767.8122279999998
 34
0.0
1001
ACAD
1000
DSTYLE
1002
{
1070
   287
1070
     4
1070
   287
1070
     4
1070
    40
1040
30.0
1070
    75
1070
     1
1070
   143
1040
0.039
1070
   172
1070
     1
1070
   271
1070
     0
1070
   279
1070
     1
1070
   288
1070
     1
1002
}
  0
DIMENSION
  5
7C2E
  8
3
  6
CONTINUOUS
  2
*D14
 10
3363.7342769035099
 20
5918.724561743099
 30
0.0
 11
2694.2323619035101
 21
5918.724561743099
 31
0.0
 70
   128
 13
1953.7342769035099
 23
5733.1669917430991
 33
0.0
 14
3363.7342769035099
 24
5733.1669917430991
 34
0.0
1001
ACAD
1000
DSTYLE
1002
{
1070
   287
1070
     3
1070
   287
1070
     3
1070
    40
1040
30.0
1070
   143
1040
0.039
1070
   172
1070
     1
1070
   271
1070
     0
1070
   279
1070
     0
1070
   288
1070
     1
1002
}
  0
DIMENSION
  5
7C3B
  8
3
  6
CONTINUOUS
  2
*D15
 10
3664.8389089035099
 20
5033.1669917430991
 30
0.0
 11
3664.8389089035099
 21
5433.8719807430989
 31
0.0
 70
   128
 13
3363.7342769035099
 23
5733.1669917430991
 33
0.0
 14
3363.7342769035099
 24
5033.1669917430991
 34
0.0
 50
90.0
1001
ACAD
1000
DSTYLE
1002
{
1070
   287
1070
     3
1070
   287
1070
     3
1070
    40
1040
30.0
1070
   143
1040
0.039
1070
   172
1070
     1
1070
   271
1070
     0
1070
   279
1070
     0
1070
   288
1070
     1
1002
}
  0
LINE
  5
7CDD
  8
1
 10
1973.7342769035099
 20
3679.8122279999989
 30
0.0
 11
1973.7342769035099
 21
2767.8122279999998
 31
0.0
  0
LINE
  5
7CDE
  8
1
 10
2793.7342769035099
 20
3679.8122279999989
 30
0.0
 11
2793.7342769035099
 21
2767.8122279999998
 31
0.0
  0
DIMENSION
  5
7D69
  8
3
  2
*D16
 10
1930.4798299035101
 20
4052.7443969331271
 30
0.0
 11
2157.1070534035098
 21
4127.744396933128
 31
0.0
 70
     0
  1
452
 13
2383.7342769035099
 23
3803.6441174271731
 33
0.0
 14
1930.4798299035101
 24
3202.8122279999998
 34
0.0
1001
ACAD
1000
DSTYLE
1002
{
1070
   287
1070
     4
1070
   287
1070
     4
1070
    40
1040
30.0
1070
   143
1040
0.039
1070
   172
1070
     1
1070
   271
1070
     0
1070
   279
1070
     1
1070
   288
1070
     1
1002
}
  0
ENDSEC
  0
EOF
