  0
SECTION
  2
HEADER
  9
$ACADVER
  1
AC1009
  9
$INSBASE
 10
0.0
 20
0.0
 30
0.0
  9
$EXTMIN
 10
750.0
 20
900.0
 30
0.0
  9
$EXTMAX
 10
5550.0
 20
8359.9567800000004
 30
0.0
  9
$LIMMIN
 10
0.0
 20
0.0
  9
$LIMMAX
 10
297.0
 20
210.0
  9
$ORTHOMODE
 70
     0
  9
$REGENMODE
 70
     1
  9
$FILLMODE
 70
     0
  9
$QTEXTMODE
 70
     0
  9
$MIRRTEXT
 70
     1
  9
$DRAGMODE
 70
     2
  9
$LTSCALE
 40
100.0
  9
$OSMODE
 70
    37
  9
$ATTMODE
 70
     1
  9
$TEXTSIZE
 40
180.0
  9
$TRACEWID
 40
0.05
  9
$TEXTSTYLE
  7
STANDARD
  9
$CLAYER
  8
3
  9
$CELTYPE
  6
BYLAYER
  9
$CECOLOR
 62
   256
  9
$DIMSCALE
 40
30.0
  9
$DIMASZ
 40
2.0
  9
$DIMEXO
 40
0.5
  9
$DIMDLI
 40
10.0
  9
$DIMRND
 40
0.0
  9
$DIMDLE
 40
0.0
  9
$DIMEXE
 40
1.0
  9
$DIMTP
 40
1.0
  9
$DIMTM
 40
1.0
  9
$DIMTXT
 40
3.0
  9
$DIMCEN
 40
0.0
  9
$DIMTSZ
 40
0.0
  9
$DIMTOL
 70
     0
  9
$DIMLIM
 70
     0
  9
$DIMTIH
 70
     0
  9
$DIMTOH
 70
     0
  9
$DIMSE1
 70
     0
  9
$DIMSE2
 70
     0
  9
$DIMTAD
 70
     1
  9
$DIMZIN
 70
     8
  9
$DIMBLK
  1

  9
$DIMASO
 70
     1
  9
$DIMSHO
 70
     1
  9
$DIMPOST
  1

  9
$DIMAPOST
  1

  9
$DIMALT
 70
     0
  9
$DIMALTD
 70
     2
  9
$DIMALTF
 40
0.039
  9
$DIMLFAC
 40
1.0
  9
$DIMTOFL
 70
     1
  9
$DIMTVP
 40
0.0
  9
$DIMTIX
 70
     0
  9
$DIMSOXD
 70
     0
  9
$DIMSAH
 70
     1
  9
$DIMBLK1
  1
OPEN
  9
$DIMBLK2
  1
OPEN
  9
$DIMSTYLE
  2
IGA
  9
$DIMCLRD
 70
     0
  9
$DIMCLRE
 70
     0
  9
$DIMCLRT
 70
     0
  9
$DIMTFAC
 40
10.0
  9
$DIMGAP
 40
1.0
  9
$LUNITS
 70
     2
  9
$LUPREC
 70
     3
  9
$SKETCHINC
 40
0.1
  9
$FILLETRAD
 40
50.0
  9
$AUNITS
 70
     0
  9
$AUPREC
 70
     0
  9
$MENU
  1
acad
  9
$ELEVATION
 40
0.0
  9
$PELEVATION
 40
0.0
  9
$THICKNESS
 40
0.0
  9
$LIMCHECK
 70
     0
  9
$BLIPMODE
 70
     0
  9
$CHAMFERA
 40
0.5
  9
$CHAMFERB
 40
0.5
  9
$SKPOLY
 70
     0
  9
$TDCREATE
 40
2450738.3942709491
  9
$TDUPDATE
 40
2454953.7712928592
  9
$TDINDWG
 40
0.0046523843
  9
$TDUSRTIMER
 40
0.0046523843
  9
$USRTIMER
 70
     1
  9
$ANGBASE
 50
0.0
  9
$ANGDIR
 70
     0
  9
$PDMODE
 70
     0
  9
$PDSIZE
 40
0.0
  9
$PLINEWID
 40
0.0
  9
$COORDS
 70
     1
  9
$SPLFRAME
 70
     0
  9
$SPLINETYPE
 70
     6
  9
$SPLINESEGS
 70
     8
  9
$ATTDIA
 70
     0
  9
$ATTREQ
 70
     1
  9
$HANDLING
 70
 10241
  9
$HANDSEED
  5
7EA8
  9
$SURFTAB1
 70
     6
  9
$SURFTAB2
 70
     6
  9
$SURFTYPE
 70
     6
  9
$SURFU
 70
     6
  9
$SURFV
 70
     6
  9
$UCSNAME
  2

  9
$UCSORG
 10
0.0
 20
0.0
 30
0.0
  9
$UCSXDIR
 10
1.0
 20
0.0
 30
0.0
  9
$UCSYDIR
 10
0.0
 20
1.0
 30
0.0
  9
$PUCSNAME
  2

  9
$PUCSORG
 10
0.0
 20
0.0
 30
0.0
  9
$PUCSXDIR
 10
1.0
 20
0.0
 30
0.0
  9
$PUCSYDIR
 10
0.0
 20
1.0
 30
0.0
  9
$USERI1
 70
     0
  9
$USERI2
 70
     0
  9
$USERI3
 70
     0
  9
$USERI4
 70
     0
  9
$USERI5
 70
     0
  9
$USERR1
 40
0.0
  9
$USERR2
 40
0.0
  9
$USERR3
 40
0.0
  9
$USERR4
 40
0.0
  9
$USERR5
 40
0.0
  9
$WORLDVIEW
 70
     1
  9
$SHADEDGE
 70
     3
  9
$SHADEDIF
 70
    70
  9
$TILEMODE
 70
     1
  9
$MAXACTVP
 70
    16
  9
$PLIMCHECK
 70
     0
  9
$PEXTMIN
 10
1.0000000000000000E+020
 20
1.0000000000000000E+020
 30
1.0000000000000000E+020
  9
$PEXTMAX
 10
-1.0000000000000000E+020
 20
-1.0000000000000000E+020
 30
-1.0000000000000000E+020
  9
$PLIMMIN
 10
0.0
 20
0.0
  9
$PLIMMAX
 10
12.0
 20
9.0
  9
$UNITMODE
 70
     0
  9
$VISRETAIN
 70
     0
  9
$PLINEGEN
 70
     0
  9
$PSLTSCALE
 70
     1
  0
ENDSEC
  0
SECTION
  2
TABLES
  0
TABLE
  2
VPORT
 70
     2
  0
VPORT
  2
*ACTIVE
 70
     0
 10
0.0
 20
0.0
 11
1.0
 21
1.0
 12
9438.4567640709101
 22
4630.0975530613614
 13
0.0
 23
0.0
 14
10.0
 24
10.0
 15
10.0
 25
10.0
 16
0.0
 26
0.0
 36
1.0
 17
0.0
 27
0.0
 37
0.0
 40
7517.4747080210109
 41
3.1666666666666661
 42
50.0
 43
0.0
 44
0.0
 50
0.0
 51
0.0
 71
     0
 72
   100
 73
     1
 74
     0
 75
     0
 76
     0
 77
     0
 78
     0
  0
ENDTAB
  0
TABLE
  2
LTYPE
 70
     2
  0
LTYPE
  2
CONTINUOUS
 70
     0
  3
Solid line
 72
    65
 73
     0
 40
0.0
  0
LTYPE
  2
CENTER
 70
     0
  3
____ _ ____ _ ____ _ ____ _ ____ _ ____ _ ____ 
 72
    65
 73
     4
 40
2.0
 49
1.25
 49
-0.25
 49
0.25
 49
-0.25
  0
ENDTAB
  0
TABLE
  2
LAYER
 70
     6
  0
LAYER
  2
0
 70
     0
 62
     7
  6
CONTINUOUS
  0
LAYER
  2
3
 70
     0
 62
     2
  6
CONTINUOUS
  0
LAYER
  2
2
 70
     0
 62
     3
  6
CENTER
  0
LAYER
  2
1
 70
     0
 62
     4
  6
CONTINUOUS
  0
LAYER
  2
4
 70
     0
 62
     7
  6
CONTINUOUS
  0
LAYER
  2
DEFPOINTS
 70
     0
 62
     7
  6
CONTINUOUS
  0
ENDTAB
  0
TABLE
  2
STYLE
 70
     1
  0
STYLE
  2
STANDARD
 70
     0
 40
0.0
 41
1.0
 50
0.0
 71
     0
 42
180.0
  3
simplex.shx
  4
extfont.shx
  0
ENDTAB
  0
TABLE
  2
VIEW
 70
     0
  0
ENDTAB
  0
TABLE
  2
UCS
 70
     0
  0
ENDTAB
  0
TABLE
  2
APPID
 70
     1
  0
APPID
  2
ACAD
 70
     0
  0
ENDTAB
  0
TABLE
  2
DIMSTYLE
 70
     1
  0
DIMSTYLE
  2
IGA
 70
     0
  3

  4

  5

  6
OPEN
  7
OPEN
 40
2.0
 41
2.0
 42
0.5
 43
10.0
 44
1.0
 45
0.0
 46
0.0
 47
1.0
 48
1.0
140
3.0
141
0.0
142
0.0
143
0.03937
144
1.0
145
0.0
146
10.0
147
1.0
 71
     0
 72
     0
 73
     0
 74
     0
 75
     0
 76
     0
 77
     1
 78
     8
170
     0
171
     2
172
     0
173
     1
174
     0
175
     0
176
     0
177
     0
178
     0
  0
ENDTAB
  0
ENDSEC
  0
SECTION
  2
BLOCKS
  0
BLOCK
  8
0
  2
$MODEL_SPACE
 70
     0
 10
0.0
 20
0.0
 30
0.0
  3
$MODEL_SPACE
  1

  0
ENDBLK
  5
1B
  8
0
  0
BLOCK
 67
     1
  8
0
  2
$PAPER_SPACE
 70
     0
 10
0.0
 20
0.0
 30
0.0
  3
$PAPER_SPACE
  1

  0
ENDBLK
  5
18
 67
     1
  8
0
  0
BLOCK
  8
0
  2
_OPEN
 70
     0
 10
0.0
 20
0.0
 30
0.0
  3
_OPEN
  1

  0
LINE
  5
7B54
  8
0
  6
BYBLOCK
 62
     0
 10
-1.0
 20
0.166667
 30
0.0
 11
0.0
 21
0.0
 31
0.0
  0
LINE
  5
7B55
  8
0
  6
BYBLOCK
 62
     0
 10
0.0
 20
0.0
 30
0.0
 11
-1.0
 21
-0.166667
 31
0.0
  0
LINE
  5
7B56
  8
0
  6
BYBLOCK
 62
     0
 10
0.0
 20
0.0
 30
0.0
 11
-1.0
 21
0.0
 31
0.0
  0
ENDBLK
  5
7B57
  8
0
  0
BLOCK
  8
0
  2
*D1
 70
     1
 10
0.0
 20
0.0
 30
0.0
  3
*D1
  1

  0
LINE
  5
7E0C
  8
3
  6
CONTINUOUS
 62
     0
 10
1740.1232769999999
 20
4033.6654889999991
 30
0.0
 11
1610.6872530000001
 21
4033.6654889999991
 31
0.0
  0
LINE
  5
7E0D
  8
3
  6
CONTINUOUS
 62
     0
 10
1740.1232769999999
 20
3383.665489
 30
0.0
 11
1610.6872530000001
 21
3383.665489
 31
0.0
  0
LINE
  5
7E0E
  8
3
  6
CONTINUOUS
 62
     0
 10
1640.6872530000001
 20
3973.665489
 30
0.0
 11
1640.6872530000001
 21
3443.665489
 31
0.0
  0
INSERT
  5
7E0F
  8
3
  6
CONTINUOUS
 62
     0
  2
_OPEN
 10
1640.6872530000001
 20
4033.6654889999991
 30
0.0
 41
60.0
 42
60.0
 43
60.0
 50
90.0
  0
INSERT
  5
7E10
  8
3
  6
CONTINUOUS
 62
     0
  2
_OPEN
 10
1640.6872530000001
 20
3383.665489
 30
0.0
 41
60.0
 42
60.0
 43
60.0
 50
270.0
  0
TEXT
  8
3
  40
90
  5
7E97
  62
0
  72
0
  71
0
 10
1385.69
 20
3523.17
 30
0.000000
  1
650
  0
POINT
  5
7E12
  8
DEFPOINTS
  6
CONTINUOUS
 62
     0
 10
1755.1232769999999
 20
4033.6654889999991
 30
0.0
  0
POINT
  5
7E13
  8
DEFPOINTS
  6
CONTINUOUS
 62
     0
 10
1755.1232769999999
 20
3383.665489
 30
0.0
  0
POINT
  5
7E14
  8
DEFPOINTS
  6
CONTINUOUS
 62
     0
 10
1640.6872530000001
 20
3383.665489
 30
0.0
  0
ENDBLK
  5
7B64
  8
0
  0
BLOCK
  8
0
  2
*D2
 70
     1
 10
0.0
 20
0.0
 30
0.0
  3
*D2
  1

  0
LINE
  5
7E15
  8
3
  6
CONTINUOUS
 62
     0
 10
1740.1232769999999
 20
4033.6654889999991
 30
0.0
 11
1417.344243
 21
4033.6654889999991
 31
0.0
  0
LINE
  5
7E16
  8
3
  6
CONTINUOUS
 62
     0
 10
1550.9432409999999
 20
3413.665489
 30
0.0
 11
1417.344243
 21
3413.665489
 31
0.0
  0
LINE
  5
7E17
  8
3
  6
CONTINUOUS
 62
     0
 10
1447.344243
 20
3973.665489
 30
0.0
 11
1447.344243
 21
3473.665489
 31
0.0
  0
INSERT
  5
7E18
  8
3
  6
CONTINUOUS
 62
     0
  2
_OPEN
 10
1447.344243
 20
4033.6654889999991
 30
0.0
 41
60.0
 42
60.0
 43
60.0
 50
90.0
  0
INSERT
  5
7E19
  8
3
  6
CONTINUOUS
 62
     0
  2
_OPEN
 10
1447.344243
 20
3413.665489
 30
0.0
 41
60.0
 42
60.0
 43
60.0
 50
270.0
  0
TEXT
  8
3
  40
90
  5
7E98
  62
0
  72
0
  71
0
 10
1192.34
 20
3516.51
 30
0.000000
  1
620
  0
POINT
  5
7E1B
  8
DEFPOINTS
  6
CONTINUOUS
 62
     0
 10
1755.1232769999999
 20
4033.6654889999991
 30
0.0
  0
POINT
  5
7E1C
  8
DEFPOINTS
  6
CONTINUOUS
 62
     0
 10
1565.9432409999999
 20
3413.665489
 30
0.0
  0
POINT
  5
7E1D
  8
DEFPOINTS
  6
CONTINUOUS
 62
     0
 10
1447.344243
 20
3413.665489
 30
0.0
  0
ENDBLK
  5
7B71
  8
0
  0
BLOCK
  8
0
  2
*D3
 70
     1
 10
0.0
 20
0.0
 30
0.0
  3
*D3
  1

  0
LINE
  5
7E1E
  8
3
  6
CONTINUOUS
 62
     0
 10
1795.1232769999999
 20
2843.665489
 30
0.0
 11
1417.344243
 21
2843.665489
 31
0.0
  0
LINE
  5
7E1F
  8
3
  6
CONTINUOUS
 62
     0
 10
1447.344243
 20
3353.665489
 30
0.0
 11
1447.344243
 21
2903.665489
 31
0.0
  0
INSERT
  5
7E20
  8
3
  6
CONTINUOUS
 62
     0
  2
_OPEN
 10
1447.344243
 20
3413.665489
 30
0.0
 41
60.0
 42
60.0
 43
60.0
 50
90.0
  0
INSERT
  5
7E21
  8
3
  6
CONTINUOUS
 62
     0
  2
_OPEN
 10
1447.344243
 20
2843.665489
 30
0.0
 41
60.0
 42
60.0
 43
60.0
 50
270.0
  0
TEXT
  8
3
  40
90
  5
7E99
  62
0
  72
0
  71
0
 10
1192.34
 20
2969.37
 30
0.000000
  1
570
  0
POINT
  5
7E23
  8
DEFPOINTS
  6
CONTINUOUS
 62
     0
 10
1565.9432409999999
 20
3413.665489
 30
0.0
  0
POINT
  5
7E24
  8
DEFPOINTS
  6
CONTINUOUS
 62
     0
 10
1810.123276999999
 20
2843.665489
 30
0.0
  0
POINT
  5
7E25
  8
DEFPOINTS
  6
CONTINUOUS
 62
     0
 10
1447.344243
 20
2843.665489
 30
0.0
  0
ENDBLK
  5
7B7D
  8
0
  0
BLOCK
  8
0
  2
*D4
 70
     1
 10
0.0
 20
0.0
 30
0.0
  3
*D4
  1

  0
LINE
  5
7E26
  8
3
  6
CONTINUOUS
 62
     0
 10
1740.1232769999999
 20
4073.665489
 30
0.0
 11
1204.000198
 21
4073.665489
 31
0.0
  0
LINE
  5
7E27
  8
3
  6
CONTINUOUS
 62
     0
 10
1795.1232769999999
 20
2843.665489
 30
0.0
 11
1204.000198
 21
2843.665489
 31
0.0
  0
LINE
  5
7E28
  8
3
  6
CONTINUOUS
 62
     0
 10
1234.000198
 20
4013.665489
 30
0.0
 11
1234.000198
 21
2903.665489
 31
0.0
  0
INSERT
  5
7E29
  8
3
  6
CONTINUOUS
 62
     0
  2
_OPEN
 10
1234.000198
 20
4073.665489
 30
0.0
 41
60.0
 42
60.0
 43
60.0
 50
90.0
  0
INSERT
  5
7E2A
  8
3
  6
CONTINUOUS
 62
     0
  2
_OPEN
 10
1234.000198
 20
2843.665489
 30
0.0
 41
60.0
 42
60.0
 43
60.0
 50
270.0
  0
TEXT
  8
3
  40
90
  5
7E9A
  62
0
  72
0
  71
0
 10
979.000
 20
3216.77
 30
0.000000
  1
1230
  0
POINT
  5
7E2C
  8
DEFPOINTS
  6
CONTINUOUS
 62
     0
 10
1755.1232769999999
 20
4073.665489
 30
0.0
  0
POINT
  5
7E2D
  8
DEFPOINTS
  6
CONTINUOUS
 62
     0
 10
1810.123276999999
 20
2843.665489
 30
0.0
  0
POINT
  5
7E2E
  8
DEFPOINTS
  6
CONTINUOUS
 62
     0
 10
1234.000198
 20
2843.665489
 30
0.0
  0
ENDBLK
  5
7B8A
  8
0
  0
BLOCK
  8
0
  2
*D5
 70
     1
 10
0.0
 20
0.0
 30
0.0
  3
*D5
  1

  0
LINE
  5
7E2F
  8
3
  6
CONTINUOUS
 62
     0
 10
1755.1232769999999
 20
4088.665489
 30
0.0
 11
1755.1232769999999
 21
4212.029434
 31
0.0
  0
LINE
  5
7E30
  8
3
  6
CONTINUOUS
 62
     0
 10
2240.1232770000001
 20
4136.2218489999996
 30
0.0
 11
2240.1232770000001
 21
4212.029434
 31
0.0
  0
LINE
  5
7E31
  8
3
  6
CONTINUOUS
 62
     0
 10
1815.1232769999999
 20
4182.029434
 30
0.0
 11
2180.1232770000001
 21
4182.029434
 31
0.0
  0
INSERT
  5
7E32
  8
3
  6
CONTINUOUS
 62
     0
  2
_OPEN
 10
1755.1232769999999
 20
4182.029434
 30
0.0
 41
60.0
 42
60.0
 43
60.0
 50
180.0
  0
INSERT
  5
7E33
  8
3
  6
CONTINUOUS
 62
     0
  2
_OPEN
 10
2240.1232770000001
 20
4182.029434
 30
0.0
 41
60.0
 42
60.0
 43
60.0
  0
TEXT
  8
3
  40
90
  5
7E9B
  62
0
  72
0
  71
0
 10
1814.04
 20
4097.73
 30
0.000000
  1
485
  0
POINT
  5
7E35
  8
DEFPOINTS
  6
CONTINUOUS
 62
     0
 10
1755.1232769999999
 20
4073.665489
 30
0.0
  0
POINT
  5
7E36
  8
DEFPOINTS
  6
CONTINUOUS
 62
     0
 10
2240.1232770000001
 20
4121.2218489999996
 30
0.0
  0
POINT
  5
7E37
  8
DEFPOINTS
  6
CONTINUOUS
 62
     0
 10
2240.1232770000001
 20
4182.029434
 30
0.0
  0
ENDBLK
  5
7B97
  8
0
  0
BLOCK
  8
0
  2
*D6
 70
     1
 10
0.0
 20
0.0
 30
0.0
  3
*D6
  1

  0
LINE
  5
7E38
  8
3
  6
CONTINUOUS
 62
     0
 10
1810.123276999999
 20
2828.665489
 30
0.0
 11
1810.123276999999
 21
2613.3869479999998
 31
0.0
  0
LINE
  5
7E39
  8
3
  6
CONTINUOUS
 62
     0
 10
2240.1232770000001
 20
2681.3328160000001
 30
0.0
 11
2240.1232770000001
 21
2613.3869479999998
 31
0.0
  0
LINE
  5
7E3A
  8
3
  6
CONTINUOUS
 62
     0
 10
1870.1232769999999
 20
2643.3869479999989
 30
0.0
 11
2180.1232770000001
 21
2643.3869479999989
 31
0.0
  0
INSERT
  5
7E3B
  8
3
  6
CONTINUOUS
 62
     0
  2
_OPEN
 10
1810.123276999999
 20
2643.3869479999989
 30
0.0
 41
60.0
 42
60.0
 43
60.0
 50
180.0
  0
INSERT
  5
7E3C
  8
3
  6
CONTINUOUS
 62
     0
  2
_OPEN
 10
2240.1232770000001
 20
2643.3869479999989
 30
0.0
 41
60.0
 42
60.0
 43
60.0
  0
TEXT
  8
3
  40
90
  5
7E9C
  62
0
  72
0
  71
0
 10
1854.41
 20
2559.09
 30
0.000000
  1
430
  0
POINT
  5
7E3E
  8
DEFPOINTS
  6
CONTINUOUS
 62
     0
 10
1810.123276999999
 20
2843.665489
 30
0.0
  0
POINT
  5
7E3F
  8
DEFPOINTS
  6
CONTINUOUS
 62
     0
 10
2240.1232770000001
 20
2696.3328160000001
 30
0.0
  0
POINT
  5
7E40
  8
DEFPOINTS
  6
CONTINUOUS
 62
     0
 10
2240.1232770000001
 20
2643.3869479999989
 30
0.0
  0
ENDBLK
  5
7BB0
  8
0
  0
BLOCK
  8
0
  2
*D7
 70
     1
 10
0.0
 20
0.0
 30
0.0
  3
*D7
  1

  0
LINE
  5
7E41
  8
3
  6
CONTINUOUS
 62
     0
 10
3220.1232770000001
 20
2828.665489
 30
0.0
 11
3220.1232770000001
 21
2613.3869479999998
 31
0.0
  0
LINE
  5
7E42
  8
3
  6
CONTINUOUS
 62
     0
 10
2300.1232770000001
 20
2643.3869479999989
 30
0.0
 11
3160.1232770000001
 21
2643.3869479999989
 31
0.0
  0
INSERT
  5
7E43
  8
3
  6
CONTINUOUS
 62
     0
  2
_OPEN
 10
2240.1232770000001
 20
2643.3869479999989
 30
0.0
 41
60.0
 42
60.0
 43
60.0
 50
180.0
  0
INSERT
  5
7E44
  8
3
  6
CONTINUOUS
 62
     0
  2
_OPEN
 10
3220.1232770000001
 20
2643.3869479999989
 30
0.0
 41
60.0
 42
60.0
 43
60.0
  0
TEXT
  8
3
  40
90
  5
7E9D
  62
0
  72
0
  71
0
 10
2550.12
 20
2559.09
 30
0.000000
  1
980
  0
POINT
  5
7E46
  8
DEFPOINTS
  6
CONTINUOUS
 62
     0
 10
2240.1232770000001
 20
2696.3328160000001
 30
0.0
  0
POINT
  5
7E47
  8
DEFPOINTS
  6
CONTINUOUS
 62
     0
 10
3220.1232770000001
 20
2843.665489
 30
0.0
  0
POINT
  5
7E48
  8
DEFPOINTS
  6
CONTINUOUS
 62
     0
 10
3220.1232770000001
 20
2643.3869479999989
 30
0.0
  0
ENDBLK
  5
7BBC
  8
0
  0
BLOCK
  8
0
  2
*D8
 70
     1
 10
0.0
 20
0.0
 30
0.0
  3
*D8
  1

  0
LINE
  5
7E49
  8
3
  6
CONTINUOUS
 62
     0
 10
4773.0414680000004
 20
4048.665489
 30
0.0
 11
4773.0414680000004
 21
4201.2269839999999
 31
0.0
  0
LINE
  5
7E4A
  8
3
  6
CONTINUOUS
 62
     0
 10
4298.0414680000004
 20
4048.665489
 30
0.0
 11
4298.0414680000004
 21
4201.2269839999999
 31
0.0
  0
LINE
  5
7E4B
  8
3
  6
CONTINUOUS
 62
     0
 10
4713.0414680000004
 20
4171.2269840000008
 30
0.0
 11
4358.0414680000004
 21
4171.2269840000008
 31
0.0
  0
INSERT
  5
7E4C
  8
3
  6
CONTINUOUS
 62
     0
  2
_OPEN
 10
4773.0414680000004
 20
4171.2269840000008
 30
0.0
 41
60.0
 42
60.0
 43
60.0
  0
INSERT
  5
7E4D
  8
3
  6
CONTINUOUS
 62
     0
  2
_OPEN
 10
4298.0414680000004
 20
4171.2269840000008
 30
0.0
 41
60.0
 42
60.0
 43
60.0
 50
180.0
  0
TEXT
  8
3
  40
90
  5
7E9E
  62
0
  72
0
  71
0
 10
4354.17
 20
4086.93
 30
0.000000
  1
475
  0
POINT
  5
7E4F
  8
DEFPOINTS
  6
CONTINUOUS
 62
     0
 10
4773.0414680000004
 20
4033.6654889999991
 30
0.0
  0
POINT
  5
7E50
  8
DEFPOINTS
  6
CONTINUOUS
 62
     0
 10
4298.0414680000004
 20
4033.6654889999991
 30
0.0
  0
POINT
  5
7E51
  8
DEFPOINTS
  6
CONTINUOUS
 62
     0
 10
4298.0414680000004
 20
4171.2269840000008
 30
0.0
  0
ENDBLK
  5
7C30
  8
0
  0
BLOCK
  8
0
  2
*D9
 70
     1
 10
0.0
 20
0.0
 30
0.0
  3
*D9
  1

  0
LINE
  5
7E52
  8
3
  6
CONTINUOUS
 62
     0
 10
4124.5414680000004
 20
2828.665489
 30
0.0
 11
4124.5414680000004
 21
2572.6855749999991
 31
0.0
  0
LINE
  5
7E53
  8
3
  6
CONTINUOUS
 62
     0
 10
4535.5414680000004
 20
2709.710646
 30
0.0
 11
4535.5414680000004
 21
2572.6855749999991
 31
0.0
  0
LINE
  5
7E54
  8
3
  6
CONTINUOUS
 62
     0
 10
4184.5414680000004
 20
2602.685575
 30
0.0
 11
4475.5414680000004
 21
2602.685575
 31
0.0
  0
INSERT
  5
7E55
  8
3
  6
CONTINUOUS
 62
     0
  2
_OPEN
 10
4124.5414680000004
 20
2602.685575
 30
0.0
 41
60.0
 42
60.0
 43
60.0
 50
180.0
  0
INSERT
  5
7E56
  8
3
  6
CONTINUOUS
 62
     0
  2
_OPEN
 10
4535.5414680000004
 20
2602.685575
 30
0.0
 41
60.0
 42
60.0
 43
60.0
  0
TEXT
  8
3
  40
90
  5
7E9F
  62
0
  72
0
  71
0
 10
4122.40
 20
2518.39
 30
0.000000
  1
411
  0
POINT
  5
7E58
  8
DEFPOINTS
  6
CONTINUOUS
 62
     0
 10
4124.5414680000004
 20
2843.665489
 30
0.0
  0
POINT
  5
7E59
  8
DEFPOINTS
  6
CONTINUOUS
 62
     0
 10
4535.5414680000004
 20
2724.710646
 30
0.0
  0
POINT
  5
7E5A
  8
DEFPOINTS
  6
CONTINUOUS
 62
     0
 10
4535.5414680000004
 20
2602.685575
 30
0.0
  0
ENDBLK
  5
7D18
  8
0
  0
BLOCK
  8
0
  2
*D10
 70
     1
 10
0.0
 20
0.0
 30
0.0
  3
*D10
  1

  0
LINE
  5
7E5B
  8
3
  6
CONTINUOUS
 62
     0
 10
4824.5414680000004
 20
2828.665489
 30
0.0
 11
4824.5414680000004
 21
2572.6855749999991
 31
0.0
  0
LINE
  5
7E5C
  8
3
  6
CONTINUOUS
 62
     0
 10
4595.5414680000004
 20
2602.685575
 30
0.0
 11
4764.5414680000004
 21
2602.685575
 31
0.0
  0
TEXT
  8
3
  40
90
  5
7EA0
  62
0
  72
0
  71
0
 10
4497.12
 20
2516.90
 30
0.000000
  1
289
  0
INSERT
  5
7E5E
  8
3
  6
CONTINUOUS
 62
     0
  2
_OPEN
 10
4535.5414680000004
 20
2602.685575
 30
0.0
 41
60.0
 42
60.0
 43
60.0
 50
180.0
  0
INSERT
  5
7E5F
  8
3
  6
CONTINUOUS
 62
     0
  2
_OPEN
 10
4824.5414680000004
 20
2602.685575
 30
0.0
 41
60.0
 42
60.0
 43
60.0
  0
POINT
  5
7E60
  8
DEFPOINTS
  6
CONTINUOUS
 62
     0
 10
4535.5414680000004
 20
2724.710646
 30
0.0
  0
POINT
  5
7E61
  8
DEFPOINTS
  6
CONTINUOUS
 62
     0
 10
4824.5414680000004
 20
2843.665489
 30
0.0
  0
POINT
  5
7E62
  8
DEFPOINTS
  6
CONTINUOUS
 62
     0
 10
4824.5414680000004
 20
2602.685575
 30
0.0
  0
ENDBLK
  5
7D22
  8
0
  0
BLOCK
  8
0
  2
*D11
 70
     1
 10
0.0
 20
0.0
 30
0.0
  3
*D11
  1

  0
LINE
  5
7E63
  8
3
  6
CONTINUOUS
 62
     0
 10
4788.0414680000004
 20
3748.665489
 30
0.0
 11
5078.3353450000013
 21
3748.665489
 31
0.0
  0
LINE
  5
7E64
  8
3
  6
CONTINUOUS
 62
     0
 10
4791.5414680000013
 20
3078.665489
 30
0.0
 11
5078.3353450000013
 21
3078.665489
 31
0.0
  0
LINE
  5
7E65
  8
3
  6
CONTINUOUS
 62
     0
 10
5048.3353450000013
 20
3688.665489
 30
0.0
 11
5048.3353450000013
 21
3138.665489
 31
0.0
  0
INSERT
  5
7E66
  8
3
  6
CONTINUOUS
 62
     0
  2
_OPEN
 10
5048.3353450000013
 20
3748.665489
 30
0.0
 41
60.0
 42
60.0
 43
60.0
 50
90.0
  0
INSERT
  5
7E67
  8
3
  6
CONTINUOUS
 62
     0
  2
_OPEN
 10
5048.3353450000013
 20
3078.665489
 30
0.0
 41
60.0
 42
60.0
 43
60.0
 50
270.0
  0
TEXT
  8
3
  40
90
  5
7EA1
  62
0
  72
0
  71
0
 10
4793.34
 20
3248.52
 30
0.000000
  1
φ670
  0
POINT
  5
7E69
  8
DEFPOINTS
  6
CONTINUOUS
 62
     0
 10
4773.0414680000004
 20
3748.665489
 30
0.0
  0
POINT
  5
7E6A
  8
DEFPOINTS
  6
CONTINUOUS
 62
     0
 10
4776.5414680000004
 20
3078.665489
 30
0.0
  0
POINT
  5
7E6B
  8
DEFPOINTS
  6
CONTINUOUS
 62
     0
 10
5048.3353450000013
 20
3078.665489
 30
0.0
  0
ENDBLK
  5
7DE4
  8
0
  0
BLOCK
  8
0
  2
*D12
 70
     1
 10
0.0
 20
0.0
 30
0.0
  3
*D12
  1

  0
LINE
  5
7E6C
  8
3
  6
CONTINUOUS
 62
     0
 10
4055.5414679999999
 20
3958.6654889999991
 30
0.0
 11
4055.5414679999999
 21
4377.0372729999999
 31
0.0
  0
LINE
  5
7E6D
  8
3
  6
CONTINUOUS
 62
     0
 10
4475.5414680000004
 20
4347.0372729999999
 30
0.0
 11
4115.5414679999994
 21
4347.0372729999999
 31
0.0
  0
INSERT
  5
7E6E
  8
3
  6
CONTINUOUS
 62
     0
  2
_OPEN
 10
4535.5414680000004
 20
4347.0372729999999
 30
0.0
 41
60.0
 42
60.0
 43
60.0
  0
INSERT
  5
7E6F
  8
3
  6
CONTINUOUS
 62
     0
  2
_OPEN
 10
4055.5414679999999
 20
4347.0372729999999
 30
0.0
 41
60.0
 42
60.0
 43
60.0
 50
180.0
  0
TEXT
  8
3
  40
90
  5
7EA2
  62
0
  72
0
  71
0
 10
4115.54
 20
4337.74
 30
0.000000
  1
MAX
  0
TEXT
  8
3
  40
90
  5
7EA3
  62
0
  72
0
  71
0
 10
4115.54
 20
4220.74
 30
0.000000
  1
530
  0
POINT
  5
7E71
  8
DEFPOINTS
  6
CONTINUOUS
 62
     0
 10
4535.5414680000004
 20
4320.1365240000014
 30
0.0
  0
POINT
  5
7E72
  8
DEFPOINTS
  6
CONTINUOUS
 62
     0
 10
4055.5414679999999
 20
3943.665489
 30
0.0
  0
POINT
  5
7E73
  8
DEFPOINTS
  6
CONTINUOUS
 62
     0
 10
4055.5414679999999
 20
4347.0372729999999
 30
0.0
  0
ENDBLK
  5
7DAA
  8
0
  0
BLOCK
  8
0
  2
*D13
 70
     1
 10
0.0
 20
0.0
 30
0.0
  3
*D13
  1

  0
LINE
  5
7E74
  8
3
  6
CONTINUOUS
 62
     0
 10
1810.123276999999
 20
5746.5576330000004
 30
0.0
 11
1810.123276999999
 21
5969.0889280000001
 31
0.0
  0
LINE
  5
7E75
  8
3
  6
CONTINUOUS
 62
     0
 10
3220.1232770000001
 20
5746.5576330000004
 30
0.0
 11
3220.1232770000001
 21
5969.0889280000001
 31
0.0
  0
LINE
  5
7E76
  8
3
  6
CONTINUOUS
 62
     0
 10
1870.1232769999999
 20
5939.0889280000001
 30
0.0
 11
3160.1232770000001
 21
5939.0889280000001
 31
0.0
  0
INSERT
  5
7E77
  8
3
  6
CONTINUOUS
 62
     0
  2
_OPEN
 10
1810.123276999999
 20
5939.0889280000001
 30
0.0
 41
60.0
 42
60.0
 43
60.0
 50
180.0
  0
INSERT
  5
7E78
  8
3
  6
CONTINUOUS
 62
     0
  2
_OPEN
 10
3220.1232770000001
 20
5939.0889280000001
 30
0.0
 41
60.0
 42
60.0
 43
60.0
  0
TEXT
  8
3
  40
90
  5
7EA4
  62
0
  72
0
  71
0
 10
2258.08
 20
5854.79
 30
0.000000
  1
1410
  0
POINT
  5
7E7A
  8
DEFPOINTS
  6
CONTINUOUS
 62
     0
 10
1810.123276999999
 20
5731.5576330000004
 30
0.0
  0
POINT
  5
7E7B
  8
DEFPOINTS
  6
CONTINUOUS
 62
     0
 10
3220.1232770000001
 20
5731.5576330000004
 30
0.0
  0
POINT
  5
7E7C
  8
DEFPOINTS
  6
CONTINUOUS
 62
     0
 10
3220.1232770000001
 20
5939.0889280000001
 30
0.0
  0
ENDBLK
  5
7CF7
  8
0
  0
BLOCK
  8
0
  2
*D14
 70
     1
 10
0.0
 20
0.0
 30
0.0
  3
*D14
  1

  0
LINE
  5
7E7D
  8
3
  6
CONTINUOUS
 62
     0
 10
3235.1232770000001
 20
5731.5576330000004
 30
0.0
 11
3483.4722190000011
 21
5731.5576330000004
 31
0.0
  0
LINE
  5
7E7E
  8
3
  6
CONTINUOUS
 62
     0
 10
3235.1232770000001
 20
5031.5576330000004
 30
0.0
 11
3483.4722190000002
 21
5031.5576330000004
 31
0.0
  0
LINE
  5
7E7F
  8
3
  6
CONTINUOUS
 62
     0
 10
3453.4722190000011
 20
5671.5576329999994
 30
0.0
 11
3453.4722190000002
 21
5091.5576329999994
 31
0.0
  0
INSERT
  5
7E80
  8
3
  6
CONTINUOUS
 62
     0
  2
_OPEN
 10
3453.4722190000011
 20
5731.5576330000004
 30
0.0
 41
60.0
 42
60.0
 43
60.0
 50
90.0
  0
INSERT
  5
7E81
  8
3
  6
CONTINUOUS
 62
     0
  2
_OPEN
 10
3453.4722190000002
 20
5031.5576330000004
 30
0.0
 41
60.0
 42
60.0
 43
60.0
 50
270.0
  0
TEXT
  8
3
  40
90
  5
7EA5
  62
0
  72
0
  71
0
 10
3198.47
 20
5226.19
 30
0.000000
  1
700
  0
POINT
  5
7E83
  8
DEFPOINTS
  6
CONTINUOUS
 62
     0
 10
3220.1232770000001
 20
5731.5576330000004
 30
0.0
  0
POINT
  5
7E84
  8
DEFPOINTS
  6
CONTINUOUS
 62
     0
 10
3220.1232770000001
 20
5031.5576330000004
 30
0.0
  0
POINT
  5
7E85
  8
DEFPOINTS
  6
CONTINUOUS
 62
     0
 10
3453.4722190000002
 20
5031.5576330000004
 30
0.0
  0
ENDBLK
  5
7CB0
  8
0
  0
BLOCK
  8
0
  2
*D15
 70
     1
 10
0.0
 20
0.0
 30
0.0
  3
*D15
  1

  0
LINE
  5
7E86
  8
3
  6
CONTINUOUS
 62
     0
 10
2762.1232770000001
 20
3428.665489
 30
0.0
 11
2762.1232770000001
 21
4212.029434
 31
0.0
  0
LINE
  5
7E87
  8
3
  6
CONTINUOUS
 62
     0
 10
2300.1232770000001
 20
4182.029434
 30
0.0
 11
2702.1232770000001
 21
4182.029434
 31
0.0
  0
INSERT
  5
7E88
  8
3
  6
CONTINUOUS
 62
     0
  2
_OPEN
 10
2240.1232770000001
 20
4182.029434
 30
0.0
 41
60.0
 42
60.0
 43
60.0
 50
180.0
  0
INSERT
  5
7E89
  8
3
  6
CONTINUOUS
 62
     0
  2
_OPEN
 10
2762.1232770000001
 20
4182.029434
 30
0.0
 41
60.0
 42
60.0
 43
60.0
  0
TEXT
  8
3
  40
90
  5
7EA6
  62
0
  72
0
  71
0
 10
2321.12
 20
4097.73
 30
0.000000
  1
522
  0
POINT
  5
7E8B
  8
DEFPOINTS
  6
CONTINUOUS
 62
     0
 10
2240.1232770000001
 20
4121.2218489999996
 30
0.0
  0
POINT
  5
7E8C
  8
DEFPOINTS
  6
CONTINUOUS
 62
     0
 10
2762.1232770000001
 20
3413.665489
 30
0.0
  0
POINT
  5
7E8D
  8
DEFPOINTS
  6
CONTINUOUS
 62
     0
 10
2762.1232770000001
 20
4182.029434
 30
0.0
  0
ENDBLK
  5
7CE0
  8
0
  0
BLOCK
  8
0
  2
*D16
 70
     1
 10
0.0
 20
0.0
 30
0.0
  3
*D16
  1

  0
LINE
  5
7DC3
  8
0
  6
BYBLOCK
 62
     0
 10
4535.5414680000004
 20
4335.1365240000014
 30
0.0
 11
4535.5414680000004
 21
4377.0372729999999
 31
0.0
  0
LINE
  5
7DC4
  8
0
  6
BYBLOCK
 62
     0
 10
4776.5414680000004
 20
3763.665489
 30
0.0
 11
4776.5414680000004
 21
4377.0372729999999
 31
0.0
  0
LINE
  5
7DC5
  8
0
  6
BYBLOCK
 62
     0
 10
4595.5414680000004
 20
4347.0372729999999
 30
0.0
 11
4716.5414680000004
 21
4347.0372729999999
 31
0.0
  0
TEXT
  5
7DC6
  8
3
 62
     0
 10
4559.9547477582364
 20
4396.5315795018341
 30
0.0
 40
90.0
  1
241
  0
INSERT
  5
7DC7
  8
0
  6
BYBLOCK
 62
     0
  2
_OPEN
 10
4535.5414680000004
 20
4347.0372729999999
 30
0.0
 41
60.0
 42
60.0
 43
60.0
 50
180.0
  0
INSERT
  5
7DC8
  8
0
  6
BYBLOCK
 62
     0
  2
_OPEN
 10
4776.5414680000004
 20
4347.0372729999999
 30
0.0
 41
60.0
 42
60.0
 43
60.0
  0
POINT
  5
7DC9
  8
DEFPOINTS
  6
BYBLOCK
 62
     0
 10
4535.5414680000004
 20
4320.1365240000014
 30
0.0
  0
POINT
  5
7DCA
  8
DEFPOINTS
  6
BYBLOCK
 62
     0
 10
4776.5414680000004
 20
3748.665489
 30
0.0
  0
POINT
  5
7DCB
  8
DEFPOINTS
  6
BYBLOCK
 62
     0
 10
4776.5414680000004
 20
4347.0372729999999
 30
0.0
  0
ENDBLK
  5
7DCC
  8
0
  0
BLOCK
  8
0
  2
*D17
 70
     1
 10
0.0
 20
0.0
 30
0.0
  3
*D17
  1

  0
LINE
  5
7E8E
  8
3
 62
     0
 10
1755.1232769999999
 20
4088.665489
 30
0.0
 11
1755.1232769999999
 21
4393.6581678154234
 31
0.0
  0
LINE
  5
7E8F
  8
3
 62
     0
 10
3220.1232770000001
 20
2958.665489
 30
0.0
 11
3220.1232770000001
 21
4393.6581678154234
 31
0.0
  0
LINE
  5
7E90
  8
3
 62
     0
 10
1815.1232769999999
 20
4363.6581678154234
 30
0.0
 11
3160.1232770000001
 21
4363.6581678154234
 31
0.0
  0
INSERT
  5
7E91
  8
3
 62
     0
  2
_OPEN
 10
1755.1232769999999
 20
4363.6581678154234
 30
0.0
 41
60.0
 42
60.0
 43
60.0
 50
180.0
  0
INSERT
  5
7E92
  8
3
 62
     0
  2
_OPEN
 10
3220.1232770000001
 20
4363.6581678154234
 30
0.0
 41
60.0
 42
60.0
 43
60.0
  0
TEXT
  8
3
  40
90
  5
7EA7
  62
0
  72
0
  71
0
 10
2322.30
 20
4279.36
 30
0.000000
  1
1465
  0
POINT
  5
7E94
  8
DEFPOINTS
 62
     0
 10
1755.1232769999999
 20
4073.665489
 30
0.0
  0
POINT
  5
7E95
  8
DEFPOINTS
 62
     0
 10
3220.1232770000001
 20
2943.665489
 30
0.0
  0
POINT
  5
7E96
  8
DEFPOINTS
 62
     0
 10
3220.1232770000001
 20
4363.6581678154234
 30
0.0
  0
ENDBLK
  5
7DD8
  8
0
  0
ENDSEC
  0
SECTION
  2
ENTITIES
  0
LINE
  5
7AA7
  8
1
  6
CONTINUOUS
 10
3220.1232770000001
 20
5731.5576330000004
 30
0.0
 11
3220.1232770000001
 21
5031.5576330000004
 31
0.0
  0
LINE
  5
7AA8
  8
1
  6
CONTINUOUS
 10
2798.9721679999998
 20
5134.2895500000004
 30
0.0
 11
2798.9721679999998
 21
5619.2895500000013
 31
0.0
  0
LINE
  5
7AA9
  8
1
  6
CONTINUOUS
 10
3122.9721679999989
 20
5134.2895500000004
 30
0.0
 11
3122.9721679999989
 21
5619.2895500000013
 31
0.0
  0
LINE
  5
7AAA
  8
1
  6
CONTINUOUS
 10
1755.1232769999999
 20
5162.5576329999994
 30
0.0
 11
1755.1232769999999
 21
5722.5576330000004
 31
0.0
  0
LINE
  5
7AAB
  8
1
  6
CONTINUOUS
 10
2763.6141980000002
 20
5205.0576330000004
 30
0.0
 11
2763.6141980000002
 21
5680.0576330000004
 31
0.0
  0
LINE
  5
7AAC
  8
1
  6
CONTINUOUS
 10
1795.1232769999999
 20
5205.0576330000004
 30
0.0
 11
1795.1232769999999
 21
5680.0576330000004
 31
0.0
  0
LINE
  5
7ABD
  8
1
  6
CONTINUOUS
 10
1798.1232769999999
 20
3855.6654889999991
 30
0.0
 11
2682.1232770000001
 21
3855.6654889999991
 31
0.0
  0
LINE
  5
7ABE
  8
1
  6
CONTINUOUS
 10
1798.1232769999999
 20
2943.665489
 30
0.0
 11
3220.1232770000001
 21
2943.665489
 31
0.0
  0
LINE
  5
7ABF
  8
1
  6
CONTINUOUS
 10
3220.1232770000001
 20
2843.665489
 30
0.0
 11
1810.123276999999
 21
2843.665489
 31
0.0
  0
LINE
  5
7AC0
  8
1
  6
CONTINUOUS
 10
3170.1232770000001
 20
3243.665489
 30
0.0
 11
2340.1232770000001
 21
3943.665489
 31
0.0
  0
ARC
  5
7AC1
  8
1
  6
CONTINUOUS
 10
2199.1232770000001
 20
3454.6654889999991
 30
0.0
 40
564.49092099999984
 50
355.48601200000002
 51
85.834835999999996
  0
ARC
  5
7AC2
  8
1
  6
CONTINUOUS
 10
2275.1232770000001
 20
3448.665489
 30
0.0
 40
488.25444700000003
 50
262.64762100000002
 51
355.48601200000002
  0
LINE
  5
7AC3
  8
1
  6
CONTINUOUS
 10
1900.123276999999
 20
4962.5576329999994
 30
0.0
 11
3170.1232770000001
 21
4962.5576329999994
 31
0.0
  0
LINE
  5
7AC4
  8
1
  6
CONTINUOUS
 10
1900.123276999999
 20
5102.5576329999994
 30
0.0
 11
3170.1232770000001
 21
5102.5576329999994
 31
0.0
  0
LINE
  5
7AC5
  8
1
  6
CONTINUOUS
 10
2390.1232770000001
 20
5067.5576329999994
 30
0.0
 11
2090.1232770000001
 21
5067.5576329999994
 31
0.0
  0
LINE
  5
7AC6
  8
1
  6
CONTINUOUS
 10
2390.1232770000001
 20
4997.5576329999994
 30
0.0
 11
2090.1232770000001
 21
4997.5576329999994
 31
0.0
  0
LINE
  5
7AC7
  8
1
  6
CONTINUOUS
 10
1755.1232769999999
 20
5205.0576330000004
 30
0.0
 11
2763.6141980000002
 21
5205.0576330000004
 31
0.0
  0
LINE
  5
7AC8
  8
2
  6
CENTER
 10
1565.9432409999999
 20
3413.665489
 30
0.0
 11
3190.1190259999998
 21
3413.665489
 31
0.0
  0
CIRCLE
  5
7AC9
  8
1
  6
CONTINUOUS
 10
2240.1232770000001
 20
3413.665489
 30
0.0
 40
150.0
  0
LINE
  5
7ACA
  8
1
  6
CONTINUOUS
 10
2995.7295879999988
 20
3215.72048
 30
0.0
 11
2305.293439
 21
3548.7685970000002
 31
0.0
  0
LINE
  5
7ACB
  8
1
  6
CONTINUOUS
 10
2939.8403899999998
 20
3066.506899
 30
0.0
 11
2200.5011920000002
 21
3268.9931329999999
 31
0.0
  0
LINE
  5
7ACE
  8
1
  6
CONTINUOUS
 10
1755.1232769999999
 20
3343.665489
 30
0.0
 11
1755.1232769999999
 21
4073.665489
 31
0.0
  0
LINE
  5
7ACF
  8
1
  6
CONTINUOUS
 10
1798.1232769999999
 20
3855.6654889999991
 30
0.0
 11
1798.1232769999999
 21
2943.665489
 31
0.0
  0
LINE
  5
7AD0
  8
1
  6
CONTINUOUS
 10
1900.123276999999
 20
2943.665489
 30
0.0
 11
1900.123276999999
 21
3943.665489
 31
0.0
  0
LINE
  5
7AD1
  8
2
  6
CENTER
 10
2240.1232770000001
 20
5931.2648820000004
 30
0.0
 11
2240.1232770000001
 21
4834.024437
 31
0.0
  0
LINE
  5
7AD2
  8
1
  6
CONTINUOUS
 10
1785.1232769999999
 20
3383.665489
 30
0.0
 11
1785.1232769999999
 21
4032.3459010000001
 31
0.0
  0
ARC
  5
7AD3
  8
1
  6
CONTINUOUS
 10
2267.1232770000001
 20
3386.665489
 30
0.0
 40
425.74044800000001
 50
180.403741
 51
262.64762100000002
  0
LINE
  5
7AD4
  8
1
  6
CONTINUOUS
 10
1841.3933979999999
 20
3383.665489
 30
0.0
 11
1755.1232769999999
 21
3383.665489
 31
0.0
  0
LINE
  5
7AD5
  8
1
  6
CONTINUOUS
 10
1810.123276999999
 20
2843.665489
 30
0.0
 11
1810.123276999999
 21
2943.665489
 31
0.0
  0
LINE
  5
7AD6
  8
1
  6
CONTINUOUS
 10
1755.1232769999999
 20
4033.6654889999991
 30
0.0
 11
2240.1232770000001
 21
4017.665489
 31
0.0
  0
LINE
  5
7AD7
  8
1
  6
CONTINUOUS
 10
1900.123276999999
 20
3943.665489
 30
0.0
 11
2340.1232770000001
 21
3943.665489
 31
0.0
  0
LINE
  5
7AD8
  8
1
  6
CONTINUOUS
 10
2090.1232770000001
 20
5031.5576330000004
 30
0.0
 11
1810.123276999999
 21
5031.5576330000004
 31
0.0
  0
LINE
  5
7AD9
  8
1
  6
CONTINUOUS
 10
1810.123276999999
 20
5031.5576330000004
 30
0.0
 11
1810.123276999999
 21
5205.0576330000004
 31
0.0
  0
LINE
  5
7ADA
  8
1
  6
CONTINUOUS
 10
2090.1232770000001
 20
4997.5576329999994
 30
0.0
 11
2090.1232770000001
 21
5067.5576329999994
 31
0.0
  0
LINE
  5
7ADB
  8
1
  6
CONTINUOUS
 10
1900.123276999999
 20
4962.5576329999994
 30
0.0
 11
1900.123276999999
 21
5102.5576329999994
 31
0.0
  0
LINE
  5
7ADC
  8
1
  6
CONTINUOUS
 10
2261.1232770000001
 20
5067.5576329999994
 30
0.0
 11
2261.1232770000001
 21
5205.0576330000004
 31
0.0
  0
LINE
  5
7ADD
  8
1
  6
CONTINUOUS
 10
2219.1232770000001
 20
5067.5576329999994
 30
0.0
 11
2219.1232770000001
 21
5205.0576330000004
 31
0.0
  0
LINE
  5
7ADE
  8
1
  6
CONTINUOUS
 10
2682.1232770000001
 20
3855.6654889999991
 30
0.0
 11
2682.1232770000001
 21
2943.665489
 31
0.0
  0
ARC
  5
7ADF
  8
1
  6
CONTINUOUS
 10
2960.9721679999989
 20
3143.6654889999991
 30
0.0
 40
162.0
 50
324.972283
 51
215.02771699999991
  0
LINE
  5
7AE0
  8
1
  6
CONTINUOUS
 10
2806.9721679999989
 20
2983.665489
 30
0.0
 11
3114.9721679999989
 21
2983.665489
 31
0.0
  0
LINE
  5
7AE1
  8
1
  6
CONTINUOUS
 10
2806.9721679999989
 20
3001.665489
 30
0.0
 11
2828.3145030000001
 21
3050.6819219999988
 31
0.0
  0
LINE
  5
7AE2
  8
1
  6
CONTINUOUS
 10
2806.9721679999989
 20
2943.665489
 30
0.0
 11
2806.9721679999989
 21
3001.665489
 31
0.0
  0
LINE
  5
7AE3
  8
1
  6
CONTINUOUS
 10
3220.1232770000001
 20
2943.665489
 30
0.0
 11
3220.1232770000001
 21
2843.665489
 31
0.0
  0
CIRCLE
  5
7AE4
  8
1
  6
CONTINUOUS
 10
2960.9721679999989
 20
3143.6654889999991
 30
0.0
 40
80.0
  0
LINE
  5
7AE5
  8
1
  6
CONTINUOUS
 10
3114.9721679999989
 20
3001.665489
 30
0.0
 11
3093.6298339999998
 21
3050.6819219999988
 31
0.0
  0
LINE
  5
7AE6
  8
1
  6
CONTINUOUS
 10
3170.1232770000001
 20
2943.665489
 30
0.0
 11
3170.1232770000001
 21
3243.665489
 31
0.0
  0
LINE
  5
7AE7
  8
1
  6
CONTINUOUS
 10
3114.9721679999989
 20
2983.665489
 30
0.0
 11
3114.9721679999989
 21
3001.665489
 31
0.0
  0
LINE
  5
7AE8
  8
1
  6
CONTINUOUS
 10
3114.9721679999989
 20
2943.665489
 30
0.0
 11
3114.9721679999989
 21
3001.665489
 31
0.0
  0
LINE
  5
7AE9
  8
2
  6
CENTER
 10
2960.9721679999989
 20
3223.665489
 30
0.0
 11
2960.9721679999989
 21
3063.6654889999991
 31
0.0
  0
LINE
  5
7AEA
  8
2
  6
CENTER
 10
2880.9721679999989
 20
3143.6654889999991
 30
0.0
 11
3040.9721679999989
 21
3143.6654889999991
 31
0.0
  0
LINE
  5
7AEF
  8
1
  6
CONTINUOUS
 10
3122.9721679999989
 20
5134.2895500000004
 30
0.0
 11
2798.9721679999998
 21
5134.2895500000004
 31
0.0
  0
LINE
  5
7AF0
  8
1
  6
CONTINUOUS
 10
2880.9721679999989
 20
5031.5576330000004
 30
0.0
 11
2390.1232770000001
 21
5031.5576330000004
 31
0.0
  0
LINE
  5
7AF1
  8
1
  6
CONTINUOUS
 10
2798.9721679999998
 20
5456.0059979999996
 30
0.0
 11
2798.9721679999998
 21
5213.7589579999994
 31
0.0
  0
LINE
  5
7AF2
  8
1
  6
CONTINUOUS
 10
2390.1232770000001
 20
4997.5576329999994
 30
0.0
 11
2390.1232770000001
 21
5067.5576329999994
 31
0.0
  0
LINE
  5
7AF3
  8
1
  6
CONTINUOUS
 10
3220.1232770000001
 20
5031.5576330000004
 30
0.0
 11
3040.9721679999989
 21
5031.5576330000004
 31
0.0
  0
LINE
  5
7AF4
  8
1
  6
CONTINUOUS
 10
2939.9721679999998
 20
5067.5576329999994
 30
0.0
 11
2939.9721679999998
 21
5134.2895500000004
 31
0.0
  0
LINE
  5
7AF5
  8
1
  6
CONTINUOUS
 10
2981.9721679999998
 20
5067.5576329999994
 30
0.0
 11
2981.9721679999998
 21
5134.2895500000004
 31
0.0
  0
LINE
  5
7AF6
  8
1
  6
CONTINUOUS
 10
3040.9721679999989
 20
4997.5576329999994
 30
0.0
 11
3040.9721679999989
 21
5067.5576329999994
 31
0.0
  0
LINE
  5
7AF7
  8
1
  6
CONTINUOUS
 10
2880.9721679999989
 20
4997.5576329999994
 30
0.0
 11
2880.9721679999989
 21
5067.5576329999994
 31
0.0
  0
LINE
  5
7AF8
  8
1
  6
CONTINUOUS
 10
3040.9721679999989
 20
4997.5576329999994
 30
0.0
 11
2880.9721679999989
 21
4997.5576329999994
 31
0.0
  0
LINE
  5
7AF9
  8
1
  6
CONTINUOUS
 10
3040.9721679999989
 20
5067.5576329999994
 30
0.0
 11
2880.9721679999989
 21
5067.5576329999994
 31
0.0
  0
LINE
  5
7AFA
  8
1
  6
CONTINUOUS
 10
3170.1232770000001
 20
4962.5576329999994
 30
0.0
 11
3170.1232770000001
 21
5102.5576329999994
 31
0.0
  0
LINE
  5
7B27
  8
1
  6
CONTINUOUS
 10
4298.0414680000004
 20
4033.6654889999991
 30
0.0
 11
4773.0414680000004
 21
3383.665489
 31
0.0
  0
LINE
  5
7B28
  8
1
  6
CONTINUOUS
 10
4773.0414680000004
 20
4033.6654889999991
 30
0.0
 11
4298.0414680000004
 21
3383.665489
 31
0.0
  0
LINE
  5
7B29
  8
1
  6
CONTINUOUS
 10
4298.0414680000004
 20
3383.665489
 30
0.0
 11
4773.0414680000004
 21
3383.665489
 31
0.0
  0
LINE
  5
7B2A
  8
1
  6
CONTINUOUS
 10
4298.0414680000004
 20
4033.6654889999991
 30
0.0
 11
4773.0414680000004
 21
4033.6654889999991
 31
0.0
  0
LINE
  5
7B2B
  8
1
  6
CONTINUOUS
 10
4124.5414680000004
 20
2943.665489
 30
0.0
 11
4824.5414680000004
 21
2943.665489
 31
0.0
  0
LINE
  5
7B2C
  8
1
  6
CONTINUOUS
 10
4124.5414680000004
 20
2843.665489
 30
0.0
 11
4824.5414680000004
 21
2843.665489
 31
0.0
  0
LINE
  5
7B2D
  8
1
  6
CONTINUOUS
 10
4160.5414680000004
 20
3563.665489
 30
0.0
 11
4160.5414680000004
 21
3263.665489
 31
0.0
  0
LINE
  5
7B2E
  8
1
  6
CONTINUOUS
 10
4090.5414679999999
 20
3563.665489
 30
0.0
 11
4090.5414679999999
 21
3263.665489
 31
0.0
  0
LINE
  5
7B2F
  8
1
  6
CONTINUOUS
 10
4195.5414680000004
 20
3943.665489
 30
0.0
 11
4195.5414680000004
 21
2943.665489
 31
0.0
  0
LINE
  5
7B30
  8
1
  6
CONTINUOUS
 10
4055.5414679999999
 20
3943.665489
 30
0.0
 11
4055.5414679999999
 21
2943.665489
 31
0.0
  0
LINE
  5
7B31
  8
1
  6
CONTINUOUS
 10
4298.0414680000004
 20
4033.6654889999991
 30
0.0
 11
4298.0414680000004
 21
2943.665489
 31
0.0
  0
LINE
  5
7B32
  8
1
  6
CONTINUOUS
 10
4090.5414679999999
 20
3223.665489
 30
0.0
 11
4160.5414680000004
 21
3223.665489
 31
0.0
  0
LINE
  5
7B33
  8
1
  6
CONTINUOUS
 10
4090.5414679999999
 20
3063.6654889999991
 30
0.0
 11
4160.5414680000004
 21
3063.6654889999991
 31
0.0
  0
LINE
  5
7B34
  8
1
  6
CONTINUOUS
 10
4090.5414679999999
 20
3263.665489
 30
0.0
 11
4160.5414680000004
 21
3263.665489
 31
0.0
  0
LINE
  5
7B35
  8
1
  6
CONTINUOUS
 10
4090.5414679999999
 20
3223.665489
 30
0.0
 11
4090.5414679999999
 21
3063.6654889999991
 31
0.0
  0
LINE
  5
7B36
  8
1
  6
CONTINUOUS
 10
4055.5414679999999
 20
2943.665489
 30
0.0
 11
4124.5414680000004
 21
2943.665489
 31
0.0
  0
LINE
  5
7B37
  8
1
  6
CONTINUOUS
 10
4124.5414680000004
 20
2943.665489
 30
0.0
 11
4124.5414680000004
 21
2843.665489
 31
0.0
  0
LINE
  5
7B38
  8
1
  6
CONTINUOUS
 10
4160.5414680000004
 20
3223.665489
 30
0.0
 11
4160.5414680000004
 21
3063.6654889999991
 31
0.0
  0
LINE
  5
7B39
  8
1
  6
CONTINUOUS
 10
4160.5414680000004
 20
3164.665489
 30
0.0
 11
4298.0414680000004
 21
3164.665489
 31
0.0
  0
LINE
  5
7B3A
  8
1
  6
CONTINUOUS
 10
4160.5414680000004
 20
3122.665489
 30
0.0
 11
4298.0414680000004
 21
3122.665489
 31
0.0
  0
LINE
  5
7B3B
  8
1
  6
CONTINUOUS
 10
4160.5414680000004
 20
3392.665489
 30
0.0
 11
4298.0414680000004
 21
3392.665489
 31
0.0
  0
LINE
  5
7B3C
  8
1
  6
CONTINUOUS
 10
4090.5414679999999
 20
3563.665489
 30
0.0
 11
4160.5414680000004
 21
3563.665489
 31
0.0
  0
LINE
  5
7B3D
  8
1
  6
CONTINUOUS
 10
4195.5414680000004
 20
3943.665489
 30
0.0
 11
4055.5414679999999
 21
3943.665489
 31
0.0
  0
LINE
  5
7B3E
  8
1
  6
CONTINUOUS
 10
4160.5414680000004
 20
3434.665489
 30
0.0
 11
4298.0414680000004
 21
3434.665489
 31
0.0
  0
LINE
  5
7B3F
  8
1
  6
CONTINUOUS
 10
4773.0414680000004
 20
4033.6654889999991
 30
0.0
 11
4773.0414680000004
 21
2943.665489
 31
0.0
  0
LINE
  5
7B40
  8
1
  6
CONTINUOUS
 10
4824.5414680000004
 20
2943.665489
 30
0.0
 11
4824.5414680000004
 21
2843.665489
 31
0.0
  0
LINE
  5
7B43
  8
1
  6
CONTINUOUS
 10
1755.1232769999999
 20
5680.0576330000004
 30
0.0
 11
2763.6141980000002
 21
5680.0576330000004
 31
0.0
  0
LINE
  5
7B44
  8
1
  6
CONTINUOUS
 10
1810.123276999999
 20
5731.5576330000004
 30
0.0
 11
3220.1232770000001
 21
5731.5576330000004
 31
0.0
  0
LINE
  5
7B45
  8
1
  6
CONTINUOUS
 10
1810.123276999999
 20
5680.0576330000004
 30
0.0
 11
1810.123276999999
 21
5731.5576330000004
 31
0.0
  0
LINE
  5
7B46
  8
1
  6
CONTINUOUS
 10
3122.9721679999989
 20
5619.2895500000013
 30
0.0
 11
2798.9721679999998
 21
5619.2895500000013
 31
0.0
  0
LINE
  5
7B49
  8
2
  6
CENTER
 10
4535.5414680000004
 20
4123.8329909999993
 30
0.0
 11
4535.5414680000004
 21
2724.710646
 31
0.0
  0
LINE
  5
7B4A
  8
2
  6
CENTER
 10
3302.3547859999999
 20
5442.5576329999994
 30
0.0
 11
1632.139498
 21
5442.5576329999994
 31
0.0
  0
LINE
  5
7B4B
  8
2
  6
CENTER
 10
2240.1232770000001
 20
4121.2218489999996
 30
0.0
 11
2240.1232770000001
 21
2696.3328160000001
 31
0.0
  0
LINE
  5
7B4C
  8
2
  6
CENTER
 10
3976.3890729999989
 20
3413.665489
 30
0.0
 11
4850.0224470000003
 21
3413.665489
 31
0.0
  0
DIMENSION
  5
7B65
  8
3
  6
CONTINUOUS
  2
*D1
 10
1640.6872530000001
 20
3383.665489
 30
0.0
 11
1640.6872529999989
 21
3682.470182
 31
0.0
 70
   128
 13
1755.1232769999999
 23
4033.6654889999991
 33
0.0
 14
1755.1232769999999
 24
3383.665489
 34
0.0
 50
90.0
1001
ACAD
1000
DSTYLE
1002
{
1070
   287
1070
     3
1070
    40
1040
30.0
1070
   143
1040
0.039
1070
   172
1070
     1
1070
   271
1070
     0
1070
   279
1070
     0
1070
   288
1070
     1
1002
}
  0
DIMENSION
  5
7B72
  8
3
  6
CONTINUOUS
  2
*D2
 10
1447.344243
 20
3413.665489
 30
0.0
 11
1447.344243
 21
3675.809397
 31
0.0
 70
   128
 13
1755.1232769999999
 23
4033.6654889999991
 33
0.0
 14
1565.9432409999999
 24
3413.665489
 34
0.0
 50
90.0
1001
ACAD
1000
DSTYLE
1002
{
1070
   287
1070
     3
1070
    40
1040
30.0
1070
   143
1040
0.039
1070
   172
1070
     1
1070
   271
1070
     0
1070
   279
1070
     0
1070
   288
1070
     1
1002
}
  0
DIMENSION
  5
7B7E
  8
3
  6
CONTINUOUS
  2
*D3
 10
1447.344243
 20
2843.665489
 30
0.0
 11
1372.3442429999991
 21
3128.665489
 31
0.0
 70
     0
 13
1565.9432409999999
 23
3413.665489
 33
0.0
 14
1810.123276999999
 24
2843.665489
 34
0.0
 50
90.0
1001
ACAD
1000
DSTYLE
1002
{
1070
   287
1070
     4
1070
    40
1040
30.0
1070
    75
1070
     1
1070
   143
1040
0.039
1070
   172
1070
     1
1070
   271
1070
     0
1070
   279
1070
     1
1070
   288
1070
     1
1002
}
  0
DIMENSION
  5
7B8B
  8
3
  6
CONTINUOUS
  2
*D4
 10
1234.000198
 20
2843.665489
 30
0.0
 11
1234.000198
 21
3376.0738419999998
 31
0.0
 70
   128
 13
1755.1232769999999
 23
4073.665489
 33
0.0
 14
1810.123276999999
 24
2843.665489
 34
0.0
 50
90.0
1001
ACAD
1000
DSTYLE
1002
{
1070
   287
1070
     3
1070
    40
1040
30.0
1070
   143
1040
0.039
1070
   172
1070
     1
1070
   271
1070
     0
1070
   279
1070
     0
1070
   288
1070
     1
1002
}
  0
DIMENSION
  5
7B98
  8
3
  6
CONTINUOUS
  2
*D5
 10
2240.1232770000001
 20
4182.029434
 30
0.0
 11
1994.0383159999999
 21
4182.029434
 31
0.0
 70
   128
 13
1755.1232769999999
 23
4073.665489
 33
0.0
 14
2240.1232770000001
 24
4121.2218489999996
 34
0.0
1001
ACAD
1000
DSTYLE
1002
{
1070
   287
1070
     3
1070
    40
1040
30.0
1070
   143
1040
0.039
1070
   172
1070
     1
1070
   271
1070
     0
1070
   279
1070
     0
1070
   288
1070
     1
1002
}
  0
DIMENSION
  5
7BB1
  8
3
  6
CONTINUOUS
  2
*D6
 10
2240.1232770000001
 20
2643.3869479999989
 30
0.0
 11
2034.408991
 21
2643.3869479999989
 31
0.0
 70
   128
 13
1810.123276999999
 23
2843.665489
 33
0.0
 14
2240.1232770000001
 24
2696.3328160000001
 34
0.0
1001
ACAD
1000
DSTYLE
1002
{
1070
   287
1070
     3
1070
    40
1040
30.0
1070
   143
1040
0.039
1070
   172
1070
     1
1070
   271
1070
     0
1070
   279
1070
     0
1070
   288
1070
     1
1002
}
  0
DIMENSION
  5
7BBD
  8
3
  6
CONTINUOUS
  2
*D7
 10
3220.1232770000001
 20
2643.3869479999989
 30
0.0
 11
2730.1232770000001
 21
2718.3869479999998
 31
0.0
 70
     0
 13
2240.1232770000001
 23
2696.3328160000001
 33
0.0
 14
3220.1232770000001
 24
2843.665489
 34
0.0
1001
ACAD
1000
DSTYLE
1002
{
1070
   287
1070
     4
1070
    40
1040
30.0
1070
    75
1070
     1
1070
   143
1040
0.039
1070
   172
1070
     1
1070
   271
1070
     0
1070
   279
1070
     1
1070
   288
1070
     1
1002
}
  0
DIMENSION
  5
7BCA
  8
3
  6
CONTINUOUS
  2
*D8
 10
4298.0414680000004
 20
4171.2269840000008
 30
0.0
 11
4534.1657070000001
 21
4171.2269840000008
 31
0.0
 70
   128
 13
4773.0414680000004
 23
4033.6654889999991
 33
0.0
 14
4298.0414680000004
 24
4033.6654889999991
 34
0.0
1001
ACAD
1000
DSTYLE
1002
{
1070
   287
1070
     3
1070
    40
1040
30.0
1070
   143
1040
0.039
1070
   172
1070
     1
1070
   271
1070
     0
1070
   279
1070
     0
1070
   288
1070
     1
1002
}
  0
DIMENSION
  5
7C49
  8
3
  6
CONTINUOUS
  2
*D9
 10
4535.5414680000004
 20
2602.685575
 30
0.0
 11
4302.3986109999996
 21
2602.685575
 31
0.0
 70
   128
 13
4124.5414680000004
 23
2843.665489
 33
0.0
 14
4535.5414680000004
 24
2724.710646
 34
0.0
1001
ACAD
1000
DSTYLE
1002
{
1070
   287
1070
     3
1070
    40
1040
30.0
1070
   143
1040
0.039
1070
   172
1070
     1
1070
   271
1070
     0
1070
   279
1070
     0
1070
   288
1070
     1
1002
}
  0
DIMENSION
  5
7C57
  8
3
  6
CONTINUOUS
  2
*D10
 10
4824.5414680000004
 20
2602.685575
 30
0.0
 11
4677.1232799999989
 21
2601.1970350000001
 31
0.0
 70
   128
 13
4535.5414680000004
 23
2724.710646
 33
0.0
 14
4824.5414680000004
 24
2843.665489
 34
0.0
1001
ACAD
1000
DSTYLE
1002
{
1070
   287
1070
     4
1070
    40
1040
30.0
1070
    75
1070
     1
1070
   143
1040
0.039
1070
   172
1070
     1
1070
   271
1070
     0
1070
   279
1070
     1
1070
   288
1070
     1
1002
}
  0
LINE
  5
7C5D
  8
1
  6
CONTINUOUS
 10
4776.5414680000004
 20
3748.665489
 30
0.0
 11
4776.5414680000004
 21
3078.665489
 31
0.0
  0
DIMENSION
  5
7C7A
  8
3
  6
CONTINUOUS
  2
*D11
 10
5048.3353450000013
 20
3078.665489
 30
0.0
 11
5048.3353450000004
 21
3407.8152369999989
 31
0.0
 70
   128
 13
4773.0414680000004
 23
3748.665489
 33
0.0
 14
4776.5414680000004
 24
3078.665489
 34
0.0
 50
90.0
1001
ACAD
1000
DSTYLE
1002
{
1070
   287
1070
     3
1070
     3
1000
φ<>
1070
    40
1040
30.0
1070
   143
1040
0.039
1070
   172
1070
     1
1070
   271
1070
     0
1070
   279
1070
     0
1070
   288
1070
     1
1002
}
  0
DIMENSION
  5
7C97
  8
3
  6
CONTINUOUS
  2
*D12
 10
4055.5414679999999
 20
4347.0372729999999
 30
0.0
 11
4295.5414679999994
 21
4497.0372729999999
 31
0.0
 70
     0
  1
MAX\P530
 13
4535.5414680000004
 23
4320.1365240000014
 33
0.0
 14
4055.5414679999999
 24
3943.665489
 34
0.0
1001
ACAD
1000
DSTYLE
1002
{
1070
   287
1070
     4
1070
    40
1040
30.0
1070
    75
1070
     1
1070
   143
1040
0.039
1070
   172
1070
     1
1070
   271
1070
     0
1070
   279
1070
     1
1070
   288
1070
     1
1002
}
  0
DIMENSION
  5
7CA4
  8
3
  6
CONTINUOUS
  2
*D13
 10
3220.1232770000001
 20
5939.0889280000001
 30
0.0
 11
2438.078845
 21
5939.0889280000001
 31
0.0
 70
   128
 13
1810.123276999999
 23
5731.5576330000004
 33
0.0
 14
3220.1232770000001
 24
5731.5576330000004
 34
0.0
1001
ACAD
1000
DSTYLE
1002
{
1070
   287
1070
     3
1070
    40
1040
30.0
1070
   143
1040
0.039
1070
   172
1070
     1
1070
   271
1070
     0
1070
   279
1070
     0
1070
   288
1070
     1
1002
}
  0
DIMENSION
  5
7CB1
  8
3
  6
CONTINUOUS
  2
*D14
 10
3453.4722190000002
 20
5031.5576330000004
 30
0.0
 11
3453.4722190000002
 21
5385.4881810000006
 31
0.0
 70
   128
 13
3220.1232770000001
 23
5731.5576330000004
 33
0.0
 14
3220.1232770000001
 24
5031.5576330000004
 34
0.0
 50
90.0
1001
ACAD
1000
DSTYLE
1002
{
1070
   287
1070
     3
1070
    40
1040
30.0
1070
   143
1040
0.039
1070
   172
1070
     1
1070
   271
1070
     0
1070
   279
1070
     0
1070
   288
1070
     1
1002
}
  0
LINE
  5
7CB2
  8
4
  6
CONTINUOUS
 10
5550.0
 20
1500.0
 30
0.0
 11
5550.0
 21
900.0
 31
0.0
  0
LINE
  5
7CB3
  8
4
  6
CONTINUOUS
 10
3450.0
 20
1500.0
 30
0.0
 11
3450.0
 21
900.0
 31
0.0
  0
LINE
  5
7CB4
  8
4
  6
CONTINUOUS
 10
1950.0
 20
1500.0
 30
0.0
 11
1950.0
 21
900.0
 31
0.0
  0
LINE
  5
7CB7
  8
4
  6
CONTINUOUS
 10
1950.0
 20
900.0
 30
0.0
 11
5550.0
 21
900.0
 31
0.0
  0
LINE
  5
7CB8
  8
4
  6
CONTINUOUS
 10
1950.0
 20
1200.0
 30
0.0
 11
5550.0
 21
1200.0
 31
0.0
  0
TEXT
  5
7CB9
  8
4
  6
CONTINUOUS
 10
2065.5062399999988
 20
1294.6290899999999
 30
0.0
 40
150.0
  1
機器名称
  0
TEXT
  5
7CBA
  8
4
  6
CONTINUOUS
 10
2058.7743300000002
 20
964.9354800000001
 30
0.0
 40
150.0
  1
機器型番
  0
TEXT
  5
7CBB
  8
4
  6
CONTINUOUS
 10
3533.0362500000001
 20
1267.71531
 30
0.0
 40
150.0
  1
ミツヤ多翼送風機
  0
TEXT
  5
7CBC
  8
4
  6
CONTINUOUS
 10
3559.9634999999998
 20
951.47874000000013
 30
0.0
 40
150.0
  1
MF#4-4
  0
TEXT
  5
7CBE
  8
4
  6
CONTINUOUS
 10
2592.9502179999999
 20
7150.2865199999997
 30
0.0
 40
162.0
  1
床置ベット
  0
TEXT
  5
7CBF
  8
4
  6
CONTINUOUS
 10
948.50276999999994
 20
7601.6429400000006
 30
0.0
 40
216.0
  1
ベルト駆動式片吸込両持多翼ファン
  0
LINE
  5
7CC0
  8
4
  6
CONTINUOUS
 10
750.0
 20
7408.2262499999997
 30
0.0
 11
5550.0
 21
7408.2262499999997
 31
0.0
  0
LINE
  5
7CC1
  8
4
  6
CONTINUOUS
 10
750.0
 20
8008.2262499999988
 30
0.0
 11
5550.0
 21
8008.2262499999988
 31
0.0
  0
LINE
  5
7CC2
  8
4
  6
CONTINUOUS
 10
1950.0
 20
1500.0
 30
0.0
 11
5550.0
 21
1500.0
 31
0.0
  0
LINE
  5
7CC3
  8
4
  6
CONTINUOUS
 10
750.0
 20
8008.2262499999988
 30
0.0
 11
750.0
 21
7408.2262499999997
 31
0.0
  0
TEXT
  5
7CC4
  8
4
  6
CONTINUOUS
 10
1072.911286
 20
7146.9584400000003
 30
0.0
 40
162.0
  1
左回転左横向
  0
TEXT
  5
7CC5
  8
4
  6
CONTINUOUS
 10
4406.9086799999986
 20
8118.1832400000003
 30
0.0
 40
168.0
  1
No.
  0
TEXT
  5
7CC6
  8
4
  6
CONTINUOUS
 10
3933.8881799999999
 20
7150.2865199999997
 30
0.0
 40
162.0
  1
縮尺：1/30
  0
LINE
  5
7CC7
  8
4
  6
CONTINUOUS
 10
5550.0
 20
8008.2262499999988
 30
0.0
 11
5550.0
 21
7408.2262499999997
 31
0.0
  0
LINE
  5
7CC9
  8
4
  6
CONTINUOUS
 10
4321.8522599999997
 20
8043.7907400000004
 30
0.0
 11
4321.8522599999997
 21
8359.9567800000004
 31
0.0
  0
LINE
  5
7CCA
  8
4
  6
CONTINUOUS
 10
4321.8522599999997
 20
8359.9567800000004
 30
0.0
 11
5550.0
 21
8359.9567800000004
 31
0.0
  0
LINE
  5
7CCB
  8
4
  6
CONTINUOUS
 10
5550.0
 20
8359.9567800000004
 30
0.0
 11
5550.0
 21
8043.7907400000004
 31
0.0
  0
LINE
  5
7CCC
  8
4
  6
CONTINUOUS
 10
5550.0
 20
8043.7907400000004
 30
0.0
 11
4321.8522599999997
 21
8043.7907400000004
 31
0.0
  0
DIMENSION
  5
7CE1
  8
3
  6
CONTINUOUS
  2
*D15
 10
2762.1232770000001
 20
4182.029434
 30
0.0
 11
2501.1232770000001
 21
4257.029434
 31
0.0
 70
     0
 13
2240.1232770000001
 23
4121.2218489999996
 33
0.0
 14
2762.1232770000001
 24
3413.665489
 34
0.0
1001
ACAD
1000
DSTYLE
1002
{
1070
   287
1070
     4
1070
    40
1040
30.0
1070
    75
1070
     1
1070
   143
1040
0.039
1070
   172
1070
     1
1070
   271
1070
     0
1070
   279
1070
     1
1070
   288
1070
     1
1002
}
  0
DIMENSION
  5
7D80
  8
3
  6
CONTINUOUS
  2
*D16
 10
4776.5414680000004
 20
4347.0372729999999
 30
0.0
 11
4656.3833191868071
 21
4441.5315795018341
 31
0.0
 70
   128
 13
4535.5414680000004
 23
4320.1365240000014
 33
0.0
 14
4776.5414680000004
 24
3748.665489
 34
0.0
1001
ACAD
1000
DSTYLE
1002
{
1070
   288
1070
     1
1070
   172
1070
     1
1070
    40
1040
30.0
1070
   271
1070
     0
1070
   143
1040
0.039
1002
}
  0
DIMENSION
  5
7DD9
  8
3
  2
*D17
 10
3220.1232770000001
 20
4363.6581678154234
 30
0.0
 11
2502.3020119842181
 21
4363.6581678154234
 31
0.0
 70
   128
 13
1755.1232769999999
 23
4073.665489
 33
0.0
 14
3220.1232770000001
 24
2943.665489
 34
0.0
1001
ACAD
1000
DSTYLE
1002
{
1070
   287
1070
     3
1070
    40
1040
30.0
1070
   143
1040
0.039
1070
   172
1070
     1
1070
   271
1070
     0
1070
   279
1070
     0
1070
   288
1070
     1
1002
}
  0
ENDSEC
  0
EOF
