  0
SECTION
  2
HEADER
  9
$ACADVER
  1
AC1009
  9
$INSBASE
 10
0.0
 20
0.0
 30
0.0
  9
$EXTMIN
 10
750.0
 20
900.0
 30
0.0
  9
$EXTMAX
 10
5550.0
 20
8359.9567849999985
 30
0.0
  9
$LIMMIN
 10
0.0
 20
0.0
  9
$LIMMAX
 10
297.0
 20
210.0
  9
$ORTHOMODE
 70
     0
  9
$REGENMODE
 70
     1
  9
$FILLMODE
 70
     0
  9
$QTEXTMODE
 70
     0
  9
$MIRRTEXT
 70
     1
  9
$DRAGMODE
 70
     2
  9
$LTSCALE
 40
100.0
  9
$OSMODE
 70
    37
  9
$ATTMODE
 70
     1
  9
$TEXTSIZE
 40
180.0
  9
$TRACEWID
 40
0.05
  9
$TEXTSTYLE
  7
STANDARD
  9
$CLAYER
  8
3
  9
$CELTYPE
  6
BYLAYER
  9
$CECOLOR
 62
   256
  9
$DIMSCALE
 40
30.0
  9
$DIMASZ
 40
2.0
  9
$DIMEXO
 40
0.5
  9
$DIMDLI
 40
10.0
  9
$DIMRND
 40
0.0
  9
$DIMDLE
 40
0.0
  9
$DIMEXE
 40
1.0
  9
$DIMTP
 40
1.0
  9
$DIMTM
 40
1.0
  9
$DIMTXT
 40
3.0
  9
$DIMCEN
 40
0.0
  9
$DIMTSZ
 40
0.0
  9
$DIMTOL
 70
     0
  9
$DIMLIM
 70
     0
  9
$DIMTIH
 70
     0
  9
$DIMTOH
 70
     0
  9
$DIMSE1
 70
     0
  9
$DIMSE2
 70
     0
  9
$DIMTAD
 70
     1
  9
$DIMZIN
 70
     8
  9
$DIMBLK
  1

  9
$DIMASO
 70
     1
  9
$DIMSHO
 70
     1
  9
$DIMPOST
  1

  9
$DIMAPOST
  1

  9
$DIMALT
 70
     0
  9
$DIMALTD
 70
     2
  9
$DIMALTF
 40
0.039
  9
$DIMLFAC
 40
1.0
  9
$DIMTOFL
 70
     1
  9
$DIMTVP
 40
0.0
  9
$DIMTIX
 70
     0
  9
$DIMSOXD
 70
     0
  9
$DIMSAH
 70
     1
  9
$DIMBLK1
  1
OPEN
  9
$DIMBLK2
  1
OPEN
  9
$DIMSTYLE
  2
IGA
  9
$DIMCLRD
 70
     0
  9
$DIMCLRE
 70
     0
  9
$DIMCLRT
 70
     0
  9
$DIMTFAC
 40
10.0
  9
$DIMGAP
 40
1.0
  9
$LUNITS
 70
     2
  9
$LUPREC
 70
     3
  9
$SKETCHINC
 40
0.1
  9
$FILLETRAD
 40
50.0
  9
$AUNITS
 70
     0
  9
$AUPREC
 70
     0
  9
$MENU
  1
acad
  9
$ELEVATION
 40
0.0
  9
$PELEVATION
 40
0.0
  9
$THICKNESS
 40
0.0
  9
$LIMCHECK
 70
     0
  9
$BLIPMODE
 70
     0
  9
$CHAMFERA
 40
0.5
  9
$CHAMFERB
 40
0.5
  9
$SKPOLY
 70
     0
  9
$TDCREATE
 40
2450742.5877803238
  9
$TDUPDATE
 40
2454953.7712431252
  9
$TDINDWG
 40
0.0094535995
  9
$TDUSRTIMER
 40
0.0094535995
  9
$USRTIMER
 70
     1
  9
$ANGBASE
 50
0.0
  9
$ANGDIR
 70
     0
  9
$PDMODE
 70
     0
  9
$PDSIZE
 40
0.0
  9
$PLINEWID
 40
0.0
  9
$COORDS
 70
     1
  9
$SPLFRAME
 70
     0
  9
$SPLINETYPE
 70
     6
  9
$SPLINESEGS
 70
     8
  9
$ATTDIA
 70
     0
  9
$ATTREQ
 70
     1
  9
$HANDLING
 70
 10241
  9
$HANDSEED
  5
7F97
  9
$SURFTAB1
 70
     6
  9
$SURFTAB2
 70
     6
  9
$SURFTYPE
 70
     6
  9
$SURFU
 70
     6
  9
$SURFV
 70
     6
  9
$UCSNAME
  2

  9
$UCSORG
 10
0.0
 20
0.0
 30
0.0
  9
$UCSXDIR
 10
1.0
 20
0.0
 30
0.0
  9
$UCSYDIR
 10
0.0
 20
1.0
 30
0.0
  9
$PUCSNAME
  2

  9
$PUCSORG
 10
0.0
 20
0.0
 30
0.0
  9
$PUCSXDIR
 10
1.0
 20
0.0
 30
0.0
  9
$PUCSYDIR
 10
0.0
 20
1.0
 30
0.0
  9
$USERI1
 70
     0
  9
$USERI2
 70
     0
  9
$USERI3
 70
     0
  9
$USERI4
 70
     0
  9
$USERI5
 70
     0
  9
$USERR1
 40
0.0
  9
$USERR2
 40
0.0
  9
$USERR3
 40
0.0
  9
$USERR4
 40
0.0
  9
$USERR5
 40
0.0
  9
$WORLDVIEW
 70
     1
  9
$SHADEDGE
 70
     3
  9
$SHADEDIF
 70
    70
  9
$TILEMODE
 70
     1
  9
$MAXACTVP
 70
    16
  9
$PLIMCHECK
 70
     0
  9
$PEXTMIN
 10
1.0000000000000000E+020
 20
1.0000000000000000E+020
 30
1.0000000000000000E+020
  9
$PEXTMAX
 10
-1.0000000000000000E+020
 20
-1.0000000000000000E+020
 30
-1.0000000000000000E+020
  9
$PLIMMIN
 10
0.0
 20
0.0
  9
$PLIMMAX
 10
12.0
 20
9.0
  9
$UNITMODE
 70
     0
  9
$VISRETAIN
 70
     0
  9
$PLINEGEN
 70
     0
  9
$PSLTSCALE
 70
     1
  0
ENDSEC
  0
SECTION
  2
TABLES
  0
TABLE
  2
VPORT
 70
     2
  0
VPORT
  2
*ACTIVE
 70
     0
 10
0.0
 20
0.0
 11
1.0
 21
1.0
 12
9438.4567678319436
 22
4630.0975558305709
 13
0.0
 23
0.0
 14
10.0
 24
10.0
 15
10.0
 25
10.0
 16
0.0
 26
0.0
 36
1.0
 17
0.0
 27
0.0
 37
0.0
 40
7517.4747125171307
 41
3.1666666666666661
 42
50.0
 43
0.0
 44
0.0
 50
0.0
 51
0.0
 71
     0
 72
   100
 73
     1
 74
     0
 75
     0
 76
     0
 77
     0
 78
     0
  0
ENDTAB
  0
TABLE
  2
LTYPE
 70
     2
  0
LTYPE
  2
CONTINUOUS
 70
     0
  3
Solid line
 72
    65
 73
     0
 40
0.0
  0
LTYPE
  2
CENTER
 70
     0
  3
____ _ ____ _ ____ _ ____ _ ____ _ ____ _ ____ 
 72
    65
 73
     4
 40
2.0
 49
1.25
 49
-0.25
 49
0.25
 49
-0.25
  0
ENDTAB
  0
TABLE
  2
LAYER
 70
     6
  0
LAYER
  2
0
 70
     0
 62
     7
  6
CONTINUOUS
  0
LAYER
  2
3
 70
     0
 62
     2
  6
CONTINUOUS
  0
LAYER
  2
2
 70
     0
 62
     3
  6
CENTER
  0
LAYER
  2
1
 70
     0
 62
     4
  6
CONTINUOUS
  0
LAYER
  2
4
 70
     0
 62
     7
  6
CONTINUOUS
  0
LAYER
  2
DEFPOINTS
 70
     0
 62
     7
  6
CONTINUOUS
  0
ENDTAB
  0
TABLE
  2
STYLE
 70
     1
  0
STYLE
  2
STANDARD
 70
     0
 40
0.0
 41
1.0
 50
0.0
 71
     0
 42
180.0
  3
simplex.shx
  4
extfont.shx
  0
ENDTAB
  0
TABLE
  2
VIEW
 70
     0
  0
ENDTAB
  0
TABLE
  2
UCS
 70
     0
  0
ENDTAB
  0
TABLE
  2
APPID
 70
     1
  0
APPID
  2
ACAD
 70
     0
  0
ENDTAB
  0
TABLE
  2
DIMSTYLE
 70
     1
  0
DIMSTYLE
  2
IGA
 70
     0
  3

  4

  5

  6
OPEN
  7
OPEN
 40
2.0
 41
2.0
 42
0.5
 43
10.0
 44
1.0
 45
0.0
 46
0.0
 47
1.0
 48
1.0
140
3.0
141
0.0
142
0.0
143
0.03937
144
1.0
145
0.0
146
10.0
147
1.0
 71
     0
 72
     0
 73
     0
 74
     0
 75
     0
 76
     0
 77
     1
 78
     8
170
     0
171
     2
172
     0
173
     1
174
     0
175
     0
176
     0
177
     0
178
     0
  0
ENDTAB
  0
ENDSEC
  0
SECTION
  2
BLOCKS
  0
BLOCK
  8
0
  2
$MODEL_SPACE
 70
     0
 10
0.0
 20
0.0
 30
0.0
  3
$MODEL_SPACE
  1

  0
ENDBLK
  5
1B
  8
0
  0
BLOCK
 67
     1
  8
0
  2
$PAPER_SPACE
 70
     0
 10
0.0
 20
0.0
 30
0.0
  3
$PAPER_SPACE
  1

  0
ENDBLK
  5
18
 67
     1
  8
0
  0
BLOCK
  8
0
  2
_OPEN
 70
     0
 10
0.0
 20
0.0
 30
0.0
  3
_OPEN
  1

  0
LINE
  5
7BAD
  8
0
  6
BYBLOCK
 62
     0
 10
-1.0
 20
0.166667
 30
0.0
 11
0.0
 21
0.0
 31
0.0
  0
LINE
  5
7BAE
  8
0
  6
BYBLOCK
 62
     0
 10
0.0
 20
0.0
 30
0.0
 11
-1.0
 21
-0.166667
 31
0.0
  0
LINE
  5
7BAF
  8
0
  6
BYBLOCK
 62
     0
 10
0.0
 20
0.0
 30
0.0
 11
-1.0
 21
0.0
 31
0.0
  0
ENDBLK
  5
7BB0
  8
0
  0
BLOCK
  8
0
  2
*D1
 70
     1
 10
0.0
 20
0.0
 30
0.0
  3
*D1
  1

  0
LINE
  5
7EF8
  8
3
  6
CONTINUOUS
 62
     0
 10
1579.3417529999999
 20
3668.7218809999999
 30
0.0
 11
1382.5663500000001
 21
3668.7218809999999
 31
0.0
  0
LINE
  5
7EF9
  8
3
  6
CONTINUOUS
 62
     0
 10
1579.3417529999999
 20
3018.7218809999999
 30
0.0
 11
1382.5663500000001
 21
3018.7218809999999
 31
0.0
  0
LINE
  5
7EFA
  8
3
  6
CONTINUOUS
 62
     0
 10
1412.5663500000001
 20
3608.7218809999999
 30
0.0
 11
1412.5663500000001
 21
3078.721880999999
 31
0.0
  0
INSERT
  5
7EFB
  8
3
  6
CONTINUOUS
 62
     0
  2
_OPEN
 10
1412.5663500000001
 20
3668.7218809999999
 30
0.0
 41
60.0
 42
60.0
 43
60.0
 50
90.0
  0
INSERT
  5
7EFC
  8
3
  6
CONTINUOUS
 62
     0
  2
_OPEN
 10
1412.5663500000001
 20
3018.7218809999999
 30
0.0
 41
60.0
 42
60.0
 43
60.0
 50
270.0
  0
TEXT
  8
3
  40
90
  5
7F87
  62
0
  72
0
  71
0
 10
1157.57
 20
3168.72
 30
0.000000
  1
650
  0
POINT
  5
7EFE
  8
DEFPOINTS
  6
CONTINUOUS
 62
     0
 10
1594.3417529999999
 20
3668.7218809999999
 30
0.0
  0
POINT
  5
7EFF
  8
DEFPOINTS
  6
CONTINUOUS
 62
     0
 10
1594.3417529999999
 20
3018.7218809999999
 30
0.0
  0
POINT
  5
7F00
  8
DEFPOINTS
  6
CONTINUOUS
 62
     0
 10
1412.5663500000001
 20
3018.7218809999999
 30
0.0
  0
ENDBLK
  5
7BBD
  8
0
  0
BLOCK
  8
0
  2
*D2
 70
     1
 10
0.0
 20
0.0
 30
0.0
  3
*D2
  1

  0
LINE
  5
7F01
  8
3
  6
CONTINUOUS
 62
     0
 10
1384.0239659999991
 20
3638.7218809999999
 30
0.0
 11
1209.6124589999999
 21
3638.7218809999999
 31
0.0
  0
LINE
  5
7F02
  8
3
  6
CONTINUOUS
 62
     0
 10
1534.3417529999999
 20
3018.7218809999999
 30
0.0
 11
1209.6124589999999
 21
3018.7218809999999
 31
0.0
  0
LINE
  5
7F03
  8
3
  6
CONTINUOUS
 62
     0
 10
1239.6124589999999
 20
3578.7218809999999
 30
0.0
 11
1239.6124589999999
 21
3078.721880999999
 31
0.0
  0
INSERT
  5
7F04
  8
3
  6
CONTINUOUS
 62
     0
  2
_OPEN
 10
1239.6124589999999
 20
3638.7218809999999
 30
0.0
 41
60.0
 42
60.0
 43
60.0
 50
90.0
  0
INSERT
  5
7F05
  8
3
  6
CONTINUOUS
 62
     0
  2
_OPEN
 10
1239.6124589999999
 20
3018.7218809999999
 30
0.0
 41
60.0
 42
60.0
 43
60.0
 50
270.0
  0
TEXT
  8
3
  40
90
  5
7F88
  62
0
  72
0
  71
0
 10
984.612
 20
3175.63
 30
0.000000
  1
620
  0
POINT
  5
7F07
  8
DEFPOINTS
  6
CONTINUOUS
 62
     0
 10
1399.023966
 20
3638.7218809999999
 30
0.0
  0
POINT
  5
7F08
  8
DEFPOINTS
  6
CONTINUOUS
 62
     0
 10
1549.3417529999999
 20
3018.7218809999999
 30
0.0
  0
POINT
  5
7F09
  8
DEFPOINTS
  6
CONTINUOUS
 62
     0
 10
1239.6124589999999
 20
3018.7218809999999
 30
0.0
  0
ENDBLK
  5
7BCA
  8
0
  0
BLOCK
  8
0
  2
*D3
 70
     1
 10
0.0
 20
0.0
 30
0.0
  3
*D3
  1

  0
LINE
  5
7F0A
  8
3
  6
CONTINUOUS
 62
     0
 10
1384.0239659999991
 20
3638.7218809999999
 30
0.0
 11
1029.3467149999999
 21
3638.7218809999999
 31
0.0
  0
LINE
  5
7F0B
  8
3
  6
CONTINUOUS
 62
     0
 10
1634.3417529999999
 20
2838.7218809999999
 30
0.0
 11
1029.3467149999999
 21
2838.7218809999999
 31
0.0
  0
LINE
  5
7F0C
  8
3
  6
CONTINUOUS
 62
     0
 10
1059.3467149999999
 20
3578.7218809999999
 30
0.0
 11
1059.3467149999999
 21
2898.7218809999999
 31
0.0
  0
INSERT
  5
7F0D
  8
3
  6
CONTINUOUS
 62
     0
  2
_OPEN
 10
1059.3467149999999
 20
3638.7218809999999
 30
0.0
 41
60.0
 42
60.0
 43
60.0
 50
90.0
  0
INSERT
  5
7F0E
  8
3
  6
CONTINUOUS
 62
     0
  2
_OPEN
 10
1059.3467149999999
 20
2838.7218809999999
 30
0.0
 41
60.0
 42
60.0
 43
60.0
 50
270.0
  0
TEXT
  8
3
  40
90
  5
7F89
  62
0
  72
0
  71
0
 10
804.347
 20
3044.15
 30
0.000000
  1
800
  0
POINT
  5
7F10
  8
DEFPOINTS
  6
CONTINUOUS
 62
     0
 10
1399.023966
 20
3638.7218809999999
 30
0.0
  0
POINT
  5
7F11
  8
DEFPOINTS
  6
CONTINUOUS
 62
     0
 10
1649.341752999999
 20
2838.7218809999999
 30
0.0
  0
POINT
  5
7F12
  8
DEFPOINTS
  6
CONTINUOUS
 62
     0
 10
1059.3467149999999
 20
2838.7218809999999
 30
0.0
  0
ENDBLK
  5
7BD7
  8
0
  0
BLOCK
  8
0
  2
*D4
 70
     1
 10
0.0
 20
0.0
 30
0.0
  3
*D4
  1

  0
LINE
  5
7F13
  8
3
  6
CONTINUOUS
 62
     0
 10
1634.3417529999999
 20
2838.7218809999999
 30
0.0
 11
1029.8048719999999
 21
2838.7218809999999
 31
0.0
  0
LINE
  5
7F14
  8
3
  6
CONTINUOUS
 62
     0
 10
1484.341752999999
 20
2762.7218809999999
 30
0.0
 11
1029.8048719999999
 21
2762.7218809999999
 31
0.0
  0
LINE
  5
7F15
  8
3
  6
CONTINUOUS
 62
     0
 10
1059.8048719999999
 20
2898.7218809999999
 30
0.0
 11
1059.8048719999999
 21
2958.7218809999999
 31
0.0
  0
LINE
  5
7F16
  8
3
  6
CONTINUOUS
 62
     0
 10
1059.8048719999999
 20
2702.7218809999999
 30
0.0
 11
1059.8048719999999
 21
2441.2933095714279
 31
0.0
  0
LINE
  5
7F17
  8
3
  6
CONTINUOUS
 62
     0
 10
1059.8048719999999
 20
2838.7218809999999
 30
0.0
 11
1059.8048719999999
 21
2762.7218809999999
 31
0.0
  0
INSERT
  5
7F18
  8
3
  6
CONTINUOUS
 62
     0
  2
_OPEN
 10
1059.8048719999999
 20
2838.7218809999999
 30
0.0
 41
60.0
 42
60.0
 43
60.0
 50
270.0
  0
INSERT
  5
7F19
  8
3
  6
CONTINUOUS
 62
     0
  2
_OPEN
 10
1059.8048719999999
 20
2762.7218809999999
 30
0.0
 41
60.0
 42
60.0
 43
60.0
 50
90.0
  0
TEXT
  8
3
  40
90
  5
7F8A
  62
0
  72
0
  71
0
 10
804.805
 20
2382.71
 30
0.000000
  1
76
  0
POINT
  5
7F1B
  8
DEFPOINTS
  6
CONTINUOUS
 62
     0
 10
1649.341752999999
 20
2838.7218809999999
 30
0.0
  0
POINT
  5
7F1C
  8
DEFPOINTS
  6
CONTINUOUS
 62
     0
 10
1499.3417529999999
 20
2762.7218809999999
 30
0.0
  0
POINT
  5
7F1D
  8
DEFPOINTS
  6
CONTINUOUS
 62
     0
 10
1059.8048719999999
 20
2762.7218809999999
 30
0.0
  0
ENDBLK
  5
7D86
  8
0
  0
BLOCK
  8
0
  2
*D5
 70
     1
 10
0.0
 20
0.0
 30
0.0
  3
*D5
  1

  0
LINE
  5
7F1E
  8
3
  6
CONTINUOUS
 62
     0
 10
5124.5412453112876
 20
2747.7218809999999
 30
0.0
 11
5124.5412453112876
 21
2445.4771150000001
 31
0.0
  0
LINE
  5
7F1F
  8
3
  6
CONTINUOUS
 62
     0
 10
4819.5412453112876
 20
2475.4771149999988
 30
0.0
 11
5064.5412453112867
 21
2475.4771149999988
 31
0.0
  0
TEXT
  8
3
  40
90
  5
7F8B
  62
0
  72
0
  71
0
 10
4742.66
 20
2390.53
 30
0.000000
  1
365
  0
INSERT
  5
7F21
  8
3
  6
CONTINUOUS
 62
     0
  2
_OPEN
 10
4759.5412453112876
 20
2475.4771149999988
 30
0.0
 41
60.0
 42
60.0
 43
60.0
 50
180.0
  0
INSERT
  5
7F22
  8
3
  6
CONTINUOUS
 62
     0
  2
_OPEN
 10
5124.5412453112876
 20
2475.4771149999988
 30
0.0
 41
60.0
 42
60.0
 43
60.0
  0
POINT
  5
7F23
  8
DEFPOINTS
  6
CONTINUOUS
 62
     0
 10
4759.5412453112876
 20
2461.9934039999998
 30
0.0
  0
POINT
  5
7F24
  8
DEFPOINTS
  6
CONTINUOUS
 62
     0
 10
5124.5412453112876
 20
2762.7218809999999
 30
0.0
  0
POINT
  5
7F25
  8
DEFPOINTS
  6
CONTINUOUS
 62
     0
 10
5124.5412453112876
 20
2475.4771149999988
 30
0.0
  0
ENDBLK
  5
7D4B
  8
0
  0
BLOCK
  8
0
  2
*D6
 70
     1
 10
0.0
 20
0.0
 30
0.0
  3
*D6
  1

  0
LINE
  5
7F26
  8
3
  6
CONTINUOUS
 62
     0
 10
1594.3417529999999
 20
3723.7218809999999
 30
0.0
 11
1594.3417529999999
 21
4450.2433819999997
 31
0.0
  0
LINE
  5
7F27
  8
3
  6
CONTINUOUS
 62
     0
 10
2079.3417530000002
 20
4385.7183429999986
 30
0.0
 11
2079.3417530000002
 21
4450.2433819999997
 31
0.0
  0
LINE
  5
7F28
  8
3
  6
CONTINUOUS
 62
     0
 10
1654.341752999999
 20
4420.2433819999987
 30
0.0
 11
2019.3417529999999
 21
4420.2433819999987
 31
0.0
  0
INSERT
  5
7F29
  8
3
  6
CONTINUOUS
 62
     0
  2
_OPEN
 10
1594.3417529999999
 20
4420.2433819999987
 30
0.0
 41
60.0
 42
60.0
 43
60.0
 50
180.0
  0
INSERT
  5
7F2A
  8
3
  6
CONTINUOUS
 62
     0
  2
_OPEN
 10
2079.3417530000002
 20
4420.2433819999987
 30
0.0
 41
60.0
 42
60.0
 43
60.0
  0
TEXT
  8
3
  40
90
  5
7F8C
  62
0
  72
0
  71
0
 10
1620.06
 20
4335.94
 30
0.000000
  1
485
  0
POINT
  5
7F2C
  8
DEFPOINTS
  6
CONTINUOUS
 62
     0
 10
1594.3417529999999
 20
3708.7218809999999
 30
0.0
  0
POINT
  5
7F2D
  8
DEFPOINTS
  6
CONTINUOUS
 62
     0
 10
2079.3417530000002
 20
4370.7183429999986
 30
0.0
  0
POINT
  5
7F2E
  8
DEFPOINTS
  6
CONTINUOUS
 62
     0
 10
2079.3417530000002
 20
4420.2433819999987
 30
0.0
  0
ENDBLK
  5
7C0F
  8
0
  0
BLOCK
  8
0
  2
*D7
 70
     1
 10
0.0
 20
0.0
 30
0.0
  3
*D7
  1

  0
LINE
  5
7F2F
  8
3
  6
CONTINUOUS
 62
     0
 10
1499.3417529999999
 20
2747.7218809999999
 30
0.0
 11
1499.3417529999999
 21
2462.9660739999999
 31
0.0
  0
LINE
  5
7F30
  8
3
  6
CONTINUOUS
 62
     0
 10
2079.3417530000002
 20
2531.416393
 30
0.0
 11
2079.3417530000002
 21
2462.9660739999999
 31
0.0
  0
LINE
  5
7F31
  8
3
  6
CONTINUOUS
 62
     0
 10
1559.341752999999
 20
2492.966073999999
 30
0.0
 11
2019.3417529999999
 21
2492.966073999999
 31
0.0
  0
INSERT
  5
7F32
  8
3
  6
CONTINUOUS
 62
     0
  2
_OPEN
 10
1499.3417529999999
 20
2492.966073999999
 30
0.0
 41
60.0
 42
60.0
 43
60.0
 50
180.0
  0
INSERT
  5
7F33
  8
3
  6
CONTINUOUS
 62
     0
  2
_OPEN
 10
2079.3417530000002
 20
2492.966073999999
 30
0.0
 41
60.0
 42
60.0
 43
60.0
  0
TEXT
  8
3
  40
90
  5
7F8D
  62
0
  72
0
  71
0
 10
1598.94
 20
2408.67
 30
0.000000
  1
580
  0
POINT
  5
7F35
  8
DEFPOINTS
  6
CONTINUOUS
 62
     0
 10
1499.3417529999999
 20
2762.7218809999999
 30
0.0
  0
POINT
  5
7F36
  8
DEFPOINTS
  6
CONTINUOUS
 62
     0
 10
2079.3417530000002
 20
2546.416393
 30
0.0
  0
POINT
  5
7F37
  8
DEFPOINTS
  6
CONTINUOUS
 62
     0
 10
2079.3417530000002
 20
2492.966073999999
 30
0.0
  0
ENDBLK
  5
7CF3
  8
0
  0
BLOCK
  8
0
  2
*D8
 70
     1
 10
0.0
 20
0.0
 30
0.0
  3
*D8
  1

  0
LINE
  5
7F38
  8
3
  6
CONTINUOUS
 62
     0
 10
3199.3417530000002
 20
2747.7218809999999
 30
0.0
 11
3199.3417530000002
 21
2462.9660739999999
 31
0.0
  0
LINE
  5
7F39
  8
3
  6
CONTINUOUS
 62
     0
 10
2139.3417530000002
 20
2492.966073999999
 30
0.0
 11
3139.3417530000002
 21
2492.966073999999
 31
0.0
  0
INSERT
  5
7F3A
  8
3
  6
CONTINUOUS
 62
     0
  2
_OPEN
 10
2079.3417530000002
 20
2492.966073999999
 30
0.0
 41
60.0
 42
60.0
 43
60.0
 50
180.0
  0
INSERT
  5
7F3B
  8
3
  6
CONTINUOUS
 62
     0
  2
_OPEN
 10
3199.3417530000002
 20
2492.966073999999
 30
0.0
 41
60.0
 42
60.0
 43
60.0
  0
TEXT
  8
3
  40
90
  5
7F8E
  62
0
  72
0
  71
0
 10
2459.34
 20
2408.67
 30
0.000000
  1
1120
  0
POINT
  5
7F3D
  8
DEFPOINTS
  6
CONTINUOUS
 62
     0
 10
2079.3417530000002
 20
2546.416393
 30
0.0
  0
POINT
  5
7F3E
  8
DEFPOINTS
  6
CONTINUOUS
 62
     0
 10
3199.3417530000002
 20
2762.7218809999999
 30
0.0
  0
POINT
  5
7F3F
  8
DEFPOINTS
  6
CONTINUOUS
 62
     0
 10
3199.3417530000002
 20
2492.966073999999
 30
0.0
  0
ENDBLK
  5
7CE8
  8
0
  0
BLOCK
  8
0
  2
*D9
 70
     1
 10
0.0
 20
0.0
 30
0.0
  3
*D9
  1

  0
LINE
  5
7F40
  8
3
  6
CONTINUOUS
 62
     0
 10
4997.0412453112876
 20
4106.9763279999997
 30
0.0
 11
4997.0412453112876
 21
4422.5889070000003
 31
0.0
  0
LINE
  5
7F41
  8
3
  6
CONTINUOUS
 62
     0
 10
4522.0412453112876
 20
4106.9763279999997
 30
0.0
 11
4522.0412453112876
 21
4422.5889070000003
 31
0.0
  0
LINE
  5
7F42
  8
3
  6
CONTINUOUS
 62
     0
 10
4937.0412453112876
 20
4392.5889070000003
 30
0.0
 11
4582.0412453112867
 21
4392.5889070000003
 31
0.0
  0
INSERT
  5
7F43
  8
3
  6
CONTINUOUS
 62
     0
  2
_OPEN
 10
4997.0412453112876
 20
4392.5889070000003
 30
0.0
 41
60.0
 42
60.0
 43
60.0
  0
INSERT
  5
7F44
  8
3
  6
CONTINUOUS
 62
     0
  2
_OPEN
 10
4522.0412453112876
 20
4392.5889070000003
 30
0.0
 41
60.0
 42
60.0
 43
60.0
 50
180.0
  0
TEXT
  8
3
  40
90
  5
7F8F
  62
0
  72
0
  71
0
 10
4547.76
 20
4308.29
 30
0.000000
  1
475
  0
POINT
  5
7F46
  8
DEFPOINTS
  6
CONTINUOUS
 62
     0
 10
4997.0412453112876
 20
4091.9763280000002
 30
0.0
  0
POINT
  5
7F47
  8
DEFPOINTS
  6
CONTINUOUS
 62
     0
 10
4522.0412453112876
 20
4091.9763280000002
 30
0.0
  0
POINT
  5
7F48
  8
DEFPOINTS
  6
CONTINUOUS
 62
     0
 10
4522.0412453112876
 20
4392.5889070000003
 30
0.0
  0
ENDBLK
  5
7C41
  8
0
  0
BLOCK
  8
0
  2
*D10
 70
     1
 10
0.0
 20
0.0
 30
0.0
  3
*D10
  1

  0
LINE
  5
7F49
  8
3
  6
CONTINUOUS
 62
     0
 10
5015.5412453112876
 20
3973.7218809999999
 30
0.0
 11
5434.705803311288
 21
3973.7218809999999
 31
0.0
  0
LINE
  5
7F4A
  8
3
  6
CONTINUOUS
 62
     0
 10
5015.5412453112876
 20
3303.721880999999
 30
0.0
 11
5434.705803311288
 21
3303.721880999999
 31
0.0
  0
LINE
  5
7F4B
  8
3
  6
CONTINUOUS
 62
     0
 10
5404.7058033112889
 20
3913.7218809999999
 30
0.0
 11
5404.7058033112889
 21
3363.721880999999
 31
0.0
  0
INSERT
  5
7F4C
  8
3
  6
CONTINUOUS
 62
     0
  2
_OPEN
 10
5404.7058033112889
 20
3973.7218809999999
 30
0.0
 41
60.0
 42
60.0
 43
60.0
 50
90.0
  0
INSERT
  5
7F4D
  8
3
  6
CONTINUOUS
 62
     0
  2
_OPEN
 10
5404.7058033112889
 20
3303.721880999999
 30
0.0
 41
60.0
 42
60.0
 43
60.0
 50
270.0
  0
TEXT
  8
3
  40
90
  5
7F90
  62
0
  72
0
  71
0
 10
5149.71
 20
3486.62
 30
0.000000
  1
φ670
  0
POINT
  5
7F4F
  8
DEFPOINTS
  6
CONTINUOUS
 62
     0
 10
5000.5412453112867
 20
3973.7218809999999
 30
0.0
  0
POINT
  5
7F50
  8
DEFPOINTS
  6
CONTINUOUS
 62
     0
 10
5000.5412453112867
 20
3303.721880999999
 30
0.0
  0
POINT
  5
7F51
  8
DEFPOINTS
  6
CONTINUOUS
 62
     0
 10
5404.7058033112889
 20
3303.721880999999
 30
0.0
  0
ENDBLK
  5
7DA7
  8
0
  0
BLOCK
  8
0
  2
*D11
 70
     1
 10
0.0
 20
0.0
 30
0.0
  3
*D11
  1

  0
LINE
  5
7D93
  8
0
  6
BYBLOCK
 62
     0
 10
5000.5412453112867
 20
3988.7218809999999
 30
0.0
 11
5000.5412453112867
 21
4635.2850749999998
 31
0.0
  0
LINE
  5
7D94
  8
0
  6
BYBLOCK
 62
     0
 10
4759.5412453112876
 20
4559.8404399999999
 30
0.0
 11
4759.5412453112876
 21
4635.2850749999998
 31
0.0
  0
LINE
  5
7D95
  8
0
  6
BYBLOCK
 62
     0
 10
4940.5412453112876
 20
4605.2850749999998
 30
0.0
 11
4819.5412453112876
 21
4605.2850749999998
 31
0.0
  0
TEXT
  5
7D96
  8
3
 62
     0
 10
4773.9853372620719
 20
4658.1840835483054
 30
0.0
 40
90.0
  1
241
  0
INSERT
  5
7D97
  8
0
  6
BYBLOCK
 62
     0
  2
_OPEN
 10
5000.5412453112867
 20
4605.2850749999998
 30
0.0
 41
60.0
 42
60.0
 43
60.0
  0
INSERT
  5
7D98
  8
0
  6
BYBLOCK
 62
     0
  2
_OPEN
 10
4759.5412453112876
 20
4605.2850749999998
 30
0.0
 41
60.0
 42
60.0
 43
60.0
 50
180.0
  0
POINT
  5
7D99
  8
DEFPOINTS
  6
BYBLOCK
 62
     0
 10
5000.5412453112867
 20
3973.7218809999999
 30
0.0
  0
POINT
  5
7D9A
  8
DEFPOINTS
  6
BYBLOCK
 62
     0
 10
4759.5412453112876
 20
4544.8404399999999
 30
0.0
  0
POINT
  5
7D9B
  8
DEFPOINTS
  6
BYBLOCK
 62
     0
 10
4759.5412453112876
 20
4605.2850749999998
 30
0.0
  0
ENDBLK
  5
7D9C
  8
0
  0
BLOCK
  8
0
  2
*D12
 70
     1
 10
0.0
 20
0.0
 30
0.0
  3
*D12
  1

  0
LINE
  5
7F52
  8
3
  6
CONTINUOUS
 62
     0
 10
4259.5412453112876
 20
4312.7218810000004
 30
0.0
 11
3973.783067311289
 21
4312.7218810000004
 31
0.0
  0
LINE
  5
7F53
  8
3
  6
CONTINUOUS
 62
     0
 10
4259.5412453112876
 20
2762.7218809999999
 30
0.0
 11
3973.783067311289
 21
2762.7218809999999
 31
0.0
  0
LINE
  5
7F54
  8
3
  6
CONTINUOUS
 62
     0
 10
4003.783067311289
 20
4252.7218810000013
 30
0.0
 11
4003.7830673112881
 21
2822.7218809999999
 31
0.0
  0
INSERT
  5
7F55
  8
3
  6
CONTINUOUS
 62
     0
  2
_OPEN
 10
4003.783067311289
 20
4312.7218810000004
 30
0.0
 41
60.0
 42
60.0
 43
60.0
 50
90.0
  0
INSERT
  5
7F56
  8
3
  6
CONTINUOUS
 62
     0
  2
_OPEN
 10
4003.7830673112881
 20
2762.7218809999999
 30
0.0
 41
60.0
 42
60.0
 43
60.0
 50
270.0
  0
TEXT
  8
3
  40
90
  5
7F91
  62
0
  72
0
  71
0
 10
3748.78
 20
3382.91
 30
0.000000
  1
1550
  0
POINT
  5
7F58
  8
DEFPOINTS
  6
CONTINUOUS
 62
     0
 10
4274.5412453112867
 20
4312.7218810000004
 30
0.0
  0
POINT
  5
7F59
  8
DEFPOINTS
  6
CONTINUOUS
 62
     0
 10
4274.5412453112867
 20
2762.7218809999999
 30
0.0
  0
POINT
  5
7F5A
  8
DEFPOINTS
  6
CONTINUOUS
 62
     0
 10
4003.7830673112881
 20
2762.7218809999999
 30
0.0
  0
ENDBLK
  5
7D17
  8
0
  0
BLOCK
  8
0
  2
*D13
 70
     1
 10
0.0
 20
0.0
 30
0.0
  3
*D13
  1

  0
LINE
  5
7F5B
  8
3
  6
CONTINUOUS
 62
     0
 10
1499.3417529999999
 20
5817.6140250000008
 30
0.0
 11
1499.3417529999999
 21
6014.7653989999999
 31
0.0
  0
LINE
  5
7F5C
  8
3
  6
CONTINUOUS
 62
     0
 10
3199.3417530000002
 20
5817.6140250000008
 30
0.0
 11
3199.3417530000002
 21
6014.7653989999999
 31
0.0
  0
LINE
  5
7F5D
  8
3
  6
CONTINUOUS
 62
     0
 10
1559.341752999999
 20
5984.7653989999999
 30
0.0
 11
3139.3417530000002
 21
5984.7653989999999
 31
0.0
  0
INSERT
  5
7F5E
  8
3
  6
CONTINUOUS
 62
     0
  2
_OPEN
 10
1499.3417529999999
 20
5984.7653989999999
 30
0.0
 41
60.0
 42
60.0
 43
60.0
 50
180.0
  0
INSERT
  5
7F5F
  8
3
  6
CONTINUOUS
 62
     0
  2
_OPEN
 10
3199.3417530000002
 20
5984.7653989999999
 30
0.0
 41
60.0
 42
60.0
 43
60.0
  0
TEXT
  8
3
  40
90
  5
7F92
  62
0
  72
0
  71
0
 10
2097.12
 20
5900.47
 30
0.000000
  1
1700
  0
POINT
  5
7F61
  8
DEFPOINTS
  6
CONTINUOUS
 62
     0
 10
1499.3417529999999
 20
5802.6140249999999
 30
0.0
  0
POINT
  5
7F62
  8
DEFPOINTS
  6
CONTINUOUS
 62
     0
 10
3199.3417530000002
 20
5802.6140249999999
 30
0.0
  0
POINT
  5
7F63
  8
DEFPOINTS
  6
CONTINUOUS
 62
     0
 10
3199.3417530000002
 20
5984.7653989999999
 30
0.0
  0
ENDBLK
  5
7C86
  8
0
  0
BLOCK
  8
0
  2
*D14
 70
     1
 10
0.0
 20
0.0
 30
0.0
  3
*D14
  1

  0
LINE
  5
7F64
  8
3
  6
CONTINUOUS
 62
     0
 10
3214.3417530000002
 20
5802.6140249999999
 30
0.0
 11
3503.2537470000002
 21
5802.6140249999999
 31
0.0
  0
LINE
  5
7F65
  8
3
  6
CONTINUOUS
 62
     0
 10
3214.3417530000002
 20
4852.6140249999999
 30
0.0
 11
3503.2537470000002
 21
4852.6140249999999
 31
0.0
  0
LINE
  5
7F66
  8
3
  6
CONTINUOUS
 62
     0
 10
3473.2537470000002
 20
5742.6140249999999
 30
0.0
 11
3473.2537470000002
 21
4912.6140249999989
 31
0.0
  0
INSERT
  5
7F67
  8
3
  6
CONTINUOUS
 62
     0
  2
_OPEN
 10
3473.2537470000002
 20
5802.6140249999999
 30
0.0
 41
60.0
 42
60.0
 43
60.0
 50
90.0
  0
INSERT
  5
7F68
  8
3
  6
CONTINUOUS
 62
     0
  2
_OPEN
 10
3473.2537470000002
 20
4852.6140249999999
 30
0.0
 41
60.0
 42
60.0
 43
60.0
 50
270.0
  0
TEXT
  8
3
  40
90
  5
7F93
  62
0
  72
0
  71
0
 10
3218.25
 20
5153.54
 30
0.000000
  1
950
  0
POINT
  5
7F6A
  8
DEFPOINTS
  6
CONTINUOUS
 62
     0
 10
3199.3417530000002
 20
5802.6140249999999
 30
0.0
  0
POINT
  5
7F6B
  8
DEFPOINTS
  6
CONTINUOUS
 62
     0
 10
3199.3417530000002
 20
4852.6140249999999
 30
0.0
  0
POINT
  5
7F6C
  8
DEFPOINTS
  6
CONTINUOUS
 62
     0
 10
3473.2537470000002
 20
4852.6140249999999
 30
0.0
  0
ENDBLK
  5
7CFF
  8
0
  0
BLOCK
  8
0
  2
*D15
 70
     1
 10
0.0
 20
0.0
 30
0.0
  3
*D15
  1

  0
LINE
  5
7F6D
  8
3
  6
CONTINUOUS
 62
     0
 10
4759.5412453112876
 20
2476.9934039999989
 30
0.0
 11
4759.5412453112876
 21
2505.4771149999988
 31
0.0
  0
LINE
  5
7F6E
  8
3
  6
CONTINUOUS
 62
     0
 10
4174.5412453112876
 20
2747.7218809999999
 30
0.0
 11
4174.5412453112876
 21
2445.4771150000001
 31
0.0
  0
LINE
  5
7F6F
  8
3
  6
CONTINUOUS
 62
     0
 10
4699.5412453112867
 20
2475.4771149999988
 30
0.0
 11
4234.5412453112867
 21
2475.4771149999988
 31
0.0
  0
INSERT
  5
7F70
  8
3
  6
CONTINUOUS
 62
     0
  2
_OPEN
 10
4759.5412453112876
 20
2475.4771149999988
 30
0.0
 41
60.0
 42
60.0
 43
60.0
  0
INSERT
  5
7F71
  8
3
  6
CONTINUOUS
 62
     0
  2
_OPEN
 10
4174.5412453112876
 20
2475.4771149999988
 30
0.0
 41
60.0
 42
60.0
 43
60.0
 50
180.0
  0
TEXT
  8
3
  40
90
  5
7F94
  62
0
  72
0
  71
0
 10
4287.04
 20
2391.18
 30
0.000000
  1
585
  0
POINT
  5
7F73
  8
DEFPOINTS
  6
CONTINUOUS
 62
     0
 10
4759.5412453112876
 20
2461.9934039999998
 30
0.0
  0
POINT
  5
7F74
  8
DEFPOINTS
  6
CONTINUOUS
 62
     0
 10
4174.5412453112876
 20
2762.7218809999999
 30
0.0
  0
POINT
  5
7F75
  8
DEFPOINTS
  6
CONTINUOUS
 62
     0
 10
4174.5412453112876
 20
2475.4771149999988
 30
0.0
  0
ENDBLK
  5
7DB2
  8
0
  0
BLOCK
  8
0
  2
*D16
 70
     1
 10
0.0
 20
0.0
 30
0.0
  3
*D16
  1

  0
LINE
  5
7F76
  8
3
 62
     0
 10
2601.3417529999988
 20
3612.7218809999999
 30
0.0
 11
2601.3417529999988
 21
4450.2433819999997
 31
0.0
  0
LINE
  5
7F77
  8
3
 62
     0
 10
2139.3417530000002
 20
4420.2433819999987
 30
0.0
 11
2541.3417529999988
 21
4420.2433819999987
 31
0.0
  0
INSERT
  5
7F78
  8
3
 62
     0
  2
_OPEN
 10
2079.3417530000002
 20
4420.2433819999987
 30
0.0
 41
60.0
 42
60.0
 43
60.0
 50
180.0
  0
INSERT
  5
7F79
  8
3
 62
     0
  2
_OPEN
 10
2601.3417529999988
 20
4420.2433819999987
 30
0.0
 41
60.0
 42
60.0
 43
60.0
  0
TEXT
  8
3
  40
90
  5
7F95
  62
0
  72
0
  71
0
 10
2160.34
 20
4335.94
 30
0.000000
  1
522
  0
POINT
  5
7F7B
  8
DEFPOINTS
 62
     0
 10
2079.3417530000002
 20
4370.7183429999986
 30
0.0
  0
POINT
  5
7F7C
  8
DEFPOINTS
 62
     0
 10
2601.3417529999988
 20
3597.7218809999999
 30
0.0
  0
POINT
  5
7F7D
  8
DEFPOINTS
 62
     0
 10
2601.3417529999988
 20
4420.2433819999987
 30
0.0
  0
ENDBLK
  5
7DCB
  8
0
  0
BLOCK
  8
0
  2
*D17
 70
     1
 10
0.0
 20
0.0
 30
0.0
  3
*D17
  1

  0
LINE
  5
7F7E
  8
3
 62
     0
 10
1384.0239659999991
 20
3638.7218809999999
 30
0.0
 11
1029.3467149999999
 21
3638.7218809999999
 31
0.0
  0
LINE
  5
7F7F
  8
3
 62
     0
 10
2091.3417530000002
 20
4091.9107840030042
 30
0.0
 11
1029.3467149999999
 21
4091.9107840030042
 31
0.0
  0
LINE
  5
7F80
  8
3
 62
     0
 10
1059.3467149999999
 20
3698.7218809999999
 30
0.0
 11
1059.3467149999999
 21
4031.9107840030028
 31
0.0
  0
INSERT
  5
7F81
  8
3
 62
     0
  2
_OPEN
 10
1059.3467149999999
 20
3638.7218809999999
 30
0.0
 41
60.0
 42
60.0
 43
60.0
 50
270.0
  0
INSERT
  5
7F82
  8
3
 62
     0
  2
_OPEN
 10
1059.3467149999999
 20
4091.9107840030042
 30
0.0
 41
60.0
 42
60.0
 43
60.0
 50
90.0
  0
TEXT
  8
3
  40
90
  5
7F96
  62
0
  72
0
  71
0
 10
804.347
 20
3706.02
 30
0.000000
  1
452
  0
POINT
  5
7F84
  8
DEFPOINTS
 62
     0
 10
1399.023966
 20
3638.7218809999999
 30
0.0
  0
POINT
  5
7F85
  8
DEFPOINTS
 62
     0
 10
2106.3417530000002
 20
4091.9107840030042
 30
0.0
  0
POINT
  5
7F86
  8
DEFPOINTS
 62
     0
 10
1059.3467149999999
 20
4091.9107840030042
 30
0.0
  0
ENDBLK
  5
7E23
  8
0
  0
ENDSEC
  0
SECTION
  2
ENTITIES
  0
LINE
  5
7AD6
  8
1
  6
CONTINUOUS
 10
1549.3417529999999
 20
4262.7218810000004
 30
0.0
 11
1549.3417529999999
 21
2812.721880999999
 31
0.0
  0
LINE
  5
7AD7
  8
1
  6
CONTINUOUS
 10
3149.3417530000002
 20
2812.721880999999
 30
0.0
 11
3149.3417530000002
 21
4262.7218810000004
 31
0.0
  0
LINE
  5
7ADA
  8
1
  6
CONTINUOUS
 10
5074.5412453112867
 20
2812.721880999999
 30
0.0
 11
5074.5412453112867
 21
4262.7218810000004
 31
0.0
  0
LINE
  5
7ADB
  8
1
  6
CONTINUOUS
 10
4224.5412453112876
 20
4262.7218810000004
 30
0.0
 11
4224.5412453112876
 21
2812.721880999999
 31
0.0
  0
LINE
  5
7ADC
  8
1
  6
CONTINUOUS
 10
3199.3417530000002
 20
4312.7218810000004
 30
0.0
 11
3199.3417530000002
 21
2762.7218809999999
 31
0.0
  0
LINE
  5
7ADD
  8
1
  6
CONTINUOUS
 10
1499.3417529999999
 20
4312.7218810000004
 30
0.0
 11
1499.3417529999999
 21
2762.7218809999999
 31
0.0
  0
LINE
  5
7ADE
  8
1
  6
CONTINUOUS
 10
5124.5412453112876
 20
4312.7218810000004
 30
0.0
 11
5124.5412453112876
 21
2762.7218809999999
 31
0.0
  0
LINE
  5
7ADF
  8
1
  6
CONTINUOUS
 10
4174.5412453112876
 20
4312.7218810000004
 30
0.0
 11
4174.5412453112876
 21
2762.7218809999999
 31
0.0
  0
LINE
  5
7AE2
  8
1
  6
CONTINUOUS
 10
1549.3417529999999
 20
2812.721880999999
 30
0.0
 11
3149.3417530000002
 21
2812.721880999999
 31
0.0
  0
LINE
  5
7AE3
  8
1
  6
CONTINUOUS
 10
2759.9857379999999
 20
3069.558556
 30
0.0
 11
2003.957553
 21
3509.0406469999989
 31
0.0
  0
LINE
  5
7AE4
  8
1
  6
CONTINUOUS
 10
2850.8857600000001
 20
3200.608917
 30
0.0
 11
2174.3950949999989
 21
3754.760072999999
 31
0.0
  0
ARC
  5
7AE5
  8
1
  6
CONTINUOUS
 10
2114.3417530000002
 20
3603.7218809999999
 30
0.0
 40
488.25444700000003
 50
4.5139879999999986
 51
97.352379000000013
  0
ARC
  5
7AE6
  8
1
  6
CONTINUOUS
 10
2038.3417529999999
 20
3597.7218809999999
 30
0.0
 40
564.49092099999984
 50
274.165164
 51
4.5139879999999986
  0
LINE
  5
7AE7
  8
1
  6
CONTINUOUS
 10
3009.3417530000002
 20
3238.7218809999999
 30
0.0
 11
2179.3417530000002
 21
3938.7218810000008
 31
0.0
  0
LINE
  5
7AE8
  8
1
  6
CONTINUOUS
 10
1649.341752999999
 20
2938.7218809999999
 30
0.0
 11
3059.3417530000002
 21
2938.7218809999999
 31
0.0
  0
LINE
  5
7AE9
  8
1
  6
CONTINUOUS
 10
3059.3417530000002
 20
2838.7218809999999
 30
0.0
 11
1649.341752999999
 21
2838.7218809999999
 31
0.0
  0
LINE
  5
7AEC
  8
1
  6
CONTINUOUS
 10
3199.3417530000002
 20
2762.7218809999999
 30
0.0
 11
1499.3417529999999
 21
2762.7218809999999
 31
0.0
  0
LINE
  5
7AED
  8
1
  6
CONTINUOUS
 10
1649.341752999999
 20
2838.7218809999999
 30
0.0
 11
1649.341752999999
 21
2938.7218809999999
 31
0.0
  0
LINE
  5
7AEE
  8
1
  6
CONTINUOUS
 10
1624.341752999999
 20
3668.7218809999999
 30
0.0
 11
1624.341752999999
 21
3019.7115709999998
 31
0.0
  0
LINE
  5
7AEF
  8
1
  6
CONTINUOUS
 10
1739.3417529999999
 20
2938.7218809999999
 30
0.0
 11
1739.3417529999999
 21
3938.7218810000008
 31
0.0
  0
CIRCLE
  5
7AF0
  8
1
  6
CONTINUOUS
 10
2079.3417530000002
 20
3638.7218809999999
 30
0.0
 40
150.0
  0
LINE
  5
7AF1
  8
1
  6
CONTINUOUS
 10
1594.3417529999999
 20
3708.7218809999999
 30
0.0
 11
1594.3417529999999
 21
2978.7218809999999
 31
0.0
  0
LINE
  5
7AF3
  8
2
  6
CENTER
 10
2079.3417530000002
 20
5910.518591
 30
0.0
 11
2079.3417530000002
 21
4867.4280979999994
 31
0.0
  0
LINE
  5
7AF6
  8
1
  6
CONTINUOUS
 10
1594.3417529999999
 20
3018.7218809999999
 30
0.0
 11
2079.3417530000002
 21
3034.7218809999999
 31
0.0
  0
ARC
  5
7AF7
  8
1
  6
CONTINUOUS
 10
2106.3417530000002
 20
3665.7218809999999
 30
0.0
 40
425.74044800000001
 50
97.352379000000013
 51
179.596259
  0
LINE
  5
7AF8
  8
1
  6
CONTINUOUS
 10
1739.3417529999999
 20
3938.7218810000008
 30
0.0
 11
2179.3417530000002
 21
3938.7218810000008
 31
0.0
  0
LINE
  5
7AF9
  8
2
  6
CENTER
 10
1399.023966
 20
3638.7218809999999
 30
0.0
 11
3299.4972929999999
 21
3638.7218809999999
 31
0.0
  0
LINE
  5
7AFA
  8
1
  6
CONTINUOUS
 10
1680.6118739999999
 20
3668.7218809999999
 30
0.0
 11
1594.3417529999999
 21
3668.7218809999999
 31
0.0
  0
LINE
  5
7B08
  8
1
  6
CONTINUOUS
 10
3059.3417530000002
 20
2938.7218809999999
 30
0.0
 11
3059.3417530000002
 21
2838.7218809999999
 31
0.0
  0
CIRCLE
  5
7B0B
  8
1
  6
CONTINUOUS
 10
2800.1906439999998
 20
3138.7218809999999
 30
0.0
 40
80.0
  0
LINE
  5
7B0C
  8
2
  6
CENTER
 10
2800.1906439999998
 20
3218.7218809999999
 30
0.0
 11
2800.1906439999998
 21
3058.7218809999999
 31
0.0
  0
LINE
  5
7B0D
  8
2
  6
CENTER
 10
2720.1906439999998
 20
3138.7218809999999
 30
0.0
 11
2880.1906439999998
 21
3138.7218809999999
 31
0.0
  0
ARC
  5
7B0E
  8
1
  6
CONTINUOUS
 10
2800.1906439999998
 20
3138.7218809999999
 30
0.0
 40
162.0
 50
324.972283
 51
215.02771699999991
  0
LINE
  5
7B0F
  8
1
  6
CONTINUOUS
 10
2954.1906439999998
 20
2996.7218809999999
 30
0.0
 11
2932.8483099999999
 21
3045.7383140000002
 31
0.0
  0
LINE
  5
7B10
  8
1
  6
CONTINUOUS
 10
2646.1906439999998
 20
2996.7218809999999
 30
0.0
 11
2667.5329790000001
 21
3045.7383140000002
 31
0.0
  0
LINE
  5
7B11
  8
1
  6
CONTINUOUS
 10
2954.1906439999998
 20
2978.7218809999999
 30
0.0
 11
2954.1906439999998
 21
2996.7218809999999
 31
0.0
  0
LINE
  5
7B12
  8
1
  6
CONTINUOUS
 10
2646.1906439999998
 20
2938.7218809999999
 30
0.0
 11
2646.1906439999998
 21
2996.7218809999999
 31
0.0
  0
LINE
  5
7B13
  8
1
  6
CONTINUOUS
 10
2954.1906439999998
 20
2938.7218809999999
 30
0.0
 11
2954.1906439999998
 21
2996.7218809999999
 31
0.0
  0
LINE
  5
7B14
  8
1
  6
CONTINUOUS
 10
2646.1906439999998
 20
2978.7218809999999
 30
0.0
 11
2954.1906439999998
 21
2978.7218809999999
 31
0.0
  0
LINE
  5
7B15
  8
1
  6
CONTINUOUS
 10
3009.3417530000002
 20
2938.7218809999999
 30
0.0
 11
3009.3417530000002
 21
3238.7218809999999
 31
0.0
  0
LINE
  5
7B32
  8
1
  6
CONTINUOUS
 10
4348.5412453112867
 20
2938.7218809999999
 30
0.0
 11
4348.5412453112867
 21
2838.7218809999999
 31
0.0
  0
LINE
  5
7B33
  8
1
  6
CONTINUOUS
 10
5048.5412453112867
 20
2938.7218809999999
 30
0.0
 11
5048.5412453112867
 21
2838.7218809999999
 31
0.0
  0
LINE
  5
7B34
  8
1
  6
CONTINUOUS
 10
4224.5412453112876
 20
2812.721880999999
 30
0.0
 11
5074.5412453112867
 21
2812.721880999999
 31
0.0
  0
LINE
  5
7B35
  8
1
  6
CONTINUOUS
 10
4348.5412453112867
 20
2838.7218809999999
 30
0.0
 11
5048.5412453112867
 21
2838.7218809999999
 31
0.0
  0
LINE
  5
7B36
  8
1
  6
CONTINUOUS
 10
4174.5412453112876
 20
2762.7218809999999
 30
0.0
 11
5124.5412453112876
 21
2762.7218809999999
 31
0.0
  0
LINE
  5
7B37
  8
1
  6
CONTINUOUS
 10
4522.0412453112876
 20
2938.7218809999999
 30
0.0
 11
4522.0412453112876
 21
4091.9763280000002
 31
0.0
  0
LINE
  5
7B38
  8
1
  6
CONTINUOUS
 10
4997.0412453112876
 20
2938.7218809999999
 30
0.0
 11
4997.0412453112876
 21
4091.9763280000002
 31
0.0
  0
LINE
  5
7B39
  8
1
  6
CONTINUOUS
 10
4279.5412453112867
 20
3938.7218810000008
 30
0.0
 11
4279.5412453112867
 21
2938.7218809999999
 31
0.0
  0
LINE
  5
7B3A
  8
1
  6
CONTINUOUS
 10
4997.0412453112876
 20
3018.7218809999999
 30
0.0
 11
4522.0412453112876
 21
3668.7218809999999
 31
0.0
  0
LINE
  5
7B3B
  8
1
  6
CONTINUOUS
 10
4522.0412453112876
 20
3018.7218809999999
 30
0.0
 11
4997.0412453112876
 21
3668.7218809999999
 31
0.0
  0
LINE
  5
7B3C
  8
1
  6
CONTINUOUS
 10
4419.5412453112876
 20
3938.7218810000008
 30
0.0
 11
4419.5412453112876
 21
2938.7218809999999
 31
0.0
  0
LINE
  5
7B3D
  8
1
  6
CONTINUOUS
 10
4384.5412453112876
 20
3788.7218809999999
 30
0.0
 11
4384.5412453112876
 21
3488.7218809999999
 31
0.0
  0
LINE
  5
7B3E
  8
1
  6
CONTINUOUS
 10
4314.5412453112867
 20
3788.7218809999999
 30
0.0
 11
4314.5412453112867
 21
3488.7218809999999
 31
0.0
  0
LINE
  5
7B3F
  8
1
  6
CONTINUOUS
 10
4522.0412453112876
 20
3018.7218809999999
 30
0.0
 11
4997.0412453112876
 21
3018.7218809999999
 31
0.0
  0
LINE
  5
7B40
  8
1
  6
CONTINUOUS
 10
5048.5412453112867
 20
2938.7218809999999
 30
0.0
 11
4348.5412453112867
 21
2938.7218809999999
 31
0.0
  0
LINE
  5
7B41
  8
1
  6
CONTINUOUS
 10
4279.5412453112867
 20
2938.7218809999999
 30
0.0
 11
4348.5412453112867
 21
2938.7218809999999
 31
0.0
  0
LINE
  5
7B42
  8
1
  6
CONTINUOUS
 10
4314.5412453112867
 20
3488.7218809999999
 30
0.0
 11
4384.5412453112876
 21
3488.7218809999999
 31
0.0
  0
LINE
  5
7B43
  8
1
  6
CONTINUOUS
 10
4314.5412453112867
 20
3218.7218809999999
 30
0.0
 11
4384.5412453112876
 21
3218.7218809999999
 31
0.0
  0
LINE
  5
7B44
  8
1
  6
CONTINUOUS
 10
4384.5412453112876
 20
3218.7218809999999
 30
0.0
 11
4384.5412453112876
 21
3058.7218809999999
 31
0.0
  0
LINE
  5
7B45
  8
1
  6
CONTINUOUS
 10
4314.5412453112867
 20
3218.7218809999999
 30
0.0
 11
4314.5412453112867
 21
3058.7218809999999
 31
0.0
  0
LINE
  5
7B46
  8
1
  6
CONTINUOUS
 10
4314.5412453112867
 20
3058.7218809999999
 30
0.0
 11
4384.5412453112876
 21
3058.7218809999999
 31
0.0
  0
LINE
  5
7B47
  8
1
  6
CONTINUOUS
 10
4384.5412453112876
 20
3159.7218809999999
 30
0.0
 11
4522.0412453112876
 21
3159.7218809999999
 31
0.0
  0
LINE
  5
7B48
  8
1
  6
CONTINUOUS
 10
4384.5412453112876
 20
3117.7218809999999
 30
0.0
 11
4522.0412453112876
 21
3117.7218809999999
 31
0.0
  0
LINE
  5
7B49
  8
1
  6
CONTINUOUS
 10
4522.0412453112876
 20
4091.9763280000002
 30
0.0
 11
4997.0412453112876
 21
4091.9763280000002
 31
0.0
  0
LINE
  5
7B4A
  8
1
  6
CONTINUOUS
 10
4522.0412453112876
 20
3668.7218809999999
 30
0.0
 11
4997.0412453112876
 21
3668.7218809999999
 31
0.0
  0
LINE
  5
7B4B
  8
1
  6
CONTINUOUS
 10
4419.5412453112876
 20
3938.7218810000008
 30
0.0
 11
4279.5412453112867
 21
3938.7218810000008
 31
0.0
  0
LINE
  5
7B4C
  8
1
  6
CONTINUOUS
 10
4314.5412453112867
 20
3788.7218809999999
 30
0.0
 11
4384.5412453112876
 21
3788.7218809999999
 31
0.0
  0
LINE
  5
7B4D
  8
1
  6
CONTINUOUS
 10
4384.5412453112876
 20
3659.7218810000008
 30
0.0
 11
4522.0412453112876
 21
3659.7218810000008
 31
0.0
  0
LINE
  5
7B4E
  8
1
  6
CONTINUOUS
 10
4384.5412453112876
 20
3617.7218809999999
 30
0.0
 11
4522.0412453112876
 21
3617.7218809999999
 31
0.0
  0
LINE
  5
7B4F
  8
1
  6
CONTINUOUS
 10
3149.3417530000002
 20
4902.6140249999999
 30
0.0
 11
1549.3417529999999
 21
4902.6140249999999
 31
0.0
  0
LINE
  5
7B50
  8
1
  6
CONTINUOUS
 10
1549.3417529999999
 20
5752.6140249999989
 30
0.0
 11
3149.3417530000002
 21
5752.6140249999989
 31
0.0
  0
LINE
  5
7B51
  8
1
  6
CONTINUOUS
 10
3149.3417530000002
 20
4262.7218810000004
 30
0.0
 11
1549.3417529999999
 21
4262.7218810000004
 31
0.0
  0
LINE
  5
7B52
  8
1
  6
CONTINUOUS
 10
2720.1906439999998
 20
5026.6140249999999
 30
0.0
 11
2229.3417530000002
 21
5026.6140249999999
 31
0.0
  0
LINE
  5
7B53
  8
1
  6
CONTINUOUS
 10
1649.341752999999
 20
5726.6140249999989
 30
0.0
 11
3059.3417530000002
 21
5726.6140249999989
 31
0.0
  0
LINE
  5
7B54
  8
1
  6
CONTINUOUS
 10
1594.3417529999999
 20
5200.1140249999999
 30
0.0
 11
2602.8326740000002
 21
5200.1140249999999
 31
0.0
  0
LINE
  5
7B55
  8
1
  6
CONTINUOUS
 10
1594.3417529999999
 20
5675.1140249999999
 30
0.0
 11
2602.8326740000002
 21
5675.1140249999999
 31
0.0
  0
LINE
  5
7B56
  8
1
  6
CONTINUOUS
 10
1739.3417529999999
 20
5097.6140249999999
 30
0.0
 11
3009.3417530000002
 21
5097.6140249999999
 31
0.0
  0
LINE
  5
7B57
  8
1
  6
CONTINUOUS
 10
1739.3417529999999
 20
4957.6140249999999
 30
0.0
 11
3009.3417530000002
 21
4957.6140249999999
 31
0.0
  0
LINE
  5
7B58
  8
1
  6
CONTINUOUS
 10
3199.3417530000002
 20
4312.7218810000004
 30
0.0
 11
1499.3417529999999
 21
4312.7218810000004
 31
0.0
  0
LINE
  5
7B59
  8
1
  6
CONTINUOUS
 10
3199.3417530000002
 20
4852.6140249999999
 30
0.0
 11
1499.3417529999999
 21
4852.6140249999999
 31
0.0
  0
LINE
  5
7B5A
  8
1
  6
CONTINUOUS
 10
3199.3417530000002
 20
5802.6140249999999
 30
0.0
 11
1499.3417529999999
 21
5802.6140249999999
 31
0.0
  0
LINE
  5
7B5B
  8
1
  6
CONTINUOUS
 10
1549.3417529999999
 20
4902.6140249999999
 30
0.0
 11
1549.3417529999999
 21
5752.6140249999989
 31
0.0
  0
LINE
  5
7B5C
  8
1
  6
CONTINUOUS
 10
1634.3417529999999
 20
5200.1140249999999
 30
0.0
 11
1634.3417529999999
 21
5675.1140249999999
 31
0.0
  0
LINE
  5
7B5D
  8
1
  6
CONTINUOUS
 10
1594.3417529999999
 20
5157.6140249999999
 30
0.0
 11
1594.3417529999999
 21
5717.6140249999999
 31
0.0
  0
LINE
  5
7B5E
  8
1
  6
CONTINUOUS
 10
1499.3417529999999
 20
5802.6140249999999
 30
0.0
 11
1499.3417529999999
 21
4852.6140249999999
 31
0.0
  0
LINE
  5
7B5F
  8
1
  6
CONTINUOUS
 10
2229.3417530000002
 20
4992.6140249999999
 30
0.0
 11
1929.3417529999999
 21
4992.6140249999999
 31
0.0
  0
LINE
  5
7B60
  8
1
  6
CONTINUOUS
 10
2229.3417530000002
 20
5062.6140249999999
 30
0.0
 11
1929.3417529999999
 21
5062.6140249999999
 31
0.0
  0
LINE
  5
7B61
  8
1
  6
CONTINUOUS
 10
1929.3417529999999
 20
5026.6140249999999
 30
0.0
 11
1649.341752999999
 21
5026.6140249999999
 31
0.0
  0
LINE
  5
7B62
  8
1
  6
CONTINUOUS
 10
1739.3417529999999
 20
4957.6140249999999
 30
0.0
 11
1739.3417529999999
 21
5097.6140249999999
 31
0.0
  0
LINE
  5
7B63
  8
1
  6
CONTINUOUS
 10
1929.3417529999999
 20
4992.6140249999999
 30
0.0
 11
1929.3417529999999
 21
5062.6140249999999
 31
0.0
  0
LINE
  5
7B64
  8
1
  6
CONTINUOUS
 10
1649.341752999999
 20
5026.6140249999999
 30
0.0
 11
1649.341752999999
 21
5200.1140249999999
 31
0.0
  0
LINE
  5
7B65
  8
1
  6
CONTINUOUS
 10
2100.3417530000002
 20
5062.6140249999999
 30
0.0
 11
2100.3417530000002
 21
5200.1140249999999
 31
0.0
  0
LINE
  5
7B66
  8
1
  6
CONTINUOUS
 10
2058.3417530000002
 20
5062.6140249999999
 30
0.0
 11
2058.3417530000002
 21
5200.1140249999999
 31
0.0
  0
LINE
  5
7B67
  8
1
  6
CONTINUOUS
 10
2229.3417530000002
 20
4992.6140249999999
 30
0.0
 11
2229.3417530000002
 21
5062.6140249999999
 31
0.0
  0
LINE
  5
7B68
  8
1
  6
CONTINUOUS
 10
1649.341752999999
 20
5675.1140249999999
 30
0.0
 11
1649.341752999999
 21
5726.6140249999989
 31
0.0
  0
LINE
  5
7B75
  8
1
  6
CONTINUOUS
 10
3149.3417530000002
 20
5752.6140249999989
 30
0.0
 11
3149.3417530000002
 21
4902.6140249999999
 31
0.0
  0
LINE
  5
7B77
  8
1
  6
CONTINUOUS
 10
2602.8326740000002
 20
5200.1140249999999
 30
0.0
 11
2602.8326740000002
 21
5675.1140249999999
 31
0.0
  0
LINE
  5
7B78
  8
1
  6
CONTINUOUS
 10
3059.3417530000002
 20
5726.6140249999989
 30
0.0
 11
3059.3417530000002
 21
5026.6140249999999
 31
0.0
  0
LINE
  5
7B79
  8
1
  6
CONTINUOUS
 10
3199.3417530000002
 20
5802.6140249999999
 30
0.0
 11
3199.3417530000002
 21
4852.6140249999999
 31
0.0
  0
LINE
  5
7B7C
  8
1
  6
CONTINUOUS
 10
3059.3417530000002
 20
5026.6140249999999
 30
0.0
 11
2880.1906439999998
 21
5026.6140249999999
 31
0.0
  0
LINE
  5
7B7D
  8
1
  6
CONTINUOUS
 10
2779.1906439999998
 20
5062.6140249999999
 30
0.0
 11
2779.1906439999998
 21
5129.3459419999999
 31
0.0
  0
LINE
  5
7B7E
  8
1
  6
CONTINUOUS
 10
2821.1906439999998
 20
5062.6140249999999
 30
0.0
 11
2821.1906439999998
 21
5129.3459419999999
 31
0.0
  0
LINE
  5
7B7F
  8
1
  6
CONTINUOUS
 10
2880.1906439999998
 20
4992.6140249999999
 30
0.0
 11
2880.1906439999998
 21
5062.6140249999999
 31
0.0
  0
LINE
  5
7B80
  8
1
  6
CONTINUOUS
 10
2720.1906439999998
 20
4992.6140249999999
 30
0.0
 11
2720.1906439999998
 21
5062.6140249999999
 31
0.0
  0
LINE
  5
7B81
  8
1
  6
CONTINUOUS
 10
2880.1906439999998
 20
4992.6140249999999
 30
0.0
 11
2720.1906439999998
 21
4992.6140249999999
 31
0.0
  0
LINE
  5
7B82
  8
1
  6
CONTINUOUS
 10
2880.1906439999998
 20
5062.6140249999999
 30
0.0
 11
2720.1906439999998
 21
5062.6140249999999
 31
0.0
  0
LINE
  5
7B83
  8
1
  6
CONTINUOUS
 10
2962.1906439999998
 20
5129.3459419999999
 30
0.0
 11
2962.1906439999998
 21
5614.345941999999
 31
0.0
  0
LINE
  5
7B84
  8
1
  6
CONTINUOUS
 10
2638.1906439999998
 20
5129.3459419999999
 30
0.0
 11
2638.1906439999998
 21
5614.345941999999
 31
0.0
  0
LINE
  5
7B85
  8
1
  6
CONTINUOUS
 10
2962.1906439999998
 20
5129.3459419999999
 30
0.0
 11
2638.1906439999998
 21
5129.3459419999999
 31
0.0
  0
LINE
  5
7B86
  8
1
  6
CONTINUOUS
 10
2962.1906439999998
 20
5614.345941999999
 30
0.0
 11
2638.1906439999998
 21
5614.345941999999
 31
0.0
  0
LINE
  5
7B87
  8
1
  6
CONTINUOUS
 10
2638.1906439999998
 20
5451.0623900000001
 30
0.0
 11
2638.1906439999998
 21
5208.8153499999999
 31
0.0
  0
LINE
  5
7B88
  8
1
  6
CONTINUOUS
 10
3009.3417530000002
 20
4957.6140249999999
 30
0.0
 11
3009.3417530000002
 21
5097.6140249999999
 31
0.0
  0
LINE
  5
7BA5
  8
1
  6
CONTINUOUS
 10
5074.5412453112867
 20
4262.7218810000004
 30
0.0
 11
4224.5412453112876
 21
4262.7218810000004
 31
0.0
  0
LINE
  5
7BA6
  8
1
  6
CONTINUOUS
 10
4174.5412453112876
 20
4312.7218810000004
 30
0.0
 11
5124.5412453112876
 21
4312.7218810000004
 31
0.0
  0
LINE
  5
7BA7
  8
2
  6
CENTER
 10
4759.5412453112876
 20
4340.8081140000004
 30
0.0
 11
4759.5412453112876
 21
2461.9934039999998
 31
0.0
  0
LINE
  5
7BA8
  8
2
  6
CENTER
 10
3298.874773
 20
5437.6140249999999
 30
0.0
 11
1393.667735
 21
5437.6140249999999
 31
0.0
  0
LINE
  5
7BA9
  8
2
  6
CENTER
 10
2079.3417530000002
 20
4370.7183429999986
 30
0.0
 11
2079.3417530000002
 21
2546.416393
 31
0.0
  0
LINE
  5
7BAA
  8
2
  6
CENTER
 10
4184.707799311288
 20
3638.7218809999999
 30
0.0
 11
5245.3433743112882
 21
3638.7218809999999
 31
0.0
  0
DIMENSION
  5
7BBE
  8
3
  6
CONTINUOUS
  2
*D1
 10
1412.5663500000001
 20
3018.7218809999999
 30
0.0
 11
1412.5663500000001
 21
3328.0226120000002
 31
0.0
 70
   128
 13
1594.3417529999999
 23
3668.7218809999999
 33
0.0
 14
1594.3417529999999
 24
3018.7218809999999
 34
0.0
 50
90.0
1001
ACAD
1000
DSTYLE
1002
{
1070
   287
1070
     3
1070
   287
1070
     3
1070
    40
1040
30.0
1070
   143
1040
0.039
1070
   172
1070
     1
1070
   271
1070
     0
1070
   279
1070
     0
1070
   288
1070
     1
1002
}
  0
DIMENSION
  5
7BCB
  8
3
  6
CONTINUOUS
  2
*D2
 10
1239.6124589999999
 20
3018.7218809999999
 30
0.0
 11
1239.612458999999
 21
3334.9343369999988
 31
0.0
 70
   128
 13
1399.023966
 23
3638.7218809999999
 33
0.0
 14
1549.3417529999999
 24
3018.7218809999999
 34
0.0
 50
90.0
1001
ACAD
1000
DSTYLE
1002
{
1070
   287
1070
     3
1070
   287
1070
     3
1070
    40
1040
30.0
1070
   143
1040
0.039
1070
   172
1070
     1
1070
   271
1070
     0
1070
   279
1070
     0
1070
   288
1070
     1
1002
}
  0
DIMENSION
  5
7BD8
  8
3
  6
CONTINUOUS
  2
*D3
 10
1059.3467149999999
 20
2838.7218809999999
 30
0.0
 11
1059.3467149999999
 21
3203.4470139999989
 31
0.0
 70
   128
 13
1399.023966
 23
3638.7218809999999
 33
0.0
 14
1649.341752999999
 24
2838.7218809999999
 34
0.0
 50
90.0
1001
ACAD
1000
DSTYLE
1002
{
1070
   287
1070
     3
1070
   287
1070
     3
1070
    40
1040
30.0
1070
   143
1040
0.039
1070
   172
1070
     1
1070
   271
1070
     0
1070
   279
1070
     0
1070
   288
1070
     1
1002
}
  0
DIMENSION
  5
7BE8
  8
3
  6
CONTINUOUS
  2
*D4
 10
1059.8048719999999
 20
2762.7218809999999
 30
0.0
 11
1059.8048719999999
 21
2542.0075952857142
 31
0.0
 70
   128
 13
1649.341752999999
 23
2838.7218809999999
 33
0.0
 14
1499.3417529999999
 24
2762.7218809999999
 34
0.0
 50
90.0
1001
ACAD
1000
DSTYLE
1002
{
1070
   287
1070
     3
1070
   287
1070
     3
1070
    40
1040
30.0
1070
   143
1040
0.039
1070
   172
1070
     1
1070
   271
1070
     0
1070
   279
1070
     0
1070
   288
1070
     1
1002
}
  0
DIMENSION
  5
7C03
  8
3
  6
CONTINUOUS
  2
*D5
 10
5124.5412453112876
 20
2475.4771149999988
 30
0.0
 11
4922.6586883112868
 21
2474.8276559999999
 31
0.0
 70
   128
 13
4759.5412453112876
 23
2461.9934039999998
 33
0.0
 14
5124.5412453112876
 24
2762.7218809999999
 34
0.0
1001
ACAD
1000
DSTYLE
1002
{
1070
   287
1070
     4
1070
   287
1070
     4
1070
    40
1040
30.0
1070
    75
1070
     1
1070
   143
1040
0.039
1070
   172
1070
     1
1070
   271
1070
     0
1070
   279
1070
     1
1070
   288
1070
     1
1002
}
  0
DIMENSION
  5
7C10
  8
3
  6
CONTINUOUS
  2
*D6
 10
2079.3417530000002
 20
4420.2433819999987
 30
0.0
 11
1800.0560390000001
 21
4420.2433819999987
 31
0.0
 70
   128
 13
1594.3417529999999
 23
3708.7218809999999
 33
0.0
 14
2079.3417530000002
 24
4370.7183429999986
 34
0.0
1001
ACAD
1000
DSTYLE
1002
{
1070
   287
1070
     3
1070
   287
1070
     3
1070
    40
1040
30.0
1070
   143
1040
0.039
1070
   172
1070
     1
1070
   271
1070
     0
1070
   279
1070
     0
1070
   288
1070
     1
1002
}
  0
DIMENSION
  5
7C29
  8
3
  6
CONTINUOUS
  2
*D7
 10
2079.3417530000002
 20
2492.966073999999
 30
0.0
 11
1778.940396
 21
2492.966073999999
 31
0.0
 70
   128
 13
1499.3417529999999
 23
2762.7218809999999
 33
0.0
 14
2079.3417530000002
 24
2546.416393
 34
0.0
1001
ACAD
1000
DSTYLE
1002
{
1070
   287
1070
     3
1070
   287
1070
     3
1070
    40
1040
30.0
1070
   143
1040
0.039
1070
   172
1070
     1
1070
   271
1070
     0
1070
   279
1070
     0
1070
   288
1070
     1
1002
}
  0
DIMENSION
  5
7C35
  8
3
  6
CONTINUOUS
  2
*D8
 10
3199.3417530000002
 20
2492.966073999999
 30
0.0
 11
2639.3417530000002
 21
2567.9660739999999
 31
0.0
 70
     0
 13
2079.3417530000002
 23
2546.416393
 33
0.0
 14
3199.3417530000002
 24
2762.7218809999999
 34
0.0
1001
ACAD
1000
DSTYLE
1002
{
1070
   287
1070
     4
1070
   287
1070
     4
1070
    40
1040
30.0
1070
    75
1070
     1
1070
   143
1040
0.039
1070
   172
1070
     1
1070
   271
1070
     0
1070
   279
1070
     1
1070
   288
1070
     1
1002
}
  0
DIMENSION
  5
7C42
  8
3
  6
CONTINUOUS
  2
*D9
 10
4522.0412453112876
 20
4392.5889070000003
 30
0.0
 11
4727.7555313112871
 21
4392.5889070000003
 31
0.0
 70
   128
 13
4997.0412453112876
 23
4091.9763280000002
 33
0.0
 14
4522.0412453112876
 24
4091.9763280000002
 34
0.0
1001
ACAD
1000
DSTYLE
1002
{
1070
   287
1070
     3
1070
   287
1070
     3
1070
    40
1040
30.0
1070
   143
1040
0.039
1070
   172
1070
     1
1070
   271
1070
     0
1070
   279
1070
     0
1070
   288
1070
     1
1002
}
  0
LINE
  5
7C44
  8
1
  6
CONTINUOUS
 10
5000.5412453112867
 20
3303.721880999999
 30
0.0
 11
5000.5412453112867
 21
3973.7218809999999
 31
0.0
  0
DIMENSION
  5
7C53
  8
3
  6
CONTINUOUS
  2
*D10
 10
5404.7058033112889
 20
3303.721880999999
 30
0.0
 11
5404.705803311288
 21
3645.9184119999991
 31
0.0
 70
   128
 13
5000.5412453112867
 23
3973.7218809999999
 33
0.0
 14
5000.5412453112867
 24
3303.721880999999
 34
0.0
 50
90.0
1001
ACAD
1000
DSTYLE
1002
{
1070
   287
1070
     3
1070
   287
1070
     3
1070
     3
1000
φ<>
1070
    40
1040
30.0
1070
   143
1040
0.039
1070
   172
1070
     1
1070
   271
1070
     0
1070
   279
1070
     0
1070
   288
1070
     1
1002
}
  0
DIMENSION
  5
7C61
  8
3
  6
CONTINUOUS
  2
*D11
 10
4759.5412453112876
 20
4605.2850749999998
 30
0.0
 11
4870.4139086906434
 21
4703.1840835483054
 31
0.0
 70
   128
 13
5000.5412453112867
 23
3973.7218809999999
 33
0.0
 14
4759.5412453112876
 24
4544.8404399999999
 34
0.0
1001
ACAD
1000
DSTYLE
1002
{
1070
   288
1070
     1
1070
   172
1070
     1
1070
    40
1040
30.0
1070
   271
1070
     0
1070
   143
1040
0.039
1002
}
  0
DIMENSION
  5
7C7A
  8
3
  6
CONTINUOUS
  2
*D12
 10
4003.7830673112881
 20
2762.7218809999999
 30
0.0
 11
4003.7830673112881
 21
3542.2141750000001
 31
0.0
 70
   128
 13
4274.5412453112867
 23
4312.7218810000004
 33
0.0
 14
4274.5412453112867
 24
2762.7218809999999
 34
0.0
 50
90.0
1001
ACAD
1000
DSTYLE
1002
{
1070
   287
1070
     3
1070
   287
1070
     3
1070
    40
1040
30.0
1070
   143
1040
0.039
1070
   172
1070
     1
1070
   271
1070
     0
1070
   279
1070
     0
1070
   288
1070
     1
1002
}
  0
DIMENSION
  5
7C87
  8
3
  6
CONTINUOUS
  2
*D13
 10
3199.3417530000002
 20
5984.7653989999999
 30
0.0
 11
2277.1206139999999
 21
5984.7653989999999
 31
0.0
 70
   128
 13
1499.3417529999999
 23
5802.6140249999999
 33
0.0
 14
3199.3417530000002
 24
5802.6140249999999
 34
0.0
1001
ACAD
1000
DSTYLE
1002
{
1070
   287
1070
     3
1070
   287
1070
     3
1070
    40
1040
30.0
1070
   143
1040
0.039
1070
   172
1070
     1
1070
   271
1070
     0
1070
   279
1070
     0
1070
   288
1070
     1
1002
}
  0
LINE
  5
7C95
  8
4
  6
CONTINUOUS
 10
5550.0
 20
1500.0
 30
0.0
 11
5550.0
 21
900.0
 31
0.0
  0
LINE
  5
7C96
  8
4
  6
CONTINUOUS
 10
3450.0
 20
1500.0
 30
0.0
 11
3450.0
 21
900.0
 31
0.0
  0
LINE
  5
7C97
  8
4
  6
CONTINUOUS
 10
1950.0
 20
1500.0
 30
0.0
 11
1950.0
 21
900.0
 31
0.0
  0
LINE
  5
7C9A
  8
4
  6
CONTINUOUS
 10
1950.0
 20
900.0
 30
0.0
 11
5550.0
 21
900.0
 31
0.0
  0
LINE
  5
7C9B
  8
4
  6
CONTINUOUS
 10
1950.0
 20
1200.0
 30
0.0
 11
5550.0
 21
1200.0
 31
0.0
  0
TEXT
  5
7C9C
  8
4
  6
CONTINUOUS
 10
2065.5062429999989
 20
1294.6290779999999
 30
0.0
 40
150.0
  1
機器名称
  0
TEXT
  5
7C9D
  8
4
  6
CONTINUOUS
 10
2058.7743179999989
 20
964.9354699999999
 30
0.0
 40
150.0
  1
機器型番
  0
TEXT
  5
7C9E
  8
4
  6
CONTINUOUS
 10
3533.0362359999999
 20
1267.7153069999999
 30
0.0
 40
150.0
  1
ミツヤ多翼送風機
  0
TEXT
  5
7C9F
  8
4
  6
CONTINUOUS
 10
3559.9634869999991
 20
951.47875299999987
 30
0.0
 40
150.0
  1
MF#4-4
  0
TEXT
  5
7CA1
  8
4
  6
CONTINUOUS
 10
2177.6117170000002
 20
7150.2865239999992
 30
0.0
 40
162.0
  1
天井吊枠防振ベット
  0
TEXT
  5
7CA2
  8
4
  6
CONTINUOUS
 10
948.50278000000014
 20
7601.6429289999996
 30
0.0
 40
216.0
  1
ベルト駆動式片吸込両持多翼ファン
  0
LINE
  5
7CA3
  8
4
  6
CONTINUOUS
 10
750.0
 20
7408.2262629999996
 30
0.0
 11
5550.0
 21
7408.2262629999996
 31
0.0
  0
LINE
  5
7CA4
  8
4
  6
CONTINUOUS
 10
750.0
 20
8008.2262629999996
 30
0.0
 11
5550.0
 21
8008.2262629999996
 31
0.0
  0
LINE
  5
7CA5
  8
4
  6
CONTINUOUS
 10
1950.0
 20
1500.0
 30
0.0
 11
5550.0
 21
1500.0
 31
0.0
  0
LINE
  5
7CA6
  8
4
  6
CONTINUOUS
 10
750.0
 20
8008.2262629999996
 30
0.0
 11
750.0
 21
7408.2262629999996
 31
0.0
  0
TEXT
  5
7CA7
  8
4
  6
CONTINUOUS
 10
870.03521999999987
 20
7146.9584329999998
 30
0.0
 40
162.0
  1
右回転左横向
  0
TEXT
  5
7CA8
  8
4
  6
CONTINUOUS
 10
4406.9086779999989
 20
8118.1832439999989
 30
0.0
 40
168.0
  1
No.
  0
TEXT
  5
7CA9
  8
4
  6
CONTINUOUS
 10
4127.9792870000001
 20
7150.2865239999992
 30
0.0
 40
162.0
  1
縮尺：1/30
  0
LINE
  5
7CAA
  8
4
  6
CONTINUOUS
 10
5550.0
 20
8008.2262629999996
 30
0.0
 11
5550.0
 21
7408.2262629999996
 31
0.0
  0
LINE
  5
7CAC
  8
4
  6
CONTINUOUS
 10
4321.8522670000002
 20
8043.7907490000007
 30
0.0
 11
4321.8522670000002
 21
8359.9567849999985
 31
0.0
  0
LINE
  5
7CAD
  8
4
  6
CONTINUOUS
 10
4321.8522670000002
 20
8359.9567849999985
 30
0.0
 11
5550.0
 21
8359.9567849999985
 31
0.0
  0
LINE
  5
7CAE
  8
4
  6
CONTINUOUS
 10
5550.0
 20
8359.9567849999985
 30
0.0
 11
5550.0
 21
8043.7907490000007
 31
0.0
  0
LINE
  5
7CAF
  8
4
  6
CONTINUOUS
 10
5550.0
 20
8043.7907490000007
 30
0.0
 11
4321.8522670000002
 21
8043.7907490000007
 31
0.0
  0
DIMENSION
  5
7D00
  8
3
  6
CONTINUOUS
  2
*D14
 10
3473.2537470000002
 20
4852.6140249999999
 30
0.0
 11
3473.2537469999988
 21
5312.8439639999988
 31
0.0
 70
   128
 13
3199.3417530000002
 23
5802.6140249999999
 33
0.0
 14
3199.3417530000002
 24
4852.6140249999999
 34
0.0
 50
90.0
1001
ACAD
1000
DSTYLE
1002
{
1070
   287
1070
     3
1070
   287
1070
     3
1070
    40
1040
30.0
1070
   143
1040
0.039
1070
   172
1070
     1
1070
   271
1070
     0
1070
   279
1070
     0
1070
   288
1070
     1
1002
}
  0
DIMENSION
  5
7D0C
  8
3
  6
CONTINUOUS
  2
*D15
 10
4174.5412453112876
 20
2475.4771149999988
 30
0.0
 11
4467.0412453112867
 21
2550.4771149999988
 31
0.0
 70
     0
 13
4759.5412453112876
 23
2461.9934039999998
 33
0.0
 14
4174.5412453112876
 24
2762.7218809999999
 34
0.0
1001
ACAD
1000
DSTYLE
1002
{
1070
   287
1070
     3
1070
   287
1070
     3
1070
    40
1040
30.0
1070
   143
1040
0.039
1070
   172
1070
     1
1070
   271
1070
     0
1070
   279
1070
     0
1070
   288
1070
     1
1002
}
  0
DIMENSION
  5
7DC0
  8
3
  2
*D16
 10
2601.3417529999988
 20
4420.2433819999987
 30
0.0
 11
2340.3417530000002
 21
4495.2433819999987
 31
0.0
 70
     0
 13
2079.3417530000002
 23
4370.7183429999986
 33
0.0
 14
2601.3417529999988
 24
3597.7218809999999
 34
0.0
1001
ACAD
1000
DSTYLE
1002
{
1070
   287
1070
     4
1070
   287
1070
     4
1070
    40
1040
30.0
1070
    75
1070
     1
1070
   143
1040
0.039
1070
   172
1070
     1
1070
   271
1070
     0
1070
   279
1070
     1
1070
   288
1070
     1
1002
}
  0
LINE
  5
7E13
  8
1
  6
CONTINUOUS
 10
2489.3417529999988
 20
3916.3996784453511
 30
0.0
 11
2489.3417530000002
 21
2938.7218809999999
 31
0.0
  0
LINE
  5
7E14
  8
1
  6
CONTINUOUS
 10
1669.3417529999999
 20
3758.7218809999999
 30
0.0
 11
1669.3417529999999
 21
2938.7218809999999
 31
0.0
  0
LINE
  5
7E15
  8
1
  6
CONTINUOUS
 10
1669.341752999999
 20
3758.721880999999
 30
0.0
 11
2489.3417530000002
 21
3758.7218809999999
 31
0.0
  0
DIMENSION
  5
7E17
  8
3
  2
*D17
 10
1059.3467149999999
 20
4091.9107840030042
 30
0.0
 11
984.34671499999956
 21
3865.316332501503
 31
0.0
 70
     0
  1
452
 13
1399.023966
 23
3638.7218809999999
 33
0.0
 14
2106.3417530000002
 24
4091.9107840030042
 34
0.0
 50
90.0
1001
ACAD
1000
DSTYLE
1002
{
1070
   287
1070
     4
1070
   287
1070
     4
1070
    40
1040
30.0
1070
   143
1040
0.039
1070
   172
1070
     1
1070
   271
1070
     0
1070
   279
1070
     1
1070
   288
1070
     1
1002
}
  0
ENDSEC
  0
EOF
