  0
SECTION
  2
HEADER
  9
$ACADVER
  1
AC1009
  9
$INSBASE
 10
0.0
 20
0.0
 30
0.0
  9
$EXTMIN
 10
750.0
 20
900.0
 30
0.0
  9
$EXTMAX
 10
5550.0
 20
8359.9567849999985
 30
0.0
  9
$LIMMIN
 10
0.0
 20
0.0
  9
$LIMMAX
 10
297.0
 20
210.0
  9
$ORTHOMODE
 70
     0
  9
$REGENMODE
 70
     1
  9
$FILLMODE
 70
     0
  9
$QTEXTMODE
 70
     0
  9
$MIRRTEXT
 70
     1
  9
$DRAGMODE
 70
     2
  9
$LTSCALE
 40
100.0
  9
$OSMODE
 70
    37
  9
$ATTMODE
 70
     1
  9
$TEXTSIZE
 40
180.0
  9
$TRACEWID
 40
0.05
  9
$TEXTSTYLE
  7
STANDARD
  9
$CLAYER
  8
3
  9
$CELTYPE
  6
BYLAYER
  9
$CECOLOR
 62
   256
  9
$DIMSCALE
 40
30.0
  9
$DIMASZ
 40
2.0
  9
$DIMEXO
 40
0.5
  9
$DIMDLI
 40
10.0
  9
$DIMRND
 40
0.0
  9
$DIMDLE
 40
0.0
  9
$DIMEXE
 40
1.0
  9
$DIMTP
 40
1.0
  9
$DIMTM
 40
1.0
  9
$DIMTXT
 40
3.0
  9
$DIMCEN
 40
0.0
  9
$DIMTSZ
 40
0.0
  9
$DIMTOL
 70
     0
  9
$DIMLIM
 70
     0
  9
$DIMTIH
 70
     0
  9
$DIMTOH
 70
     0
  9
$DIMSE1
 70
     0
  9
$DIMSE2
 70
     0
  9
$DIMTAD
 70
     1
  9
$DIMZIN
 70
     8
  9
$DIMBLK
  1

  9
$DIMASO
 70
     1
  9
$DIMSHO
 70
     1
  9
$DIMPOST
  1

  9
$DIMAPOST
  1

  9
$DIMALT
 70
     0
  9
$DIMALTD
 70
     2
  9
$DIMALTF
 40
0.039
  9
$DIMLFAC
 40
1.0
  9
$DIMTOFL
 70
     1
  9
$DIMTVP
 40
0.0
  9
$DIMTIX
 70
     0
  9
$DIMSOXD
 70
     0
  9
$DIMSAH
 70
     1
  9
$DIMBLK1
  1
OPEN
  9
$DIMBLK2
  1
OPEN
  9
$DIMSTYLE
  2
IGA
  9
$DIMCLRD
 70
     0
  9
$DIMCLRE
 70
     0
  9
$DIMCLRT
 70
     0
  9
$DIMTFAC
 40
10.0
  9
$DIMGAP
 40
1.0
  9
$LUNITS
 70
     2
  9
$LUPREC
 70
     3
  9
$SKETCHINC
 40
0.1
  9
$FILLETRAD
 40
50.0
  9
$AUNITS
 70
     0
  9
$AUPREC
 70
     0
  9
$MENU
  1
acad
  9
$ELEVATION
 40
0.0
  9
$PELEVATION
 40
0.0
  9
$THICKNESS
 40
0.0
  9
$LIMCHECK
 70
     0
  9
$BLIPMODE
 70
     0
  9
$CHAMFERA
 40
0.5
  9
$CHAMFERB
 40
0.5
  9
$SKPOLY
 70
     0
  9
$TDCREATE
 40
2450742.5773762721
  9
$TDUPDATE
 40
2454953.7711868752
  9
$TDINDWG
 40
0.0066033333
  9
$TDUSRTIMER
 40
0.0066033333
  9
$USRTIMER
 70
     1
  9
$ANGBASE
 50
0.0
  9
$ANGDIR
 70
     0
  9
$PDMODE
 70
     0
  9
$PDSIZE
 40
0.0
  9
$PLINEWID
 40
0.0
  9
$COORDS
 70
     1
  9
$SPLFRAME
 70
     0
  9
$SPLINETYPE
 70
     6
  9
$SPLINESEGS
 70
     8
  9
$ATTDIA
 70
     0
  9
$ATTREQ
 70
     1
  9
$HANDLING
 70
 10241
  9
$HANDSEED
  5
7F43
  9
$SURFTAB1
 70
     6
  9
$SURFTAB2
 70
     6
  9
$SURFTYPE
 70
     6
  9
$SURFU
 70
     6
  9
$SURFV
 70
     6
  9
$UCSNAME
  2

  9
$UCSORG
 10
0.0
 20
0.0
 30
0.0
  9
$UCSXDIR
 10
1.0
 20
0.0
 30
0.0
  9
$UCSYDIR
 10
0.0
 20
1.0
 30
0.0
  9
$PUCSNAME
  2

  9
$PUCSORG
 10
0.0
 20
0.0
 30
0.0
  9
$PUCSXDIR
 10
1.0
 20
0.0
 30
0.0
  9
$PUCSYDIR
 10
0.0
 20
1.0
 30
0.0
  9
$USERI1
 70
     0
  9
$USERI2
 70
     0
  9
$USERI3
 70
     0
  9
$USERI4
 70
     0
  9
$USERI5
 70
     0
  9
$USERR1
 40
0.0
  9
$USERR2
 40
0.0
  9
$USERR3
 40
0.0
  9
$USERR4
 40
0.0
  9
$USERR5
 40
0.0
  9
$WORLDVIEW
 70
     1
  9
$SHADEDGE
 70
     3
  9
$SHADEDIF
 70
    70
  9
$TILEMODE
 70
     1
  9
$MAXACTVP
 70
    16
  9
$PLIMCHECK
 70
     0
  9
$PEXTMIN
 10
1.0000000000000000E+020
 20
1.0000000000000000E+020
 30
1.0000000000000000E+020
  9
$PEXTMAX
 10
-1.0000000000000000E+020
 20
-1.0000000000000000E+020
 30
-1.0000000000000000E+020
  9
$PLIMMIN
 10
0.0
 20
0.0
  9
$PLIMMAX
 10
12.0
 20
9.0
  9
$UNITMODE
 70
     0
  9
$VISRETAIN
 70
     0
  9
$PLINEGEN
 70
     0
  9
$PSLTSCALE
 70
     1
  0
ENDSEC
  0
SECTION
  2
TABLES
  0
TABLE
  2
VPORT
 70
     2
  0
VPORT
  2
*ACTIVE
 70
     0
 10
0.0
 20
0.0
 11
1.0
 21
1.0
 12
9438.4567678319436
 22
4630.0975558305709
 13
0.0
 23
0.0
 14
10.0
 24
10.0
 15
10.0
 25
10.0
 16
0.0
 26
0.0
 36
1.0
 17
0.0
 27
0.0
 37
0.0
 40
7517.4747125171307
 41
3.1666666666666661
 42
50.0
 43
0.0
 44
0.0
 50
0.0
 51
0.0
 71
     0
 72
   100
 73
     1
 74
     0
 75
     0
 76
     0
 77
     0
 78
     0
  0
ENDTAB
  0
TABLE
  2
LTYPE
 70
     2
  0
LTYPE
  2
CONTINUOUS
 70
     0
  3
Solid line
 72
    65
 73
     0
 40
0.0
  0
LTYPE
  2
CENTER
 70
     0
  3
____ _ ____ _ ____ _ ____ _ ____ _ ____ _ ____ 
 72
    65
 73
     4
 40
2.0
 49
1.25
 49
-0.25
 49
0.25
 49
-0.25
  0
ENDTAB
  0
TABLE
  2
LAYER
 70
     6
  0
LAYER
  2
0
 70
     0
 62
     7
  6
CONTINUOUS
  0
LAYER
  2
3
 70
     0
 62
     2
  6
CONTINUOUS
  0
LAYER
  2
2
 70
     0
 62
     3
  6
CENTER
  0
LAYER
  2
1
 70
     0
 62
     4
  6
CONTINUOUS
  0
LAYER
  2
4
 70
     0
 62
     7
  6
CONTINUOUS
  0
LAYER
  2
DEFPOINTS
 70
     0
 62
     7
  6
CONTINUOUS
  0
ENDTAB
  0
TABLE
  2
STYLE
 70
     1
  0
STYLE
  2
STANDARD
 70
     0
 40
0.0
 41
1.0
 50
0.0
 71
     0
 42
180.0
  3
simplex.shx
  4
extfont.shx
  0
ENDTAB
  0
TABLE
  2
VIEW
 70
     0
  0
ENDTAB
  0
TABLE
  2
UCS
 70
     0
  0
ENDTAB
  0
TABLE
  2
APPID
 70
     1
  0
APPID
  2
ACAD
 70
     0
  0
ENDTAB
  0
TABLE
  2
DIMSTYLE
 70
     1
  0
DIMSTYLE
  2
IGA
 70
     0
  3

  4

  5

  6
OPEN
  7
OPEN
 40
2.0
 41
2.0
 42
0.5
 43
10.0
 44
1.0
 45
0.0
 46
0.0
 47
1.0
 48
1.0
140
3.0
141
0.0
142
0.0
143
0.03937
144
1.0
145
0.0
146
10.0
147
1.0
 71
     0
 72
     0
 73
     0
 74
     0
 75
     0
 76
     0
 77
     1
 78
     8
170
     0
171
     2
172
     0
173
     1
174
     0
175
     0
176
     0
177
     0
178
     0
  0
ENDTAB
  0
ENDSEC
  0
SECTION
  2
BLOCKS
  0
BLOCK
  8
0
  2
$MODEL_SPACE
 70
     0
 10
0.0
 20
0.0
 30
0.0
  3
$MODEL_SPACE
  1

  0
ENDBLK
  5
1B
  8
0
  0
BLOCK
 67
     1
  8
0
  2
$PAPER_SPACE
 70
     0
 10
0.0
 20
0.0
 30
0.0
  3
$PAPER_SPACE
  1

  0
ENDBLK
  5
18
 67
     1
  8
0
  0
BLOCK
  8
0
  2
_OPEN
 70
     0
 10
0.0
 20
0.0
 30
0.0
  3
_OPEN
  1

  0
LINE
  5
7AFF
  8
0
  6
BYBLOCK
 62
     0
 10
-1.0
 20
0.166667
 30
0.0
 11
0.0
 21
0.0
 31
0.0
  0
LINE
  5
7B00
  8
0
  6
BYBLOCK
 62
     0
 10
0.0
 20
0.0
 30
0.0
 11
-1.0
 21
-0.166667
 31
0.0
  0
LINE
  5
7B01
  8
0
  6
BYBLOCK
 62
     0
 10
0.0
 20
0.0
 30
0.0
 11
-1.0
 21
0.0
 31
0.0
  0
ENDBLK
  5
7B02
  8
0
  0
BLOCK
  8
0
  2
*D1
 70
     1
 10
0.0
 20
0.0
 30
0.0
  3
*D1
  1

  0
LINE
  5
7EAC
  8
3
  6
CONTINUOUS
 62
     0
 10
1671.0329939999999
 20
3675.07494214091
 30
0.0
 11
1671.0329939999999
 21
3834.5760821409099
 31
0.0
  0
LINE
  5
7EAD
  8
3
  6
CONTINUOUS
 62
     0
 10
2321.0329940000001
 20
3675.07494214091
 30
0.0
 11
2321.0329940000001
 21
3834.5760821409099
 31
0.0
  0
LINE
  5
7EAE
  8
3
  6
CONTINUOUS
 62
     0
 10
1731.0329939999999
 20
3804.5760821409099
 30
0.0
 11
2261.0329940000001
 21
3804.5760821409099
 31
0.0
  0
INSERT
  5
7EAF
  8
3
  6
CONTINUOUS
 62
     0
  2
_OPEN
 10
1671.0329939999999
 20
3804.5760821409099
 30
0.0
 41
60.0
 42
60.0
 43
60.0
 50
180.0
  0
INSERT
  5
7EB0
  8
3
  6
CONTINUOUS
 62
     0
  2
_OPEN
 10
2321.0329940000001
 20
3804.5760821409099
 30
0.0
 41
60.0
 42
60.0
 43
60.0
  0
TEXT
  8
3
  40
90
  5
7F34
  62
0
  72
0
  71
0
 10
1812.79
 20
3720.28
 30
0.000000
  1
650
  0
POINT
  5
7EB2
  8
DEFPOINTS
  6
CONTINUOUS
 62
     0
 10
1671.0329939999999
 20
3660.07494214091
 30
0.0
  0
POINT
  5
7EB3
  8
DEFPOINTS
  6
CONTINUOUS
 62
     0
 10
2321.0329940000001
 20
3660.07494214091
 30
0.0
  0
POINT
  5
7EB4
  8
DEFPOINTS
  6
CONTINUOUS
 62
     0
 10
2321.0329940000001
 20
3804.5760821409099
 30
0.0
  0
ENDBLK
  5
7B0F
  8
0
  0
BLOCK
  8
0
  2
*D2
 70
     1
 10
0.0
 20
0.0
 30
0.0
  3
*D2
  1

  0
LINE
  5
7EB5
  8
3
  6
CONTINUOUS
 62
     0
 10
1671.0329939999999
 20
3675.07494214091
 30
0.0
 11
1671.0329939999999
 21
4218.1417741409095
 31
0.0
  0
LINE
  5
7EB6
  8
3
  6
CONTINUOUS
 62
     0
 10
2291.0329940000001
 20
4195.4684511409096
 30
0.0
 11
2291.0329940000001
 21
4218.1417741409095
 31
0.0
  0
LINE
  5
7EB7
  8
3
  6
CONTINUOUS
 62
     0
 10
1731.0329939999999
 20
4188.1417741409095
 30
0.0
 11
2231.0329940000001
 21
4188.1417741409095
 31
0.0
  0
INSERT
  5
7EB8
  8
3
  6
CONTINUOUS
 62
     0
  2
_OPEN
 10
1671.0329939999999
 20
4188.1417741409095
 30
0.0
 41
60.0
 42
60.0
 43
60.0
 50
180.0
  0
INSERT
  5
7EB9
  8
3
  6
CONTINUOUS
 62
     0
  2
_OPEN
 10
2291.0329940000001
 20
4188.1417741409095
 30
0.0
 41
60.0
 42
60.0
 43
60.0
  0
TEXT
  8
3
  40
90
  5
7F35
  62
0
  72
0
  71
0
 10
1812.79
 20
4103.84
 30
0.000000
  1
620
  0
POINT
  5
7EBB
  8
DEFPOINTS
  6
CONTINUOUS
 62
     0
 10
1671.0329939999999
 20
3660.07494214091
 30
0.0
  0
POINT
  5
7EBC
  8
DEFPOINTS
  6
CONTINUOUS
 62
     0
 10
2291.0329940000001
 20
4180.4684511409096
 30
0.0
  0
POINT
  5
7EBD
  8
DEFPOINTS
  6
CONTINUOUS
 62
     0
 10
2291.0329940000001
 20
4188.1417741409095
 30
0.0
  0
ENDBLK
  5
7B1C
  8
0
  0
BLOCK
  8
0
  2
*D3
 70
     1
 10
0.0
 20
0.0
 30
0.0
  3
*D3
  1

  0
LINE
  5
7EBE
  8
3
  6
CONTINUOUS
 62
     0
 10
2376.0329940000001
 20
3660.07494214091
 30
0.0
 11
3218.702647000001
 21
3660.07494214091
 31
0.0
  0
LINE
  5
7EBF
  8
3
  6
CONTINUOUS
 62
     0
 10
3110.1056229999999
 20
3175.07494214091
 30
0.0
 11
3218.702647000001
 21
3175.07494214091
 31
0.0
  0
LINE
  5
7EC0
  8
3
  6
CONTINUOUS
 62
     0
 10
3188.702647000001
 20
3720.07494214091
 30
0.0
 11
3188.702647000001
 21
3780.07494214091
 31
0.0
  0
LINE
  5
7EC1
  8
3
  6
CONTINUOUS
 62
     0
 10
3188.702647000001
 20
3115.07494214091
 30
0.0
 11
3188.7026470000001
 21
3055.07494214091
 31
0.0
  0
LINE
  5
7EC2
  8
3
  6
CONTINUOUS
 62
     0
 10
3188.702647000001
 20
3660.07494214091
 30
0.0
 11
3188.702647000001
 21
3175.07494214091
 31
0.0
  0
INSERT
  5
7EC3
  8
3
  6
CONTINUOUS
 62
     0
  2
_OPEN
 10
3188.702647000001
 20
3660.07494214091
 30
0.0
 41
60.0
 42
60.0
 43
60.0
 50
270.0
  0
INSERT
  5
7EC4
  8
3
  6
CONTINUOUS
 62
     0
  2
_OPEN
 10
3188.702647000001
 20
3175.07494214091
 30
0.0
 41
60.0
 42
60.0
 43
60.0
 50
90.0
  0
TEXT
  8
3
  40
90
  5
7F36
  62
0
  72
0
  71
0
 10
2933.70
 20
3221.49
 30
0.000000
  1
485
  0
POINT
  5
7EC6
  8
DEFPOINTS
  6
CONTINUOUS
 62
     0
 10
2361.0329940000001
 20
3660.07494214091
 30
0.0
  0
POINT
  5
7EC7
  8
DEFPOINTS
  6
CONTINUOUS
 62
     0
 10
3095.1056229999999
 20
3175.07494214091
 30
0.0
  0
POINT
  5
7EC8
  8
DEFPOINTS
  6
CONTINUOUS
 62
     0
 10
3188.702647000001
 20
3175.07494214091
 30
0.0
  0
ENDBLK
  5
7C64
  8
0
  0
BLOCK
  8
0
  2
*D4
 70
     1
 10
0.0
 20
0.0
 30
0.0
  3
*D4
  1

  0
LINE
  5
7EC9
  8
3
  6
CONTINUOUS
 62
     0
 10
2736.0329940000001
 20
2605.07494214091
 30
0.0
 11
3218.7026470000001
 21
2605.0749421409091
 31
0.0
  0
LINE
  5
7ECA
  8
3
  6
CONTINUOUS
 62
     0
 10
3188.7026470000001
 20
3115.07494214091
 30
0.0
 11
3188.7026470000001
 21
2665.0749421409091
 31
0.0
  0
INSERT
  5
7ECB
  8
3
  6
CONTINUOUS
 62
     0
  2
_OPEN
 10
3188.7026470000001
 20
3175.07494214091
 30
0.0
 41
60.0
 42
60.0
 43
60.0
 50
90.0
  0
INSERT
  5
7ECC
  8
3
  6
CONTINUOUS
 62
     0
  2
_OPEN
 10
3188.7026470000001
 20
2605.0749421409091
 30
0.0
 41
60.0
 42
60.0
 43
60.0
 50
270.0
  0
TEXT
  8
3
  40
90
  5
7F37
  62
0
  72
0
  71
0
 10
2933.70
 20
2730.77
 30
0.000000
  1
570
  0
POINT
  5
7ECE
  8
DEFPOINTS
  6
CONTINUOUS
 62
     0
 10
3095.1056229999999
 20
3175.07494214091
 30
0.0
  0
POINT
  5
7ECF
  8
DEFPOINTS
  6
CONTINUOUS
 62
     0
 10
2721.0329940000001
 20
2605.07494214091
 30
0.0
  0
POINT
  5
7ED0
  8
DEFPOINTS
  6
CONTINUOUS
 62
     0
 10
3188.7026470000001
 20
2605.0749421409091
 30
0.0
  0
ENDBLK
  5
7C59
  8
0
  0
BLOCK
  8
0
  2
*D5
 70
     1
 10
0.0
 20
0.0
 30
0.0
  3
*D5
  1

  0
LINE
  5
7ED1
  8
3
  6
CONTINUOUS
 62
     0
 10
2736.0329940000001
 20
2605.07494214091
 30
0.0
 11
3216.3852550000001
 21
2605.0749421409091
 31
0.0
  0
LINE
  5
7ED2
  8
3
  6
CONTINUOUS
 62
     0
 10
2886.0329940000001
 20
2529.07494214091
 30
0.0
 11
3216.3852550000001
 21
2529.0749421409091
 31
0.0
  0
LINE
  5
7ED3
  8
3
  6
CONTINUOUS
 62
     0
 10
3186.3852550000011
 20
2665.0749421409091
 30
0.0
 11
3186.3852550000011
 21
2725.0749421409091
 31
0.0
  0
LINE
  5
7ED4
  8
3
  6
CONTINUOUS
 62
     0
 10
3186.3852550000011
 20
2469.0749421409091
 30
0.0
 11
3186.3852550000011
 21
2207.646370712338
 31
0.0
  0
LINE
  5
7ED5
  8
3
  6
CONTINUOUS
 62
     0
 10
3186.3852550000011
 20
2605.0749421409091
 30
0.0
 11
3186.3852550000011
 21
2529.0749421409091
 31
0.0
  0
INSERT
  5
7ED6
  8
3
  6
CONTINUOUS
 62
     0
  2
_OPEN
 10
3186.3852550000011
 20
2605.0749421409091
 30
0.0
 41
60.0
 42
60.0
 43
60.0
 50
270.0
  0
INSERT
  5
7ED7
  8
3
  6
CONTINUOUS
 62
     0
  2
_OPEN
 10
3186.3852550000011
 20
2529.0749421409091
 30
0.0
 41
60.0
 42
60.0
 43
60.0
 50
90.0
  0
TEXT
  8
3
  40
90
  5
7F38
  62
0
  72
0
  71
0
 10
2931.39
 20
2149.06
 30
0.000000
  1
76
  0
POINT
  5
7ED9
  8
DEFPOINTS
  6
CONTINUOUS
 62
     0
 10
2721.0329940000001
 20
2605.07494214091
 30
0.0
  0
POINT
  5
7EDA
  8
DEFPOINTS
  6
CONTINUOUS
 62
     0
 10
2871.0329940000001
 20
2529.07494214091
 30
0.0
  0
POINT
  5
7EDB
  8
DEFPOINTS
  6
CONTINUOUS
 62
     0
 10
3186.3852550000011
 20
2529.0749421409091
 30
0.0
  0
ENDBLK
  5
7D01
  8
0
  0
BLOCK
  8
0
  2
*D6
 70
     1
 10
0.0
 20
0.0
 30
0.0
  3
*D6
  1

  0
LINE
  5
7EDC
  8
3
  6
CONTINUOUS
 62
     0
 10
1171.0329939999999
 20
2514.07494214091
 30
0.0
 11
1171.0329939999999
 21
2242.84093114091
 31
0.0
  0
LINE
  5
7EDD
  8
3
  6
CONTINUOUS
 62
     0
 10
2291.0329940000001
 20
2272.3147911409101
 30
0.0
 11
2291.0329940000001
 21
2242.84093114091
 31
0.0
  0
LINE
  5
7EDE
  8
3
  6
CONTINUOUS
 62
     0
 10
1231.0329939999999
 20
2272.84093114091
 30
0.0
 11
2231.0329940000001
 21
2272.84093114091
 31
0.0
  0
INSERT
  5
7EDF
  8
3
  6
CONTINUOUS
 62
     0
  2
_OPEN
 10
1171.0329939999999
 20
2272.84093114091
 30
0.0
 41
60.0
 42
60.0
 43
60.0
 50
180.0
  0
INSERT
  5
7EE0
  8
3
  6
CONTINUOUS
 62
     0
  2
_OPEN
 10
2291.0329940000001
 20
2272.84093114091
 30
0.0
 41
60.0
 42
60.0
 43
60.0
  0
TEXT
  8
3
  40
90
  5
7F39
  62
0
  72
0
  71
0
 10
1578.53
 20
2188.54
 30
0.000000
  1
1120
  0
POINT
  5
7EE2
  8
DEFPOINTS
  6
CONTINUOUS
 62
     0
 10
1171.0329939999999
 20
2529.07494214091
 30
0.0
  0
POINT
  5
7EE3
  8
DEFPOINTS
  6
CONTINUOUS
 62
     0
 10
2291.0329940000001
 20
2287.3147911409101
 30
0.0
  0
POINT
  5
7EE4
  8
DEFPOINTS
  6
CONTINUOUS
 62
     0
 10
2291.0329940000001
 20
2272.84093114091
 30
0.0
  0
ENDBLK
  5
7C43
  8
0
  0
BLOCK
  8
0
  2
*D7
 70
     1
 10
0.0
 20
0.0
 30
0.0
  3
*D7
  1

  0
LINE
  5
7EE5
  8
3
  6
CONTINUOUS
 62
     0
 10
2871.0329940000001
 20
2514.07494214091
 30
0.0
 11
2871.0329940000001
 21
2242.84093114091
 31
0.0
  0
LINE
  5
7EE6
  8
3
  6
CONTINUOUS
 62
     0
 10
2351.0329940000001
 20
2272.84093114091
 30
0.0
 11
2811.0329940000001
 21
2272.84093114091
 31
0.0
  0
INSERT
  5
7EE7
  8
3
  6
CONTINUOUS
 62
     0
  2
_OPEN
 10
2291.0329940000001
 20
2272.84093114091
 30
0.0
 41
60.0
 42
60.0
 43
60.0
 50
180.0
  0
INSERT
  5
7EE8
  8
3
  6
CONTINUOUS
 62
     0
  2
_OPEN
 10
2871.0329940000001
 20
2272.84093114091
 30
0.0
 41
60.0
 42
60.0
 43
60.0
  0
TEXT
  8
3
  40
90
  5
7F3A
  62
0
  72
0
  71
0
 10
2401.03
 20
2188.54
 30
0.000000
  1
580
  0
POINT
  5
7EEA
  8
DEFPOINTS
  6
CONTINUOUS
 62
     0
 10
2291.0329940000001
 20
2287.3147911409101
 30
0.0
  0
POINT
  5
7EEB
  8
DEFPOINTS
  6
CONTINUOUS
 62
     0
 10
2871.0329940000001
 20
2529.07494214091
 30
0.0
  0
POINT
  5
7EEC
  8
DEFPOINTS
  6
CONTINUOUS
 62
     0
 10
2871.0329940000001
 20
2272.84093114091
 30
0.0
  0
ENDBLK
  5
7C38
  8
0
  0
BLOCK
  8
0
  2
*D8
 70
     1
 10
0.0
 20
0.0
 30
0.0
  3
*D8
  1

  0
LINE
  5
7EED
  8
3
  6
CONTINUOUS
 62
     0
 10
4923.1060749999988
 20
3675.07494214091
 30
0.0
 11
4923.1060749999988
 21
4179.1351071409099
 31
0.0
  0
LINE
  5
7EEE
  8
3
  6
CONTINUOUS
 62
     0
 10
4448.1060749999997
 20
3675.07494214091
 30
0.0
 11
4448.1060749999997
 21
4179.1351071409099
 31
0.0
  0
LINE
  5
7EEF
  8
3
  6
CONTINUOUS
 62
     0
 10
4863.1060749999997
 20
4149.1351071409099
 30
0.0
 11
4508.1060749999988
 21
4149.1351071409099
 31
0.0
  0
INSERT
  5
7EF0
  8
3
  6
CONTINUOUS
 62
     0
  2
_OPEN
 10
4923.1060749999988
 20
4149.1351071409099
 30
0.0
 41
60.0
 42
60.0
 43
60.0
  0
INSERT
  5
7EF1
  8
3
  6
CONTINUOUS
 62
     0
  2
_OPEN
 10
4448.1060749999997
 20
4149.1351071409099
 30
0.0
 41
60.0
 42
60.0
 43
60.0
 50
180.0
  0
TEXT
  8
3
  40
90
  5
7F3B
  62
0
  72
0
  71
0
 10
4473.82
 20
4064.84
 30
0.000000
  1
475
  0
POINT
  5
7EF3
  8
DEFPOINTS
  6
CONTINUOUS
 62
     0
 10
4923.1060749999988
 20
3660.07494214091
 30
0.0
  0
POINT
  5
7EF4
  8
DEFPOINTS
  6
CONTINUOUS
 62
     0
 10
4448.1060749999997
 20
3660.07494214091
 30
0.0
  0
POINT
  5
7EF5
  8
DEFPOINTS
  6
CONTINUOUS
 62
     0
 10
4448.1060749999997
 20
4149.1351071409099
 30
0.0
  0
ENDBLK
  5
7B77
  8
0
  0
BLOCK
  8
0
  2
*D9
 70
     1
 10
0.0
 20
0.0
 30
0.0
  3
*D9
  1

  0
LINE
  5
7EF6
  8
3
  6
CONTINUOUS
 62
     0
 10
4941.6060749999997
 20
3510.07494214091
 30
0.0
 11
5319.5655320000014
 21
3510.07494214091
 31
0.0
  0
LINE
  5
7EF7
  8
3
  6
CONTINUOUS
 62
     0
 10
4941.6060749999997
 20
2840.07494214091
 30
0.0
 11
5319.5655320000014
 21
2840.0749421409091
 31
0.0
  0
LINE
  5
7EF8
  8
3
  6
CONTINUOUS
 62
     0
 10
5289.5655320000014
 20
3450.07494214091
 30
0.0
 11
5289.5655320000014
 21
2900.0749421409091
 31
0.0
  0
INSERT
  5
7EF9
  8
3
  6
CONTINUOUS
 62
     0
  2
_OPEN
 10
5289.5655320000014
 20
3510.07494214091
 30
0.0
 41
60.0
 42
60.0
 43
60.0
 50
90.0
  0
INSERT
  5
7EFA
  8
3
  6
CONTINUOUS
 62
     0
  2
_OPEN
 10
5289.5655320000014
 20
2840.0749421409091
 30
0.0
 41
60.0
 42
60.0
 43
60.0
 50
270.0
  0
TEXT
  8
3
  40
90
  5
7F3C
  62
0
  72
0
  71
0
 10
5034.57
 20
3027.67
 30
0.000000
  1
φ670
  0
POINT
  5
7EFC
  8
DEFPOINTS
  6
CONTINUOUS
 62
     0
 10
4926.6060749999997
 20
3510.07494214091
 30
0.0
  0
POINT
  5
7EFD
  8
DEFPOINTS
  6
CONTINUOUS
 62
     0
 10
4926.6060749999997
 20
2840.07494214091
 30
0.0
  0
POINT
  5
7EFE
  8
DEFPOINTS
  6
CONTINUOUS
 62
     0
 10
5289.5655320000014
 20
2840.0749421409091
 30
0.0
  0
ENDBLK
  5
7CE9
  8
0
  0
BLOCK
  8
0
  2
*D10
 70
     1
 10
0.0
 20
0.0
 30
0.0
  3
*D10
  1

  0
LINE
  5
7CD5
  8
0
  6
BYBLOCK
 62
     0
 10
4926.6060749999997
 20
3525.07494214091
 30
0.0
 11
4926.6060749999997
 21
4387.1707261409101
 31
0.0
  0
LINE
  5
7CD6
  8
0
  6
BYBLOCK
 62
     0
 10
4685.6060749999988
 20
4296.4863741409099
 30
0.0
 11
4685.6060749999988
 21
4387.1707261409101
 31
0.0
  0
LINE
  5
7CD7
  8
0
  6
BYBLOCK
 62
     0
 10
4866.6060749999988
 20
4357.1707261409101
 30
0.0
 11
4745.6060749999997
 21
4357.1707261409101
 31
0.0
  0
TEXT
  5
7CD8
  8
3
 62
     0
 10
4714.6517770862274
 20
4410.0425887347619
 30
0.0
 40
90.0
  1
241
  0
INSERT
  5
7CD9
  8
0
  6
BYBLOCK
 62
     0
  2
_OPEN
 10
4926.6060749999997
 20
4357.1707261409101
 30
0.0
 41
60.0
 42
60.0
 43
60.0
  0
INSERT
  5
7CDA
  8
0
  6
BYBLOCK
 62
     0
  2
_OPEN
 10
4685.6060749999988
 20
4357.1707261409101
 30
0.0
 41
60.0
 42
60.0
 43
60.0
 50
180.0
  0
POINT
  5
7CDB
  8
DEFPOINTS
  6
BYBLOCK
 62
     0
 10
4926.6060749999997
 20
3510.07494214091
 30
0.0
  0
POINT
  5
7CDC
  8
DEFPOINTS
  6
BYBLOCK
 62
     0
 10
4685.6060749999988
 20
4281.4863741409099
 30
0.0
  0
POINT
  5
7CDD
  8
DEFPOINTS
  6
BYBLOCK
 62
     0
 10
4685.6060749999988
 20
4357.1707261409101
 30
0.0
  0
ENDBLK
  5
7CDE
  8
0
  0
BLOCK
  8
0
  2
*D11
 70
     1
 10
0.0
 20
0.0
 30
0.0
  3
*D11
  1

  0
LINE
  5
7EFF
  8
3
  6
CONTINUOUS
 62
     0
 10
4085.6060750000001
 20
4079.0749421409109
 30
0.0
 11
3923.202177000001
 21
4079.0749421409109
 31
0.0
  0
LINE
  5
7F00
  8
3
  6
CONTINUOUS
 62
     0
 10
4085.6060749999988
 20
2529.07494214091
 30
0.0
 11
3923.202177000001
 21
2529.07494214091
 31
0.0
  0
LINE
  5
7F01
  8
3
  6
CONTINUOUS
 62
     0
 10
3953.202177000001
 20
4019.07494214091
 30
0.0
 11
3953.202177000001
 21
2589.07494214091
 31
0.0
  0
INSERT
  5
7F02
  8
3
  6
CONTINUOUS
 62
     0
  2
_OPEN
 10
3953.202177000001
 20
4079.0749421409109
 30
0.0
 41
60.0
 42
60.0
 43
60.0
 50
90.0
  0
INSERT
  5
7F03
  8
3
  6
CONTINUOUS
 62
     0
  2
_OPEN
 10
3953.202177000001
 20
2529.07494214091
 30
0.0
 41
60.0
 42
60.0
 43
60.0
 50
270.0
  0
TEXT
  8
3
  40
90
  5
7F3D
  62
0
  72
0
  71
0
 10
3698.20
 20
3099.18
 30
0.000000
  1
1550
  0
POINT
  5
7F05
  8
DEFPOINTS
  6
CONTINUOUS
 62
     0
 10
4100.6060749999988
 20
4079.0749421409109
 30
0.0
  0
POINT
  5
7F06
  8
DEFPOINTS
  6
CONTINUOUS
 62
     0
 10
4100.6060749999988
 20
2529.07494214091
 30
0.0
  0
POINT
  5
7F07
  8
DEFPOINTS
  6
CONTINUOUS
 62
     0
 10
3953.202177000001
 20
2529.07494214091
 30
0.0
  0
ENDBLK
  5
7BA2
  8
0
  0
BLOCK
  8
0
  2
*D12
 70
     1
 10
0.0
 20
0.0
 30
0.0
  3
*D12
  1

  0
LINE
  5
7F08
  8
3
  6
CONTINUOUS
 62
     0
 10
5050.6060749999997
 20
2514.07494214091
 30
0.0
 11
5050.6060749999997
 21
2247.64615714091
 31
0.0
  0
LINE
  5
7F09
  8
3
  6
CONTINUOUS
 62
     0
 10
4745.6060749999997
 20
2277.64615714091
 30
0.0
 11
4990.6060749999988
 21
2277.64615714091
 31
0.0
  0
TEXT
  8
3
  40
90
  5
7F3E
  62
0
  72
0
  71
0
 10
4665.78
 20
2193.33
 30
0.000000
  1
365
  0
INSERT
  5
7F0B
  8
3
  6
CONTINUOUS
 62
     0
  2
_OPEN
 10
4685.6060749999988
 20
2277.64615714091
 30
0.0
 41
60.0
 42
60.0
 43
60.0
 50
180.0
  0
INSERT
  5
7F0C
  8
3
  6
CONTINUOUS
 62
     0
  2
_OPEN
 10
5050.6060749999997
 20
2277.64615714091
 30
0.0
 41
60.0
 42
60.0
 43
60.0
  0
POINT
  5
7F0D
  8
DEFPOINTS
  6
CONTINUOUS
 62
     0
 10
4685.6060749999988
 20
2340.6418811409098
 30
0.0
  0
POINT
  5
7F0E
  8
DEFPOINTS
  6
CONTINUOUS
 62
     0
 10
5050.6060749999997
 20
2529.07494214091
 30
0.0
  0
POINT
  5
7F0F
  8
DEFPOINTS
  6
CONTINUOUS
 62
     0
 10
5050.6060749999997
 20
2277.64615714091
 30
0.0
  0
ENDBLK
  5
7CB2
  8
0
  0
BLOCK
  8
0
  2
*D13
 70
     1
 10
0.0
 20
0.0
 30
0.0
  3
*D13
  1

  0
LINE
  5
7F10
  8
3
  6
CONTINUOUS
 62
     0
 10
1171.032993999999
 20
6024.0706540000001
 30
0.0
 11
1171.032993999999
 21
6246.3868039999998
 31
0.0
  0
LINE
  5
7F11
  8
3
  6
CONTINUOUS
 62
     0
 10
2871.0329940000001
 20
6024.0706540000001
 30
0.0
 11
2871.0329940000001
 21
6246.3868039999998
 31
0.0
  0
LINE
  5
7F12
  8
3
  6
CONTINUOUS
 62
     0
 10
1231.032993999999
 20
6216.3868039999988
 30
0.0
 11
2811.0329940000001
 21
6216.3868039999988
 31
0.0
  0
INSERT
  5
7F13
  8
3
  6
CONTINUOUS
 62
     0
  2
_OPEN
 10
1171.032993999999
 20
6216.3868039999988
 30
0.0
 41
60.0
 42
60.0
 43
60.0
 50
180.0
  0
INSERT
  5
7F14
  8
3
  6
CONTINUOUS
 62
     0
  2
_OPEN
 10
2871.0329940000001
 20
6216.3868039999988
 30
0.0
 41
60.0
 42
60.0
 43
60.0
  0
TEXT
  8
3
  40
90
  5
7F3F
  62
0
  72
0
  71
0
 10
1812.79
 20
6132.09
 30
0.000000
  1
1700
  0
POINT
  5
7F16
  8
DEFPOINTS
  6
CONTINUOUS
 62
     0
 10
1171.032993999999
 20
6009.0706540000001
 30
0.0
  0
POINT
  5
7F17
  8
DEFPOINTS
  6
CONTINUOUS
 62
     0
 10
2871.0329940000001
 20
6009.0706540000001
 30
0.0
  0
POINT
  5
7F18
  8
DEFPOINTS
  6
CONTINUOUS
 62
     0
 10
2871.0329940000001
 20
6216.3868039999988
 30
0.0
  0
ENDBLK
  5
7C6F
  8
0
  0
BLOCK
  8
0
  2
*D14
 70
     1
 10
0.0
 20
0.0
 30
0.0
  3
*D14
  1

  0
LINE
  5
7F19
  8
3
  6
CONTINUOUS
 62
     0
 10
2886.0329940000001
 20
6009.0706540000001
 30
0.0
 11
3239.7273920000011
 21
6009.0706540000001
 31
0.0
  0
LINE
  5
7F1A
  8
3
  6
CONTINUOUS
 62
     0
 10
2886.0329940000001
 20
5059.0706540000001
 30
0.0
 11
3239.7273920000011
 21
5059.0706540000001
 31
0.0
  0
LINE
  5
7F1B
  8
3
  6
CONTINUOUS
 62
     0
 10
3209.7273920000011
 20
5949.0706540000001
 30
0.0
 11
3209.7273919999998
 21
5119.0706540000001
 31
0.0
  0
INSERT
  5
7F1C
  8
3
  6
CONTINUOUS
 62
     0
  2
_OPEN
 10
3209.7273920000011
 20
6009.0706540000001
 30
0.0
 41
60.0
 42
60.0
 43
60.0
 50
90.0
  0
INSERT
  5
7F1D
  8
3
  6
CONTINUOUS
 62
     0
  2
_OPEN
 10
3209.7273919999998
 20
5059.0706540000001
 30
0.0
 41
60.0
 42
60.0
 43
60.0
 50
270.0
  0
TEXT
  8
3
  40
90
  5
7F40
  62
0
  72
0
  71
0
 10
2954.73
 20
5376.47
 30
0.000000
  1
950
  0
POINT
  5
7F1F
  8
DEFPOINTS
  6
CONTINUOUS
 62
     0
 10
2871.0329940000001
 20
6009.0706540000001
 30
0.0
  0
POINT
  5
7F20
  8
DEFPOINTS
  6
CONTINUOUS
 62
     0
 10
2871.0329940000001
 20
5059.0706540000001
 30
0.0
  0
POINT
  5
7F21
  8
DEFPOINTS
  6
CONTINUOUS
 62
     0
 10
3209.7273919999998
 20
5059.0706540000001
 30
0.0
  0
ENDBLK
  5
7C7B
  8
0
  0
BLOCK
  8
0
  2
*D15
 70
     1
 10
0.0
 20
0.0
 30
0.0
  3
*D15
  1

  0
LINE
  5
7F22
  8
3
  6
CONTINUOUS
 62
     0
 10
4685.6060749999988
 20
2325.6418811409098
 30
0.0
 11
4685.6060749999988
 21
2247.64615714091
 31
0.0
  0
LINE
  5
7F23
  8
3
  6
CONTINUOUS
 62
     0
 10
4100.6060749999988
 20
2514.07494214091
 30
0.0
 11
4100.6060749999988
 21
2247.64615714091
 31
0.0
  0
LINE
  5
7F24
  8
3
  6
CONTINUOUS
 62
     0
 10
4625.6060749999988
 20
2277.64615714091
 30
0.0
 11
4160.6060749999988
 21
2277.64615714091
 31
0.0
  0
INSERT
  5
7F25
  8
3
  6
CONTINUOUS
 62
     0
  2
_OPEN
 10
4685.6060749999988
 20
2277.64615714091
 30
0.0
 41
60.0
 42
60.0
 43
60.0
  0
INSERT
  5
7F26
  8
3
  6
CONTINUOUS
 62
     0
  2
_OPEN
 10
4100.6060749999988
 20
2277.64615714091
 30
0.0
 41
60.0
 42
60.0
 43
60.0
 50
180.0
  0
TEXT
  8
3
  40
90
  5
7F41
  62
0
  72
0
  71
0
 10
4213.11
 20
2193.35
 30
0.000000
  1
585
  0
POINT
  5
7F28
  8
DEFPOINTS
  6
CONTINUOUS
 62
     0
 10
4685.6060749999988
 20
2340.6418811409098
 30
0.0
  0
POINT
  5
7F29
  8
DEFPOINTS
  6
CONTINUOUS
 62
     0
 10
4100.6060749999988
 20
2529.07494214091
 30
0.0
  0
POINT
  5
7F2A
  8
DEFPOINTS
  6
CONTINUOUS
 62
     0
 10
4100.6060749999988
 20
2277.64615714091
 30
0.0
  0
ENDBLK
  5
7CF4
  8
0
  0
BLOCK
  8
0
  2
*D16
 70
     1
 10
0.0
 20
0.0
 30
0.0
  3
*D16
  1

  0
LINE
  5
7F2B
  8
3
 62
     0
 10
2291.0329940000001
 20
4195.4684511409096
 30
0.0
 11
2291.0329940000001
 21
4218.1417741409095
 31
0.0
  0
LINE
  5
7F2C
  8
3
 62
     0
 10
2744.2218970030031
 20
3163.07494214091
 30
0.0
 11
2744.2218970030031
 21
4218.1417741409095
 31
0.0
  0
LINE
  5
7F2D
  8
3
 62
     0
 10
2351.0329940000001
 20
4188.1417741409095
 30
0.0
 11
2684.2218970030031
 21
4188.1417741409095
 31
0.0
  0
INSERT
  5
7F2E
  8
3
 62
     0
  2
_OPEN
 10
2291.0329940000001
 20
4188.1417741409095
 30
0.0
 41
60.0
 42
60.0
 43
60.0
 50
180.0
  0
INSERT
  5
7F2F
  8
3
 62
     0
  2
_OPEN
 10
2744.2218970030031
 20
4188.1417741409095
 30
0.0
 41
60.0
 42
60.0
 43
60.0
  0
TEXT
  8
3
  40
90
  5
7F42
  62
0
  72
0
  71
0
 10
2337.63
 20
4103.84
 30
0.000000
  1
452
  0
POINT
  5
7F31
  8
DEFPOINTS
 62
     0
 10
2291.0329940000001
 20
4180.4684511409096
 30
0.0
  0
POINT
  5
7F32
  8
DEFPOINTS
 62
     0
 10
2744.2218970030031
 20
3148.07494214091
 30
0.0
  0
POINT
  5
7F33
  8
DEFPOINTS
 62
     0
 10
2744.2218970030031
 20
4188.1417741409095
 30
0.0
  0
ENDBLK
  5
7D2A
  8
0
  0
ENDSEC
  0
SECTION
  2
ENTITIES
  0
LINE
  5
7A7F
  8
1
  6
CONTINUOUS
 10
5000.6060749999997
 20
2579.07494214091
 30
0.0
 11
5000.6060749999997
 21
4029.0749421409109
 31
0.0
  0
LINE
  5
7A80
  8
1
  6
CONTINUOUS
 10
4150.6060749999988
 20
4029.0749421409109
 30
0.0
 11
4150.6060749999988
 21
2579.07494214091
 31
0.0
  0
LINE
  5
7A81
  8
1
  6
CONTINUOUS
 10
1221.0329939999999
 20
4029.0749421409109
 30
0.0
 11
1221.0329939999999
 21
2579.07494214091
 31
0.0
  0
LINE
  5
7A82
  8
1
  6
CONTINUOUS
 10
2821.0329940000001
 20
2579.07494214091
 30
0.0
 11
2821.0329940000001
 21
4029.0749421409109
 31
0.0
  0
LINE
  5
7A83
  8
1
  6
CONTINUOUS
 10
5050.6060749999997
 20
4079.0749421409109
 30
0.0
 11
5050.6060749999997
 21
2529.07494214091
 31
0.0
  0
LINE
  5
7A84
  8
1
  6
CONTINUOUS
 10
4100.6060749999988
 20
4079.0749421409109
 30
0.0
 11
4100.6060749999988
 21
2529.07494214091
 31
0.0
  0
LINE
  5
7A85
  8
1
  6
CONTINUOUS
 10
2871.0329940000001
 20
4079.0749421409109
 30
0.0
 11
2871.0329940000001
 21
2529.07494214091
 31
0.0
  0
LINE
  5
7A86
  8
1
  6
CONTINUOUS
 10
1171.0329939999999
 20
4079.0749421409109
 30
0.0
 11
1171.0329939999999
 21
2529.07494214091
 31
0.0
  0
LINE
  5
7A87
  8
1
  6
CONTINUOUS
 10
1221.0329939999999
 20
2579.07494214091
 30
0.0
 11
2821.0329940000001
 21
2579.07494214091
 31
0.0
  0
LINE
  5
7A88
  8
1
  6
CONTINUOUS
 10
1171.0329939999999
 20
2529.07494214091
 30
0.0
 11
2871.0329940000001
 21
2529.07494214091
 31
0.0
  0
LINE
  5
7A8C
  8
1
  6
CONTINUOUS
 10
1311.0329939999999
 20
2605.07494214091
 30
0.0
 11
2721.0329940000001
 21
2605.07494214091
 31
0.0
  0
LINE
  5
7A8D
  8
1
  6
CONTINUOUS
 10
2721.0329940000011
 20
2705.0749421409091
 30
0.0
 11
1311.0329939999999
 21
2705.07494214091
 31
0.0
  0
LINE
  5
7A8E
  8
1
  6
CONTINUOUS
 10
2631.0329940000001
 20
3705.07494214091
 30
0.0
 11
2191.0329939999988
 21
3705.07494214091
 31
0.0
  0
ARC
  5
7A8F
  8
1
  6
CONTINUOUS
 10
2256.0329940000001
 20
3140.07494214091
 30
0.0
 40
488.25444700000003
 50
274.51398799999993
 51
7.3523789999999991
  0
ARC
  5
7A90
  8
1
  6
CONTINUOUS
 10
2318.0329940000001
 20
3148.07494214091
 30
0.0
 40
425.74044800000001
 50
7.3523789999999991
 51
89.596259000000003
  0
LINE
  5
7A92
  8
1
  6
CONTINUOUS
 10
1311.0329939999999
 20
2705.07494214091
 30
0.0
 11
1311.0329939999999
 21
2605.07494214091
 31
0.0
  0
LINE
  5
7A93
  8
1
  6
CONTINUOUS
 10
1724.1841029999989
 20
2745.0749421409091
 30
0.0
 11
1416.1841029999989
 21
2745.0749421409091
 31
0.0
  0
ARC
  5
7A94
  8
1
  6
CONTINUOUS
 10
1570.1841029999989
 20
2905.07494214091
 30
0.0
 40
162.0
 50
324.972283
 51
215.02771699999991
  0
LINE
  5
7A95
  8
1
  6
CONTINUOUS
 10
1361.0329939999999
 20
3005.07494214091
 30
0.0
 11
2191.0329939999988
 21
3705.07494214091
 31
0.0
  0
LINE
  5
7A96
  8
2
  6
CENTER
 10
1650.1841029999989
 20
2905.07494214091
 30
0.0
 11
1490.1841029999989
 21
2905.07494214091
 31
0.0
  0
CIRCLE
  5
7A97
  8
1
  6
CONTINUOUS
 10
1570.1841029999989
 20
2905.07494214091
 30
0.0
 40
80.0
  0
LINE
  5
7A98
  8
1
  6
CONTINUOUS
 10
1535.426682999999
 20
2977.12993314091
 30
0.0
 11
2225.8628319999998
 21
3310.1780501409098
 31
0.0
  0
LINE
  5
7A99
  8
1
  6
CONTINUOUS
 10
1416.1841029999989
 20
2705.07494214091
 30
0.0
 11
1416.1841029999989
 21
2763.07494214091
 31
0.0
  0
LINE
  5
7A9A
  8
1
  6
CONTINUOUS
 10
1416.1841029999989
 20
2745.0749421409091
 30
0.0
 11
1416.1841029999989
 21
2763.07494214091
 31
0.0
  0
LINE
  5
7A9B
  8
1
  6
CONTINUOUS
 10
1361.0329939999999
 20
2705.07494214091
 30
0.0
 11
1361.0329939999999
 21
3005.07494214091
 31
0.0
  0
LINE
  5
7A9C
  8
1
  6
CONTINUOUS
 10
1416.1841029999989
 20
2763.07494214091
 30
0.0
 11
1437.526437
 21
2812.0913751409098
 31
0.0
  0
CIRCLE
  5
7A9E
  8
1
  6
CONTINUOUS
 10
2291.0329940000001
 20
3175.07494214091
 30
0.0
 40
150.0
  0
LINE
  5
7A9F
  8
2
  6
CENTER
 10
2291.0329940000001
 20
6117.1573760000001
 30
0.0
 11
2291.0329940000001
 21
5019.6614510000009
 31
0.0
  0
LINE
  5
7AA0
  8
1
  6
CONTINUOUS
 10
1671.0329939999999
 20
3660.07494214091
 30
0.0
 11
1687.0329939999999
 21
3175.07494214091
 31
0.0
  0
ARC
  5
7AA1
  8
1
  6
CONTINUOUS
 10
2250.0329940000001
 20
3216.07494214091
 30
0.0
 40
564.49092099999984
 50
184.16516399999989
 51
274.51398799999993
  0
LINE
  5
7AA2
  8
1
  6
CONTINUOUS
 10
1591.315881
 20
2827.91635214091
 30
0.0
 11
2330.6550790000001
 21
3030.40258614091
 31
0.0
  0
LINE
  5
7AA3
  8
1
  6
CONTINUOUS
 10
1724.1841029999989
 20
2705.07494214091
 30
0.0
 11
1724.1841029999989
 21
2763.07494214091
 31
0.0
  0
LINE
  5
7AA4
  8
1
  6
CONTINUOUS
 10
1724.1841029999989
 20
2763.07494214091
 30
0.0
 11
1702.841768
 21
2812.0913751409098
 31
0.0
  0
LINE
  5
7AA5
  8
2
  6
CENTER
 10
1570.1841029999989
 20
2985.07494214091
 30
0.0
 11
1570.1841029999989
 21
2825.07494214091
 31
0.0
  0
LINE
  5
7AA6
  8
2
  6
CENTER
 10
5126.8861569999999
 20
3175.07494214091
 30
0.0
 11
4119.3198789999988
 21
3175.07494214091
 31
0.0
  0
LINE
  5
7AA7
  8
1
  6
CONTINUOUS
 10
2361.0329940000001
 20
3660.07494214091
 30
0.0
 11
1631.0329939999999
 21
3660.07494214091
 31
0.0
  0
LINE
  5
7AA8
  8
1
  6
CONTINUOUS
 10
2321.0329940000001
 20
3630.0749421409109
 30
0.0
 11
1672.022684999999
 21
3630.0749421409109
 31
0.0
  0
LINE
  5
7AA9
  8
1
  6
CONTINUOUS
 10
2321.0329940000001
 20
3573.8048201409101
 30
0.0
 11
2321.0329940000001
 21
3660.07494214091
 31
0.0
  0
LINE
  5
7AAA
  8
1
  6
CONTINUOUS
 10
4150.6060749999988
 20
2579.07494214091
 30
0.0
 11
5000.6060749999997
 21
2579.07494214091
 31
0.0
  0
LINE
  5
7AAB
  8
1
  6
CONTINUOUS
 10
4274.6060749999997
 20
2705.07494214091
 30
0.0
 11
4974.6060749999997
 21
2705.07494214091
 31
0.0
  0
LINE
  5
7AAC
  8
1
  6
CONTINUOUS
 10
4274.6060749999997
 20
2605.07494214091
 30
0.0
 11
4974.6060749999997
 21
2605.07494214091
 31
0.0
  0
LINE
  5
7AAD
  8
1
  6
CONTINUOUS
 10
4405.6060749999997
 20
3660.07494214091
 30
0.0
 11
4965.6060749999997
 21
3660.07494214091
 31
0.0
  0
LINE
  5
7AAE
  8
1
  6
CONTINUOUS
 10
4448.1060749999997
 20
3620.07494214091
 30
0.0
 11
4923.1060749999988
 21
3620.07494214091
 31
0.0
  0
LINE
  5
7AAF
  8
1
  6
CONTINUOUS
 10
4100.6060749999988
 20
2529.07494214091
 30
0.0
 11
5050.6060749999997
 21
2529.07494214091
 31
0.0
  0
LINE
  5
7AB1
  8
1
  6
CONTINUOUS
 10
4274.6060749999997
 20
2705.07494214091
 30
0.0
 11
4274.6060749999997
 21
2605.07494214091
 31
0.0
  0
LINE
  5
7AB2
  8
1
  6
CONTINUOUS
 10
2721.0329940000001
 20
2605.07494214091
 30
0.0
 11
2721.0329940000001
 21
2705.07494214091
 31
0.0
  0
LINE
  5
7AB7
  8
1
  6
CONTINUOUS
 10
2631.0329940000001
 20
2705.07494214091
 30
0.0
 11
2631.0329940000001
 21
3705.07494214091
 31
0.0
  0
LINE
  5
7AB8
  8
1
  6
CONTINUOUS
 10
4345.6060749999997
 20
3705.07494214091
 30
0.0
 11
4345.6060749999997
 21
2705.07494214091
 31
0.0
  0
LINE
  5
7AB9
  8
1
  6
CONTINUOUS
 10
4205.6060749999997
 20
3705.07494214091
 30
0.0
 11
4205.6060749999997
 21
2705.07494214091
 31
0.0
  0
LINE
  5
7ABA
  8
1
  6
CONTINUOUS
 10
4448.1060749999997
 20
3660.07494214091
 30
0.0
 11
4448.1060749999997
 21
2705.07494214091
 31
0.0
  0
LINE
  5
7ABB
  8
1
  6
CONTINUOUS
 10
4310.6060749999988
 20
3325.07494214091
 30
0.0
 11
4310.6060749999988
 21
3025.07494214091
 31
0.0
  0
LINE
  5
7ABC
  8
1
  6
CONTINUOUS
 10
4240.6060749999988
 20
3325.07494214091
 30
0.0
 11
4240.6060749999988
 21
3025.07494214091
 31
0.0
  0
LINE
  5
7ABD
  8
1
  6
CONTINUOUS
 10
4310.6060749999988
 20
3196.07494214091
 30
0.0
 11
4448.1060749999997
 21
3196.07494214091
 31
0.0
  0
LINE
  5
7ABE
  8
1
  6
CONTINUOUS
 10
4310.6060749999988
 20
3154.07494214091
 30
0.0
 11
4448.1060749999997
 21
3154.07494214091
 31
0.0
  0
LINE
  5
7ABF
  8
1
  6
CONTINUOUS
 10
4310.6060749999988
 20
2926.07494214091
 30
0.0
 11
4448.1060749999997
 21
2926.07494214091
 31
0.0
  0
LINE
  5
7AC0
  8
1
  6
CONTINUOUS
 10
4310.6060749999988
 20
2884.07494214091
 30
0.0
 11
4448.1060749999997
 21
2884.07494214091
 31
0.0
  0
LINE
  5
7AC1
  8
1
  6
CONTINUOUS
 10
4205.6060749999997
 20
2705.07494214091
 30
0.0
 11
4274.6060749999997
 21
2705.07494214091
 31
0.0
  0
LINE
  5
7AC2
  8
1
  6
CONTINUOUS
 10
4240.6060749999988
 20
3025.07494214091
 30
0.0
 11
4310.6060749999988
 21
3025.07494214091
 31
0.0
  0
LINE
  5
7AC3
  8
1
  6
CONTINUOUS
 10
4240.6060749999988
 20
2985.07494214091
 30
0.0
 11
4310.6060749999988
 21
2985.07494214091
 31
0.0
  0
LINE
  5
7AC4
  8
1
  6
CONTINUOUS
 10
4310.6060749999988
 20
2985.07494214091
 30
0.0
 11
4310.6060749999988
 21
2825.07494214091
 31
0.0
  0
LINE
  5
7AC5
  8
1
  6
CONTINUOUS
 10
4240.6060749999988
 20
2985.07494214091
 30
0.0
 11
4240.6060749999988
 21
2825.07494214091
 31
0.0
  0
LINE
  5
7AC6
  8
1
  6
CONTINUOUS
 10
4240.6060749999988
 20
2825.07494214091
 30
0.0
 11
4310.6060749999988
 21
2825.07494214091
 31
0.0
  0
LINE
  5
7AC7
  8
1
  6
CONTINUOUS
 10
4345.6060749999997
 20
3705.07494214091
 30
0.0
 11
4205.6060749999997
 21
3705.07494214091
 31
0.0
  0
LINE
  5
7AC8
  8
1
  6
CONTINUOUS
 10
4240.6060749999988
 20
3325.07494214091
 30
0.0
 11
4310.6060749999988
 21
3325.07494214091
 31
0.0
  0
LINE
  5
7AC9
  8
1
  6
CONTINUOUS
 10
4974.6060749999997
 20
2705.07494214091
 30
0.0
 11
4974.6060749999997
 21
2605.07494214091
 31
0.0
  0
LINE
  5
7ACA
  8
1
  6
CONTINUOUS
 10
4923.1060749999988
 20
3660.07494214091
 30
0.0
 11
4923.1060749999988
 21
2705.07494214091
 31
0.0
  0
LINE
  5
7ACB
  8
1
  6
CONTINUOUS
 10
2821.0329940000001
 20
5109.0706539999992
 30
0.0
 11
1221.032993999999
 21
5109.0706539999992
 31
0.0
  0
LINE
  5
7ACC
  8
1
  6
CONTINUOUS
 10
1221.032993999999
 20
5959.0706540000001
 30
0.0
 11
2821.0329940000001
 21
5959.0706540000001
 31
0.0
  0
LINE
  5
7ACD
  8
1
  6
CONTINUOUS
 10
2821.0329940000001
 20
4029.0749421409109
 30
0.0
 11
1221.0329939999999
 21
4029.0749421409109
 31
0.0
  0
LINE
  5
7ACE
  8
1
  6
CONTINUOUS
 10
1171.032993999999
 20
5059.0706540000001
 30
0.0
 11
2871.0329940000001
 21
5059.0706540000001
 31
0.0
  0
LINE
  5
7ACF
  8
1
  6
CONTINUOUS
 10
1171.032993999999
 20
6009.0706540000001
 30
0.0
 11
2871.0329940000001
 21
6009.0706540000001
 31
0.0
  0
LINE
  5
7AD0
  8
1
  6
CONTINUOUS
 10
1171.0329939999999
 20
4079.0749421409109
 30
0.0
 11
2871.0329940000001
 21
4079.0749421409109
 31
0.0
  0
LINE
  5
7AD1
  8
1
  6
CONTINUOUS
 10
2441.0329940000001
 20
5233.0706540000001
 30
0.0
 11
2721.0329940000001
 21
5233.0706540000001
 31
0.0
  0
LINE
  5
7AD2
  8
1
  6
CONTINUOUS
 10
2721.0329940000001
 20
5933.0706540000001
 30
0.0
 11
1311.0329939999999
 21
5933.0706540000001
 31
0.0
  0
LINE
  5
7AD3
  8
1
  6
CONTINUOUS
 10
2631.0329940000001
 20
5304.0706540000001
 30
0.0
 11
1361.0329939999999
 21
5304.0706540000001
 31
0.0
  0
LINE
  5
7AD4
  8
1
  6
CONTINUOUS
 10
2631.0329940000001
 20
5164.0706540000001
 30
0.0
 11
1361.0329939999999
 21
5164.0706540000001
 31
0.0
  0
LINE
  5
7AD5
  8
1
  6
CONTINUOUS
 10
1671.0329939999999
 20
5881.5706540000001
 30
0.0
 11
2744.2874409999999
 21
5881.5706540000001
 31
0.0
  0
LINE
  5
7AD6
  8
1
  6
CONTINUOUS
 10
1671.0329939999999
 20
5406.5706540000001
 30
0.0
 11
2744.2874409999999
 21
5406.5706540000001
 31
0.0
  0
LINE
  5
7AD7
  8
1
  6
CONTINUOUS
 10
1221.032993999999
 20
5109.0706539999992
 30
0.0
 11
1221.032993999999
 21
5959.0706540000001
 31
0.0
  0
LINE
  5
7AD8
  8
1
  6
CONTINUOUS
 10
1171.032993999999
 20
6009.0706540000001
 30
0.0
 11
1171.032993999999
 21
5059.0706540000001
 31
0.0
  0
LINE
  5
7AD9
  8
1
  6
CONTINUOUS
 10
1311.0329939999999
 20
5933.0706540000001
 30
0.0
 11
1311.0329939999999
 21
5233.0706540000001
 31
0.0
  0
LINE
  5
7ADA
  8
1
  6
CONTINUOUS
 10
1671.0329939999999
 20
5406.5706540000001
 30
0.0
 11
2321.0329940000001
 21
5881.5706540000001
 31
0.0
  0
LINE
  5
7ADB
  8
1
  6
CONTINUOUS
 10
1671.0329939999999
 20
5881.5706540000001
 30
0.0
 11
2321.0329940000001
 21
5406.5706540000001
 31
0.0
  0
LINE
  5
7ADC
  8
1
  6
CONTINUOUS
 10
2321.0329940000001
 20
5406.5706540000001
 30
0.0
 11
2321.0329940000001
 21
5881.5706540000001
 31
0.0
  0
LINE
  5
7ADD
  8
1
  6
CONTINUOUS
 10
1671.0329939999999
 20
5406.5706540000001
 30
0.0
 11
1671.0329939999999
 21
5881.5706540000001
 31
0.0
  0
LINE
  5
7ADE
  8
1
  6
CONTINUOUS
 10
1408.1841029999989
 20
5335.8025710000002
 30
0.0
 11
1732.1841030000001
 21
5335.8025710000002
 31
0.0
  0
LINE
  5
7ADF
  8
1
  6
CONTINUOUS
 10
1408.1841029999989
 20
5820.8025710000002
 30
0.0
 11
1671.0329939999999
 21
5820.8025710000002
 31
0.0
  0
LINE
  5
7AE0
  8
1
  6
CONTINUOUS
 10
1490.1841029999989
 20
5269.0706540000001
 30
0.0
 11
1650.1841029999989
 21
5269.0706540000001
 31
0.0
  0
LINE
  5
7AE1
  8
1
  6
CONTINUOUS
 10
1490.1841029999989
 20
5199.0706540000001
 30
0.0
 11
1650.1841029999989
 21
5199.0706540000001
 31
0.0
  0
LINE
  5
7AE2
  8
1
  6
CONTINUOUS
 10
1361.0329939999999
 20
5164.0706540000001
 30
0.0
 11
1361.0329939999999
 21
5304.0706540000001
 31
0.0
  0
LINE
  5
7AE3
  8
1
  6
CONTINUOUS
 10
1408.1841029999989
 20
5335.8025710000002
 30
0.0
 11
1408.1841029999989
 21
5820.8025710000002
 31
0.0
  0
LINE
  5
7AE4
  8
1
  6
CONTINUOUS
 10
1311.0329939999999
 20
5233.0706540000001
 30
0.0
 11
1490.1841029999989
 21
5233.0706540000001
 31
0.0
  0
LINE
  5
7AE5
  8
1
  6
CONTINUOUS
 10
1490.1841029999989
 20
5199.0706540000001
 30
0.0
 11
1490.1841029999989
 21
5269.0706540000001
 31
0.0
  0
LINE
  5
7AE6
  8
1
  6
CONTINUOUS
 10
1549.1841029999989
 20
5269.0706540000001
 30
0.0
 11
1549.1841029999989
 21
5335.8025710000002
 31
0.0
  0
LINE
  5
7AE7
  8
1
  6
CONTINUOUS
 10
1650.1841029999989
 20
5233.0706540000001
 30
0.0
 11
2141.0329940000001
 21
5233.0706540000001
 31
0.0
  0
LINE
  5
7AE8
  8
1
  6
CONTINUOUS
 10
1732.1841030000001
 20
5335.8025710000002
 30
0.0
 11
1732.1841030000001
 21
5406.5706540000001
 31
0.0
  0
LINE
  5
7AE9
  8
1
  6
CONTINUOUS
 10
1650.1841029999989
 20
5199.0706540000001
 30
0.0
 11
1650.1841029999989
 21
5269.0706540000001
 31
0.0
  0
LINE
  5
7AEA
  8
1
  6
CONTINUOUS
 10
1591.1841029999989
 20
5269.0706540000001
 30
0.0
 11
1591.1841029999989
 21
5335.8025710000002
 31
0.0
  0
LINE
  5
7AEB
  8
1
  6
CONTINUOUS
 10
2141.0329940000001
 20
5199.0706540000001
 30
0.0
 11
2441.0329940000001
 21
5199.0706540000001
 31
0.0
  0
LINE
  5
7AEC
  8
1
  6
CONTINUOUS
 10
2141.0329940000001
 20
5269.0706540000001
 30
0.0
 11
2441.0329940000001
 21
5269.0706540000001
 31
0.0
  0
LINE
  5
7AED
  8
1
  6
CONTINUOUS
 10
2441.0329940000001
 20
5199.0706540000001
 30
0.0
 11
2441.0329940000001
 21
5269.0706540000001
 31
0.0
  0
LINE
  5
7AEE
  8
1
  6
CONTINUOUS
 10
2141.0329940000001
 20
5199.0706540000001
 30
0.0
 11
2141.0329940000001
 21
5269.0706540000001
 31
0.0
  0
LINE
  5
7AEF
  8
1
  6
CONTINUOUS
 10
2312.0329940000001
 20
5269.0706540000001
 30
0.0
 11
2312.0329940000001
 21
5406.5706540000001
 31
0.0
  0
LINE
  5
7AF0
  8
1
  6
CONTINUOUS
 10
2270.0329940000001
 20
5269.0706540000001
 30
0.0
 11
2270.0329940000001
 21
5406.5706540000001
 31
0.0
  0
LINE
  5
7AF1
  8
1
  6
CONTINUOUS
 10
5000.6060749999997
 20
4029.0749421409109
 30
0.0
 11
4150.6060749999988
 21
4029.0749421409109
 31
0.0
  0
LINE
  5
7AF2
  8
1
  6
CONTINUOUS
 10
4100.6060749999988
 20
4079.0749421409109
 30
0.0
 11
5050.6060749999997
 21
4079.0749421409109
 31
0.0
  0
LINE
  5
7AF3
  8
1
  6
CONTINUOUS
 10
2821.0329940000001
 20
5959.0706540000001
 30
0.0
 11
2821.0329940000001
 21
5109.0706539999992
 31
0.0
  0
LINE
  5
7AF4
  8
1
  6
CONTINUOUS
 10
2871.0329940000001
 20
6009.0706540000001
 30
0.0
 11
2871.0329940000001
 21
5059.0706540000001
 31
0.0
  0
LINE
  5
7AF5
  8
1
  6
CONTINUOUS
 10
2744.2874409999999
 20
5406.5706540000001
 30
0.0
 11
2744.2874409999999
 21
5881.5706540000001
 31
0.0
  0
LINE
  5
7AF6
  8
1
  6
CONTINUOUS
 10
2631.0329940000001
 20
5164.0706540000001
 30
0.0
 11
2631.0329940000001
 21
5304.0706540000001
 31
0.0
  0
LINE
  5
7AF7
  8
1
  6
CONTINUOUS
 10
2721.0329940000001
 20
5233.0706540000001
 30
0.0
 11
2721.0329940000001
 21
5406.5706540000001
 31
0.0
  0
LINE
  5
7AF8
  8
1
  6
CONTINUOUS
 10
2721.0329940000001
 20
5881.5706540000001
 30
0.0
 11
2721.0329940000001
 21
5933.0706540000001
 31
0.0
  0
LINE
  5
7AF9
  8
2
  6
CENTER
 10
1021.90795
 20
5644.0706540000001
 30
0.0
 11
2946.3673140000001
 21
5644.0706540000001
 31
0.0
  0
LINE
  5
7AFA
  8
2
  6
CENTER
 10
4685.6060749999988
 20
4160.1161551409114
 30
0.0
 11
4685.6060749999988
 21
2340.6418811409098
 31
0.0
  0
LINE
  5
7AFB
  8
2
  6
CENTER
 10
2291.0329940000001
 20
4180.4684511409096
 30
0.0
 11
2291.0329940000001
 21
2287.3147911409101
 31
0.0
  0
LINE
  5
7AFC
  8
2
  6
CENTER
 10
3095.1056229999999
 20
3175.07494214091
 30
0.0
 11
1025.8694559999999
 21
3175.07494214091
 31
0.0
  0
DIMENSION
  5
7B10
  8
3
  6
CONTINUOUS
  2
*D1
 10
2321.0329940000001
 20
3804.5760821409099
 30
0.0
 11
1992.792121
 21
3804.5760821409099
 31
0.0
 70
   128
 13
1671.0329939999999
 23
3660.07494214091
 33
0.0
 14
2321.0329940000001
 24
3660.07494214091
 34
0.0
1001
ACAD
1000
DSTYLE
1002
{
1070
   287
1070
     3
1070
   287
1070
     3
1070
    40
1040
30.0
1070
   143
1040
0.039
1070
   172
1070
     1
1070
   271
1070
     0
1070
   279
1070
     0
1070
   288
1070
     1
1002
}
  0
DIMENSION
  5
7B1D
  8
3
  6
CONTINUOUS
  2
*D2
 10
2291.0329940000001
 20
4188.1417741409095
 30
0.0
 11
1992.792121
 21
4188.1417741409095
 31
0.0
 70
   128
 13
1671.0329939999999
 23
3660.07494214091
 33
0.0
 14
2291.0329940000001
 24
4180.4684511409096
 34
0.0
1001
ACAD
1000
DSTYLE
1002
{
1070
   287
1070
     3
1070
   287
1070
     3
1070
    40
1040
30.0
1070
   143
1040
0.039
1070
   172
1070
     1
1070
   271
1070
     0
1070
   279
1070
     0
1070
   288
1070
     1
1002
}
  0
DIMENSION
  5
7B36
  8
3
  6
CONTINUOUS
  2
*D3
 10
3188.702647000001
 20
3175.07494214091
 30
0.0
 11
3188.7026470000001
 21
3380.78922714091
 31
0.0
 70
   128
 13
2361.0329940000001
 23
3660.07494214091
 33
0.0
 14
3095.1056229999999
 24
3175.07494214091
 34
0.0
 50
90.0
1001
ACAD
1000
DSTYLE
1002
{
1070
   287
1070
     3
1070
   287
1070
     3
1070
    40
1040
30.0
1070
   143
1040
0.039
1070
   172
1070
     1
1070
   271
1070
     0
1070
   279
1070
     0
1070
   288
1070
     1
1002
}
  0
DIMENSION
  5
7B42
  8
3
  6
CONTINUOUS
  2
*D4
 10
3188.7026470000001
 20
2605.0749421409091
 30
0.0
 11
3113.7026470000001
 21
2890.0749421409109
 31
0.0
 70
     0
 13
3095.1056229999999
 23
3175.07494214091
 33
0.0
 14
2721.0329940000001
 24
2605.07494214091
 34
0.0
 50
90.0
1001
ACAD
1000
DSTYLE
1002
{
1070
   287
1070
     4
1070
   287
1070
     4
1070
    40
1040
30.0
1070
    75
1070
     1
1070
   143
1040
0.039
1070
   172
1070
     1
1070
   271
1070
     0
1070
   279
1070
     1
1070
   288
1070
     1
1002
}
  0
DIMENSION
  5
7B52
  8
3
  6
CONTINUOUS
  2
*D5
 10
3186.3852550000011
 20
2529.0749421409091
 30
0.0
 11
3186.3852550000001
 21
2308.3606564266252
 31
0.0
 70
   128
 13
2721.0329940000001
 23
2605.07494214091
 33
0.0
 14
2871.0329940000001
 24
2529.07494214091
 34
0.0
 50
90.0
1001
ACAD
1000
DSTYLE
1002
{
1070
   287
1070
     3
1070
   287
1070
     3
1070
    40
1040
30.0
1070
   143
1040
0.039
1070
   172
1070
     1
1070
   271
1070
     0
1070
   279
1070
     0
1070
   288
1070
     1
1002
}
  0
DIMENSION
  5
7B5F
  8
3
  6
CONTINUOUS
  2
*D6
 10
2291.0329940000001
 20
2272.84093114091
 30
0.0
 11
1758.5337850000001
 21
2272.84093114091
 31
0.0
 70
   128
 13
1171.0329939999999
 23
2529.07494214091
 33
0.0
 14
2291.0329940000001
 24
2287.3147911409101
 34
0.0
1001
ACAD
1000
DSTYLE
1002
{
1070
   287
1070
     3
1070
   287
1070
     3
1070
    40
1040
30.0
1070
   143
1040
0.039
1070
   172
1070
     1
1070
   271
1070
     0
1070
   279
1070
     0
1070
   288
1070
     1
1002
}
  0
DIMENSION
  5
7B6B
  8
3
  6
CONTINUOUS
  2
*D7
 10
2871.0329940000001
 20
2272.84093114091
 30
0.0
 11
2581.0329940000001
 21
2347.84093114091
 31
0.0
 70
     0
 13
2291.0329940000001
 23
2287.3147911409101
 33
0.0
 14
2871.0329940000001
 24
2529.07494214091
 34
0.0
1001
ACAD
1000
DSTYLE
1002
{
1070
   287
1070
     4
1070
   287
1070
     4
1070
    40
1040
30.0
1070
    75
1070
     1
1070
   143
1040
0.039
1070
   172
1070
     1
1070
   271
1070
     0
1070
   279
1070
     1
1070
   288
1070
     1
1002
}
  0
DIMENSION
  5
7B78
  8
3
  6
CONTINUOUS
  2
*D8
 10
4448.1060749999997
 20
4149.1351071409099
 30
0.0
 11
4653.820361
 21
4149.1351071409099
 31
0.0
 70
   128
 13
4923.1060749999988
 23
3660.07494214091
 33
0.0
 14
4448.1060749999997
 24
3660.07494214091
 34
0.0
1001
ACAD
1000
DSTYLE
1002
{
1070
   287
1070
     3
1070
   287
1070
     3
1070
    40
1040
30.0
1070
   143
1040
0.039
1070
   172
1070
     1
1070
   271
1070
     0
1070
   279
1070
     0
1070
   288
1070
     1
1002
}
  0
LINE
  5
7B79
  8
1
  6
CONTINUOUS
 10
4926.6060749999997
 20
3510.07494214091
 30
0.0
 11
4926.6060749999997
 21
2840.07494214091
 31
0.0
  0
DIMENSION
  5
7B88
  8
3
  6
CONTINUOUS
  2
*D9
 10
5289.5655320000014
 20
2840.0749421409091
 30
0.0
 11
5289.5655319999996
 21
3186.97028614091
 31
0.0
 70
   128
 13
4926.6060749999997
 23
3510.07494214091
 33
0.0
 14
4926.6060749999997
 24
2840.07494214091
 34
0.0
 50
90.0
1001
ACAD
1000
DSTYLE
1002
{
1070
   287
1070
     3
1070
   287
1070
     3
1070
     3
1000
φ<>
1070
    40
1040
30.0
1070
   143
1040
0.039
1070
   172
1070
     1
1070
   271
1070
     0
1070
   279
1070
     0
1070
   288
1070
     1
1002
}
  0
DIMENSION
  5
7B96
  8
3
  6
CONTINUOUS
  2
*D10
 10
4685.6060749999988
 20
4357.1707261409101
 30
0.0
 11
4811.080348514799
 21
4455.0425887347619
 31
0.0
 70
   128
 13
4926.6060749999997
 23
3510.07494214091
 33
0.0
 14
4685.6060749999988
 24
4281.4863741409099
 34
0.0
1001
ACAD
1000
DSTYLE
1002
{
1070
   288
1070
     1
1070
   172
1070
     1
1070
    40
1040
30.0
1070
   271
1070
     0
1070
   143
1040
0.039
1002
}
  0
DIMENSION
  5
7BA3
  8
3
  6
CONTINUOUS
  2
*D11
 10
3953.202177000001
 20
2529.07494214091
 30
0.0
 11
3953.2021770000001
 21
3258.4825391409099
 31
0.0
 70
   128
 13
4100.6060749999988
 23
4079.0749421409109
 33
0.0
 14
4100.6060749999988
 24
2529.07494214091
 34
0.0
 50
90.0
1001
ACAD
1000
DSTYLE
1002
{
1070
   287
1070
     3
1070
   287
1070
     3
1070
    40
1040
30.0
1070
   143
1040
0.039
1070
   172
1070
     1
1070
   271
1070
     0
1070
   279
1070
     0
1070
   288
1070
     1
1002
}
  0
DIMENSION
  5
7BBE
  8
3
  6
CONTINUOUS
  2
*D12
 10
5050.6060749999997
 20
2277.64615714091
 30
0.0
 11
4845.7807510000002
 21
2277.6285191409102
 31
0.0
 70
   128
 13
4685.6060749999988
 23
2340.6418811409098
 33
0.0
 14
5050.6060749999997
 24
2529.07494214091
 34
0.0
1001
ACAD
1000
DSTYLE
1002
{
1070
   287
1070
     4
1070
   287
1070
     4
1070
    40
1040
30.0
1070
    75
1070
     1
1070
   143
1040
0.039
1070
   172
1070
     1
1070
   271
1070
     0
1070
   279
1070
     1
1070
   288
1070
     1
1002
}
  0
DIMENSION
  5
7BD7
  8
3
  6
CONTINUOUS
  2
*D13
 10
2871.0329940000001
 20
6216.3868039999988
 30
0.0
 11
1992.792121
 21
6216.3868039999988
 31
0.0
 70
   128
 13
1171.032993999999
 23
6009.0706540000001
 33
0.0
 14
2871.0329940000001
 24
6009.0706540000001
 34
0.0
1001
ACAD
1000
DSTYLE
1002
{
1070
   287
1070
     3
1070
   287
1070
     3
1070
    40
1040
30.0
1070
   143
1040
0.039
1070
   172
1070
     1
1070
   271
1070
     0
1070
   279
1070
     0
1070
   288
1070
     1
1002
}
  0
LINE
  5
7BE5
  8
4
  6
CONTINUOUS
 10
5550.0
 20
1500.0
 30
0.0
 11
5550.0
 21
900.0
 31
0.0
  0
LINE
  5
7BE6
  8
4
  6
CONTINUOUS
 10
3450.0
 20
1500.0
 30
0.0
 11
3450.0
 21
900.0
 31
0.0
  0
LINE
  5
7BE7
  8
4
  6
CONTINUOUS
 10
1950.0
 20
1500.0
 30
0.0
 11
1950.0
 21
900.0
 31
0.0
  0
LINE
  5
7BEA
  8
4
  6
CONTINUOUS
 10
1950.0
 20
900.0
 30
0.0
 11
5550.0
 21
900.0
 31
0.0
  0
LINE
  5
7BEB
  8
4
  6
CONTINUOUS
 10
1950.0
 20
1200.0
 30
0.0
 11
5550.0
 21
1200.0
 31
0.0
  0
TEXT
  5
7BEC
  8
4
  6
CONTINUOUS
 10
2065.5062429999989
 20
1294.6290779999999
 30
0.0
 40
150.0
  1
機器名称
  0
TEXT
  5
7BED
  8
4
  6
CONTINUOUS
 10
2058.7743179999989
 20
964.9354699999999
 30
0.0
 40
150.0
  1
機器型番
  0
TEXT
  5
7BEE
  8
4
  6
CONTINUOUS
 10
3533.0362359999999
 20
1267.7153069999999
 30
0.0
 40
150.0
  1
ミツヤ多翼送風機
  0
TEXT
  5
7BEF
  8
4
  6
CONTINUOUS
 10
3559.9634869999991
 20
951.47875299999987
 30
0.0
 40
150.0
  1
MF#4-4
  0
TEXT
  5
7BF1
  8
4
  6
CONTINUOUS
 10
2241.1600760000001
 20
7150.2865239999992
 30
0.0
 40
162.0
  1
天井吊枠防振ベット
  0
TEXT
  5
7BF2
  8
4
  6
CONTINUOUS
 10
948.50278000000014
 20
7601.6429289999996
 30
0.0
 40
216.0
  1
ベルト駆動式片吸込両持多翼ファン
  0
LINE
  5
7BF3
  8
4
  6
CONTINUOUS
 10
750.0
 20
7408.2262629999996
 30
0.0
 11
5550.0
 21
7408.2262629999996
 31
0.0
  0
LINE
  5
7BF4
  8
4
  6
CONTINUOUS
 10
750.0
 20
8008.2262629999996
 30
0.0
 11
5550.0
 21
8008.2262629999996
 31
0.0
  0
LINE
  5
7BF5
  8
4
  6
CONTINUOUS
 10
1950.0
 20
1500.0
 30
0.0
 11
5550.0
 21
1500.0
 31
0.0
  0
LINE
  5
7BF6
  8
4
  6
CONTINUOUS
 10
750.0
 20
8008.2262629999996
 30
0.0
 11
750.0
 21
7408.2262629999996
 31
0.0
  0
TEXT
  5
7BF7
  8
4
  6
CONTINUOUS
 10
933.58357899999987
 20
7146.9584329999998
 30
0.0
 40
162.0
  1
右回転上向
  0
TEXT
  5
7BF8
  8
4
  6
CONTINUOUS
 10
4406.9086779999989
 20
8118.1832439999989
 30
0.0
 40
168.0
  1
No.
  0
TEXT
  5
7BF9
  8
4
  6
CONTINUOUS
 10
4217.8065269999997
 20
7150.2865239999992
 30
0.0
 40
162.0
  1
縮尺：1/30
  0
LINE
  5
7BFA
  8
4
  6
CONTINUOUS
 10
5550.0
 20
8008.2262629999996
 30
0.0
 11
5550.0
 21
7408.2262629999996
 31
0.0
  0
LINE
  5
7BFC
  8
4
  6
CONTINUOUS
 10
4321.8522670000002
 20
8043.7907490000007
 30
0.0
 11
4321.8522670000002
 21
8359.9567849999985
 31
0.0
  0
LINE
  5
7BFD
  8
4
  6
CONTINUOUS
 10
4321.8522670000002
 20
8359.9567849999985
 30
0.0
 11
5550.0
 21
8359.9567849999985
 31
0.0
  0
LINE
  5
7BFE
  8
4
  6
CONTINUOUS
 10
5550.0
 20
8359.9567849999985
 30
0.0
 11
5550.0
 21
8043.7907490000007
 31
0.0
  0
LINE
  5
7BFF
  8
4
  6
CONTINUOUS
 10
5550.0
 20
8043.7907490000007
 30
0.0
 11
4321.8522670000002
 21
8043.7907490000007
 31
0.0
  0
DIMENSION
  5
7C7C
  8
3
  6
CONTINUOUS
  2
*D14
 10
3209.7273919999998
 20
5059.0706540000001
 30
0.0
 11
3209.7273919999998
 21
5535.773494
 31
0.0
 70
   128
 13
2871.0329940000001
 23
6009.0706540000001
 33
0.0
 14
2871.0329940000001
 24
5059.0706540000001
 34
0.0
 50
90.0
1001
ACAD
1000
DSTYLE
1002
{
1070
   287
1070
     3
1070
   287
1070
     3
1070
    40
1040
30.0
1070
   143
1040
0.039
1070
   172
1070
     1
1070
   271
1070
     0
1070
   279
1070
     0
1070
   288
1070
     1
1002
}
  0
DIMENSION
  5
7C88
  8
3
  6
CONTINUOUS
  2
*D15
 10
4100.6060749999988
 20
2277.64615714091
 30
0.0
 11
4393.1060749999997
 21
2352.64615714091
 31
0.0
 70
     0
 13
4685.6060749999988
 23
2340.6418811409098
 33
0.0
 14
4100.6060749999988
 24
2529.07494214091
 34
0.0
1001
ACAD
1000
DSTYLE
1002
{
1070
   287
1070
     3
1070
   287
1070
     3
1070
    40
1040
30.0
1070
   143
1040
0.039
1070
   172
1070
     1
1070
   271
1070
     0
1070
   279
1070
     0
1070
   288
1070
     1
1002
}
  0
LINE
  5
7D1A
  8
1
  6
CONTINUOUS
 10
2701.0329940000001
 20
3525.0749421409091
 30
0.0
 11
2701.0329940000001
 21
2705.0749421409091
 31
0.0
  0
LINE
  5
7D1B
  8
1
  6
CONTINUOUS
 10
1881.032993999999
 20
3525.0749421409091
 30
0.0
 11
1881.032993999999
 21
2705.0749421409091
 31
0.0
  0
LINE
  5
7D1C
  8
1
  6
CONTINUOUS
 10
2701.0329940000001
 20
3525.07494214091
 30
0.0
 11
1881.032993999999
 21
3525.0749421409091
 31
0.0
  0
DIMENSION
  5
7D1E
  8
3
  2
*D16
 10
2744.2218970030031
 20
4188.1417741409095
 30
0.0
 11
2517.6274455015009
 21
4263.1417741409095
 31
0.0
 70
     0
  1
452
 13
2291.0329940000001
 23
4180.4684511409096
 33
0.0
 14
2744.2218970030031
 24
3148.07494214091
 34
0.0
1001
ACAD
1000
DSTYLE
1002
{
1070
   287
1070
     4
1070
   287
1070
     4
1070
    40
1040
30.0
1070
   143
1040
0.039
1070
   172
1070
     1
1070
   271
1070
     0
1070
   279
1070
     1
1070
   288
1070
     1
1002
}
  0
ENDSEC
  0
EOF
