  0
SECTION
  2
HEADER
  9
$ACADVER
  1
AC1009
  9
$INSBASE
 10
0.0
 20
0.0
 30
0.0
  9
$EXTMIN
 10
750.0
 20
900.0
 30
0.0
  9
$EXTMAX
 10
5550.0
 20
8359.9567849999985
 30
0.0
  9
$LIMMIN
 10
0.0
 20
0.0
  9
$LIMMAX
 10
297.0
 20
210.0
  9
$ORTHOMODE
 70
     0
  9
$REGENMODE
 70
     1
  9
$FILLMODE
 70
     0
  9
$QTEXTMODE
 70
     0
  9
$MIRRTEXT
 70
     1
  9
$DRAGMODE
 70
     2
  9
$LTSCALE
 40
100.0
  9
$OSMODE
 70
    37
  9
$ATTMODE
 70
     1
  9
$TEXTSIZE
 40
180.0
  9
$TRACEWID
 40
0.05
  9
$TEXTSTYLE
  7
STANDARD
  9
$CLAYER
  8
3
  9
$CELTYPE
  6
BYLAYER
  9
$CECOLOR
 62
   256
  9
$DIMSCALE
 40
30.0
  9
$DIMASZ
 40
2.0
  9
$DIMEXO
 40
0.5
  9
$DIMDLI
 40
10.0
  9
$DIMRND
 40
0.0
  9
$DIMDLE
 40
0.0
  9
$DIMEXE
 40
1.0
  9
$DIMTP
 40
1.0
  9
$DIMTM
 40
1.0
  9
$DIMTXT
 40
3.0
  9
$DIMCEN
 40
0.0
  9
$DIMTSZ
 40
0.0
  9
$DIMTOL
 70
     0
  9
$DIMLIM
 70
     0
  9
$DIMTIH
 70
     0
  9
$DIMTOH
 70
     0
  9
$DIMSE1
 70
     0
  9
$DIMSE2
 70
     0
  9
$DIMTAD
 70
     1
  9
$DIMZIN
 70
     8
  9
$DIMBLK
  1

  9
$DIMASO
 70
     1
  9
$DIMSHO
 70
     1
  9
$DIMPOST
  1

  9
$DIMAPOST
  1

  9
$DIMALT
 70
     0
  9
$DIMALTD
 70
     2
  9
$DIMALTF
 40
0.039
  9
$DIMLFAC
 40
1.0
  9
$DIMTOFL
 70
     1
  9
$DIMTVP
 40
0.0
  9
$DIMTIX
 70
     0
  9
$DIMSOXD
 70
     0
  9
$DIMSAH
 70
     1
  9
$DIMBLK1
  1
OPEN
  9
$DIMBLK2
  1
OPEN
  9
$DIMSTYLE
  2
IGA
  9
$DIMCLRD
 70
     0
  9
$DIMCLRE
 70
     0
  9
$DIMCLRT
 70
     0
  9
$DIMTFAC
 40
10.0
  9
$DIMGAP
 40
1.0
  9
$LUNITS
 70
     2
  9
$LUPREC
 70
     3
  9
$SKETCHINC
 40
0.1
  9
$FILLETRAD
 40
50.0
  9
$AUNITS
 70
     0
  9
$AUPREC
 70
     0
  9
$MENU
  1
acad
  9
$ELEVATION
 40
0.0
  9
$PELEVATION
 40
0.0
  9
$THICKNESS
 40
0.0
  9
$LIMCHECK
 70
     0
  9
$BLIPMODE
 70
     0
  9
$CHAMFERA
 40
0.5
  9
$CHAMFERB
 40
0.5
  9
$SKPOLY
 70
     0
  9
$TDCREATE
 40
2450742.5547760408
  9
$TDUPDATE
 40
2454953.7711371519
  9
$TDINDWG
 40
0.0587559722
  9
$TDUSRTIMER
 40
0.0587559722
  9
$USRTIMER
 70
     1
  9
$ANGBASE
 50
0.0
  9
$ANGDIR
 70
     0
  9
$PDMODE
 70
     0
  9
$PDSIZE
 40
0.0
  9
$PLINEWID
 40
0.0
  9
$COORDS
 70
     1
  9
$SPLFRAME
 70
     0
  9
$SPLINETYPE
 70
     6
  9
$SPLINESEGS
 70
     8
  9
$ATTDIA
 70
     0
  9
$ATTREQ
 70
     1
  9
$HANDLING
 70
 10241
  9
$HANDSEED
  5
7E71
  9
$SURFTAB1
 70
     6
  9
$SURFTAB2
 70
     6
  9
$SURFTYPE
 70
     6
  9
$SURFU
 70
     6
  9
$SURFV
 70
     6
  9
$UCSNAME
  2

  9
$UCSORG
 10
0.0
 20
0.0
 30
0.0
  9
$UCSXDIR
 10
1.0
 20
0.0
 30
0.0
  9
$UCSYDIR
 10
0.0
 20
1.0
 30
0.0
  9
$PUCSNAME
  2

  9
$PUCSORG
 10
0.0
 20
0.0
 30
0.0
  9
$PUCSXDIR
 10
1.0
 20
0.0
 30
0.0
  9
$PUCSYDIR
 10
0.0
 20
1.0
 30
0.0
  9
$USERI1
 70
     0
  9
$USERI2
 70
     0
  9
$USERI3
 70
     0
  9
$USERI4
 70
     0
  9
$USERI5
 70
     0
  9
$USERR1
 40
0.0
  9
$USERR2
 40
0.0
  9
$USERR3
 40
0.0
  9
$USERR4
 40
0.0
  9
$USERR5
 40
0.0
  9
$WORLDVIEW
 70
     1
  9
$SHADEDGE
 70
     3
  9
$SHADEDIF
 70
    70
  9
$TILEMODE
 70
     1
  9
$MAXACTVP
 70
    16
  9
$PLIMCHECK
 70
     0
  9
$PEXTMIN
 10
1.0000000000000000E+020
 20
1.0000000000000000E+020
 30
1.0000000000000000E+020
  9
$PEXTMAX
 10
-1.0000000000000000E+020
 20
-1.0000000000000000E+020
 30
-1.0000000000000000E+020
  9
$PLIMMIN
 10
0.0
 20
0.0
  9
$PLIMMAX
 10
12.0
 20
9.0
  9
$UNITMODE
 70
     0
  9
$VISRETAIN
 70
     0
  9
$PLINEGEN
 70
     0
  9
$PSLTSCALE
 70
     1
  0
ENDSEC
  0
SECTION
  2
TABLES
  0
TABLE
  2
VPORT
 70
     2
  0
VPORT
  2
*ACTIVE
 70
     0
 10
0.0
 20
0.0
 11
1.0
 21
1.0
 12
9438.4567678319436
 22
4630.0975558305709
 13
0.0
 23
0.0
 14
10.0
 24
10.0
 15
10.0
 25
10.0
 16
0.0
 26
0.0
 36
1.0
 17
0.0
 27
0.0
 37
0.0
 40
7517.4747125171307
 41
3.1666666666666661
 42
50.0
 43
0.0
 44
0.0
 50
0.0
 51
0.0
 71
     0
 72
   100
 73
     1
 74
     0
 75
     0
 76
     0
 77
     0
 78
     0
  0
ENDTAB
  0
TABLE
  2
LTYPE
 70
     2
  0
LTYPE
  2
CONTINUOUS
 70
     0
  3
Solid line
 72
    65
 73
     0
 40
0.0
  0
LTYPE
  2
CENTER
 70
     0
  3
____ _ ____ _ ____ _ ____ _ ____ _ ____ _ ____ 
 72
    65
 73
     4
 40
2.0
 49
1.25
 49
-0.25
 49
0.25
 49
-0.25
  0
ENDTAB
  0
TABLE
  2
LAYER
 70
     6
  0
LAYER
  2
0
 70
     0
 62
     7
  6
CONTINUOUS
  0
LAYER
  2
3
 70
     0
 62
     2
  6
CONTINUOUS
  0
LAYER
  2
2
 70
     0
 62
     3
  6
CENTER
  0
LAYER
  2
1
 70
     0
 62
     4
  6
CONTINUOUS
  0
LAYER
  2
4
 70
     0
 62
     7
  6
CONTINUOUS
  0
LAYER
  2
DEFPOINTS
 70
     0
 62
     7
  6
CONTINUOUS
  0
ENDTAB
  0
TABLE
  2
STYLE
 70
     1
  0
STYLE
  2
STANDARD
 70
     0
 40
0.0
 41
1.0
 50
0.0
 71
     0
 42
180.0
  3
simplex.shx
  4
extfont.shx
  0
ENDTAB
  0
TABLE
  2
VIEW
 70
     0
  0
ENDTAB
  0
TABLE
  2
UCS
 70
     0
  0
ENDTAB
  0
TABLE
  2
APPID
 70
     1
  0
APPID
  2
ACAD
 70
     0
  0
ENDTAB
  0
TABLE
  2
DIMSTYLE
 70
     1
  0
DIMSTYLE
  2
IGA
 70
     0
  3

  4

  5

  6
OPEN
  7
OPEN
 40
2.0
 41
2.0
 42
0.5
 43
10.0
 44
1.0
 45
0.0
 46
0.0
 47
1.0
 48
1.0
140
3.0
141
0.0
142
0.0
143
0.03937
144
1.0
145
0.0
146
10.0
147
1.0
 71
     0
 72
     0
 73
     0
 74
     0
 75
     0
 76
     0
 77
     1
 78
     8
170
     0
171
     2
172
     0
173
     1
174
     0
175
     0
176
     0
177
     0
178
     0
  0
ENDTAB
  0
ENDSEC
  0
SECTION
  2
BLOCKS
  0
BLOCK
  8
0
  2
$MODEL_SPACE
 70
     0
 10
0.0
 20
0.0
 30
0.0
  3
$MODEL_SPACE
  1

  0
ENDBLK
  5
1B
  8
0
  0
BLOCK
 67
     1
  8
0
  2
$PAPER_SPACE
 70
     0
 10
0.0
 20
0.0
 30
0.0
  3
$PAPER_SPACE
  1

  0
ENDBLK
  5
18
 67
     1
  8
0
  0
BLOCK
  8
0
  2
_OPEN
 70
     0
 10
0.0
 20
0.0
 30
0.0
  3
_OPEN
  1

  0
LINE
  5
7B24
  8
0
  6
BYBLOCK
 62
     0
 10
-1.0
 20
0.166667
 30
0.0
 11
0.0
 21
0.0
 31
0.0
  0
LINE
  5
7B25
  8
0
  6
BYBLOCK
 62
     0
 10
0.0
 20
0.0
 30
0.0
 11
-1.0
 21
-0.166667
 31
0.0
  0
LINE
  5
7B26
  8
0
  6
BYBLOCK
 62
     0
 10
0.0
 20
0.0
 30
0.0
 11
-1.0
 21
0.0
 31
0.0
  0
ENDBLK
  5
7B27
  8
0
  0
BLOCK
  8
0
  2
*D1
 70
     1
 10
0.0
 20
0.0
 30
0.0
  3
*D1
  1

  0
LINE
  5
7DDD
  8
3
  6
CONTINUOUS
 62
     0
 10
2777.048785390225
 20
3734.4460155838578
 30
0.0
 11
3128.574874390225
 21
3734.4460155838569
 31
0.0
  0
LINE
  5
7DDE
  8
3
  6
CONTINUOUS
 62
     0
 10
2777.048785390225
 20
3084.4460155838578
 30
0.0
 11
3128.574874390225
 21
3084.4460155838569
 31
0.0
  0
LINE
  5
7DDF
  8
3
  6
CONTINUOUS
 62
     0
 10
3098.574874390225
 20
3674.4460155838569
 30
0.0
 11
3098.574874390225
 21
3144.4460155838569
 31
0.0
  0
INSERT
  5
7DE0
  8
3
  6
CONTINUOUS
 62
     0
  2
_OPEN
 10
3098.574874390225
 20
3734.4460155838569
 30
0.0
 41
60.0
 42
60.0
 43
60.0
 50
90.0
  0
INSERT
  5
7DE1
  8
3
  6
CONTINUOUS
 62
     0
  2
_OPEN
 10
3098.574874390225
 20
3084.4460155838569
 30
0.0
 41
60.0
 42
60.0
 43
60.0
 50
270.0
  0
TEXT
  8
3
  40
90
  5
7E62
  62
0
  72
0
  71
0
 10
2843.57
 20
3216.36
 30
0.000000
  1
650
  0
POINT
  5
7DE3
  8
DEFPOINTS
  6
CONTINUOUS
 62
     0
 10
2762.048785390225
 20
3734.4460155838578
 30
0.0
  0
POINT
  5
7DE4
  8
DEFPOINTS
  6
CONTINUOUS
 62
     0
 10
2762.048785390225
 20
3084.4460155838578
 30
0.0
  0
POINT
  5
7DE5
  8
DEFPOINTS
  6
CONTINUOUS
 62
     0
 10
3098.574874390225
 20
3084.4460155838569
 30
0.0
  0
ENDBLK
  5
7B34
  8
0
  0
BLOCK
  8
0
  2
*D2
 70
     1
 10
0.0
 20
0.0
 30
0.0
  3
*D2
  1

  0
LINE
  5
7DE6
  8
3
  6
CONTINUOUS
 62
     0
 10
2872.048785390225
 20
3734.4460155838578
 30
0.0
 11
3308.6980503902259
 21
3734.4460155838569
 31
0.0
  0
LINE
  5
7DE7
  8
3
  6
CONTINUOUS
 62
     0
 10
2972.9723213902248
 20
3114.4460155838578
 30
0.0
 11
3308.6980503902259
 21
3114.4460155838569
 31
0.0
  0
LINE
  5
7DE8
  8
3
  6
CONTINUOUS
 62
     0
 10
3278.698050390225
 20
3674.4460155838569
 30
0.0
 11
3278.698050390225
 21
3174.4460155838569
 31
0.0
  0
INSERT
  5
7DE9
  8
3
  6
CONTINUOUS
 62
     0
  2
_OPEN
 10
3278.698050390225
 20
3734.4460155838569
 30
0.0
 41
60.0
 42
60.0
 43
60.0
 50
90.0
  0
INSERT
  5
7DEA
  8
3
  6
CONTINUOUS
 62
     0
  2
_OPEN
 10
3278.698050390225
 20
3114.4460155838569
 30
0.0
 41
60.0
 42
60.0
 43
60.0
 50
270.0
  0
TEXT
  8
3
  40
90
  5
7E63
  62
0
  72
0
  71
0
 10
3023.70
 20
3232.00
 30
0.000000
  1
620
  0
POINT
  5
7DEC
  8
DEFPOINTS
  6
CONTINUOUS
 62
     0
 10
2857.048785390225
 20
3734.4460155838578
 30
0.0
  0
POINT
  5
7DED
  8
DEFPOINTS
  6
CONTINUOUS
 62
     0
 10
2957.9723213902239
 20
3114.4460155838578
 30
0.0
  0
POINT
  5
7DEE
  8
DEFPOINTS
  6
CONTINUOUS
 62
     0
 10
3278.698050390225
 20
3114.4460155838569
 30
0.0
  0
ENDBLK
  5
7B41
  8
0
  0
BLOCK
  8
0
  2
*D3
 70
     1
 10
0.0
 20
0.0
 30
0.0
  3
*D3
  1

  0
LINE
  5
7DEF
  8
3
  6
CONTINUOUS
 62
     0
 10
2722.048785390225
 20
2544.4460155838578
 30
0.0
 11
3308.698050390225
 21
2544.4460155838569
 31
0.0
  0
LINE
  5
7DF0
  8
3
  6
CONTINUOUS
 62
     0
 10
3278.698050390225
 20
3054.4460155838569
 30
0.0
 11
3278.698050390225
 21
2604.4460155838569
 31
0.0
  0
INSERT
  5
7DF1
  8
3
  6
CONTINUOUS
 62
     0
  2
_OPEN
 10
3278.698050390225
 20
3114.4460155838569
 30
0.0
 41
60.0
 42
60.0
 43
60.0
 50
90.0
  0
INSERT
  5
7DF2
  8
3
  6
CONTINUOUS
 62
     0
  2
_OPEN
 10
3278.698050390225
 20
2544.4460155838569
 30
0.0
 41
60.0
 42
60.0
 43
60.0
 50
270.0
  0
TEXT
  8
3
  40
90
  5
7E64
  62
0
  72
0
  71
0
 10
3023.70
 20
2670.15
 30
0.000000
  1
570
  0
POINT
  5
7DF4
  8
DEFPOINTS
  6
CONTINUOUS
 62
     0
 10
2957.9723213902239
 20
3114.4460155838578
 30
0.0
  0
POINT
  5
7DF5
  8
DEFPOINTS
  6
CONTINUOUS
 62
     0
 10
2707.048785390225
 20
2544.4460155838578
 30
0.0
  0
POINT
  5
7DF6
  8
DEFPOINTS
  6
CONTINUOUS
 62
     0
 10
3278.698050390225
 20
2544.4460155838569
 30
0.0
  0
ENDBLK
  5
7B4D
  8
0
  0
BLOCK
  8
0
  2
*D4
 70
     1
 10
0.0
 20
0.0
 30
0.0
  3
*D4
  1

  0
LINE
  5
7DF7
  8
3
  6
CONTINUOUS
 62
     0
 10
2722.048785390225
 20
2544.4460155838578
 30
0.0
 11
3307.4376913902252
 21
2544.4460155838569
 31
0.0
  0
LINE
  5
7DF8
  8
3
  6
CONTINUOUS
 62
     0
 10
2872.048785390225
 20
2468.4460155838569
 30
0.0
 11
3307.4376913902252
 21
2468.4460155838569
 31
0.0
  0
LINE
  5
7DF9
  8
3
  6
CONTINUOUS
 62
     0
 10
3277.4376913902252
 20
2604.4460155838569
 30
0.0
 11
3277.4376913902252
 21
2664.4460155838569
 31
0.0
  0
LINE
  5
7DFA
  8
3
  6
CONTINUOUS
 62
     0
 10
3277.4376913902252
 20
2408.4460155838569
 30
0.0
 11
3277.4376913902252
 21
2147.0174441552858
 31
0.0
  0
LINE
  5
7DFB
  8
3
  6
CONTINUOUS
 62
     0
 10
3277.4376913902252
 20
2544.4460155838569
 30
0.0
 11
3277.4376913902252
 21
2468.4460155838569
 31
0.0
  0
INSERT
  5
7DFC
  8
3
  6
CONTINUOUS
 62
     0
  2
_OPEN
 10
3277.4376913902252
 20
2544.4460155838569
 30
0.0
 41
60.0
 42
60.0
 43
60.0
 50
270.0
  0
INSERT
  5
7DFD
  8
3
  6
CONTINUOUS
 62
     0
  2
_OPEN
 10
3277.4376913902252
 20
2468.4460155838569
 30
0.0
 41
60.0
 42
60.0
 43
60.0
 50
90.0
  0
TEXT
  8
3
  40
90
  5
7E65
  62
0
  72
0
  71
0
 10
3022.44
 20
2088.43
 30
0.000000
  1
76
  0
POINT
  5
7DFF
  8
DEFPOINTS
  6
CONTINUOUS
 62
     0
 10
2707.048785390225
 20
2544.4460155838578
 30
0.0
  0
POINT
  5
7E00
  8
DEFPOINTS
  6
CONTINUOUS
 62
     0
 10
2857.048785390225
 20
2468.4460155838569
 30
0.0
  0
POINT
  5
7E01
  8
DEFPOINTS
  6
CONTINUOUS
 62
     0
 10
3277.4376913902252
 20
2468.4460155838569
 30
0.0
  0
ENDBLK
  5
7CD6
  8
0
  0
BLOCK
  8
0
  2
*D5
 70
     1
 10
0.0
 20
0.0
 30
0.0
  3
*D5
  1

  0
LINE
  5
7E02
  8
3
  6
CONTINUOUS
 62
     0
 10
1157.0487853902241
 20
2453.4460155838578
 30
0.0
 11
1157.0487853902241
 21
2180.907040583857
 31
0.0
  0
LINE
  5
7E03
  8
3
  6
CONTINUOUS
 62
     0
 10
2277.048785390225
 20
2213.3376685838571
 30
0.0
 11
2277.048785390225
 21
2240.9070405838579
 31
0.0
  0
LINE
  5
7E04
  8
3
  6
CONTINUOUS
 62
     0
 10
1217.0487853902241
 20
2210.9070405838579
 30
0.0
 11
2217.048785390225
 21
2210.9070405838579
 31
0.0
  0
INSERT
  5
7E05
  8
3
  6
CONTINUOUS
 62
     0
  2
_OPEN
 10
1157.0487853902241
 20
2210.9070405838579
 30
0.0
 41
60.0
 42
60.0
 43
60.0
 50
180.0
  0
INSERT
  5
7E06
  8
3
  6
CONTINUOUS
 62
     0
  2
_OPEN
 10
2277.048785390225
 20
2210.9070405838579
 30
0.0
 41
60.0
 42
60.0
 43
60.0
  0
TEXT
  8
3
  40
90
  5
7E66
  62
0
  72
0
  71
0
 10
1579.40
 20
2126.61
 30
0.000000
  1
1120
  0
POINT
  5
7E08
  8
DEFPOINTS
  6
CONTINUOUS
 62
     0
 10
1157.0487853902241
 20
2468.4460155838569
 30
0.0
  0
POINT
  5
7E09
  8
DEFPOINTS
  6
CONTINUOUS
 62
     0
 10
2277.048785390225
 20
2198.3376685838571
 30
0.0
  0
POINT
  5
7E0A
  8
DEFPOINTS
  6
CONTINUOUS
 62
     0
 10
2277.048785390225
 20
2210.9070405838579
 30
0.0
  0
ENDBLK
  5
7C7E
  8
0
  0
BLOCK
  8
0
  2
*D6
 70
     1
 10
0.0
 20
0.0
 30
0.0
  3
*D6
  1

  0
LINE
  5
7E0B
  8
3
  6
CONTINUOUS
 62
     0
 10
2857.048785390225
 20
2453.4460155838578
 30
0.0
 11
2857.048785390225
 21
2180.907040583857
 31
0.0
  0
LINE
  5
7E0C
  8
3
  6
CONTINUOUS
 62
     0
 10
2337.048785390225
 20
2210.9070405838579
 30
0.0
 11
2797.048785390225
 21
2210.9070405838579
 31
0.0
  0
INSERT
  5
7E0D
  8
3
  6
CONTINUOUS
 62
     0
  2
_OPEN
 10
2277.048785390225
 20
2210.9070405838579
 30
0.0
 41
60.0
 42
60.0
 43
60.0
 50
180.0
  0
INSERT
  5
7E0E
  8
3
  6
CONTINUOUS
 62
     0
  2
_OPEN
 10
2857.048785390225
 20
2210.9070405838579
 30
0.0
 41
60.0
 42
60.0
 43
60.0
  0
TEXT
  8
3
  40
90
  5
7E67
  62
0
  72
0
  71
0
 10
2387.05
 20
2126.61
 30
0.000000
  1
580
  0
POINT
  5
7E10
  8
DEFPOINTS
  6
CONTINUOUS
 62
     0
 10
2277.048785390225
 20
2198.3376685838571
 30
0.0
  0
POINT
  5
7E11
  8
DEFPOINTS
  6
CONTINUOUS
 62
     0
 10
2857.048785390225
 20
2468.4460155838569
 30
0.0
  0
POINT
  5
7E12
  8
DEFPOINTS
  6
CONTINUOUS
 62
     0
 10
2857.048785390225
 20
2210.9070405838579
 30
0.0
  0
ENDBLK
  5
7C73
  8
0
  0
BLOCK
  8
0
  2
*D7
 70
     1
 10
0.0
 20
0.0
 30
0.0
  3
*D7
  1

  0
LINE
  5
7E13
  8
3
  6
CONTINUOUS
 62
     0
 10
2762.048785390225
 20
3789.4460155838578
 30
0.0
 11
2762.048785390225
 21
4227.1919765838566
 31
0.0
  0
LINE
  5
7E14
  8
3
  6
CONTINUOUS
 62
     0
 10
2277.048785390225
 20
4149.487034583859
 30
0.0
 11
2277.048785390225
 21
4227.1919765838566
 31
0.0
  0
LINE
  5
7E15
  8
3
  6
CONTINUOUS
 62
     0
 10
2702.048785390225
 20
4197.1919765838584
 30
0.0
 11
2337.048785390225
 21
4197.1919765838584
 31
0.0
  0
INSERT
  5
7E16
  8
3
  6
CONTINUOUS
 62
     0
  2
_OPEN
 10
2762.048785390225
 20
4197.1919765838584
 30
0.0
 41
60.0
 42
60.0
 43
60.0
  0
INSERT
  5
7E17
  8
3
  6
CONTINUOUS
 62
     0
  2
_OPEN
 10
2277.048785390225
 20
4197.1919765838584
 30
0.0
 41
60.0
 42
60.0
 43
60.0
 50
180.0
  0
TEXT
  8
3
  40
90
  5
7E68
  62
0
  72
0
  71
0
 10
2302.76
 20
4112.89
 30
0.000000
  1
485
  0
POINT
  5
7E19
  8
DEFPOINTS
  6
CONTINUOUS
 62
     0
 10
2762.048785390225
 20
3774.4460155838578
 30
0.0
  0
POINT
  5
7E1A
  8
DEFPOINTS
  6
CONTINUOUS
 62
     0
 10
2277.048785390225
 20
4134.4870345838581
 30
0.0
  0
POINT
  5
7E1B
  8
DEFPOINTS
  6
CONTINUOUS
 62
     0
 10
2277.048785390225
 20
4197.1919765838584
 30
0.0
  0
ENDBLK
  5
7B83
  8
0
  0
BLOCK
  8
0
  2
*D8
 70
     1
 10
0.0
 20
0.0
 30
0.0
  3
*D8
  1

  0
LINE
  5
7E1C
  8
3
  6
CONTINUOUS
 62
     0
 10
4479.8271500000001
 20
3749.4460155838578
 30
0.0
 11
4479.8271500000001
 21
4125.4780595838583
 31
0.0
  0
LINE
  5
7E1D
  8
3
  6
CONTINUOUS
 62
     0
 10
4954.8271499999992
 20
3749.4460155838578
 30
0.0
 11
4954.8271499999992
 21
4125.4780595838583
 31
0.0
  0
LINE
  5
7E1E
  8
3
  6
CONTINUOUS
 62
     0
 10
4539.8271499999992
 20
4095.478059583857
 30
0.0
 11
4894.827150000001
 21
4095.478059583857
 31
0.0
  0
INSERT
  5
7E1F
  8
3
  6
CONTINUOUS
 62
     0
  2
_OPEN
 10
4479.8271500000001
 20
4095.478059583857
 30
0.0
 41
60.0
 42
60.0
 43
60.0
 50
180.0
  0
INSERT
  5
7E20
  8
3
  6
CONTINUOUS
 62
     0
  2
_OPEN
 10
4954.8271499999992
 20
4095.478059583857
 30
0.0
 41
60.0
 42
60.0
 43
60.0
  0
TEXT
  8
3
  40
90
  5
7E69
  62
0
  72
0
  71
0
 10
4505.54
 20
4011.18
 30
0.000000
  1
475
  0
POINT
  5
7E22
  8
DEFPOINTS
  6
CONTINUOUS
 62
     0
 10
4479.8271500000001
 20
3734.4460155838578
 30
0.0
  0
POINT
  5
7E23
  8
DEFPOINTS
  6
CONTINUOUS
 62
     0
 10
4954.8271499999992
 20
3734.4460155838578
 30
0.0
  0
POINT
  5
7E24
  8
DEFPOINTS
  6
CONTINUOUS
 62
     0
 10
4954.8271499999992
 20
4095.478059583857
 30
0.0
  0
ENDBLK
  5
7B90
  8
0
  0
BLOCK
  8
0
  2
*D9
 70
     1
 10
0.0
 20
0.0
 30
0.0
  3
*D9
  1

  0
LINE
  5
7E25
  8
3
  6
CONTINUOUS
 62
     0
 10
4973.3271500000001
 20
3449.4460155838578
 30
0.0
 11
5338.7593470000011
 21
3449.4460155838569
 31
0.0
  0
LINE
  5
7E26
  8
3
  6
CONTINUOUS
 62
     0
 10
4973.3271500000001
 20
2779.4460155838569
 30
0.0
 11
5338.7593470000011
 21
2779.4460155838569
 31
0.0
  0
LINE
  5
7E27
  8
3
  6
CONTINUOUS
 62
     0
 10
5308.7593470000011
 20
3389.4460155838569
 30
0.0
 11
5308.7593470000011
 21
2839.4460155838569
 31
0.0
  0
INSERT
  5
7E28
  8
3
  6
CONTINUOUS
 62
     0
  2
_OPEN
 10
5308.7593470000011
 20
3449.4460155838569
 30
0.0
 41
60.0
 42
60.0
 43
60.0
 50
90.0
  0
INSERT
  5
7E29
  8
3
  6
CONTINUOUS
 62
     0
  2
_OPEN
 10
5308.7593470000011
 20
2779.4460155838569
 30
0.0
 41
60.0
 42
60.0
 43
60.0
 50
270.0
  0
TEXT
  8
3
  40
90
  5
7E6A
  62
0
  72
0
  71
0
 10
5053.76
 20
2965.98
 30
0.000000
  1
φ670
  0
POINT
  5
7E2B
  8
DEFPOINTS
  6
CONTINUOUS
 62
     0
 10
4958.3271500000001
 20
3449.4460155838578
 30
0.0
  0
POINT
  5
7E2C
  8
DEFPOINTS
  6
CONTINUOUS
 62
     0
 10
4958.3271500000001
 20
2779.4460155838569
 30
0.0
  0
POINT
  5
7E2D
  8
DEFPOINTS
  6
CONTINUOUS
 62
     0
 10
5308.7593470000011
 20
2779.4460155838569
 30
0.0
  0
ENDBLK
  5
7D02
  8
0
  0
BLOCK
  8
0
  2
*D10
 70
     1
 10
0.0
 20
0.0
 30
0.0
  3
*D10
  1

  0
LINE
  5
7CEE
  8
0
  6
BYBLOCK
 62
     0
 10
4958.3271500000001
 20
3464.4460155838578
 30
0.0
 11
4958.3271500000001
 21
4336.7300335838581
 31
0.0
  0
LINE
  5
7CEF
  8
0
  6
BYBLOCK
 62
     0
 10
4717.3271500000001
 20
4255.6284835838578
 30
0.0
 11
4717.3271500000001
 21
4336.7300335838581
 31
0.0
  0
LINE
  5
7CF0
  8
0
  6
BYBLOCK
 62
     0
 10
4898.3271500000001
 20
4306.7300335838581
 30
0.0
 11
4777.3271500000001
 21
4306.7300335838581
 31
0.0
  0
TEXT
  5
7CF1
  8
3
 62
     0
 10
4733.0603885001228
 20
4354.6018553953318
 30
0.0
 40
90.0
  1
241
  0
INSERT
  5
7CF2
  8
0
  6
BYBLOCK
 62
     0
  2
_OPEN
 10
4958.3271500000001
 20
4306.7300335838581
 30
0.0
 41
60.0
 42
60.0
 43
60.0
  0
INSERT
  5
7CF3
  8
0
  6
BYBLOCK
 62
     0
  2
_OPEN
 10
4717.3271500000001
 20
4306.7300335838581
 30
0.0
 41
60.0
 42
60.0
 43
60.0
 50
180.0
  0
POINT
  5
7CF4
  8
DEFPOINTS
  6
BYBLOCK
 62
     0
 10
4958.3271500000001
 20
3449.4460155838578
 30
0.0
  0
POINT
  5
7CF5
  8
DEFPOINTS
  6
BYBLOCK
 62
     0
 10
4717.3271500000001
 20
4240.6284835838569
 30
0.0
  0
POINT
  5
7CF6
  8
DEFPOINTS
  6
BYBLOCK
 62
     0
 10
4717.3271500000001
 20
4306.7300335838581
 30
0.0
  0
ENDBLK
  5
7CF7
  8
0
  0
BLOCK
  8
0
  2
*D11
 70
     1
 10
0.0
 20
0.0
 30
0.0
  3
*D11
  1

  0
LINE
  5
7E2E
  8
3
  6
CONTINUOUS
 62
     0
 10
4117.3271500000001
 20
4018.4460155838569
 30
0.0
 11
3996.2114430000011
 21
4018.4460155838569
 31
0.0
  0
LINE
  5
7E2F
  8
3
  6
CONTINUOUS
 62
     0
 10
4117.3271500000001
 20
2468.4460155838569
 30
0.0
 11
3996.2114430000001
 21
2468.4460155838569
 31
0.0
  0
LINE
  5
7E30
  8
3
  6
CONTINUOUS
 62
     0
 10
4026.2114430000011
 20
3958.4460155838578
 30
0.0
 11
4026.2114430000001
 21
2528.4460155838578
 31
0.0
  0
INSERT
  5
7E31
  8
3
  6
CONTINUOUS
 62
     0
  2
_OPEN
 10
4026.2114430000011
 20
4018.4460155838569
 30
0.0
 41
60.0
 42
60.0
 43
60.0
 50
90.0
  0
INSERT
  5
7E32
  8
3
  6
CONTINUOUS
 62
     0
  2
_OPEN
 10
4026.2114430000001
 20
2468.4460155838569
 30
0.0
 41
60.0
 42
60.0
 43
60.0
 50
270.0
  0
TEXT
  8
3
  40
90
  5
7E6B
  62
0
  72
0
  71
0
 10
3771.21
 20
3020.75
 30
0.000000
  1
1550
  0
POINT
  5
7E34
  8
DEFPOINTS
  6
CONTINUOUS
 62
     0
 10
4132.3271500000001
 20
4018.4460155838569
 30
0.0
  0
POINT
  5
7E35
  8
DEFPOINTS
  6
CONTINUOUS
 62
     0
 10
4132.3271500000001
 20
2468.4460155838569
 30
0.0
  0
POINT
  5
7E36
  8
DEFPOINTS
  6
CONTINUOUS
 62
     0
 10
4026.2114430000001
 20
2468.4460155838569
 30
0.0
  0
ENDBLK
  5
7BC7
  8
0
  0
BLOCK
  8
0
  2
*D12
 70
     1
 10
0.0
 20
0.0
 30
0.0
  3
*D12
  1

  0
LINE
  5
7E37
  8
3
  6
CONTINUOUS
 62
     0
 10
5082.327150000001
 20
2453.4460155838578
 30
0.0
 11
5082.327150000001
 21
2170.1790285838579
 31
0.0
  0
LINE
  5
7E38
  8
3
  6
CONTINUOUS
 62
     0
 10
4777.3271500000001
 20
2200.179028583857
 30
0.0
 11
5022.3271500000001
 21
2200.179028583857
 31
0.0
  0
TEXT
  8
3
  40
90
  5
7E6C
  62
0
  72
0
  71
0
 10
4725.47
 20
2114.26
 30
0.000000
  1
365
  0
INSERT
  5
7E3A
  8
3
  6
CONTINUOUS
 62
     0
  2
_OPEN
 10
4717.3271500000001
 20
2200.179028583857
 30
0.0
 41
60.0
 42
60.0
 43
60.0
 50
180.0
  0
INSERT
  5
7E3B
  8
3
  6
CONTINUOUS
 62
     0
  2
_OPEN
 10
5082.327150000001
 20
2200.179028583857
 30
0.0
 41
60.0
 42
60.0
 43
60.0
  0
POINT
  5
7E3C
  8
DEFPOINTS
  6
CONTINUOUS
 62
     0
 10
4717.3271500000001
 20
2256.5935405838582
 30
0.0
  0
POINT
  5
7E3D
  8
DEFPOINTS
  6
CONTINUOUS
 62
     0
 10
5082.327150000001
 20
2468.4460155838569
 30
0.0
  0
POINT
  5
7E3E
  8
DEFPOINTS
  6
CONTINUOUS
 62
     0
 10
5082.327150000001
 20
2200.179028583857
 30
0.0
  0
ENDBLK
  5
7CA6
  8
0
  0
BLOCK
  8
0
  2
*D13
 70
     1
 10
0.0
 20
0.0
 30
0.0
  3
*D13
  1

  0
LINE
  5
7E3F
  8
3
  6
CONTINUOUS
 62
     0
 10
1157.0487853902241
 20
6008.6322875838569
 30
0.0
 11
1157.0487853902241
 21
6226.4675455838578
 31
0.0
  0
LINE
  5
7E40
  8
3
  6
CONTINUOUS
 62
     0
 10
2857.048785390225
 20
6008.6322875838569
 30
0.0
 11
2857.048785390225
 21
6226.4675455838578
 31
0.0
  0
LINE
  5
7E41
  8
3
  6
CONTINUOUS
 62
     0
 10
1217.0487853902241
 20
6196.4675455838578
 30
0.0
 11
2797.048785390225
 21
6196.4675455838578
 31
0.0
  0
INSERT
  5
7E42
  8
3
  6
CONTINUOUS
 62
     0
  2
_OPEN
 10
1157.0487853902241
 20
6196.4675455838578
 30
0.0
 41
60.0
 42
60.0
 43
60.0
 50
180.0
  0
INSERT
  5
7E43
  8
3
  6
CONTINUOUS
 62
     0
  2
_OPEN
 10
2857.048785390225
 20
6196.4675455838578
 30
0.0
 41
60.0
 42
60.0
 43
60.0
  0
TEXT
  8
3
  40
90
  5
7E6D
  62
0
  72
0
  71
0
 10
1876.99
 20
6112.17
 30
0.000000
  1
1700
  0
POINT
  5
7E45
  8
DEFPOINTS
  6
CONTINUOUS
 62
     0
 10
1157.0487853902241
 20
5993.6322875838569
 30
0.0
  0
POINT
  5
7E46
  8
DEFPOINTS
  6
CONTINUOUS
 62
     0
 10
2857.048785390225
 20
5993.6322875838569
 30
0.0
  0
POINT
  5
7E47
  8
DEFPOINTS
  6
CONTINUOUS
 62
     0
 10
2857.048785390225
 20
6196.4675455838578
 30
0.0
  0
ENDBLK
  5
7C53
  8
0
  0
BLOCK
  8
0
  2
*D14
 70
     1
 10
0.0
 20
0.0
 30
0.0
  3
*D14
  1

  0
LINE
  5
7E48
  8
3
  6
CONTINUOUS
 62
     0
 10
4717.3271500000001
 20
2241.5935405838582
 30
0.0
 11
4717.3271500000001
 21
2170.1790285838579
 31
0.0
  0
LINE
  5
7E49
  8
3
  6
CONTINUOUS
 62
     0
 10
4132.3271500000001
 20
2453.4460155838578
 30
0.0
 11
4132.3271500000001
 21
2170.1790285838579
 31
0.0
  0
LINE
  5
7E4A
  8
3
  6
CONTINUOUS
 62
     0
 10
4657.3271500000001
 20
2200.179028583857
 30
0.0
 11
4192.3271499999992
 21
2200.179028583857
 31
0.0
  0
INSERT
  5
7E4B
  8
3
  6
CONTINUOUS
 62
     0
  2
_OPEN
 10
4717.3271500000001
 20
2200.179028583857
 30
0.0
 41
60.0
 42
60.0
 43
60.0
  0
INSERT
  5
7E4C
  8
3
  6
CONTINUOUS
 62
     0
  2
_OPEN
 10
4132.3271500000001
 20
2200.179028583857
 30
0.0
 41
60.0
 42
60.0
 43
60.0
 50
180.0
  0
TEXT
  8
3
  40
90
  5
7E6E
  62
0
  72
0
  71
0
 10
4244.83
 20
2115.88
 30
0.000000
  1
585
  0
POINT
  5
7E4E
  8
DEFPOINTS
  6
CONTINUOUS
 62
     0
 10
4717.3271500000001
 20
2256.5935405838582
 30
0.0
  0
POINT
  5
7E4F
  8
DEFPOINTS
  6
CONTINUOUS
 62
     0
 10
4132.3271500000001
 20
2468.4460155838569
 30
0.0
  0
POINT
  5
7E50
  8
DEFPOINTS
  6
CONTINUOUS
 62
     0
 10
4132.3271500000001
 20
2200.179028583857
 30
0.0
  0
ENDBLK
  5
7CE1
  8
0
  0
BLOCK
  8
0
  2
*D15
 70
     1
 10
0.0
 20
0.0
 30
0.0
  3
*D15
  1

  0
LINE
  5
7E51
  8
3
  6
CONTINUOUS
 62
     0
 10
2872.048785390225
 20
5993.6322875838569
 30
0.0
 11
3184.2635583902261
 21
5993.6322875838569
 31
0.0
  0
LINE
  5
7E52
  8
3
  6
CONTINUOUS
 62
     0
 10
2872.048785390225
 20
5043.6322875838569
 30
0.0
 11
3184.2635583902252
 21
5043.6322875838569
 31
0.0
  0
LINE
  5
7E53
  8
3
  6
CONTINUOUS
 62
     0
 10
3154.2635583902252
 20
5933.6322875838578
 30
0.0
 11
3154.2635583902252
 21
5103.6322875838578
 31
0.0
  0
INSERT
  5
7E54
  8
3
  6
CONTINUOUS
 62
     0
  2
_OPEN
 10
3154.2635583902252
 20
5993.6322875838569
 30
0.0
 41
60.0
 42
60.0
 43
60.0
 50
90.0
  0
INSERT
  5
7E55
  8
3
  6
CONTINUOUS
 62
     0
  2
_OPEN
 10
3154.2635583902252
 20
5043.6322875838569
 30
0.0
 41
60.0
 42
60.0
 43
60.0
 50
270.0
  0
TEXT
  8
3
  40
90
  5
7E6F
  62
0
  72
0
  71
0
 10
2899.26
 20
5367.90
 30
0.000000
  1
950
  0
POINT
  5
7E57
  8
DEFPOINTS
  6
CONTINUOUS
 62
     0
 10
2857.048785390225
 20
5993.6322875838569
 30
0.0
  0
POINT
  5
7E58
  8
DEFPOINTS
  6
CONTINUOUS
 62
     0
 10
2857.048785390225
 20
5043.6322875838569
 30
0.0
  0
POINT
  5
7E59
  8
DEFPOINTS
  6
CONTINUOUS
 62
     0
 10
3154.2635583902252
 20
5043.6322875838569
 30
0.0
  0
ENDBLK
  5
7C47
  8
0
  0
BLOCK
  8
0
  2
*D16
 70
     1
 10
0.0
 20
0.0
 30
0.0
  3
*D16
  1

  0
LINE
  5
7E5A
  8
3
 62
     0
 10
1755.048785390225
 20
3170.4460155838569
 30
0.0
 11
1755.048785390225
 21
4227.1919765838566
 31
0.0
  0
LINE
  5
7E5B
  8
3
 62
     0
 10
2217.048785390225
 20
4197.1919765838584
 30
0.0
 11
1815.048785390225
 21
4197.1919765838584
 31
0.0
  0
INSERT
  5
7E5C
  8
3
 62
     0
  2
_OPEN
 10
2277.048785390225
 20
4197.1919765838584
 30
0.0
 41
60.0
 42
60.0
 43
60.0
  0
INSERT
  5
7E5D
  8
3
 62
     0
  2
_OPEN
 10
1755.048785390225
 20
4197.1919765838584
 30
0.0
 41
60.0
 42
60.0
 43
60.0
 50
180.0
  0
TEXT
  8
3
  40
90
  5
7E70
  62
0
  72
0
  71
0
 10
1836.05
 20
4112.89
 30
0.000000
  1
522
  0
POINT
  5
7E5F
  8
DEFPOINTS
 62
     0
 10
2277.048785390225
 20
4134.4870345838581
 30
0.0
  0
POINT
  5
7E60
  8
DEFPOINTS
 62
     0
 10
1755.048785390225
 20
3155.4460155838578
 30
0.0
  0
POINT
  5
7E61
  8
DEFPOINTS
 62
     0
 10
1755.048785390225
 20
4197.1919765838584
 30
0.0
  0
ENDBLK
  5
7CC9
  8
0
  0
ENDSEC
  0
SECTION
  2
ENTITIES
  0
LINE
  5
7A82
  8
1
  6
CONTINUOUS
 10
1207.0487853902241
 20
3968.4460155838569
 30
0.0
 11
1207.0487853902241
 21
2518.4460155838578
 31
0.0
  0
LINE
  5
7A83
  8
1
  6
CONTINUOUS
 10
2807.048785390225
 20
2518.4460155838578
 30
0.0
 11
2807.048785390225
 21
3968.4460155838569
 31
0.0
  0
LINE
  5
7A84
  8
1
  6
CONTINUOUS
 10
5032.3271500000001
 20
2518.4460155838578
 30
0.0
 11
5032.3271500000001
 21
3968.4460155838569
 31
0.0
  0
LINE
  5
7A85
  8
1
  6
CONTINUOUS
 10
4182.3271500000001
 20
3968.4460155838569
 30
0.0
 11
4182.3271500000001
 21
2518.4460155838578
 31
0.0
  0
LINE
  5
7A8C
  8
1
  6
CONTINUOUS
 10
2857.048785390225
 20
4018.4460155838569
 30
0.0
 11
2857.048785390225
 21
2468.4460155838569
 31
0.0
  0
LINE
  5
7A8D
  8
1
  6
CONTINUOUS
 10
1157.0487853902241
 20
4018.4460155838569
 30
0.0
 11
1157.0487853902241
 21
2468.4460155838569
 31
0.0
  0
LINE
  5
7A8E
  8
1
  6
CONTINUOUS
 10
1207.0487853902241
 20
2518.4460155838578
 30
0.0
 11
2807.048785390225
 21
2518.4460155838578
 31
0.0
  0
LINE
  5
7A8F
  8
1
  6
CONTINUOUS
 10
2719.048785390225
 20
2644.4460155838578
 30
0.0
 11
1297.048785390225
 21
2644.4460155838578
 31
0.0
  0
LINE
  5
7A90
  8
1
  6
CONTINUOUS
 10
1297.048785390225
 20
2544.4460155838578
 30
0.0
 11
2707.048785390225
 21
2544.4460155838578
 31
0.0
  0
ARC
  5
7A91
  8
1
  6
CONTINUOUS
 10
1556.1998943902249
 20
2844.4460155838578
 30
0.0
 40
162.0
 50
324.972283
 51
215.02771699999991
  0
LINE
  5
7A92
  8
1
  6
CONTINUOUS
 10
1402.199894390224
 20
2702.4460155838569
 30
0.0
 11
1423.5422283902251
 21
2751.4624485838581
 31
0.0
  0
LINE
  5
7A93
  8
1
  6
CONTINUOUS
 10
1347.0487853902241
 20
2944.4460155838578
 30
0.0
 11
2177.0487853902241
 21
3644.4460155838578
 31
0.0
  0
LINE
  5
7A94
  8
1
  6
CONTINUOUS
 10
1710.1998943902249
 20
2684.4460155838578
 30
0.0
 11
1402.199894390224
 21
2684.4460155838578
 31
0.0
  0
LINE
  5
7A95
  8
1
  6
CONTINUOUS
 10
1157.0487853902241
 20
2468.4460155838569
 30
0.0
 11
2857.048785390225
 21
2468.4460155838569
 31
0.0
  0
LINE
  5
7A96
  8
1
  6
CONTINUOUS
 10
1297.048785390225
 20
2644.4460155838578
 30
0.0
 11
1297.048785390225
 21
2544.4460155838578
 31
0.0
  0
LINE
  5
7A97
  8
1
  6
CONTINUOUS
 10
1347.0487853902241
 20
2644.4460155838578
 30
0.0
 11
1347.0487853902241
 21
2944.4460155838578
 31
0.0
  0
LINE
  5
7A98
  8
1
  6
CONTINUOUS
 10
1402.199894390224
 20
2684.4460155838578
 30
0.0
 11
1402.199894390224
 21
2702.4460155838569
 31
0.0
  0
LINE
  5
7A99
  8
1
  6
CONTINUOUS
 10
1402.199894390224
 20
2644.4460155838578
 30
0.0
 11
1402.199894390224
 21
2702.4460155838569
 31
0.0
  0
LINE
  5
7A9B
  8
1
  6
CONTINUOUS
 10
2707.048785390225
 20
2544.4460155838578
 30
0.0
 11
2707.048785390225
 21
2644.4460155838578
 31
0.0
  0
LINE
  5
7A9C
  8
1
  6
CONTINUOUS
 10
2719.048785390225
 20
3556.4460155838578
 30
0.0
 11
1835.048785390225
 21
3556.4460155838578
 31
0.0
  0
LINE
  5
7A9D
  8
1
  6
CONTINUOUS
 10
2617.048785390225
 20
3644.4460155838578
 30
0.0
 11
2177.0487853902241
 21
3644.4460155838578
 31
0.0
  0
LINE
  5
7A9E
  8
1
  6
CONTINUOUS
 10
2762.048785390225
 20
3734.4460155838578
 30
0.0
 11
2277.048785390225
 21
3718.4460155838569
 31
0.0
  0
ARC
  5
7A9F
  8
1
  6
CONTINUOUS
 10
2250.0487853902241
 20
3087.4460155838578
 30
0.0
 40
425.74044800000001
 50
277.35237899999998
 51
359.59625899999992
  0
LINE
  5
7AA0
  8
2
  6
CENTER
 10
5151.7721920000013
 20
3114.4460155838578
 30
0.0
 11
4188.8630000000003
 21
3114.4460155838578
 31
0.0
  0
CIRCLE
  5
7AA1
  8
1
  6
CONTINUOUS
 10
2277.048785390225
 20
3114.4460155838578
 30
0.0
 40
150.0
  0
LINE
  5
7AA4
  8
1
  6
CONTINUOUS
 10
1835.048785390225
 20
3556.4460155838578
 30
0.0
 11
1835.048785390225
 21
2644.4460155838578
 31
0.0
  0
ARC
  5
7AA5
  8
1
  6
CONTINUOUS
 10
2318.0487853902241
 20
3155.4460155838578
 30
0.0
 40
564.49092099999984
 50
94.165164000000004
 51
184.5139879999999
  0
LINE
  5
7AA6
  8
2
  6
CENTER
 10
2277.048785390225
 20
6219.3529145838584
 30
0.0
 11
2277.048785390225
 21
5038.7108855838569
 31
0.0
  0
LINE
  5
7AA7
  8
1
  6
CONTINUOUS
 10
1521.4424743902241
 20
2916.5010065838578
 30
0.0
 11
2211.8786233902242
 21
3249.5491235838572
 31
0.0
  0
ARC
  5
7AA8
  8
1
  6
CONTINUOUS
 10
2242.048785390225
 20
3149.4460155838569
 30
0.0
 40
488.25444700000003
 50
184.5139879999999
 51
277.35237899999998
  0
LINE
  5
7AA9
  8
1
  6
CONTINUOUS
 10
1577.331672390224
 20
2767.2874255838569
 30
0.0
 11
2316.670870390225
 21
2969.7736595838569
 31
0.0
  0
CIRCLE
  5
7AAA
  8
1
  6
CONTINUOUS
 10
1556.1998943902249
 20
2844.4460155838578
 30
0.0
 40
80.0
  0
LINE
  5
7AAB
  8
1
  6
CONTINUOUS
 10
1710.1998943902249
 20
2702.4460155838569
 30
0.0
 11
1688.8575593902251
 21
2751.4624485838581
 31
0.0
  0
LINE
  5
7AAC
  8
1
  6
CONTINUOUS
 10
1710.1998943902249
 20
2644.4460155838578
 30
0.0
 11
1710.1998943902249
 21
2702.4460155838569
 31
0.0
  0
LINE
  5
7AAD
  8
2
  6
CENTER
 10
1556.1998943902249
 20
2924.4460155838569
 30
0.0
 11
1556.1998943902249
 21
2764.4460155838578
 31
0.0
  0
LINE
  5
7AAE
  8
2
  6
CENTER
 10
1636.1998943902249
 20
2844.4460155838578
 30
0.0
 11
1476.199894390224
 21
2844.4460155838578
 31
0.0
  0
LINE
  5
7AAF
  8
1
  6
CONTINUOUS
 10
2762.048785390225
 20
3044.4460155838578
 30
0.0
 11
2762.048785390225
 21
3774.4460155838578
 31
0.0
  0
LINE
  5
7AB0
  8
1
  6
CONTINUOUS
 10
2719.048785390225
 20
3556.4460155838578
 30
0.0
 11
2719.048785390225
 21
2644.4460155838578
 31
0.0
  0
LINE
  5
7AB1
  8
1
  6
CONTINUOUS
 10
2617.048785390225
 20
2644.4460155838578
 30
0.0
 11
2617.048785390225
 21
3644.4460155838578
 31
0.0
  0
LINE
  5
7AB2
  8
1
  6
CONTINUOUS
 10
2732.048785390225
 20
3084.4460155838578
 30
0.0
 11
2732.048785390225
 21
3733.126427583858
 31
0.0
  0
LINE
  5
7AB3
  8
1
  6
CONTINUOUS
 10
2675.778664390225
 20
3084.4460155838578
 30
0.0
 11
2762.048785390225
 21
3084.4460155838578
 31
0.0
  0
LINE
  5
7AB5
  8
1
  6
CONTINUOUS
 10
4306.3271500000001
 20
2644.4460155838578
 30
0.0
 11
4306.3271500000001
 21
2544.4460155838578
 31
0.0
  0
LINE
  5
7AB6
  8
1
  6
CONTINUOUS
 10
5006.3271500000001
 20
2644.4460155838578
 30
0.0
 11
5006.3271500000001
 21
2544.4460155838578
 31
0.0
  0
LINE
  5
7AB7
  8
1
  6
CONTINUOUS
 10
4182.3271500000001
 20
2518.4460155838578
 30
0.0
 11
5032.3271500000001
 21
2518.4460155838578
 31
0.0
  0
LINE
  5
7AB8
  8
1
  6
CONTINUOUS
 10
4306.3271500000001
 20
2544.4460155838578
 30
0.0
 11
5006.3271500000001
 21
2544.4460155838578
 31
0.0
  0
LINE
  5
7ABB
  8
1
  6
CONTINUOUS
 10
4306.3271500000001
 20
2644.4460155838578
 30
0.0
 11
5006.3271500000001
 21
2644.4460155838578
 31
0.0
  0
LINE
  5
7ABC
  8
1
  6
CONTINUOUS
 10
4479.8271500000001
 20
3734.4460155838578
 30
0.0
 11
4954.8271499999992
 21
3734.4460155838578
 31
0.0
  0
LINE
  5
7ABD
  8
1
  6
CONTINUOUS
 10
4479.8271500000001
 20
3084.4460155838578
 30
0.0
 11
4954.8271499999992
 21
3084.4460155838578
 31
0.0
  0
LINE
  5
7ABE
  8
1
  6
CONTINUOUS
 10
4954.8271499999992
 20
3734.4460155838578
 30
0.0
 11
4479.8271500000001
 21
3084.4460155838578
 31
0.0
  0
LINE
  5
7ABF
  8
1
  6
CONTINUOUS
 10
4479.8271500000001
 20
3734.4460155838578
 30
0.0
 11
4954.8271499999992
 21
3084.4460155838578
 31
0.0
  0
LINE
  5
7AC0
  8
1
  6
CONTINUOUS
 10
4479.8271500000001
 20
3734.4460155838578
 30
0.0
 11
4479.8271500000001
 21
2644.4460155838578
 31
0.0
  0
LINE
  5
7AC1
  8
1
  6
CONTINUOUS
 10
4237.3271500000001
 20
3644.4460155838578
 30
0.0
 11
4237.3271500000001
 21
2644.4460155838578
 31
0.0
  0
LINE
  5
7AC2
  8
1
  6
CONTINUOUS
 10
4377.3271500000001
 20
3644.4460155838578
 30
0.0
 11
4377.3271500000001
 21
2644.4460155838578
 31
0.0
  0
LINE
  5
7AC3
  8
1
  6
CONTINUOUS
 10
4272.3271500000001
 20
3264.4460155838578
 30
0.0
 11
4272.3271500000001
 21
2964.4460155838578
 31
0.0
  0
LINE
  5
7AC4
  8
1
  6
CONTINUOUS
 10
4342.3271500000001
 20
3264.4460155838578
 30
0.0
 11
4342.3271500000001
 21
2964.4460155838578
 31
0.0
  0
LINE
  5
7AC5
  8
1
  6
CONTINUOUS
 10
4272.3271500000001
 20
2964.4460155838578
 30
0.0
 11
4342.3271500000001
 21
2964.4460155838578
 31
0.0
  0
LINE
  5
7AC6
  8
1
  6
CONTINUOUS
 10
4272.3271500000001
 20
2764.4460155838578
 30
0.0
 11
4342.3271500000001
 21
2764.4460155838578
 31
0.0
  0
LINE
  5
7AC7
  8
1
  6
CONTINUOUS
 10
4272.3271500000001
 20
2924.4460155838569
 30
0.0
 11
4342.3271500000001
 21
2924.4460155838569
 31
0.0
  0
LINE
  5
7AC8
  8
1
  6
CONTINUOUS
 10
4237.3271500000001
 20
2644.4460155838578
 30
0.0
 11
4306.3271500000001
 21
2644.4460155838578
 31
0.0
  0
LINE
  5
7AC9
  8
1
  6
CONTINUOUS
 10
4272.3271500000001
 20
2924.4460155838569
 30
0.0
 11
4272.3271500000001
 21
2764.4460155838578
 31
0.0
  0
LINE
  5
7ACA
  8
1
  6
CONTINUOUS
 10
4342.3271500000001
 20
3093.4460155838569
 30
0.0
 11
4479.8271500000001
 21
3093.4460155838569
 31
0.0
  0
LINE
  5
7ACB
  8
1
  6
CONTINUOUS
 10
4342.3271500000001
 20
3135.4460155838578
 30
0.0
 11
4479.8271500000001
 21
3135.4460155838578
 31
0.0
  0
LINE
  5
7ACC
  8
1
  6
CONTINUOUS
 10
4342.3271500000001
 20
2823.4460155838578
 30
0.0
 11
4479.8271500000001
 21
2823.4460155838578
 31
0.0
  0
LINE
  5
7ACD
  8
1
  6
CONTINUOUS
 10
4342.3271500000001
 20
2865.4460155838578
 30
0.0
 11
4479.8271500000001
 21
2865.4460155838578
 31
0.0
  0
LINE
  5
7ACE
  8
1
  6
CONTINUOUS
 10
4342.3271500000001
 20
2924.4460155838569
 30
0.0
 11
4342.3271500000001
 21
2764.4460155838578
 31
0.0
  0
LINE
  5
7ACF
  8
1
  6
CONTINUOUS
 10
4377.3271500000001
 20
3644.4460155838578
 30
0.0
 11
4237.3271500000001
 21
3644.4460155838578
 31
0.0
  0
LINE
  5
7AD0
  8
1
  6
CONTINUOUS
 10
4272.3271500000001
 20
3264.4460155838578
 30
0.0
 11
4342.3271500000001
 21
3264.4460155838578
 31
0.0
  0
LINE
  5
7AD1
  8
1
  6
CONTINUOUS
 10
4954.8271499999992
 20
3734.4460155838578
 30
0.0
 11
4954.8271499999992
 21
2644.4460155838578
 31
0.0
  0
LINE
  5
7AD2
  8
1
  6
CONTINUOUS
 10
2807.048785390225
 20
5093.6322875838578
 30
0.0
 11
1207.0487853902241
 21
5093.6322875838578
 31
0.0
  0
LINE
  5
7AD3
  8
1
  6
CONTINUOUS
 10
1207.0487853902241
 20
5943.6322875838578
 30
0.0
 11
2807.048785390225
 21
5943.6322875838578
 31
0.0
  0
LINE
  5
7AD4
  8
1
  6
CONTINUOUS
 10
2807.048785390225
 20
3968.4460155838569
 30
0.0
 11
1207.0487853902241
 21
3968.4460155838569
 31
0.0
  0
LINE
  5
7AD5
  8
1
  6
CONTINUOUS
 10
1297.048785390225
 20
5217.6322875838578
 30
0.0
 11
1476.199894390224
 21
5217.6322875838578
 31
0.0
  0
LINE
  5
7AD6
  8
1
  6
CONTINUOUS
 10
1394.199894390224
 20
5805.3642045838578
 30
0.0
 11
1718.1998943902249
 21
5805.3642045838578
 31
0.0
  0
LINE
  5
7AD7
  8
1
  6
CONTINUOUS
 10
1394.199894390224
 20
5320.3642045838569
 30
0.0
 11
1718.1998943902249
 21
5320.3642045838569
 31
0.0
  0
LINE
  5
7AD8
  8
1
  6
CONTINUOUS
 10
2617.048785390225
 20
5148.6322875838578
 30
0.0
 11
1347.0487853902241
 21
5148.6322875838578
 31
0.0
  0
LINE
  5
7AD9
  8
1
  6
CONTINUOUS
 10
2617.048785390225
 20
5288.6322875838578
 30
0.0
 11
1347.0487853902241
 21
5288.6322875838578
 31
0.0
  0
LINE
  5
7ADA
  8
1
  6
CONTINUOUS
 10
2707.048785390225
 20
5917.6322875838578
 30
0.0
 11
1297.048785390225
 21
5917.6322875838578
 31
0.0
  0
LINE
  5
7ADB
  8
1
  6
CONTINUOUS
 10
1297.048785390225
 20
4018.4460155838569
 30
0.0
 11
2707.048785390225
 21
4018.4460155838569
 31
0.0
  0
LINE
  5
7ADC
  8
1
  6
CONTINUOUS
 10
1157.0487853902241
 20
4018.4460155838569
 30
0.0
 11
2857.048785390225
 21
4018.4460155838569
 31
0.0
  0
LINE
  5
7ADD
  8
1
  6
CONTINUOUS
 10
1157.0487853902241
 20
5043.6322875838569
 30
0.0
 11
2857.048785390225
 21
5043.6322875838569
 31
0.0
  0
LINE
  5
7ADE
  8
1
  6
CONTINUOUS
 10
1157.0487853902241
 20
5993.6322875838569
 30
0.0
 11
2857.048785390225
 21
5993.6322875838569
 31
0.0
  0
LINE
  5
7ADF
  8
1
  6
CONTINUOUS
 10
1207.0487853902241
 20
5093.6322875838578
 30
0.0
 11
1207.0487853902241
 21
5943.6322875838578
 31
0.0
  0
LINE
  5
7AE0
  8
1
  6
CONTINUOUS
 10
1297.048785390225
 20
5917.6322875838578
 30
0.0
 11
1297.048785390225
 21
5217.6322875838578
 31
0.0
  0
LINE
  5
7AE1
  8
1
  6
CONTINUOUS
 10
1157.0487853902241
 20
5993.6322875838569
 30
0.0
 11
1157.0487853902241
 21
5043.6322875838569
 31
0.0
  0
LINE
  5
7AE2
  8
1
  6
CONTINUOUS
 10
1394.199894390224
 20
5320.3642045838569
 30
0.0
 11
1394.199894390224
 21
5805.3642045838578
 31
0.0
  0
LINE
  5
7AE3
  8
1
  6
CONTINUOUS
 10
1347.0487853902241
 20
5148.6322875838578
 30
0.0
 11
1347.0487853902241
 21
5288.6322875838578
 31
0.0
  0
LINE
  5
7AE4
  8
1
  6
CONTINUOUS
 10
2807.048785390225
 20
5943.6322875838578
 30
0.0
 11
2807.048785390225
 21
5093.6322875838578
 31
0.0
  0
LINE
  5
7AE5
  8
1
  6
CONTINUOUS
 10
2762.048785390225
 20
5348.6322875838578
 30
0.0
 11
2762.048785390225
 21
5908.6322875838569
 31
0.0
  0
LINE
  5
7AE6
  8
1
  6
CONTINUOUS
 10
1753.5578643902249
 20
5391.1322875838569
 30
0.0
 11
1753.5578643902249
 21
5866.1322875838578
 31
0.0
  0
LINE
  5
7AE7
  8
1
  6
CONTINUOUS
 10
2722.048785390225
 20
5391.1322875838569
 30
0.0
 11
2722.048785390225
 21
5866.1322875838578
 31
0.0
  0
LINE
  5
7AE8
  8
1
  6
CONTINUOUS
 10
2857.048785390225
 20
5993.6322875838569
 30
0.0
 11
2857.048785390225
 21
5043.6322875838569
 31
0.0
  0
LINE
  5
7AE9
  8
1
  6
CONTINUOUS
 10
2127.048785390225
 20
5253.6322875838578
 30
0.0
 11
2427.0487853902241
 21
5253.6322875838578
 31
0.0
  0
LINE
  5
7AEA
  8
1
  6
CONTINUOUS
 10
2127.048785390225
 20
5183.6322875838578
 30
0.0
 11
2427.0487853902241
 21
5183.6322875838578
 31
0.0
  0
LINE
  5
7AEB
  8
1
  6
CONTINUOUS
 10
2762.048785390225
 20
5391.1322875838569
 30
0.0
 11
1753.5578643902249
 21
5391.1322875838569
 31
0.0
  0
LINE
  5
7AEC
  8
1
  6
CONTINUOUS
 10
1636.1998943902249
 20
5217.6322875838578
 30
0.0
 11
2127.048785390225
 21
5217.6322875838578
 31
0.0
  0
LINE
  5
7AED
  8
1
  6
CONTINUOUS
 10
1718.1998943902249
 20
5642.080652583858
 30
0.0
 11
1718.1998943902249
 21
5399.8336125838578
 31
0.0
  0
LINE
  5
7AEE
  8
1
  6
CONTINUOUS
 10
1577.1998943902249
 20
5253.6322875838578
 30
0.0
 11
1577.1998943902249
 21
5320.3642045838569
 31
0.0
  0
LINE
  5
7AEF
  8
1
  6
CONTINUOUS
 10
1535.199894390224
 20
5253.6322875838578
 30
0.0
 11
1535.199894390224
 21
5320.3642045838569
 31
0.0
  0
LINE
  5
7AF0
  8
1
  6
CONTINUOUS
 10
1718.1998943902249
 20
5320.3642045838569
 30
0.0
 11
1718.1998943902249
 21
5805.3642045838578
 31
0.0
  0
LINE
  5
7AF1
  8
1
  6
CONTINUOUS
 10
1476.199894390224
 20
5183.6322875838578
 30
0.0
 11
1476.199894390224
 21
5253.6322875838578
 31
0.0
  0
LINE
  5
7AF2
  8
1
  6
CONTINUOUS
 10
1636.1998943902249
 20
5183.6322875838578
 30
0.0
 11
1636.1998943902249
 21
5253.6322875838578
 31
0.0
  0
LINE
  5
7AF3
  8
1
  6
CONTINUOUS
 10
1476.199894390224
 20
5183.6322875838578
 30
0.0
 11
1636.1998943902249
 21
5183.6322875838578
 31
0.0
  0
LINE
  5
7AF4
  8
1
  6
CONTINUOUS
 10
1476.199894390224
 20
5253.6322875838578
 30
0.0
 11
1636.1998943902249
 21
5253.6322875838578
 31
0.0
  0
LINE
  5
7AF5
  8
1
  6
CONTINUOUS
 10
2127.048785390225
 20
5183.6322875838578
 30
0.0
 11
2127.048785390225
 21
5253.6322875838578
 31
0.0
  0
LINE
  5
7AF6
  8
1
  6
CONTINUOUS
 10
2256.048785390225
 20
5253.6322875838578
 30
0.0
 11
2256.048785390225
 21
5391.1322875838569
 31
0.0
  0
LINE
  5
7AF7
  8
1
  6
CONTINUOUS
 10
2298.0487853902241
 20
5253.6322875838578
 30
0.0
 11
2298.0487853902241
 21
5391.1322875838569
 31
0.0
  0
LINE
  5
7AF8
  8
1
  6
CONTINUOUS
 10
2707.048785390225
 20
5217.6322875838578
 30
0.0
 11
2707.048785390225
 21
5391.1322875838569
 31
0.0
  0
LINE
  5
7AF9
  8
1
  6
CONTINUOUS
 10
2427.0487853902241
 20
5183.6322875838578
 30
0.0
 11
2427.0487853902241
 21
5253.6322875838578
 31
0.0
  0
LINE
  5
7AFA
  8
1
  6
CONTINUOUS
 10
2617.048785390225
 20
5148.6322875838578
 30
0.0
 11
2617.048785390225
 21
5288.6322875838578
 31
0.0
  0
LINE
  5
7AFB
  8
1
  6
CONTINUOUS
 10
2427.0487853902241
 20
5217.6322875838578
 30
0.0
 11
2707.048785390225
 21
5217.6322875838578
 31
0.0
  0
LINE
  5
7AFC
  8
1
  6
CONTINUOUS
 10
2762.048785390225
 20
5866.1322875838578
 30
0.0
 11
1753.5578643902249
 21
5866.1322875838578
 31
0.0
  0
LINE
  5
7AFD
  8
1
  6
CONTINUOUS
 10
2707.048785390225
 20
5866.1322875838578
 30
0.0
 11
2707.048785390225
 21
5917.6322875838578
 31
0.0
  0
LINE
  5
7AFE
  8
1
  6
CONTINUOUS
 10
5032.3271500000001
 20
3968.4460155838569
 30
0.0
 11
4182.3271500000001
 21
3968.4460155838569
 31
0.0
  0
LINE
  5
7AFF
  8
2
  6
CENTER
 10
4717.3271500000001
 20
4240.6284835838569
 30
0.0
 11
4717.3271500000001
 21
4233.5040405838581
 31
0.0
  0
LINE
  5
7B00
  8
2
  6
CENTER
 10
1029.277199390224
 20
5628.6322875838578
 30
0.0
 11
2957.9723213902239
 21
5628.6322875838578
 31
0.0
  0
LINE
  5
7B01
  8
2
  6
CENTER
 10
2277.048785390225
 20
4134.4870345838581
 30
0.0
 11
2277.048785390225
 21
2198.3376685838571
 31
0.0
  0
LINE
  5
7B02
  8
2
  6
CENTER
 10
2957.9723213902239
 20
3114.4460155838578
 30
0.0
 11
1002.507790390225
 21
3114.4460155838578
 31
0.0
  0
LINE
  5
7B03
  8
4
  6
CONTINUOUS
 10
5550.0
 20
1500.0
 30
0.0
 11
5550.0
 21
900.0
 31
0.0
  0
LINE
  5
7B04
  8
4
  6
CONTINUOUS
 10
3450.0
 20
1500.0
 30
0.0
 11
3450.0
 21
900.0
 31
0.0
  0
LINE
  5
7B05
  8
4
  6
CONTINUOUS
 10
1950.0
 20
1500.0
 30
0.0
 11
1950.0
 21
900.0
 31
0.0
  0
LINE
  5
7B08
  8
4
  6
CONTINUOUS
 10
1950.0
 20
900.0
 30
0.0
 11
5550.0
 21
900.0
 31
0.0
  0
LINE
  5
7B09
  8
4
  6
CONTINUOUS
 10
1950.0
 20
1200.0
 30
0.0
 11
5550.0
 21
1200.0
 31
0.0
  0
TEXT
  5
7B0A
  8
4
  6
CONTINUOUS
 10
2065.5062429999989
 20
1294.6290779999999
 30
0.0
 40
150.0
  1
機器名称
  0
TEXT
  5
7B0B
  8
4
  6
CONTINUOUS
 10
2058.7743179999989
 20
964.9354699999999
 30
0.0
 40
150.0
  1
機器型番
  0
TEXT
  5
7B0C
  8
4
  6
CONTINUOUS
 10
3533.0362359999999
 20
1267.7153069999999
 30
0.0
 40
150.0
  1
ミツヤ多翼送風機
  0
TEXT
  5
7B0D
  8
4
  6
CONTINUOUS
 10
3559.9634869999991
 20
951.47875299999987
 30
0.0
 40
150.0
  1
MF#4-4
  0
TEXT
  5
7B0F
  8
4
  6
CONTINUOUS
 10
2146.5205799999999
 20
7150.2865239999992
 30
0.0
 40
162.0
  1
天井吊枠防振ベット
  0
TEXT
  5
7B10
  8
4
  6
CONTINUOUS
 10
948.50278000000014
 20
7601.6429289999996
 30
0.0
 40
216.0
  1
ベルト駆動式片吸込両持多翼ファン
  0
LINE
  5
7B11
  8
4
  6
CONTINUOUS
 10
750.0
 20
7408.2262629999996
 30
0.0
 11
5550.0
 21
7408.2262629999996
 31
0.0
  0
LINE
  5
7B12
  8
4
  6
CONTINUOUS
 10
750.0
 20
8008.2262629999996
 30
0.0
 11
5550.0
 21
8008.2262629999996
 31
0.0
  0
LINE
  5
7B13
  8
4
  6
CONTINUOUS
 10
1950.0
 20
1500.0
 30
0.0
 11
5550.0
 21
1500.0
 31
0.0
  0
LINE
  5
7B14
  8
4
  6
CONTINUOUS
 10
750.0
 20
8008.2262629999996
 30
0.0
 11
750.0
 21
7408.2262629999996
 31
0.0
  0
TEXT
  5
7B15
  8
4
  6
CONTINUOUS
 10
838.94408399999998
 20
7146.9584329999998
 30
0.0
 40
162.0
  1
右回転右横向
  0
TEXT
  5
7B16
  8
4
  6
CONTINUOUS
 10
4406.9086779999989
 20
8118.1832439999989
 30
0.0
 40
168.0
  1
No.
  0
TEXT
  5
7B17
  8
4
  6
CONTINUOUS
 10
4236.7344119999989
 20
7150.2865239999992
 30
0.0
 40
162.0
  1
縮尺：1/30
  0
LINE
  5
7B18
  8
4
  6
CONTINUOUS
 10
5550.0
 20
8008.2262629999996
 30
0.0
 11
5550.0
 21
7408.2262629999996
 31
0.0
  0
LINE
  5
7B1A
  8
4
  6
CONTINUOUS
 10
4321.8522670000002
 20
8043.7907490000007
 30
0.0
 11
4321.8522670000002
 21
8359.9567849999985
 31
0.0
  0
LINE
  5
7B1B
  8
4
  6
CONTINUOUS
 10
4321.8522670000002
 20
8359.9567849999985
 30
0.0
 11
5550.0
 21
8359.9567849999985
 31
0.0
  0
LINE
  5
7B1C
  8
4
  6
CONTINUOUS
 10
5550.0
 20
8359.9567849999985
 30
0.0
 11
5550.0
 21
8043.7907490000007
 31
0.0
  0
LINE
  5
7B1D
  8
4
  6
CONTINUOUS
 10
5550.0
 20
8043.7907490000007
 30
0.0
 11
4321.8522670000002
 21
8043.7907490000007
 31
0.0
  0
DIMENSION
  5
7B35
  8
3
  6
CONTINUOUS
  2
*D1
 10
3098.574874390225
 20
3084.4460155838569
 30
0.0
 11
3098.5748743902241
 21
3375.656519583858
 31
0.0
 70
   128
 13
2762.048785390225
 23
3734.4460155838578
 33
0.0
 14
2762.048785390225
 24
3084.4460155838578
 34
0.0
 50
90.0
1001
ACAD
1000
DSTYLE
1002
{
1070
   287
1070
     3
1070
   287
1070
     3
1070
    40
1040
30.0
1070
   143
1040
0.039
1070
   172
1070
     1
1070
   271
1070
     0
1070
   279
1070
     0
1070
   288
1070
     1
1002
}
  0
DIMENSION
  5
7B42
  8
3
  6
CONTINUOUS
  2
*D2
 10
3278.698050390225
 20
3114.4460155838569
 30
0.0
 11
3278.698050390225
 21
3391.304818583857
 31
0.0
 70
   128
 13
2857.048785390225
 23
3734.4460155838578
 33
0.0
 14
2957.9723213902239
 24
3114.4460155838578
 34
0.0
 50
90.0
1001
ACAD
1000
DSTYLE
1002
{
1070
   287
1070
     3
1070
   287
1070
     3
1070
    40
1040
30.0
1070
   143
1040
0.039
1070
   172
1070
     1
1070
   271
1070
     0
1070
   279
1070
     0
1070
   288
1070
     1
1002
}
  0
DIMENSION
  5
7B4E
  8
3
  6
CONTINUOUS
  2
*D3
 10
3278.698050390225
 20
2544.4460155838569
 30
0.0
 11
3203.698050390225
 21
2829.4460155838578
 31
0.0
 70
     0
 13
2957.9723213902239
 23
3114.4460155838578
 33
0.0
 14
2707.048785390225
 24
2544.4460155838578
 34
0.0
 50
90.0
1001
ACAD
1000
DSTYLE
1002
{
1070
   287
1070
     4
1070
   287
1070
     4
1070
    40
1040
30.0
1070
    75
1070
     1
1070
   143
1040
0.039
1070
   172
1070
     1
1070
   271
1070
     0
1070
   279
1070
     1
1070
   288
1070
     1
1002
}
  0
DIMENSION
  5
7B5E
  8
3
  6
CONTINUOUS
  2
*D4
 10
3277.4376913902252
 20
2468.4460155838569
 30
0.0
 11
3277.4376913902238
 21
2247.7317298695721
 31
0.0
 70
   128
 13
2707.048785390225
 23
2544.4460155838578
 33
0.0
 14
2857.048785390225
 24
2468.4460155838569
 34
0.0
 50
90.0
1001
ACAD
1000
DSTYLE
1002
{
1070
   287
1070
     3
1070
   287
1070
     3
1070
    40
1040
30.0
1070
   143
1040
0.039
1070
   172
1070
     1
1070
   271
1070
     0
1070
   279
1070
     0
1070
   288
1070
     1
1002
}
  0
DIMENSION
  5
7B6B
  8
3
  6
CONTINUOUS
  2
*D5
 10
2277.048785390225
 20
2210.9070405838579
 30
0.0
 11
1759.398133390225
 21
2210.9070405838579
 31
0.0
 70
   128
 13
1157.0487853902241
 23
2468.4460155838569
 33
0.0
 14
2277.048785390225
 24
2198.3376685838571
 34
0.0
1001
ACAD
1000
DSTYLE
1002
{
1070
   287
1070
     3
1070
   287
1070
     3
1070
    40
1040
30.0
1070
   143
1040
0.039
1070
   172
1070
     1
1070
   271
1070
     0
1070
   279
1070
     0
1070
   288
1070
     1
1002
}
  0
DIMENSION
  5
7B77
  8
3
  6
CONTINUOUS
  2
*D6
 10
2857.048785390225
 20
2210.9070405838579
 30
0.0
 11
2567.048785390225
 21
2285.907040583857
 31
0.0
 70
     0
 13
2277.048785390225
 23
2198.3376685838571
 33
0.0
 14
2857.048785390225
 24
2468.4460155838569
 34
0.0
1001
ACAD
1000
DSTYLE
1002
{
1070
   287
1070
     4
1070
   287
1070
     4
1070
    40
1040
30.0
1070
    75
1070
     1
1070
   143
1040
0.039
1070
   172
1070
     1
1070
   271
1070
     0
1070
   279
1070
     1
1070
   288
1070
     1
1002
}
  0
DIMENSION
  5
7B84
  8
3
  6
CONTINUOUS
  2
*D7
 10
2277.048785390225
 20
4197.1919765838584
 30
0.0
 11
2482.7630713902249
 21
4197.1919765838584
 31
0.0
 70
   128
 13
2762.048785390225
 23
3774.4460155838578
 33
0.0
 14
2277.048785390225
 24
4134.4870345838581
 34
0.0
1001
ACAD
1000
DSTYLE
1002
{
1070
   287
1070
     3
1070
   287
1070
     3
1070
    40
1040
30.0
1070
   143
1040
0.039
1070
   172
1070
     1
1070
   271
1070
     0
1070
   279
1070
     0
1070
   288
1070
     1
1002
}
  0
DIMENSION
  5
7B91
  8
3
  6
CONTINUOUS
  2
*D8
 10
4954.8271499999992
 20
4095.478059583857
 30
0.0
 11
4685.5414360000004
 21
4095.478059583857
 31
0.0
 70
   128
 13
4479.8271500000001
 23
3734.4460155838578
 33
0.0
 14
4954.8271499999992
 24
3734.4460155838578
 34
0.0
1001
ACAD
1000
DSTYLE
1002
{
1070
   287
1070
     3
1070
   287
1070
     3
1070
    40
1040
30.0
1070
   143
1040
0.039
1070
   172
1070
     1
1070
   271
1070
     0
1070
   279
1070
     0
1070
   288
1070
     1
1002
}
  0
LINE
  5
7B92
  8
1
  6
CONTINUOUS
 10
4958.3271500000001
 20
3449.4460155838578
 30
0.0
 11
4958.3271500000001
 21
2779.4460155838569
 31
0.0
  0
DIMENSION
  5
7BA1
  8
3
  6
CONTINUOUS
  2
*D9
 10
5308.7593470000011
 20
2779.4460155838569
 30
0.0
 11
5308.7593470000002
 21
3125.2838055838579
 31
0.0
 70
   128
 13
4958.3271500000001
 23
3449.4460155838578
 33
0.0
 14
4958.3271500000001
 24
2779.4460155838569
 34
0.0
 50
90.0
1001
ACAD
1000
DSTYLE
1002
{
1070
   287
1070
     3
1070
   287
1070
     3
1070
     3
1000
φ<>
1070
    40
1040
30.0
1070
   143
1040
0.039
1070
   172
1070
     1
1070
   271
1070
     0
1070
   279
1070
     0
1070
   288
1070
     1
1002
}
  0
DIMENSION
  5
7BAF
  8
3
  6
CONTINUOUS
  2
*D10
 10
4717.3271500000001
 20
4306.7300335838581
 30
0.0
 11
4829.4889599286953
 21
4399.6018553953318
 31
0.0
 70
   128
 13
4958.3271500000001
 23
3449.4460155838578
 33
0.0
 14
4717.3271500000001
 24
4240.6284835838569
 34
0.0
1001
ACAD
1000
DSTYLE
1002
{
1070
   288
1070
     1
1070
   172
1070
     1
1070
    40
1040
30.0
1070
   271
1070
     0
1070
   143
1040
0.039
1002
}
  0
DIMENSION
  5
7BC8
  8
3
  6
CONTINUOUS
  2
*D11
 10
4026.2114430000001
 20
2468.4460155838569
 30
0.0
 11
4026.2114430000001
 21
3180.0528445838572
 31
0.0
 70
   128
 13
4132.3271500000001
 23
4018.4460155838569
 33
0.0
 14
4132.3271500000001
 24
2468.4460155838569
 34
0.0
 50
90.0
1001
ACAD
1000
DSTYLE
1002
{
1070
   287
1070
     3
1070
   287
1070
     3
1070
    40
1040
30.0
1070
   143
1040
0.039
1070
   172
1070
     1
1070
   271
1070
     0
1070
   279
1070
     0
1070
   288
1070
     1
1002
}
  0
DIMENSION
  5
7BE3
  8
3
  6
CONTINUOUS
  2
*D12
 10
5082.327150000001
 20
2200.179028583857
 30
0.0
 11
4905.4677409999986
 21
2198.5618045838569
 31
0.0
 70
   128
 13
4717.3271500000001
 23
2256.5935405838582
 33
0.0
 14
5082.327150000001
 24
2468.4460155838569
 34
0.0
1001
ACAD
1000
DSTYLE
1002
{
1070
   287
1070
     4
1070
   287
1070
     4
1070
    40
1040
30.0
1070
    75
1070
     1
1070
   143
1040
0.039
1070
   172
1070
     1
1070
   271
1070
     0
1070
   279
1070
     1
1070
   288
1070
     1
1002
}
  0
LINE
  5
7BF0
  8
2
  6
CENTER
 10
4717.3271500000001
 20
4105.1077775838576
 30
0.0
 11
4717.3271500000001
 21
2256.5935405838582
 31
0.0
  0
DIMENSION
  5
7BFD
  8
3
  6
CONTINUOUS
  2
*D13
 10
2857.048785390225
 20
6196.4675455838578
 30
0.0
 11
2056.9929643902251
 21
6196.4675455838578
 31
0.0
 70
   128
 13
1157.0487853902241
 23
5993.6322875838569
 33
0.0
 14
2857.048785390225
 24
5993.6322875838569
 34
0.0
1001
ACAD
1000
DSTYLE
1002
{
1070
   287
1070
     3
1070
   287
1070
     3
1070
    40
1040
30.0
1070
   143
1040
0.039
1070
   172
1070
     1
1070
   271
1070
     0
1070
   279
1070
     0
1070
   288
1070
     1
1002
}
  0
LINE
  5
7C2B
  8
1
  6
CONTINUOUS
 10
4132.3271500000001
 20
4018.4460155838569
 30
0.0
 11
4132.3271500000001
 21
2468.4460155838569
 31
0.0
  0
LINE
  5
7C2C
  8
1
  6
CONTINUOUS
 10
4132.3271500000001
 20
2468.4460155838569
 30
0.0
 11
5082.327150000001
 21
2468.4460155838569
 31
0.0
  0
LINE
  5
7C2D
  8
1
  6
CONTINUOUS
 10
5082.327150000001
 20
2468.4460155838569
 30
0.0
 11
5082.327150000001
 21
4018.4460155838569
 31
0.0
  0
LINE
  5
7C2E
  8
1
  6
CONTINUOUS
 10
5082.327150000001
 20
4018.4460155838569
 30
0.0
 11
4132.3271500000001
 21
4018.4460155838569
 31
0.0
  0
DIMENSION
  5
7C3A
  8
3
  6
CONTINUOUS
  2
*D14
 10
4132.3271500000001
 20
2200.179028583857
 30
0.0
 11
4424.8271500000001
 21
2275.1790285838579
 31
0.0
 70
     0
 13
4717.3271500000001
 23
2256.5935405838582
 33
0.0
 14
4132.3271500000001
 24
2468.4460155838569
 34
0.0
1001
ACAD
1000
DSTYLE
1002
{
1070
   287
1070
     3
1070
   287
1070
     3
1070
    40
1040
30.0
1070
   143
1040
0.039
1070
   172
1070
     1
1070
   271
1070
     0
1070
   279
1070
     0
1070
   288
1070
     1
1002
}
  0
DIMENSION
  5
7C48
  8
3
  6
CONTINUOUS
  2
*D15
 10
3154.2635583902252
 20
5043.6322875838569
 30
0.0
 11
3154.2635583902238
 21
5527.2029065838578
 31
0.0
 70
   128
 13
2857.048785390225
 23
5993.6322875838569
 33
0.0
 14
2857.048785390225
 24
5043.6322875838569
 34
0.0
 50
90.0
1001
ACAD
1000
DSTYLE
1002
{
1070
   287
1070
     3
1070
   287
1070
     3
1070
    40
1040
30.0
1070
   143
1040
0.039
1070
   172
1070
     1
1070
   271
1070
     0
1070
   279
1070
     0
1070
   288
1070
     1
1002
}
  0
DIMENSION
  5
7CBE
  8
3
  2
*D16
 10
1755.048785390225
 20
4197.1919765838584
 30
0.0
 11
2016.0487853902241
 21
4272.1919765838566
 31
0.0
 70
     0
 13
2277.048785390225
 23
4134.4870345838581
 33
0.0
 14
1755.048785390225
 24
3155.4460155838578
 34
0.0
1001
ACAD
1000
DSTYLE
1002
{
1070
   287
1070
     4
1070
   287
1070
     4
1070
    40
1040
30.0
1070
    75
1070
     1
1070
   143
1040
0.039
1070
   172
1070
     1
1070
   271
1070
     0
1070
   279
1070
     1
1070
   288
1070
     1
1002
}
  0
ENDSEC
  0
EOF
