  0
SECTION
  2
HEADER
  9
$ACADVER
  1
AC1009
  9
$INSBASE
 10
0.0
 20
0.0
 30
0.0
  9
$EXTMIN
 10
750.0
 20
900.0
 30
0.0
  9
$EXTMAX
 10
5550.0
 20
8359.9567849999985
 30
0.0
  9
$LIMMIN
 10
0.0
 20
0.0
  9
$LIMMAX
 10
297.0
 20
210.0
  9
$ORTHOMODE
 70
     0
  9
$REGENMODE
 70
     1
  9
$FILLMODE
 70
     0
  9
$QTEXTMODE
 70
     0
  9
$MIRRTEXT
 70
     1
  9
$DRAGMODE
 70
     2
  9
$LTSCALE
 40
100.0
  9
$OSMODE
 70
    37
  9
$ATTMODE
 70
     1
  9
$TEXTSIZE
 40
180.0
  9
$TRACEWID
 40
0.05
  9
$TEXTSTYLE
  7
STANDARD
  9
$CLAYER
  8
3
  9
$CELTYPE
  6
BYLAYER
  9
$CECOLOR
 62
   256
  9
$DIMSCALE
 40
30.0
  9
$DIMASZ
 40
2.0
  9
$DIMEXO
 40
0.5
  9
$DIMDLI
 40
10.0
  9
$DIMRND
 40
0.0
  9
$DIMDLE
 40
0.0
  9
$DIMEXE
 40
1.0
  9
$DIMTP
 40
1.0
  9
$DIMTM
 40
1.0
  9
$DIMTXT
 40
3.0
  9
$DIMCEN
 40
0.0
  9
$DIMTSZ
 40
0.0
  9
$DIMTOL
 70
     0
  9
$DIMLIM
 70
     0
  9
$DIMTIH
 70
     0
  9
$DIMTOH
 70
     0
  9
$DIMSE1
 70
     0
  9
$DIMSE2
 70
     0
  9
$DIMTAD
 70
     1
  9
$DIMZIN
 70
     8
  9
$DIMBLK
  1

  9
$DIMASO
 70
     1
  9
$DIMSHO
 70
     1
  9
$DIMPOST
  1

  9
$DIMAPOST
  1

  9
$DIMALT
 70
     0
  9
$DIMALTD
 70
     2
  9
$DIMALTF
 40
0.039
  9
$DIMLFAC
 40
1.0
  9
$DIMTOFL
 70
     1
  9
$DIMTVP
 40
0.0
  9
$DIMTIX
 70
     0
  9
$DIMSOXD
 70
     0
  9
$DIMSAH
 70
     1
  9
$DIMBLK1
  1
OPEN
  9
$DIMBLK2
  1
OPEN
  9
$DIMSTYLE
  2
IGA
  9
$DIMCLRD
 70
     0
  9
$DIMCLRE
 70
     0
  9
$DIMCLRT
 70
     0
  9
$DIMTFAC
 40
10.0
  9
$DIMGAP
 40
1.0
  9
$LUNITS
 70
     2
  9
$LUPREC
 70
     3
  9
$SKETCHINC
 40
0.1
  9
$FILLETRAD
 40
50.0
  9
$AUNITS
 70
     0
  9
$AUPREC
 70
     0
  9
$MENU
  1
acad
  9
$ELEVATION
 40
0.0
  9
$PELEVATION
 40
0.0
  9
$THICKNESS
 40
0.0
  9
$LIMCHECK
 70
     0
  9
$BLIPMODE
 70
     0
  9
$CHAMFERA
 40
0.5
  9
$CHAMFERB
 40
0.5
  9
$SKPOLY
 70
     0
  9
$TDCREATE
 40
2450742.6039864579
  9
$TDUPDATE
 40
2454953.771087592
  9
$TDINDWG
 40
0.0099834722
  9
$TDUSRTIMER
 40
0.0099834722
  9
$USRTIMER
 70
     1
  9
$ANGBASE
 50
0.0
  9
$ANGDIR
 70
     0
  9
$PDMODE
 70
     0
  9
$PDSIZE
 40
0.0
  9
$PLINEWID
 40
0.0
  9
$COORDS
 70
     1
  9
$SPLFRAME
 70
     0
  9
$SPLINETYPE
 70
     6
  9
$SPLINESEGS
 70
     8
  9
$ATTDIA
 70
     0
  9
$ATTREQ
 70
     1
  9
$HANDLING
 70
 10241
  9
$HANDSEED
  5
7F57
  9
$SURFTAB1
 70
     6
  9
$SURFTAB2
 70
     6
  9
$SURFTYPE
 70
     6
  9
$SURFU
 70
     6
  9
$SURFV
 70
     6
  9
$UCSNAME
  2

  9
$UCSORG
 10
0.0
 20
0.0
 30
0.0
  9
$UCSXDIR
 10
1.0
 20
0.0
 30
0.0
  9
$UCSYDIR
 10
0.0
 20
1.0
 30
0.0
  9
$PUCSNAME
  2

  9
$PUCSORG
 10
0.0
 20
0.0
 30
0.0
  9
$PUCSXDIR
 10
1.0
 20
0.0
 30
0.0
  9
$PUCSYDIR
 10
0.0
 20
1.0
 30
0.0
  9
$USERI1
 70
     0
  9
$USERI2
 70
     0
  9
$USERI3
 70
     0
  9
$USERI4
 70
     0
  9
$USERI5
 70
     0
  9
$USERR1
 40
0.0
  9
$USERR2
 40
0.0
  9
$USERR3
 40
0.0
  9
$USERR4
 40
0.0
  9
$USERR5
 40
0.0
  9
$WORLDVIEW
 70
     1
  9
$SHADEDGE
 70
     3
  9
$SHADEDIF
 70
    70
  9
$TILEMODE
 70
     1
  9
$MAXACTVP
 70
    16
  9
$PLIMCHECK
 70
     0
  9
$PEXTMIN
 10
1.0000000000000000E+020
 20
1.0000000000000000E+020
 30
1.0000000000000000E+020
  9
$PEXTMAX
 10
-1.0000000000000000E+020
 20
-1.0000000000000000E+020
 30
-1.0000000000000000E+020
  9
$PLIMMIN
 10
0.0
 20
0.0
  9
$PLIMMAX
 10
12.0
 20
9.0
  9
$UNITMODE
 70
     0
  9
$VISRETAIN
 70
     0
  9
$PLINEGEN
 70
     0
  9
$PSLTSCALE
 70
     1
  0
ENDSEC
  0
SECTION
  2
TABLES
  0
TABLE
  2
VPORT
 70
     2
  0
VPORT
  2
*ACTIVE
 70
     0
 10
0.0
 20
0.0
 11
1.0
 21
1.0
 12
9438.4567678319436
 22
4630.0975558305709
 13
0.0
 23
0.0
 14
10.0
 24
10.0
 15
10.0
 25
10.0
 16
0.0
 26
0.0
 36
1.0
 17
0.0
 27
0.0
 37
0.0
 40
7517.4747125171307
 41
3.1666666666666661
 42
50.0
 43
0.0
 44
0.0
 50
0.0
 51
0.0
 71
     0
 72
   100
 73
     1
 74
     0
 75
     0
 76
     0
 77
     0
 78
     0
  0
ENDTAB
  0
TABLE
  2
LTYPE
 70
     2
  0
LTYPE
  2
CONTINUOUS
 70
     0
  3
Solid line
 72
    65
 73
     0
 40
0.0
  0
LTYPE
  2
CENTER
 70
     0
  3
____ _ ____ _ ____ _ ____ _ ____ _ ____ _ ____ 
 72
    65
 73
     4
 40
2.0
 49
1.25
 49
-0.25
 49
0.25
 49
-0.25
  0
ENDTAB
  0
TABLE
  2
LAYER
 70
     6
  0
LAYER
  2
0
 70
     0
 62
     7
  6
CONTINUOUS
  0
LAYER
  2
3
 70
     0
 62
     2
  6
CONTINUOUS
  0
LAYER
  2
2
 70
     0
 62
     3
  6
CENTER
  0
LAYER
  2
1
 70
     0
 62
     4
  6
CONTINUOUS
  0
LAYER
  2
4
 70
     0
 62
     7
  6
CONTINUOUS
  0
LAYER
  2
DEFPOINTS
 70
     0
 62
     7
  6
CONTINUOUS
  0
ENDTAB
  0
TABLE
  2
STYLE
 70
     1
  0
STYLE
  2
STANDARD
 70
     0
 40
0.0
 41
1.0
 50
0.0
 71
     0
 42
180.0
  3
simplex.shx
  4
extfont.shx
  0
ENDTAB
  0
TABLE
  2
VIEW
 70
     0
  0
ENDTAB
  0
TABLE
  2
UCS
 70
     0
  0
ENDTAB
  0
TABLE
  2
APPID
 70
     1
  0
APPID
  2
ACAD
 70
     0
  0
ENDTAB
  0
TABLE
  2
DIMSTYLE
 70
     1
  0
DIMSTYLE
  2
IGA
 70
     0
  3

  4

  5

  6
OPEN
  7
OPEN
 40
2.0
 41
2.0
 42
0.5
 43
10.0
 44
1.0
 45
0.0
 46
0.0
 47
1.0
 48
1.0
140
3.0
141
0.0
142
0.0
143
0.03937
144
1.0
145
0.0
146
10.0
147
1.0
 71
     0
 72
     0
 73
     0
 74
     0
 75
     0
 76
     0
 77
     1
 78
     8
170
     0
171
     2
172
     0
173
     1
174
     0
175
     0
176
     0
177
     0
178
     0
  0
ENDTAB
  0
ENDSEC
  0
SECTION
  2
BLOCKS
  0
BLOCK
  8
0
  2
$MODEL_SPACE
 70
     0
 10
0.0
 20
0.0
 30
0.0
  3
$MODEL_SPACE
  1

  0
ENDBLK
  5
1B
  8
0
  0
BLOCK
 67
     1
  8
0
  2
$PAPER_SPACE
 70
     0
 10
0.0
 20
0.0
 30
0.0
  3
$PAPER_SPACE
  1

  0
ENDBLK
  5
18
 67
     1
  8
0
  0
BLOCK
  8
0
  2
_OPEN
 70
     0
 10
0.0
 20
0.0
 30
0.0
  3
_OPEN
  1

  0
LINE
  5
7B03
  8
0
  6
BYBLOCK
 62
     0
 10
-1.0
 20
0.166667
 30
0.0
 11
0.0
 21
0.0
 31
0.0
  0
LINE
  5
7B04
  8
0
  6
BYBLOCK
 62
     0
 10
0.0
 20
0.0
 30
0.0
 11
-1.0
 21
-0.166667
 31
0.0
  0
LINE
  5
7B05
  8
0
  6
BYBLOCK
 62
     0
 10
0.0
 20
0.0
 30
0.0
 11
-1.0
 21
0.0
 31
0.0
  0
ENDBLK
  5
7B06
  8
0
  0
BLOCK
  8
0
  2
*D1
 70
     1
 10
0.0
 20
0.0
 30
0.0
  3
*D1
  1

  0
LINE
  5
7EB6
  8
3
  6
CONTINUOUS
 62
     0
 10
2711.5941779999998
 20
3452.4550589999999
 30
0.0
 11
3003.0353580000001
 21
3452.4550589999999
 31
0.0
  0
LINE
  5
7EB7
  8
3
  6
CONTINUOUS
 62
     0
 10
2711.5941779999998
 20
2802.4550589999999
 30
0.0
 11
3003.0353579999992
 21
2802.4550589999999
 31
0.0
  0
LINE
  5
7EB8
  8
3
  6
CONTINUOUS
 62
     0
 10
2973.0353580000001
 20
3392.4550589999999
 30
0.0
 11
2973.0353580000001
 21
2862.4550589999999
 31
0.0
  0
INSERT
  5
7EB9
  8
3
  6
CONTINUOUS
 62
     0
  2
_OPEN
 10
2973.0353580000001
 20
3452.4550589999999
 30
0.0
 41
60.0
 42
60.0
 43
60.0
 50
90.0
  0
INSERT
  5
7EBA
  8
3
  6
CONTINUOUS
 62
     0
  2
_OPEN
 10
2973.0353580000001
 20
2802.4550589999999
 30
0.0
 41
60.0
 42
60.0
 43
60.0
 50
270.0
  0
TEXT
  8
3
  40
90
  5
7F47
  62
0
  72
0
  71
0
 10
2718.04
 20
2926.19
 30
0.000000
  1
650
  0
POINT
  5
7EBC
  8
DEFPOINTS
  6
CONTINUOUS
 62
     0
 10
2696.5941779999998
 20
3452.4550589999999
 30
0.0
  0
POINT
  5
7EBD
  8
DEFPOINTS
  6
CONTINUOUS
 62
     0
 10
2696.5941779999998
 20
2802.4550589999999
 30
0.0
  0
POINT
  5
7EBE
  8
DEFPOINTS
  6
CONTINUOUS
 62
     0
 10
2973.0353580000001
 20
2802.4550589999999
 30
0.0
  0
ENDBLK
  5
7B13
  8
0
  0
BLOCK
  8
0
  2
*D2
 70
     1
 10
0.0
 20
0.0
 30
0.0
  3
*D2
  1

  0
LINE
  5
7EBF
  8
3
  6
CONTINUOUS
 62
     0
 10
2945.3933940000002
 20
3422.4550589999999
 30
0.0
 11
3193.7298210000008
 21
3422.4550589999999
 31
0.0
  0
LINE
  5
7EC0
  8
3
  6
CONTINUOUS
 62
     0
 10
2756.5941779999998
 20
2802.4550589999999
 30
0.0
 11
3193.7298209999999
 21
2802.455058999999
 31
0.0
  0
LINE
  5
7EC1
  8
3
  6
CONTINUOUS
 62
     0
 10
3163.7298209999999
 20
3362.4550589999999
 30
0.0
 11
3163.7298209999999
 21
2862.455058999999
 31
0.0
  0
INSERT
  5
7EC2
  8
3
  6
CONTINUOUS
 62
     0
  2
_OPEN
 10
3163.7298209999999
 20
3422.4550589999999
 30
0.0
 41
60.0
 42
60.0
 43
60.0
 50
90.0
  0
INSERT
  5
7EC3
  8
3
  6
CONTINUOUS
 62
     0
  2
_OPEN
 10
3163.7298209999999
 20
2802.455058999999
 30
0.0
 41
60.0
 42
60.0
 43
60.0
 50
270.0
  0
TEXT
  8
3
  40
90
  5
7F48
  62
0
  72
0
  71
0
 10
2908.73
 20
2932.76
 30
0.000000
  1
620
  0
POINT
  5
7EC5
  8
DEFPOINTS
  6
CONTINUOUS
 62
     0
 10
2930.3933940000002
 20
3422.4550589999999
 30
0.0
  0
POINT
  5
7EC6
  8
DEFPOINTS
  6
CONTINUOUS
 62
     0
 10
2741.5941779999998
 20
2802.4550589999999
 30
0.0
  0
POINT
  5
7EC7
  8
DEFPOINTS
  6
CONTINUOUS
 62
     0
 10
3163.7298209999999
 20
2802.455058999999
 30
0.0
  0
ENDBLK
  5
7B20
  8
0
  0
BLOCK
  8
0
  2
*D3
 70
     1
 10
0.0
 20
0.0
 30
0.0
  3
*D3
  1

  0
LINE
  5
7EC8
  8
3
  6
CONTINUOUS
 62
     0
 10
2945.3933940000002
 20
3422.4550589999999
 30
0.0
 11
3377.8486440000011
 21
3422.4550589999999
 31
0.0
  0
LINE
  5
7EC9
  8
3
  6
CONTINUOUS
 62
     0
 10
2656.5941779999998
 20
2622.455058999999
 30
0.0
 11
3377.8486440000011
 21
2622.455058999999
 31
0.0
  0
LINE
  5
7ECA
  8
3
  6
CONTINUOUS
 62
     0
 10
3347.8486440000011
 20
3362.4550589999999
 30
0.0
 11
3347.8486440000001
 21
2682.455058999999
 31
0.0
  0
INSERT
  5
7ECB
  8
3
  6
CONTINUOUS
 62
     0
  2
_OPEN
 10
3347.8486440000011
 20
3422.4550589999999
 30
0.0
 41
60.0
 42
60.0
 43
60.0
 50
90.0
  0
INSERT
  5
7ECC
  8
3
  6
CONTINUOUS
 62
     0
  2
_OPEN
 10
3347.8486440000001
 20
2622.455058999999
 30
0.0
 41
60.0
 42
60.0
 43
60.0
 50
270.0
  0
TEXT
  8
3
  40
90
  5
7F49
  62
0
  72
0
  71
0
 10
3092.85
 20
2821.07
 30
0.000000
  1
800
  0
POINT
  5
7ECE
  8
DEFPOINTS
  6
CONTINUOUS
 62
     0
 10
2930.3933940000002
 20
3422.4550589999999
 30
0.0
  0
POINT
  5
7ECF
  8
DEFPOINTS
  6
CONTINUOUS
 62
     0
 10
2641.5941779999998
 20
2622.455058999999
 30
0.0
  0
POINT
  5
7ED0
  8
DEFPOINTS
  6
CONTINUOUS
 62
     0
 10
3347.8486440000001
 20
2622.455058999999
 30
0.0
  0
ENDBLK
  5
7B2D
  8
0
  0
BLOCK
  8
0
  2
*D4
 70
     1
 10
0.0
 20
0.0
 30
0.0
  3
*D4
  1

  0
LINE
  5
7ED1
  8
3
  6
CONTINUOUS
 62
     0
 10
2656.5941779999998
 20
2622.455058999999
 30
0.0
 11
3378.9118239999998
 21
2622.455058999999
 31
0.0
  0
LINE
  5
7ED2
  8
3
  6
CONTINUOUS
 62
     0
 10
2806.5941779999998
 20
2546.455058999999
 30
0.0
 11
3378.9118239999998
 21
2546.455058999999
 31
0.0
  0
LINE
  5
7ED3
  8
3
  6
CONTINUOUS
 62
     0
 10
3348.9118239999998
 20
2682.455058999999
 30
0.0
 11
3348.9118239999998
 21
2742.455058999999
 31
0.0
  0
LINE
  5
7ED4
  8
3
  6
CONTINUOUS
 62
     0
 10
3348.9118239999998
 20
2486.455058999999
 30
0.0
 11
3348.9118239999998
 21
2225.026487571427
 31
0.0
  0
LINE
  5
7ED5
  8
3
  6
CONTINUOUS
 62
     0
 10
3348.9118239999998
 20
2622.455058999999
 30
0.0
 11
3348.9118239999998
 21
2546.455058999999
 31
0.0
  0
INSERT
  5
7ED6
  8
3
  6
CONTINUOUS
 62
     0
  2
_OPEN
 10
3348.9118239999998
 20
2622.455058999999
 30
0.0
 41
60.0
 42
60.0
 43
60.0
 50
270.0
  0
INSERT
  5
7ED7
  8
3
  6
CONTINUOUS
 62
     0
  2
_OPEN
 10
3348.9118239999998
 20
2546.455058999999
 30
0.0
 41
60.0
 42
60.0
 43
60.0
 50
90.0
  0
TEXT
  8
3
  40
90
  5
7F4A
  62
0
  72
0
  71
0
 10
3093.91
 20
2166.44
 30
0.000000
  1
76
  0
POINT
  5
7ED9
  8
DEFPOINTS
  6
CONTINUOUS
 62
     0
 10
2641.5941779999998
 20
2622.455058999999
 30
0.0
  0
POINT
  5
7EDA
  8
DEFPOINTS
  6
CONTINUOUS
 62
     0
 10
2791.5941779999998
 20
2546.455058999999
 30
0.0
  0
POINT
  5
7EDB
  8
DEFPOINTS
  6
CONTINUOUS
 62
     0
 10
3348.9118239999998
 20
2546.455058999999
 30
0.0
  0
ENDBLK
  5
7C9E
  8
0
  0
BLOCK
  8
0
  2
*D5
 70
     1
 10
0.0
 20
0.0
 30
0.0
  3
*D5
  1

  0
LINE
  5
7EDC
  8
3
  6
CONTINUOUS
 62
     0
 10
2696.5941779999998
 20
3507.4550589999999
 30
0.0
 11
2696.5941779999998
 21
4206.030162
 31
0.0
  0
LINE
  5
7EDD
  8
3
  6
CONTINUOUS
 62
     0
 10
2211.5941779999998
 20
4171.742808
 30
0.0
 11
2211.5941779999998
 21
4146.030162
 31
0.0
  0
LINE
  5
7EDE
  8
3
  6
CONTINUOUS
 62
     0
 10
2636.5941779999998
 20
4176.0301619999991
 30
0.0
 11
2271.5941779999998
 21
4176.0301619999991
 31
0.0
  0
INSERT
  5
7EDF
  8
3
  6
CONTINUOUS
 62
     0
  2
_OPEN
 10
2696.5941779999998
 20
4176.0301619999991
 30
0.0
 41
60.0
 42
60.0
 43
60.0
  0
INSERT
  5
7EE0
  8
3
  6
CONTINUOUS
 62
     0
  2
_OPEN
 10
2211.5941779999998
 20
4176.0301619999991
 30
0.0
 41
60.0
 42
60.0
 43
60.0
 50
180.0
  0
TEXT
  8
3
  40
90
  5
7F4B
  62
0
  72
0
  71
0
 10
2273.56
 20
4091.73
 30
0.000000
  1
485
  0
POINT
  5
7EE2
  8
DEFPOINTS
  6
CONTINUOUS
 62
     0
 10
2696.5941779999998
 20
3492.4550589999999
 30
0.0
  0
POINT
  5
7EE3
  8
DEFPOINTS
  6
CONTINUOUS
 62
     0
 10
2211.5941779999998
 20
4186.742808
 30
0.0
  0
POINT
  5
7EE4
  8
DEFPOINTS
  6
CONTINUOUS
 62
     0
 10
2211.5941779999998
 20
4176.0301619999991
 30
0.0
  0
ENDBLK
  5
7B4A
  8
0
  0
BLOCK
  8
0
  2
*D6
 70
     1
 10
0.0
 20
0.0
 30
0.0
  3
*D6
  1

  0
LINE
  5
7EE5
  8
3
  6
CONTINUOUS
 62
     0
 10
2791.5941779999998
 20
2531.4550589999999
 30
0.0
 11
2791.5941779999998
 21
2254.0749110000002
 31
0.0
  0
LINE
  5
7EE6
  8
3
  6
CONTINUOUS
 62
     0
 10
2211.5941779999998
 20
2428.5229669999999
 30
0.0
 11
2211.5941779999998
 21
2254.0749110000002
 31
0.0
  0
LINE
  5
7EE7
  8
3
  6
CONTINUOUS
 62
     0
 10
2731.5941779999998
 20
2284.0749110000002
 30
0.0
 11
2271.5941779999998
 21
2284.0749110000002
 31
0.0
  0
INSERT
  5
7EE8
  8
3
  6
CONTINUOUS
 62
     0
  2
_OPEN
 10
2791.5941779999998
 20
2284.0749110000002
 30
0.0
 41
60.0
 42
60.0
 43
60.0
  0
INSERT
  5
7EE9
  8
3
  6
CONTINUOUS
 62
     0
  2
_OPEN
 10
2211.5941779999998
 20
2284.0749110000002
 30
0.0
 41
60.0
 42
60.0
 43
60.0
 50
180.0
  0
TEXT
  8
3
  40
90
  5
7F4C
  62
0
  72
0
  71
0
 10
2313.01
 20
2199.77
 30
0.000000
  1
580
  0
POINT
  5
7EEB
  8
DEFPOINTS
  6
CONTINUOUS
 62
     0
 10
2791.5941779999998
 20
2546.455058999999
 30
0.0
  0
POINT
  5
7EEC
  8
DEFPOINTS
  6
CONTINUOUS
 62
     0
 10
2211.5941779999998
 20
2443.5229669999999
 30
0.0
  0
POINT
  5
7EED
  8
DEFPOINTS
  6
CONTINUOUS
 62
     0
 10
2211.5941779999998
 20
2284.0749110000002
 30
0.0
  0
ENDBLK
  5
7C0B
  8
0
  0
BLOCK
  8
0
  2
*D7
 70
     1
 10
0.0
 20
0.0
 30
0.0
  3
*D7
  1

  0
LINE
  5
7EEE
  8
3
  6
CONTINUOUS
 62
     0
 10
1091.5941780000001
 20
2531.4550589999999
 30
0.0
 11
1091.5941780000001
 21
2254.0749110000002
 31
0.0
  0
LINE
  5
7EEF
  8
3
  6
CONTINUOUS
 62
     0
 10
2151.5941779999998
 20
2284.0749110000002
 30
0.0
 11
1151.5941779999989
 21
2284.0749110000002
 31
0.0
  0
INSERT
  5
7EF0
  8
3
  6
CONTINUOUS
 62
     0
  2
_OPEN
 10
2211.5941779999998
 20
2284.0749110000002
 30
0.0
 41
60.0
 42
60.0
 43
60.0
  0
INSERT
  5
7EF1
  8
3
  6
CONTINUOUS
 62
     0
  2
_OPEN
 10
1091.5941780000001
 20
2284.0749110000002
 30
0.0
 41
60.0
 42
60.0
 43
60.0
 50
180.0
  0
TEXT
  8
3
  40
90
  5
7F4D
  62
0
  72
0
  71
0
 10
1471.59
 20
2199.77
 30
0.000000
  1
1120
  0
POINT
  5
7EF3
  8
DEFPOINTS
  6
CONTINUOUS
 62
     0
 10
2211.5941779999998
 20
2443.5229669999999
 30
0.0
  0
POINT
  5
7EF4
  8
DEFPOINTS
  6
CONTINUOUS
 62
     0
 10
1091.5941780000001
 20
2546.455058999999
 30
0.0
  0
POINT
  5
7EF5
  8
DEFPOINTS
  6
CONTINUOUS
 62
     0
 10
1091.5941780000001
 20
2284.0749110000002
 30
0.0
  0
ENDBLK
  5
7C00
  8
0
  0
BLOCK
  8
0
  2
*D8
 70
     1
 10
0.0
 20
0.0
 30
0.0
  3
*D8
  1

  0
LINE
  5
7EF6
  8
3
  6
CONTINUOUS
 62
     0
 10
4978.209339
 20
3890.7095060000001
 30
0.0
 11
4978.209339
 21
4192.8910770000002
 31
0.0
  0
LINE
  5
7EF7
  8
3
  6
CONTINUOUS
 62
     0
 10
4503.209339
 20
3890.7095060000001
 30
0.0
 11
4503.209339
 21
4192.8910770000002
 31
0.0
  0
LINE
  5
7EF8
  8
3
  6
CONTINUOUS
 62
     0
 10
5038.209339
 20
4162.8910770000002
 30
0.0
 11
5098.209339
 21
4162.8910770000002
 31
0.0
  0
LINE
  5
7EF9
  8
3
  6
CONTINUOUS
 62
     0
 10
4443.209339
 20
4162.8910770000002
 30
0.0
 11
4383.209339
 21
4162.8910770000002
 31
0.0
  0
LINE
  5
7EFA
  8
3
  6
CONTINUOUS
 62
     0
 10
4978.209339
 20
4162.8910770000002
 30
0.0
 11
4503.209339
 21
4162.8910770000002
 31
0.0
  0
INSERT
  5
7EFB
  8
3
  6
CONTINUOUS
 62
     0
  2
_OPEN
 10
4978.209339
 20
4162.8910770000002
 30
0.0
 41
60.0
 42
60.0
 43
60.0
 50
180.0
  0
INSERT
  5
7EFC
  8
3
  6
CONTINUOUS
 62
     0
  2
_OPEN
 10
4503.209339
 20
4162.8910770000002
 30
0.0
 41
60.0
 42
60.0
 43
60.0
  0
TEXT
  8
3
  40
90
  5
7F4E
  62
0
  72
0
  71
0
 10
4528.92
 20
4078.59
 30
0.000000
  1
475
  0
POINT
  5
7EFE
  8
DEFPOINTS
  6
CONTINUOUS
 62
     0
 10
4978.209339
 20
3875.7095060000001
 30
0.0
  0
POINT
  5
7EFF
  8
DEFPOINTS
  6
CONTINUOUS
 62
     0
 10
4503.209339
 20
3875.7095060000001
 30
0.0
  0
POINT
  5
7F00
  8
DEFPOINTS
  6
CONTINUOUS
 62
     0
 10
4503.209339
 20
4162.8910770000002
 30
0.0
  0
ENDBLK
  5
7B70
  8
0
  0
BLOCK
  8
0
  2
*D9
 70
     1
 10
0.0
 20
0.0
 30
0.0
  3
*D9
  1

  0
LINE
  5
7F01
  8
3
  6
CONTINUOUS
 62
     0
 10
4996.709339
 20
3757.4550589999999
 30
0.0
 11
5360.1873969999997
 21
3757.4550589999999
 31
0.0
  0
LINE
  5
7F02
  8
3
  6
CONTINUOUS
 62
     0
 10
4996.709339
 20
3087.455058999999
 30
0.0
 11
5360.1873969999997
 21
3087.455058999999
 31
0.0
  0
LINE
  5
7F03
  8
3
  6
CONTINUOUS
 62
     0
 10
5330.1873970000006
 20
3697.4550589999999
 30
0.0
 11
5330.1873970000006
 21
3147.455058999999
 31
0.0
  0
INSERT
  5
7F04
  8
3
  6
CONTINUOUS
 62
     0
  2
_OPEN
 10
5330.1873970000006
 20
3757.4550589999999
 30
0.0
 41
60.0
 42
60.0
 43
60.0
 50
90.0
  0
INSERT
  5
7F05
  8
3
  6
CONTINUOUS
 62
     0
  2
_OPEN
 10
5330.1873970000006
 20
3087.455058999999
 30
0.0
 41
60.0
 42
60.0
 43
60.0
 50
270.0
  0
TEXT
  8
3
  40
90
  5
7F4F
  62
0
  72
0
  71
0
 10
5075.19
 20
3254.66
 30
0.000000
  1
φ670
  0
POINT
  5
7F07
  8
DEFPOINTS
  6
CONTINUOUS
 62
     0
 10
4981.709339
 20
3757.4550589999999
 30
0.0
  0
POINT
  5
7F08
  8
DEFPOINTS
  6
CONTINUOUS
 62
     0
 10
4981.709339
 20
3087.455058999999
 30
0.0
  0
POINT
  5
7F09
  8
DEFPOINTS
  6
CONTINUOUS
 62
     0
 10
5330.1873970000006
 20
3087.455058999999
 30
0.0
  0
ENDBLK
  5
7CE3
  8
0
  0
BLOCK
  8
0
  2
*D10
 70
     1
 10
0.0
 20
0.0
 30
0.0
  3
*D10
  1

  0
LINE
  5
7CCF
  8
0
  6
BYBLOCK
 62
     0
 10
4981.709339
 20
3772.4550589999999
 30
0.0
 11
4981.709339
 21
4376.8383789999998
 31
0.0
  0
LINE
  5
7CD0
  8
0
  6
BYBLOCK
 62
     0
 10
4740.709339
 20
4319.3420130000004
 30
0.0
 11
4740.709339
 21
4376.8383789999998
 31
0.0
  0
LINE
  5
7CD1
  8
0
  6
BYBLOCK
 62
     0
 10
4921.709339
 20
4346.8383789999998
 30
0.0
 11
4800.709339
 21
4346.8383789999998
 31
0.0
  0
TEXT
  5
7CD2
  8
3
 62
     0
 10
4756.6357860726866
 20
4396.4682883597998
 30
0.0
 40
90.0
  1
241
  0
INSERT
  5
7CD3
  8
0
  6
BYBLOCK
 62
     0
  2
_OPEN
 10
4981.709339
 20
4346.8383789999998
 30
0.0
 41
60.0
 42
60.0
 43
60.0
  0
INSERT
  5
7CD4
  8
0
  6
BYBLOCK
 62
     0
  2
_OPEN
 10
4740.709339
 20
4346.8383789999998
 30
0.0
 41
60.0
 42
60.0
 43
60.0
 50
180.0
  0
POINT
  5
7CD5
  8
DEFPOINTS
  6
BYBLOCK
 62
     0
 10
4981.709339
 20
3757.4550589999999
 30
0.0
  0
POINT
  5
7CD6
  8
DEFPOINTS
  6
BYBLOCK
 62
     0
 10
4740.709339
 20
4304.3420130000013
 30
0.0
  0
POINT
  5
7CD7
  8
DEFPOINTS
  6
BYBLOCK
 62
     0
 10
4740.709339
 20
4346.8383789999998
 30
0.0
  0
ENDBLK
  5
7CD8
  8
0
  0
BLOCK
  8
0
  2
*D11
 70
     1
 10
0.0
 20
0.0
 30
0.0
  3
*D11
  1

  0
LINE
  5
7F0A
  8
3
  6
CONTINUOUS
 62
     0
 10
4140.7093389999991
 20
4096.4550590000008
 30
0.0
 11
3950.8096560000008
 21
4096.4550590000008
 31
0.0
  0
LINE
  5
7F0B
  8
3
  6
CONTINUOUS
 62
     0
 10
4140.7093389999991
 20
2546.455058999999
 30
0.0
 11
3950.8096559999999
 21
2546.455058999999
 31
0.0
  0
LINE
  5
7F0C
  8
3
  6
CONTINUOUS
 62
     0
 10
3980.8096560000008
 20
4036.4550589999999
 30
0.0
 11
3980.8096560000008
 21
2606.455058999999
 31
0.0
  0
INSERT
  5
7F0D
  8
3
  6
CONTINUOUS
 62
     0
  2
_OPEN
 10
3980.8096560000008
 20
4096.4550590000008
 30
0.0
 41
60.0
 42
60.0
 43
60.0
 50
90.0
  0
INSERT
  5
7F0E
  8
3
  6
CONTINUOUS
 62
     0
  2
_OPEN
 10
3980.8096560000008
 20
2546.455058999999
 30
0.0
 41
60.0
 42
60.0
 43
60.0
 50
270.0
  0
TEXT
  8
3
  40
90
  5
7F50
  62
0
  72
0
  71
0
 10
3725.81
 20
3116.70
 30
0.000000
  1
1550
  0
POINT
  5
7F10
  8
DEFPOINTS
  6
CONTINUOUS
 62
     0
 10
4155.709339
 20
4096.4550590000008
 30
0.0
  0
POINT
  5
7F11
  8
DEFPOINTS
  6
CONTINUOUS
 62
     0
 10
4155.709339
 20
2546.455058999999
 30
0.0
  0
POINT
  5
7F12
  8
DEFPOINTS
  6
CONTINUOUS
 62
     0
 10
3980.8096560000008
 20
2546.455058999999
 30
0.0
  0
ENDBLK
  5
7B9B
  8
0
  0
BLOCK
  8
0
  2
*D12
 70
     1
 10
0.0
 20
0.0
 30
0.0
  3
*D12
  1

  0
LINE
  5
7F13
  8
3
  6
CONTINUOUS
 62
     0
 10
5105.709339
 20
2531.4550589999999
 30
0.0
 11
5105.709339
 21
2258.3214179999991
 31
0.0
  0
LINE
  5
7F14
  8
3
  6
CONTINUOUS
 62
     0
 10
4800.709339
 20
2288.321418
 30
0.0
 11
5045.709339
 21
2288.321418
 31
0.0
  0
TEXT
  8
3
  40
90
  5
7F51
  62
0
  72
0
  71
0
 10
4742.04
 20
2205.32
 30
0.000000
  1
365
  0
INSERT
  5
7F16
  8
3
  6
CONTINUOUS
 62
     0
  2
_OPEN
 10
4740.709339
 20
2288.321418
 30
0.0
 41
60.0
 42
60.0
 43
60.0
 50
180.0
  0
INSERT
  5
7F17
  8
3
  6
CONTINUOUS
 62
     0
  2
_OPEN
 10
5105.709339
 20
2288.321418
 30
0.0
 41
60.0
 42
60.0
 43
60.0
  0
POINT
  5
7F18
  8
DEFPOINTS
  6
CONTINUOUS
 62
     0
 10
4740.709339
 20
2358.816808999999
 30
0.0
  0
POINT
  5
7F19
  8
DEFPOINTS
  6
CONTINUOUS
 62
     0
 10
5105.709339
 20
2546.455058999999
 30
0.0
  0
POINT
  5
7F1A
  8
DEFPOINTS
  6
CONTINUOUS
 62
     0
 10
5105.709339
 20
2288.321418
 30
0.0
  0
ENDBLK
  5
7C52
  8
0
  0
BLOCK
  8
0
  2
*D13
 70
     1
 10
0.0
 20
0.0
 30
0.0
  3
*D13
  1

  0
LINE
  5
7F1B
  8
3
  6
CONTINUOUS
 62
     0
 10
1091.5941780000001
 20
6192.7994130000006
 30
0.0
 11
1091.5941780000001
 21
6422.987388999999
 31
0.0
  0
LINE
  5
7F1C
  8
3
  6
CONTINUOUS
 62
     0
 10
2791.5941779999998
 20
6192.7994130000006
 30
0.0
 11
2791.5941779999998
 21
6422.987388999999
 31
0.0
  0
LINE
  5
7F1D
  8
3
  6
CONTINUOUS
 62
     0
 10
1151.5941779999989
 20
6392.9873889999999
 30
0.0
 11
2731.5941779999998
 21
6392.9873889999999
 31
0.0
  0
INSERT
  5
7F1E
  8
3
  6
CONTINUOUS
 62
     0
  2
_OPEN
 10
1091.5941780000001
 20
6392.9873889999999
 30
0.0
 41
60.0
 42
60.0
 43
60.0
 50
180.0
  0
INSERT
  5
7F1F
  8
3
  6
CONTINUOUS
 62
     0
  2
_OPEN
 10
2791.5941779999998
 20
6392.9873889999999
 30
0.0
 41
60.0
 42
60.0
 43
60.0
  0
TEXT
  8
3
  40
90
  5
7F52
  62
0
  72
0
  71
0
 10
1754.08
 20
6308.69
 30
0.000000
  1
1700
  0
POINT
  5
7F21
  8
DEFPOINTS
  6
CONTINUOUS
 62
     0
 10
1091.5941780000001
 20
6177.7994130000006
 30
0.0
  0
POINT
  5
7F22
  8
DEFPOINTS
  6
CONTINUOUS
 62
     0
 10
2791.5941779999998
 20
6177.7994130000006
 30
0.0
  0
POINT
  5
7F23
  8
DEFPOINTS
  6
CONTINUOUS
 62
     0
 10
2791.5941779999998
 20
6392.9873889999999
 30
0.0
  0
ENDBLK
  5
7C69
  8
0
  0
BLOCK
  8
0
  2
*D14
 70
     1
 10
0.0
 20
0.0
 30
0.0
  3
*D14
  1

  0
LINE
  5
7F24
  8
3
  6
CONTINUOUS
 62
     0
 10
4740.709339
 20
2343.8168089999999
 30
0.0
 11
4740.709339
 21
2258.3214179999991
 31
0.0
  0
LINE
  5
7F25
  8
3
  6
CONTINUOUS
 62
     0
 10
4155.709339
 20
2531.4550589999999
 30
0.0
 11
4155.709339
 21
2258.3214179999991
 31
0.0
  0
LINE
  5
7F26
  8
3
  6
CONTINUOUS
 62
     0
 10
4680.7093389999991
 20
2288.321418
 30
0.0
 11
4215.7093389999991
 21
2288.321418
 31
0.0
  0
INSERT
  5
7F27
  8
3
  6
CONTINUOUS
 62
     0
  2
_OPEN
 10
4740.709339
 20
2288.321418
 30
0.0
 41
60.0
 42
60.0
 43
60.0
  0
INSERT
  5
7F28
  8
3
  6
CONTINUOUS
 62
     0
  2
_OPEN
 10
4155.709339
 20
2288.321418
 30
0.0
 41
60.0
 42
60.0
 43
60.0
 50
180.0
  0
TEXT
  8
3
  40
90
  5
7F53
  62
0
  72
0
  71
0
 10
4268.21
 20
2204.02
 30
0.000000
  1
585
  0
POINT
  5
7F2A
  8
DEFPOINTS
  6
CONTINUOUS
 62
     0
 10
4740.709339
 20
2358.816808999999
 30
0.0
  0
POINT
  5
7F2B
  8
DEFPOINTS
  6
CONTINUOUS
 62
     0
 10
4155.709339
 20
2546.455058999999
 30
0.0
  0
POINT
  5
7F2C
  8
DEFPOINTS
  6
CONTINUOUS
 62
     0
 10
4155.709339
 20
2288.321418
 30
0.0
  0
ENDBLK
  5
7CEE
  8
0
  0
BLOCK
  8
0
  2
*D15
 70
     1
 10
0.0
 20
0.0
 30
0.0
  3
*D15
  1

  0
LINE
  5
7F2D
  8
3
  6
CONTINUOUS
 62
     0
 10
2806.5941779999998
 20
6177.7994130000006
 30
0.0
 11
3081.5655130000009
 21
6177.7994130000006
 31
0.0
  0
LINE
  5
7F2E
  8
3
  6
CONTINUOUS
 62
     0
 10
2806.5941779999998
 20
5227.7994130000006
 30
0.0
 11
3081.5655130000009
 21
5227.7994130000006
 31
0.0
  0
LINE
  5
7F2F
  8
3
  6
CONTINUOUS
 62
     0
 10
3051.5655130000009
 20
6117.7994130000006
 30
0.0
 11
3051.5655130000009
 21
5287.7994130000006
 31
0.0
  0
INSERT
  5
7F30
  8
3
  6
CONTINUOUS
 62
     0
  2
_OPEN
 10
3051.5655130000009
 20
6177.7994130000006
 30
0.0
 41
60.0
 42
60.0
 43
60.0
 50
90.0
  0
INSERT
  5
7F31
  8
3
  6
CONTINUOUS
 62
     0
  2
_OPEN
 10
3051.5655130000009
 20
5227.7994130000006
 30
0.0
 41
60.0
 42
60.0
 43
60.0
 50
270.0
  0
TEXT
  8
3
  40
90
  5
7F54
  62
0
  72
0
  71
0
 10
2796.57
 20
5535.47
 30
0.000000
  1
950
  0
POINT
  5
7F33
  8
DEFPOINTS
  6
CONTINUOUS
 62
     0
 10
2791.5941779999998
 20
6177.7994130000006
 30
0.0
  0
POINT
  5
7F34
  8
DEFPOINTS
  6
CONTINUOUS
 62
     0
 10
2791.5941779999998
 20
5227.7994130000006
 30
0.0
  0
POINT
  5
7F35
  8
DEFPOINTS
  6
CONTINUOUS
 62
     0
 10
3051.5655130000009
 20
5227.7994130000006
 30
0.0
  0
ENDBLK
  5
7C75
  8
0
  0
BLOCK
  8
0
  2
*D16
 70
     1
 10
0.0
 20
0.0
 30
0.0
  3
*D16
  1

  0
LINE
  5
7F36
  8
3
 62
     0
 10
1689.5941780000001
 20
3396.4550589999999
 30
0.0
 11
1689.5941780000001
 21
4206.030162
 31
0.0
  0
LINE
  5
7F37
  8
3
 62
     0
 10
2151.5941779999998
 20
4176.0301619999991
 30
0.0
 11
1749.5941780000001
 21
4176.0301619999991
 31
0.0
  0
INSERT
  5
7F38
  8
3
 62
     0
  2
_OPEN
 10
2211.5941779999998
 20
4176.0301619999991
 30
0.0
 41
60.0
 42
60.0
 43
60.0
  0
INSERT
  5
7F39
  8
3
 62
     0
  2
_OPEN
 10
1689.5941780000001
 20
4176.0301619999991
 30
0.0
 41
60.0
 42
60.0
 43
60.0
 50
180.0
  0
TEXT
  8
3
  40
90
  5
7F55
  62
0
  72
0
  71
0
 10
1770.59
 20
4091.73
 30
0.000000
  1
522
  0
POINT
  5
7F3B
  8
DEFPOINTS
 62
     0
 10
2211.5941779999998
 20
4186.742808
 30
0.0
  0
POINT
  5
7F3C
  8
DEFPOINTS
 62
     0
 10
1689.5941780000001
 20
3381.4550589999999
 30
0.0
  0
POINT
  5
7F3D
  8
DEFPOINTS
 62
     0
 10
1689.5941780000001
 20
4176.0301619999991
 30
0.0
  0
ENDBLK
  5
7CC2
  8
0
  0
BLOCK
  8
0
  2
*D17
 70
     1
 10
0.0
 20
0.0
 30
0.0
  3
*D17
  1

  0
LINE
  5
7F3E
  8
3
 62
     0
 10
2945.3933940000002
 20
3422.4550589999999
 30
0.0
 11
3377.8486440000011
 21
3422.4550589999999
 31
0.0
  0
LINE
  5
7F3F
  8
3
 62
     0
 10
2191.5941779999998
 20
3875.7095060000001
 30
0.0
 11
3377.8486440000011
 21
3875.7095059999988
 31
0.0
  0
LINE
  5
7F40
  8
3
 62
     0
 10
3347.8486440000001
 20
3482.4550589999999
 30
0.0
 11
3347.8486440000001
 21
3815.7095059999988
 31
0.0
  0
INSERT
  5
7F41
  8
3
 62
     0
  2
_OPEN
 10
3347.8486440000001
 20
3422.4550589999999
 30
0.0
 41
60.0
 42
60.0
 43
60.0
 50
270.0
  0
INSERT
  5
7F42
  8
3
 62
     0
  2
_OPEN
 10
3347.8486440000001
 20
3875.7095059999988
 30
0.0
 41
60.0
 42
60.0
 43
60.0
 50
90.0
  0
TEXT
  8
3
  40
90
  5
7F56
  62
0
  72
0
  71
0
 10
3092.85
 20
3489.78
 30
0.000000
  1
452
  0
POINT
  5
7F44
  8
DEFPOINTS
 62
     0
 10
2930.3933940000002
 20
3422.4550589999999
 30
0.0
  0
POINT
  5
7F45
  8
DEFPOINTS
 62
     0
 10
2176.5941779999998
 20
3875.7095060000001
 30
0.0
  0
POINT
  5
7F46
  8
DEFPOINTS
 62
     0
 10
3347.8486440000001
 20
3875.7095059999988
 30
0.0
  0
ENDBLK
  5
7D17
  8
0
  0
ENDSEC
  0
SECTION
  2
ENTITIES
  0
LINE
  5
7A81
  8
1
  6
CONTINUOUS
 10
1141.5941779999989
 20
4046.4550589999999
 30
0.0
 11
1141.5941779999989
 21
2596.4550589999999
 31
0.0
  0
LINE
  5
7A82
  8
1
  6
CONTINUOUS
 10
2741.5941779999998
 20
2596.4550589999999
 30
0.0
 11
2741.5941779999998
 21
4046.4550589999999
 31
0.0
  0
LINE
  5
7A83
  8
1
  6
CONTINUOUS
 10
5055.7093389999991
 20
2596.4550589999999
 30
0.0
 11
5055.7093389999991
 21
4046.4550589999999
 31
0.0
  0
LINE
  5
7A84
  8
1
  6
CONTINUOUS
 10
4205.709339
 20
4046.4550589999999
 30
0.0
 11
4205.709339
 21
2596.4550589999999
 31
0.0
  0
LINE
  5
7A85
  8
1
  6
CONTINUOUS
 10
5105.709339
 20
4096.4550590000008
 30
0.0
 11
5105.709339
 21
2546.455058999999
 31
0.0
  0
LINE
  5
7A86
  8
1
  6
CONTINUOUS
 10
4155.709339
 20
4096.4550590000008
 30
0.0
 11
4155.709339
 21
2546.455058999999
 31
0.0
  0
LINE
  5
7A87
  8
1
  6
CONTINUOUS
 10
2791.5941779999998
 20
4096.4550590000008
 30
0.0
 11
2791.5941779999998
 21
2546.455058999999
 31
0.0
  0
LINE
  5
7A88
  8
1
  6
CONTINUOUS
 10
1091.5941780000001
 20
4096.4550590000008
 30
0.0
 11
1091.5941780000001
 21
2546.455058999999
 31
0.0
  0
LINE
  5
7A8B
  8
1
  6
CONTINUOUS
 10
1141.5941779999989
 20
2596.4550589999999
 30
0.0
 11
2741.5941779999998
 21
2596.4550589999999
 31
0.0
  0
LINE
  5
7A8C
  8
1
  6
CONTINUOUS
 10
1091.5941780000001
 20
2546.455058999999
 30
0.0
 11
2791.5941779999998
 21
2546.455058999999
 31
0.0
  0
LINE
  5
7A8D
  8
1
  6
CONTINUOUS
 10
1231.5941779999989
 20
2622.455058999999
 30
0.0
 11
2641.5941779999998
 21
2622.455058999999
 31
0.0
  0
LINE
  5
7A8E
  8
1
  6
CONTINUOUS
 10
2641.5941779999998
 20
2722.4550589999999
 30
0.0
 11
1231.5941779999989
 21
2722.4550589999999
 31
0.0
  0
LINE
  5
7A8F
  8
1
  6
CONTINUOUS
 10
1644.745287
 20
2762.4550589999999
 30
0.0
 11
1336.745287
 21
2762.4550589999999
 31
0.0
  0
LINE
  5
7A90
  8
1
  6
CONTINUOUS
 10
1644.745287
 20
2780.455058999999
 30
0.0
 11
1623.4029519999999
 21
2829.4714920000001
 31
0.0
  0
ARC
  5
7A91
  8
1
  6
CONTINUOUS
 10
1490.745287
 20
2922.4550589999999
 30
0.0
 40
162.0
 50
324.972283
 51
215.02771699999991
  0
LINE
  5
7A92
  8
1
  6
CONTINUOUS
 10
1281.5941779999989
 20
3022.4550589999999
 30
0.0
 11
2111.5941779999998
 21
3722.4550589999999
 31
0.0
  0
ARC
  5
7A93
  8
1
  6
CONTINUOUS
 10
2176.5941779999998
 20
3387.4550589999999
 30
0.0
 40
488.25444700000003
 50
82.647621000000001
 51
175.48601199999999
  0
LINE
  5
7A94
  8
1
  6
CONTINUOUS
 10
1440.0501710000001
 20
2984.342095
 30
0.0
 11
2116.5408359999992
 21
3538.4932509999999
 31
0.0
  0
LINE
  5
7A95
  8
1
  6
CONTINUOUS
 10
1530.950192999999
 20
2853.2917339999999
 30
0.0
 11
2286.9783779999998
 21
3292.7738250000002
 31
0.0
  0
LINE
  5
7A96
  8
1
  6
CONTINUOUS
 10
1231.5941779999989
 20
2722.4550589999999
 30
0.0
 11
1231.5941779999989
 21
2622.455058999999
 31
0.0
  0
LINE
  5
7A97
  8
1
  6
CONTINUOUS
 10
1336.745287
 20
2722.4550589999999
 30
0.0
 11
1336.745287
 21
2780.455058999999
 31
0.0
  0
LINE
  5
7A98
  8
1
  6
CONTINUOUS
 10
1336.745287
 20
2762.4550589999999
 30
0.0
 11
1336.745287
 21
2780.455058999999
 31
0.0
  0
LINE
  5
7A99
  8
1
  6
CONTINUOUS
 10
1281.5941779999989
 20
2722.4550589999999
 30
0.0
 11
1281.5941779999989
 21
3022.4550589999999
 31
0.0
  0
LINE
  5
7A9A
  8
1
  6
CONTINUOUS
 10
1336.745287
 20
2780.455058999999
 30
0.0
 11
1358.0876209999999
 21
2829.4714920000001
 31
0.0
  0
LINE
  5
7A9B
  8
2
  6
CENTER
 10
1570.745287
 20
2922.4550589999999
 30
0.0
 11
1410.745287
 21
2922.4550589999999
 31
0.0
  0
LINE
  5
7A9C
  8
2
  6
CENTER
 10
1490.745287
 20
3002.4550589999999
 30
0.0
 11
1490.745287
 21
2842.4550589999999
 31
0.0
  0
CIRCLE
  5
7A9D
  8
1
  6
CONTINUOUS
 10
1490.745287
 20
2922.4550589999999
 30
0.0
 40
80.0
  0
LINE
  5
7A9F
  8
1
  6
CONTINUOUS
 10
2641.5941779999998
 20
2622.455058999999
 30
0.0
 11
2641.5941779999998
 21
2722.4550589999999
 31
0.0
  0
LINE
  5
7AA3
  8
1
  6
CONTINUOUS
 10
2610.3240569999989
 20
3452.4550589999999
 30
0.0
 11
2696.5941779999998
 21
3452.4550589999999
 31
0.0
  0
LINE
  5
7AA4
  8
1
  6
CONTINUOUS
 10
2696.5941779999998
 20
2802.4550589999999
 30
0.0
 11
2211.5941779999998
 21
2818.4550589999999
 31
0.0
  0
ARC
  5
7AA5
  8
1
  6
CONTINUOUS
 10
2184.5941779999998
 20
3449.4550589999999
 30
0.0
 40
425.74044800000001
 50
0.403741
 51
82.647621000000001
  0
LINE
  5
7AA7
  8
2
  6
CENTER
 10
2211.5941779999998
 20
6253.2271979999996
 30
0.0
 11
2211.5941779999998
 21
5230.7617090000012
 31
0.0
  0
CIRCLE
  5
7AA9
  8
1
  6
CONTINUOUS
 10
2211.5941779999998
 20
3422.4550589999999
 30
0.0
 40
150.0
  0
LINE
  5
7AAA
  8
1
  6
CONTINUOUS
 10
2551.5941779999998
 20
2722.4550589999999
 30
0.0
 11
2551.5941779999998
 21
3722.4550589999999
 31
0.0
  0
ARC
  5
7AAB
  8
1
  6
CONTINUOUS
 10
2252.5941779999998
 20
3381.4550589999999
 30
0.0
 40
564.49092099999984
 50
175.48601199999999
 51
265.834836
  0
LINE
  5
7AAD
  8
1
  6
CONTINUOUS
 10
1644.745287
 20
2722.4550589999999
 30
0.0
 11
1644.745287
 21
2780.455058999999
 31
0.0
  0
LINE
  5
7AAE
  8
2
  6
CENTER
 10
5165.7955659999989
 20
3422.4550589999999
 30
0.0
 11
4130.6029269999999
 21
3422.4550589999999
 31
0.0
  0
LINE
  5
7AAF
  8
1
  6
CONTINUOUS
 10
2551.5941779999998
 20
3722.4550589999999
 30
0.0
 11
2111.5941779999998
 21
3722.4550589999999
 31
0.0
  0
LINE
  5
7AB1
  8
1
  6
CONTINUOUS
 10
2696.5941779999998
 20
3492.4550589999999
 30
0.0
 11
2696.5941779999998
 21
2762.4550589999999
 31
0.0
  0
LINE
  5
7AB2
  8
1
  6
CONTINUOUS
 10
2666.5941779999998
 20
3452.4550589999999
 30
0.0
 11
2666.5941779999998
 21
2803.4447489999998
 31
0.0
  0
LINE
  5
7AB3
  8
1
  6
CONTINUOUS
 10
4329.7093389999991
 20
2722.4550589999999
 30
0.0
 11
4329.7093389999991
 21
2622.455058999999
 31
0.0
  0
LINE
  5
7AB4
  8
1
  6
CONTINUOUS
 10
5029.709339
 20
2722.4550589999999
 30
0.0
 11
5029.709339
 21
2622.455058999999
 31
0.0
  0
LINE
  5
7AB5
  8
1
  6
CONTINUOUS
 10
4205.709339
 20
2596.4550589999999
 30
0.0
 11
5055.7093389999991
 21
2596.4550589999999
 31
0.0
  0
LINE
  5
7AB6
  8
1
  6
CONTINUOUS
 10
4329.7093389999991
 20
2622.455058999999
 30
0.0
 11
5029.709339
 21
2622.455058999999
 31
0.0
  0
LINE
  5
7AB7
  8
1
  6
CONTINUOUS
 10
4155.709339
 20
2546.455058999999
 30
0.0
 11
5105.709339
 21
2546.455058999999
 31
0.0
  0
LINE
  5
7AB8
  8
1
  6
CONTINUOUS
 10
4503.209339
 20
2722.4550589999999
 30
0.0
 11
4503.209339
 21
3875.7095060000001
 31
0.0
  0
LINE
  5
7AB9
  8
1
  6
CONTINUOUS
 10
4978.209339
 20
2722.4550589999999
 30
0.0
 11
4978.209339
 21
3875.7095060000001
 31
0.0
  0
LINE
  5
7ABA
  8
1
  6
CONTINUOUS
 10
4260.709339
 20
3722.4550589999999
 30
0.0
 11
4260.709339
 21
2722.4550589999999
 31
0.0
  0
LINE
  5
7ABB
  8
1
  6
CONTINUOUS
 10
4978.209339
 20
2802.4550589999999
 30
0.0
 11
4503.209339
 21
3452.4550589999999
 31
0.0
  0
LINE
  5
7ABC
  8
1
  6
CONTINUOUS
 10
4503.209339
 20
2802.4550589999999
 30
0.0
 11
4978.209339
 21
3452.4550589999999
 31
0.0
  0
LINE
  5
7ABD
  8
1
  6
CONTINUOUS
 10
4400.709339
 20
3722.4550589999999
 30
0.0
 11
4400.709339
 21
2722.4550589999999
 31
0.0
  0
LINE
  5
7ABE
  8
1
  6
CONTINUOUS
 10
4365.709339
 20
3572.4550590000008
 30
0.0
 11
4365.709339
 21
3272.4550589999999
 31
0.0
  0
LINE
  5
7ABF
  8
1
  6
CONTINUOUS
 10
4295.709339
 20
3572.4550590000008
 30
0.0
 11
4295.709339
 21
3272.4550589999999
 31
0.0
  0
LINE
  5
7AC0
  8
1
  6
CONTINUOUS
 10
4503.209339
 20
2802.4550589999999
 30
0.0
 11
4978.209339
 21
2802.4550589999999
 31
0.0
  0
LINE
  5
7AC1
  8
1
  6
CONTINUOUS
 10
5029.709339
 20
2722.4550589999999
 30
0.0
 11
4329.7093389999991
 21
2722.4550589999999
 31
0.0
  0
LINE
  5
7AC2
  8
1
  6
CONTINUOUS
 10
4260.709339
 20
2722.4550589999999
 30
0.0
 11
4329.7093389999991
 21
2722.4550589999999
 31
0.0
  0
LINE
  5
7AC3
  8
1
  6
CONTINUOUS
 10
4295.709339
 20
3272.4550589999999
 30
0.0
 11
4365.709339
 21
3272.4550589999999
 31
0.0
  0
LINE
  5
7AC4
  8
1
  6
CONTINUOUS
 10
4295.709339
 20
3002.4550589999999
 30
0.0
 11
4365.709339
 21
3002.4550589999999
 31
0.0
  0
LINE
  5
7AC5
  8
1
  6
CONTINUOUS
 10
4365.709339
 20
3002.4550589999999
 30
0.0
 11
4365.709339
 21
2842.4550589999999
 31
0.0
  0
LINE
  5
7AC6
  8
1
  6
CONTINUOUS
 10
4295.709339
 20
3002.4550589999999
 30
0.0
 11
4295.709339
 21
2842.4550589999999
 31
0.0
  0
LINE
  5
7AC7
  8
1
  6
CONTINUOUS
 10
4295.709339
 20
2842.4550589999999
 30
0.0
 11
4365.709339
 21
2842.4550589999999
 31
0.0
  0
LINE
  5
7AC8
  8
1
  6
CONTINUOUS
 10
4365.709339
 20
2943.4550589999999
 30
0.0
 11
4503.209339
 21
2943.4550589999999
 31
0.0
  0
LINE
  5
7AC9
  8
1
  6
CONTINUOUS
 10
4365.709339
 20
2901.455058999999
 30
0.0
 11
4503.209339
 21
2901.455058999999
 31
0.0
  0
LINE
  5
7ACA
  8
1
  6
CONTINUOUS
 10
4503.209339
 20
3875.7095060000001
 30
0.0
 11
4978.209339
 21
3875.7095060000001
 31
0.0
  0
LINE
  5
7ACB
  8
1
  6
CONTINUOUS
 10
4503.209339
 20
3452.4550589999999
 30
0.0
 11
4978.209339
 21
3452.4550589999999
 31
0.0
  0
LINE
  5
7ACC
  8
1
  6
CONTINUOUS
 10
4400.709339
 20
3722.4550589999999
 30
0.0
 11
4260.709339
 21
3722.4550589999999
 31
0.0
  0
LINE
  5
7ACD
  8
1
  6
CONTINUOUS
 10
4295.709339
 20
3572.4550590000008
 30
0.0
 11
4365.709339
 21
3572.4550590000008
 31
0.0
  0
LINE
  5
7ACE
  8
1
  6
CONTINUOUS
 10
4365.709339
 20
3443.4550590000008
 30
0.0
 11
4503.209339
 21
3443.4550590000008
 31
0.0
  0
LINE
  5
7ACF
  8
1
  6
CONTINUOUS
 10
4365.709339
 20
3401.4550589999999
 30
0.0
 11
4503.209339
 21
3401.4550589999999
 31
0.0
  0
LINE
  5
7AD0
  8
1
  6
CONTINUOUS
 10
2741.5941779999998
 20
4046.4550589999999
 30
0.0
 11
1141.5941779999989
 21
4046.4550589999999
 31
0.0
  0
LINE
  5
7AD1
  8
1
  6
CONTINUOUS
 10
2741.5941779999998
 20
5277.7994130000006
 30
0.0
 11
1141.5941779999989
 21
5277.7994130000006
 31
0.0
  0
LINE
  5
7AD2
  8
1
  6
CONTINUOUS
 10
1141.5941779999989
 20
6127.7994130000006
 30
0.0
 11
2741.5941779999998
 21
6127.7994130000006
 31
0.0
  0
LINE
  5
7AD3
  8
1
  6
CONTINUOUS
 10
1091.5941780000001
 20
6177.7994130000006
 30
0.0
 11
2791.5941779999998
 21
6177.7994130000006
 31
0.0
  0
LINE
  5
7AD4
  8
1
  6
CONTINUOUS
 10
1091.5941780000001
 20
5227.7994130000006
 30
0.0
 11
2791.5941779999998
 21
5227.7994130000006
 31
0.0
  0
LINE
  5
7AD5
  8
1
  6
CONTINUOUS
 10
1091.5941780000001
 20
4096.4550590000008
 30
0.0
 11
2791.5941779999998
 21
4096.4550590000008
 31
0.0
  0
LINE
  5
7AD6
  8
1
  6
CONTINUOUS
 10
1328.745287
 20
5989.5313299999998
 30
0.0
 11
1652.745287
 21
5989.5313299999998
 31
0.0
  0
LINE
  5
7AD7
  8
1
  6
CONTINUOUS
 10
1328.745287
 20
5504.5313299999989
 30
0.0
 11
1652.745287
 21
5504.5313299999989
 31
0.0
  0
LINE
  5
7AD8
  8
1
  6
CONTINUOUS
 10
2551.5941779999998
 20
5332.7994129999997
 30
0.0
 11
1281.5941779999989
 21
5332.7994129999997
 31
0.0
  0
LINE
  5
7AD9
  8
1
  6
CONTINUOUS
 10
2551.5941779999998
 20
5472.7994129999997
 30
0.0
 11
1281.5941779999989
 21
5472.7994129999997
 31
0.0
  0
LINE
  5
7ADA
  8
1
  6
CONTINUOUS
 10
2641.5941779999998
 20
6101.7994130000006
 30
0.0
 11
1231.5941779999989
 21
6101.7994130000006
 31
0.0
  0
LINE
  5
7ADB
  8
1
  6
CONTINUOUS
 10
1570.745287
 20
5401.7994129999997
 30
0.0
 11
2061.5941779999998
 21
5401.7994129999997
 31
0.0
  0
LINE
  5
7ADC
  8
1
  6
CONTINUOUS
 10
1141.5941779999989
 20
5277.7994130000006
 30
0.0
 11
1141.5941779999989
 21
6127.7994130000006
 31
0.0
  0
LINE
  5
7ADD
  8
1
  6
CONTINUOUS
 10
1091.5941780000001
 20
6177.7994130000006
 30
0.0
 11
1091.5941780000001
 21
5227.7994130000006
 31
0.0
  0
LINE
  5
7ADE
  8
1
  6
CONTINUOUS
 10
1231.5941779999989
 20
6101.7994130000006
 30
0.0
 11
1231.5941779999989
 21
5401.7994129999997
 31
0.0
  0
LINE
  5
7ADF
  8
1
  6
CONTINUOUS
 10
1231.5941779999989
 20
5401.7994129999997
 30
0.0
 11
1410.745287
 21
5401.7994129999997
 31
0.0
  0
LINE
  5
7AE0
  8
1
  6
CONTINUOUS
 10
1328.745287
 20
5504.5313299999989
 30
0.0
 11
1328.745287
 21
5989.5313299999998
 31
0.0
  0
LINE
  5
7AE1
  8
1
  6
CONTINUOUS
 10
1281.5941779999989
 20
5332.7994129999997
 30
0.0
 11
1281.5941779999989
 21
5472.7994129999997
 31
0.0
  0
LINE
  5
7AE2
  8
1
  6
CONTINUOUS
 10
1410.745287
 20
5437.7994129999997
 30
0.0
 11
1570.745287
 21
5437.7994129999997
 31
0.0
  0
LINE
  5
7AE3
  8
1
  6
CONTINUOUS
 10
1410.745287
 20
5367.7994130000006
 30
0.0
 11
1570.745287
 21
5367.7994130000006
 31
0.0
  0
LINE
  5
7AE4
  8
1
  6
CONTINUOUS
 10
1570.745287
 20
5367.7994130000006
 30
0.0
 11
1570.745287
 21
5437.7994129999997
 31
0.0
  0
LINE
  5
7AE5
  8
1
  6
CONTINUOUS
 10
1410.745287
 20
5367.7994130000006
 30
0.0
 11
1410.745287
 21
5437.7994129999997
 31
0.0
  0
LINE
  5
7AE6
  8
1
  6
CONTINUOUS
 10
1469.745287
 20
5437.7994129999997
 30
0.0
 11
1469.745287
 21
5504.5313299999989
 31
0.0
  0
LINE
  5
7AE7
  8
1
  6
CONTINUOUS
 10
1511.745287
 20
5437.7994129999997
 30
0.0
 11
1511.745287
 21
5504.5313299999989
 31
0.0
  0
LINE
  5
7AE8
  8
1
  6
CONTINUOUS
 10
2741.5941779999998
 20
6127.7994130000006
 30
0.0
 11
2741.5941779999998
 21
5277.7994130000006
 31
0.0
  0
LINE
  5
7AE9
  8
1
  6
CONTINUOUS
 10
2791.5941779999998
 20
6177.7994130000006
 30
0.0
 11
2791.5941779999998
 21
5227.7994130000006
 31
0.0
  0
LINE
  5
7AEA
  8
1
  6
CONTINUOUS
 10
2696.5941779999998
 20
5532.7994130000006
 30
0.0
 11
2696.5941779999998
 21
6092.7994130000006
 31
0.0
  0
LINE
  5
7AEB
  8
1
  6
CONTINUOUS
 10
1688.1032569999991
 20
5575.2994129999997
 30
0.0
 11
1688.1032569999991
 21
6050.2994130000006
 31
0.0
  0
LINE
  5
7AEC
  8
1
  6
CONTINUOUS
 10
2656.5941779999998
 20
5575.2994129999997
 30
0.0
 11
2656.5941779999998
 21
6050.2994130000006
 31
0.0
  0
LINE
  5
7AED
  8
1
  6
CONTINUOUS
 10
2696.5941779999998
 20
5575.2994129999997
 30
0.0
 11
1688.1032569999991
 21
5575.2994129999997
 31
0.0
  0
LINE
  5
7AEE
  8
1
  6
CONTINUOUS
 10
2361.5941779999998
 20
5401.7994129999997
 30
0.0
 11
2641.5941779999998
 21
5401.7994129999997
 31
0.0
  0
LINE
  5
7AEF
  8
1
  6
CONTINUOUS
 10
2061.5941779999998
 20
5437.7994129999997
 30
0.0
 11
2361.5941779999998
 21
5437.7994129999997
 31
0.0
  0
LINE
  5
7AF0
  8
1
  6
CONTINUOUS
 10
2061.5941779999998
 20
5367.7994130000006
 30
0.0
 11
2361.5941779999998
 21
5367.7994130000006
 31
0.0
  0
LINE
  5
7AF1
  8
1
  6
CONTINUOUS
 10
1652.745287
 20
5826.247777999999
 30
0.0
 11
1652.745287
 21
5584.0007380000006
 31
0.0
  0
LINE
  5
7AF2
  8
1
  6
CONTINUOUS
 10
1652.745287
 20
5504.5313299999989
 30
0.0
 11
1652.745287
 21
5989.5313299999998
 31
0.0
  0
LINE
  5
7AF3
  8
1
  6
CONTINUOUS
 10
2061.5941779999998
 20
5367.7994130000006
 30
0.0
 11
2061.5941779999998
 21
5437.7994129999997
 31
0.0
  0
LINE
  5
7AF4
  8
1
  6
CONTINUOUS
 10
2361.5941779999998
 20
5367.7994130000006
 30
0.0
 11
2361.5941779999998
 21
5437.7994129999997
 31
0.0
  0
LINE
  5
7AF5
  8
1
  6
CONTINUOUS
 10
2551.5941779999998
 20
5332.7994129999997
 30
0.0
 11
2551.5941779999998
 21
5472.7994129999997
 31
0.0
  0
LINE
  5
7AF6
  8
1
  6
CONTINUOUS
 10
2232.5941779999998
 20
5437.7994129999997
 30
0.0
 11
2232.5941779999998
 21
5575.2994129999997
 31
0.0
  0
LINE
  5
7AF7
  8
1
  6
CONTINUOUS
 10
2190.5941779999998
 20
5437.7994129999997
 30
0.0
 11
2190.5941779999998
 21
5575.2994129999997
 31
0.0
  0
LINE
  5
7AF8
  8
1
  6
CONTINUOUS
 10
2641.5941779999998
 20
5401.7994129999997
 30
0.0
 11
2641.5941779999998
 21
5575.2994129999997
 31
0.0
  0
LINE
  5
7AF9
  8
1
  6
CONTINUOUS
 10
2696.5941779999998
 20
6050.2994130000006
 30
0.0
 11
1688.1032569999991
 21
6050.2994130000006
 31
0.0
  0
LINE
  5
7AFA
  8
1
  6
CONTINUOUS
 10
2641.5941779999998
 20
6050.2994130000006
 30
0.0
 11
2641.5941779999998
 21
6101.7994130000006
 31
0.0
  0
LINE
  5
7AFB
  8
1
  6
CONTINUOUS
 10
5055.7093389999991
 20
4046.4550589999999
 30
0.0
 11
4205.709339
 21
4046.4550589999999
 31
0.0
  0
LINE
  5
7AFC
  8
1
  6
CONTINUOUS
 10
4155.709339
 20
4096.4550590000008
 30
0.0
 11
5105.709339
 21
4096.4550590000008
 31
0.0
  0
LINE
  5
7AFD
  8
2
  6
CENTER
 10
983.45417599999996
 20
5812.7994129999997
 30
0.0
 11
2896.8386850000002
 21
5812.7994129999997
 31
0.0
  0
LINE
  5
7AFE
  8
2
  6
CENTER
 10
4740.709339
 20
4183.9848159999992
 30
0.0
 11
4740.709339
 21
2358.816808999999
 31
0.0
  0
LINE
  5
7AFF
  8
2
  6
CENTER
 10
2930.3933940000002
 20
3422.4550589999999
 30
0.0
 11
937.511122
 21
3422.4550589999999
 31
0.0
  0
LINE
  5
7B00
  8
2
  6
CENTER
 10
2211.5941779999998
 20
4186.742808
 30
0.0
 11
2211.5941779999998
 21
2443.5229669999999
 31
0.0
  0
DIMENSION
  5
7B14
  8
3
  6
CONTINUOUS
  2
*D1
 10
2973.0353580000001
 20
2802.4550589999999
 30
0.0
 11
2973.0353579999992
 21
3085.4854799999998
 31
0.0
 70
   128
 13
2696.5941779999998
 23
3452.4550589999999
 33
0.0
 14
2696.5941779999998
 24
2802.4550589999999
 34
0.0
 50
90.0
1001
ACAD
1000
DSTYLE
1002
{
1070
   287
1070
     3
1070
   287
1070
     3
1070
    40
1040
30.0
1070
   143
1040
0.039
1070
   172
1070
     1
1070
   271
1070
     0
1070
   279
1070
     0
1070
   288
1070
     1
1002
}
  0
DIMENSION
  5
7B21
  8
3
  6
CONTINUOUS
  2
*D2
 10
3163.7298209999999
 20
2802.455058999999
 30
0.0
 11
3163.7298209999999
 21
3092.0550320000002
 31
0.0
 70
   128
 13
2930.3933940000002
 23
3422.4550589999999
 33
0.0
 14
2741.5941779999998
 24
2802.4550589999999
 34
0.0
 50
90.0
1001
ACAD
1000
DSTYLE
1002
{
1070
   287
1070
     3
1070
   287
1070
     3
1070
    40
1040
30.0
1070
   143
1040
0.039
1070
   172
1070
     1
1070
   271
1070
     0
1070
   279
1070
     0
1070
   288
1070
     1
1002
}
  0
DIMENSION
  5
7B2E
  8
3
  6
CONTINUOUS
  2
*D3
 10
3347.8486440000001
 20
2622.455058999999
 30
0.0
 11
3347.8486440000001
 21
2980.3727450000001
 31
0.0
 70
   128
 13
2930.3933940000002
 23
3422.4550589999999
 33
0.0
 14
2641.5941779999998
 24
2622.455058999999
 34
0.0
 50
90.0
1001
ACAD
1000
DSTYLE
1002
{
1070
   287
1070
     3
1070
   287
1070
     3
1070
    40
1040
30.0
1070
   143
1040
0.039
1070
   172
1070
     1
1070
   271
1070
     0
1070
   279
1070
     0
1070
   288
1070
     1
1002
}
  0
DIMENSION
  5
7B3E
  8
3
  6
CONTINUOUS
  2
*D4
 10
3348.9118239999998
 20
2546.455058999999
 30
0.0
 11
3348.9118239999989
 21
2325.7407732857141
 31
0.0
 70
   128
 13
2641.5941779999998
 23
2622.455058999999
 33
0.0
 14
2791.5941779999998
 24
2546.455058999999
 34
0.0
 50
90.0
1001
ACAD
1000
DSTYLE
1002
{
1070
   287
1070
     3
1070
   287
1070
     3
1070
    40
1040
30.0
1070
   143
1040
0.039
1070
   172
1070
     1
1070
   271
1070
     0
1070
   279
1070
     0
1070
   288
1070
     1
1002
}
  0
DIMENSION
  5
7B4B
  8
3
  6
CONTINUOUS
  2
*D5
 10
2211.5941779999998
 20
4176.0301619999991
 30
0.0
 11
2453.557233
 21
4176.0301619999991
 31
0.0
 70
   128
 13
2696.5941779999998
 23
3492.4550589999999
 33
0.0
 14
2211.5941779999998
 24
4186.742808
 34
0.0
1001
ACAD
1000
DSTYLE
1002
{
1070
   287
1070
     3
1070
   287
1070
     3
1070
    40
1040
30.0
1070
   143
1040
0.039
1070
   172
1070
     1
1070
   271
1070
     0
1070
   279
1070
     0
1070
   288
1070
     1
1002
}
  0
DIMENSION
  5
7B58
  8
3
  6
CONTINUOUS
  2
*D6
 10
2211.5941779999998
 20
2284.0749110000002
 30
0.0
 11
2493.011254
 21
2284.0749110000002
 31
0.0
 70
   128
 13
2791.5941779999998
 23
2546.455058999999
 33
0.0
 14
2211.5941779999998
 24
2443.5229669999999
 34
0.0
1001
ACAD
1000
DSTYLE
1002
{
1070
   287
1070
     3
1070
   287
1070
     3
1070
    40
1040
30.0
1070
   143
1040
0.039
1070
   172
1070
     1
1070
   271
1070
     0
1070
   279
1070
     0
1070
   288
1070
     1
1002
}
  0
DIMENSION
  5
7B64
  8
3
  6
CONTINUOUS
  2
*D7
 10
1091.5941780000001
 20
2284.0749110000002
 30
0.0
 11
1651.5941780000001
 21
2359.0749109999988
 31
0.0
 70
     0
 13
2211.5941779999998
 23
2443.5229669999999
 33
0.0
 14
1091.5941780000001
 24
2546.455058999999
 34
0.0
1001
ACAD
1000
DSTYLE
1002
{
1070
   287
1070
     4
1070
   287
1070
     4
1070
    40
1040
30.0
1070
    75
1070
     1
1070
   143
1040
0.039
1070
   172
1070
     1
1070
   271
1070
     0
1070
   279
1070
     1
1070
   288
1070
     1
1002
}
  0
DIMENSION
  5
7B71
  8
3
  6
CONTINUOUS
  2
*D8
 10
4503.209339
 20
4162.8910770000002
 30
0.0
 11
4708.9236239999991
 21
4162.8910770000002
 31
0.0
 70
   128
 13
4978.209339
 23
3875.7095060000001
 33
0.0
 14
4503.209339
 24
3875.7095060000001
 34
0.0
1001
ACAD
1000
DSTYLE
1002
{
1070
   287
1070
     3
1070
   287
1070
     3
1070
    40
1040
30.0
1070
   143
1040
0.039
1070
   172
1070
     1
1070
   271
1070
     0
1070
   279
1070
     0
1070
   288
1070
     1
1002
}
  0
LINE
  5
7B72
  8
1
  6
CONTINUOUS
 10
4981.709339
 20
3087.455058999999
 30
0.0
 11
4981.709339
 21
3757.4550589999999
 31
0.0
  0
DIMENSION
  5
7B81
  8
3
  6
CONTINUOUS
  2
*D9
 10
5330.1873970000006
 20
3087.455058999999
 30
0.0
 11
5330.1873969999988
 21
3413.9627890000002
 31
0.0
 70
   128
 13
4981.709339
 23
3757.4550589999999
 33
0.0
 14
4981.709339
 24
3087.455058999999
 34
0.0
 50
90.0
1001
ACAD
1000
DSTYLE
1002
{
1070
   287
1070
     3
1070
   287
1070
     3
1070
     3
1000
φ<>
1070
    40
1040
30.0
1070
   143
1040
0.039
1070
   172
1070
     1
1070
   271
1070
     0
1070
   279
1070
     0
1070
   288
1070
     1
1002
}
  0
DIMENSION
  5
7B8F
  8
3
  6
CONTINUOUS
  2
*D10
 10
4740.709339
 20
4346.8383789999998
 30
0.0
 11
4853.0643575012582
 21
4441.4682883597989
 31
0.0
 70
   128
 13
4981.709339
 23
3757.4550589999999
 33
0.0
 14
4740.709339
 24
4304.3420130000013
 34
0.0
1001
ACAD
1000
DSTYLE
1002
{
1070
   288
1070
     1
1070
   172
1070
     1
1070
    40
1040
30.0
1070
   271
1070
     0
1070
   143
1040
0.039
1002
}
  0
DIMENSION
  5
7B9C
  8
3
  6
CONTINUOUS
  2
*D11
 10
3980.8096560000008
 20
2546.455058999999
 30
0.0
 11
3980.8096559999999
 21
3276.0023329999999
 31
0.0
 70
   128
 13
4155.709339
 23
4096.4550590000008
 33
0.0
 14
4155.709339
 24
2546.455058999999
 34
0.0
 50
90.0
1001
ACAD
1000
DSTYLE
1002
{
1070
   287
1070
     3
1070
   287
1070
     3
1070
    40
1040
30.0
1070
   143
1040
0.039
1070
   172
1070
     1
1070
   271
1070
     0
1070
   279
1070
     0
1070
   288
1070
     1
1002
}
  0
DIMENSION
  5
7BB7
  8
3
  6
CONTINUOUS
  2
*D12
 10
5105.709339
 20
2288.321418
 30
0.0
 11
4922.035656
 21
2289.6216469999999
 31
0.0
 70
   128
 13
4740.709339
 23
2358.816808999999
 33
0.0
 14
5105.709339
 24
2546.455058999999
 34
0.0
1001
ACAD
1000
DSTYLE
1002
{
1070
   287
1070
     4
1070
   287
1070
     4
1070
    40
1040
30.0
1070
    75
1070
     1
1070
   143
1040
0.039
1070
   172
1070
     1
1070
   271
1070
     0
1070
   279
1070
     1
1070
   288
1070
     1
1002
}
  0
DIMENSION
  5
7BC4
  8
3
  6
CONTINUOUS
  2
*D13
 10
2791.5941779999998
 20
6392.9873889999999
 30
0.0
 11
1934.0791449999999
 21
6392.9873889999999
 31
0.0
 70
   128
 13
1091.5941780000001
 23
6177.7994130000006
 33
0.0
 14
2791.5941779999998
 24
6177.7994130000006
 34
0.0
1001
ACAD
1000
DSTYLE
1002
{
1070
   287
1070
     3
1070
   287
1070
     3
1070
    40
1040
30.0
1070
   143
1040
0.039
1070
   172
1070
     1
1070
   271
1070
     0
1070
   279
1070
     0
1070
   288
1070
     1
1002
}
  0
LINE
  5
7BD2
  8
4
  6
CONTINUOUS
 10
5550.0
 20
1500.0
 30
0.0
 11
5550.0
 21
900.0
 31
0.0
  0
LINE
  5
7BD3
  8
4
  6
CONTINUOUS
 10
3450.0
 20
1500.0
 30
0.0
 11
3450.0
 21
900.0
 31
0.0
  0
LINE
  5
7BD4
  8
4
  6
CONTINUOUS
 10
1950.0
 20
1500.0
 30
0.0
 11
1950.0
 21
900.0
 31
0.0
  0
LINE
  5
7BD7
  8
4
  6
CONTINUOUS
 10
1950.0
 20
900.0
 30
0.0
 11
5550.0
 21
900.0
 31
0.0
  0
LINE
  5
7BD8
  8
4
  6
CONTINUOUS
 10
1950.0
 20
1200.0
 30
0.0
 11
5550.0
 21
1200.0
 31
0.0
  0
TEXT
  5
7BD9
  8
4
  6
CONTINUOUS
 10
2065.5062429999989
 20
1294.6290779999999
 30
0.0
 40
150.0
  1
機器名称
  0
TEXT
  5
7BDA
  8
4
  6
CONTINUOUS
 10
2058.7743179999989
 20
964.9354699999999
 30
0.0
 40
150.0
  1
機器型番
  0
TEXT
  5
7BDB
  8
4
  6
CONTINUOUS
 10
3533.0362359999999
 20
1267.7153069999999
 30
0.0
 40
150.0
  1
ミツヤ多翼送風機
  0
TEXT
  5
7BDC
  8
4
  6
CONTINUOUS
 10
3559.9634869999991
 20
951.47875299999987
 30
0.0
 40
150.0
  1
MF#4-4
  0
TEXT
  5
7BDE
  8
4
  6
CONTINUOUS
 10
2184.3763489999992
 20
7150.2865239999992
 30
0.0
 40
162.0
  1
天井吊枠防振ベット
  0
TEXT
  5
7BDF
  8
4
  6
CONTINUOUS
 10
948.50278000000014
 20
7601.6429289999996
 30
0.0
 40
216.0
  1
ベルト駆動式片吸込両持多翼ファン
  0
LINE
  5
7BE0
  8
4
  6
CONTINUOUS
 10
750.0
 20
7408.2262629999996
 30
0.0
 11
5550.0
 21
7408.2262629999996
 31
0.0
  0
LINE
  5
7BE1
  8
4
  6
CONTINUOUS
 10
750.0
 20
8008.2262629999996
 30
0.0
 11
5550.0
 21
8008.2262629999996
 31
0.0
  0
LINE
  5
7BE2
  8
4
  6
CONTINUOUS
 10
1950.0
 20
1500.0
 30
0.0
 11
5550.0
 21
1500.0
 31
0.0
  0
LINE
  5
7BE3
  8
4
  6
CONTINUOUS
 10
750.0
 20
8008.2262629999996
 30
0.0
 11
750.0
 21
7408.2262629999996
 31
0.0
  0
TEXT
  5
7BE4
  8
4
  6
CONTINUOUS
 10
876.79985299999987
 20
7146.9584329999998
 30
0.0
 40
162.0
  1
左回転右横向
  0
TEXT
  5
7BE5
  8
4
  6
CONTINUOUS
 10
4406.9086779999989
 20
8118.1832439999989
 30
0.0
 40
168.0
  1
No.
  0
TEXT
  5
7BE6
  8
4
  6
CONTINUOUS
 10
4179.9507590000003
 20
7150.2865239999992
 30
0.0
 40
162.0
  1
縮尺：1/30
  0
LINE
  5
7BE7
  8
4
  6
CONTINUOUS
 10
5550.0
 20
8008.2262629999996
 30
0.0
 11
5550.0
 21
7408.2262629999996
 31
0.0
  0
LINE
  5
7BE9
  8
4
  6
CONTINUOUS
 10
4321.8522670000002
 20
8043.7907490000007
 30
0.0
 11
4321.8522670000002
 21
8359.9567849999985
 31
0.0
  0
LINE
  5
7BEA
  8
4
  6
CONTINUOUS
 10
4321.8522670000002
 20
8359.9567849999985
 30
0.0
 11
5550.0
 21
8359.9567849999985
 31
0.0
  0
LINE
  5
7BEB
  8
4
  6
CONTINUOUS
 10
5550.0
 20
8359.9567849999985
 30
0.0
 11
5550.0
 21
8043.7907490000007
 31
0.0
  0
LINE
  5
7BEC
  8
4
  6
CONTINUOUS
 10
5550.0
 20
8043.7907490000007
 30
0.0
 11
4321.8522670000002
 21
8043.7907490000007
 31
0.0
  0
DIMENSION
  5
7C5E
  8
3
  6
CONTINUOUS
  2
*D14
 10
4155.709339
 20
2288.321418
 30
0.0
 11
4448.209339
 21
2363.3214179999991
 31
0.0
 70
     0
 13
4740.709339
 23
2358.816808999999
 33
0.0
 14
4155.709339
 24
2546.455058999999
 34
0.0
1001
ACAD
1000
DSTYLE
1002
{
1070
   287
1070
     3
1070
   287
1070
     3
1070
    40
1040
30.0
1070
   143
1040
0.039
1070
   172
1070
     1
1070
   271
1070
     0
1070
   279
1070
     0
1070
   288
1070
     1
1002
}
  0
DIMENSION
  5
7C76
  8
3
  6
CONTINUOUS
  2
*D15
 10
3051.5655130000009
 20
5227.7994130000006
 30
0.0
 11
3051.5655129999991
 21
5694.7720179999997
 31
0.0
 70
   128
 13
2791.5941779999998
 23
6177.7994130000006
 33
0.0
 14
2791.5941779999998
 24
5227.7994130000006
 34
0.0
 50
90.0
1001
ACAD
1000
DSTYLE
1002
{
1070
   287
1070
     3
1070
   287
1070
     3
1070
    40
1040
30.0
1070
   143
1040
0.039
1070
   172
1070
     1
1070
   271
1070
     0
1070
   279
1070
     0
1070
   288
1070
     1
1002
}
  0
DIMENSION
  5
7CB7
  8
3
  2
*D16
 10
1689.5941780000001
 20
4176.0301619999991
 30
0.0
 11
1950.5941780000001
 21
4251.030162
 31
0.0
 70
     0
 13
2211.5941779999998
 23
4186.742808
 33
0.0
 14
1689.5941780000001
 24
3381.4550589999999
 34
0.0
1001
ACAD
1000
DSTYLE
1002
{
1070
   287
1070
     4
1070
   287
1070
     4
1070
    40
1040
30.0
1070
    75
1070
     1
1070
   143
1040
0.039
1070
   172
1070
     1
1070
   271
1070
     0
1070
   279
1070
     1
1070
   288
1070
     1
1002
}
  0
LINE
  5
7D07
  8
1
  6
CONTINUOUS
 10
1801.5941780000001
 20
3700.1328564453511
 30
0.0
 11
1801.5941780000001
 21
2722.4550589999999
 31
0.0
  0
LINE
  5
7D08
  8
1
  6
CONTINUOUS
 10
2621.5941779999998
 20
3542.4550589999999
 30
0.0
 11
2621.5941779999998
 21
2722.4550589999999
 31
0.0
  0
LINE
  5
7D09
  8
1
  6
CONTINUOUS
 10
2621.5941779999998
 20
3542.4550589999999
 30
0.0
 11
1801.5941780000001
 21
3542.455058999999
 31
0.0
  0
DIMENSION
  5
7D0B
  8
3
  2
*D17
 10
3347.8486440000001
 20
3875.7095059999988
 30
0.0
 11
3272.8486439999988
 21
3649.0822825
 31
0.0
 70
     0
  1
452
 13
2930.3933940000002
 23
3422.4550589999999
 33
0.0
 14
2176.5941779999998
 24
3875.7095060000001
 34
0.0
 50
90.0
1001
ACAD
1000
DSTYLE
1002
{
1070
   287
1070
     4
1070
   287
1070
     4
1070
    40
1040
30.0
1070
   143
1040
0.039
1070
   172
1070
     1
1070
   271
1070
     0
1070
   279
1070
     1
1070
   288
1070
     1
1002
}
  0
ENDSEC
  0
EOF
