  0
SECTION
  2
HEADER
  9
$ACADVER
  1
AC1009
  9
$INSBASE
 10
0.0
 20
0.0
 30
0.0
  9
$EXTMIN
 10
750.0
 20
900.0
 30
0.0
  9
$EXTMAX
 10
5550.0
 20
8359.9567849999985
 30
0.0
  9
$LIMMIN
 10
0.0
 20
0.0
  9
$LIMMAX
 10
297.0
 20
210.0
  9
$ORTHOMODE
 70
     0
  9
$REGENMODE
 70
     1
  9
$FILLMODE
 70
     0
  9
$QTEXTMODE
 70
     0
  9
$MIRRTEXT
 70
     1
  9
$DRAGMODE
 70
     2
  9
$LTSCALE
 40
100.0
  9
$OSMODE
 70
    37
  9
$ATTMODE
 70
     1
  9
$TEXTSIZE
 40
180.0
  9
$TRACEWID
 40
0.05
  9
$TEXTSTYLE
  7
STANDARD
  9
$CLAYER
  8
3
  9
$CELTYPE
  6
BYLAYER
  9
$CECOLOR
 62
   256
  9
$DIMSCALE
 40
30.0
  9
$DIMASZ
 40
2.0
  9
$DIMEXO
 40
0.5
  9
$DIMDLI
 40
10.0
  9
$DIMRND
 40
0.0
  9
$DIMDLE
 40
0.0
  9
$DIMEXE
 40
1.0
  9
$DIMTP
 40
1.0
  9
$DIMTM
 40
1.0
  9
$DIMTXT
 40
3.0
  9
$DIMCEN
 40
0.0
  9
$DIMTSZ
 40
0.0
  9
$DIMTOL
 70
     0
  9
$DIMLIM
 70
     0
  9
$DIMTIH
 70
     0
  9
$DIMTOH
 70
     0
  9
$DIMSE1
 70
     0
  9
$DIMSE2
 70
     0
  9
$DIMTAD
 70
     1
  9
$DIMZIN
 70
     8
  9
$DIMBLK
  1

  9
$DIMASO
 70
     1
  9
$DIMSHO
 70
     1
  9
$DIMPOST
  1

  9
$DIMAPOST
  1

  9
$DIMALT
 70
     0
  9
$DIMALTD
 70
     2
  9
$DIMALTF
 40
0.039
  9
$DIMLFAC
 40
1.0
  9
$DIMTOFL
 70
     1
  9
$DIMTVP
 40
0.0
  9
$DIMTIX
 70
     0
  9
$DIMSOXD
 70
     0
  9
$DIMSAH
 70
     1
  9
$DIMBLK1
  1
OPEN
  9
$DIMBLK2
  1
OPEN
  9
$DIMSTYLE
  2
IGA
  9
$DIMCLRD
 70
     0
  9
$DIMCLRE
 70
     0
  9
$DIMCLRT
 70
     0
  9
$DIMTFAC
 40
10.0
  9
$DIMGAP
 40
1.0
  9
$LUNITS
 70
     2
  9
$LUPREC
 70
     3
  9
$SKETCHINC
 40
0.1
  9
$FILLETRAD
 40
50.0
  9
$AUNITS
 70
     0
  9
$AUPREC
 70
     0
  9
$MENU
  1
acad
  9
$ELEVATION
 40
0.0
  9
$PELEVATION
 40
0.0
  9
$THICKNESS
 40
0.0
  9
$LIMCHECK
 70
     0
  9
$BLIPMODE
 70
     0
  9
$CHAMFERA
 40
0.5
  9
$CHAMFERB
 40
0.5
  9
$SKPOLY
 70
     0
  9
$TDCREATE
 40
2450742.4952797452
  9
$TDUPDATE
 40
2454953.7709843279
  9
$TDINDWG
 40
0.0038376389
  9
$TDUSRTIMER
 40
0.0038376389
  9
$USRTIMER
 70
     1
  9
$ANGBASE
 50
0.0
  9
$ANGDIR
 70
     0
  9
$PDMODE
 70
     0
  9
$PDSIZE
 40
0.0
  9
$PLINEWID
 40
0.0
  9
$COORDS
 70
     1
  9
$SPLFRAME
 70
     0
  9
$SPLINETYPE
 70
     6
  9
$SPLINESEGS
 70
     8
  9
$ATTDIA
 70
     0
  9
$ATTREQ
 70
     1
  9
$HANDLING
 70
 10241
  9
$HANDSEED
  5
7FA5
  9
$SURFTAB1
 70
     6
  9
$SURFTAB2
 70
     6
  9
$SURFTYPE
 70
     6
  9
$SURFU
 70
     6
  9
$SURFV
 70
     6
  9
$UCSNAME
  2

  9
$UCSORG
 10
0.0
 20
0.0
 30
0.0
  9
$UCSXDIR
 10
1.0
 20
0.0
 30
0.0
  9
$UCSYDIR
 10
0.0
 20
1.0
 30
0.0
  9
$PUCSNAME
  2

  9
$PUCSORG
 10
0.0
 20
0.0
 30
0.0
  9
$PUCSXDIR
 10
1.0
 20
0.0
 30
0.0
  9
$PUCSYDIR
 10
0.0
 20
1.0
 30
0.0
  9
$USERI1
 70
     0
  9
$USERI2
 70
     0
  9
$USERI3
 70
     0
  9
$USERI4
 70
     0
  9
$USERI5
 70
     0
  9
$USERR1
 40
0.0
  9
$USERR2
 40
0.0
  9
$USERR3
 40
0.0
  9
$USERR4
 40
0.0
  9
$USERR5
 40
0.0
  9
$WORLDVIEW
 70
     1
  9
$SHADEDGE
 70
     3
  9
$SHADEDIF
 70
    70
  9
$TILEMODE
 70
     1
  9
$MAXACTVP
 70
    16
  9
$PLIMCHECK
 70
     0
  9
$PEXTMIN
 10
1.0000000000000000E+020
 20
1.0000000000000000E+020
 30
1.0000000000000000E+020
  9
$PEXTMAX
 10
-1.0000000000000000E+020
 20
-1.0000000000000000E+020
 30
-1.0000000000000000E+020
  9
$PLIMMIN
 10
0.0
 20
0.0
  9
$PLIMMAX
 10
12.0
 20
9.0
  9
$UNITMODE
 70
     0
  9
$VISRETAIN
 70
     0
  9
$PLINEGEN
 70
     0
  9
$PSLTSCALE
 70
     1
  0
ENDSEC
  0
SECTION
  2
TABLES
  0
TABLE
  2
VPORT
 70
     2
  0
VPORT
  2
*ACTIVE
 70
     0
 10
0.0
 20
0.0
 11
1.0
 21
1.0
 12
9438.4567678319436
 22
4630.0975558305709
 13
0.0
 23
0.0
 14
10.0
 24
10.0
 15
10.0
 25
10.0
 16
0.0
 26
0.0
 36
1.0
 17
0.0
 27
0.0
 37
0.0
 40
7517.4747125171307
 41
3.1666666666666661
 42
50.0
 43
0.0
 44
0.0
 50
0.0
 51
0.0
 71
     0
 72
   100
 73
     1
 74
     0
 75
     0
 76
     0
 77
     0
 78
     0
  0
ENDTAB
  0
TABLE
  2
LTYPE
 70
     2
  0
LTYPE
  2
CONTINUOUS
 70
     0
  3
Solid line
 72
    65
 73
     0
 40
0.0
  0
LTYPE
  2
CENTER
 70
     0
  3
____ _ ____ _ ____ _ ____ _ ____ _ ____ _ ____ 
 72
    65
 73
     4
 40
2.0
 49
1.25
 49
-0.25
 49
0.25
 49
-0.25
  0
ENDTAB
  0
TABLE
  2
LAYER
 70
     6
  0
LAYER
  2
0
 70
     0
 62
     7
  6
CONTINUOUS
  0
LAYER
  2
3
 70
     0
 62
     2
  6
CONTINUOUS
  0
LAYER
  2
2
 70
     0
 62
     3
  6
CENTER
  0
LAYER
  2
1
 70
     0
 62
     4
  6
CONTINUOUS
  0
LAYER
  2
4
 70
     0
 62
     7
  6
CONTINUOUS
  0
LAYER
  2
DEFPOINTS
 70
     0
 62
     7
  6
CONTINUOUS
  0
ENDTAB
  0
TABLE
  2
STYLE
 70
     1
  0
STYLE
  2
STANDARD
 70
     0
 40
0.0
 41
1.0
 50
0.0
 71
     0
 42
180.0
  3
simplex.shx
  4
extfont.shx
  0
ENDTAB
  0
TABLE
  2
VIEW
 70
     0
  0
ENDTAB
  0
TABLE
  2
UCS
 70
     0
  0
ENDTAB
  0
TABLE
  2
APPID
 70
     1
  0
APPID
  2
ACAD
 70
     0
  0
ENDTAB
  0
TABLE
  2
DIMSTYLE
 70
     1
  0
DIMSTYLE
  2
IGA
 70
     0
  3

  4

  5

  6
OPEN
  7
OPEN
 40
2.0
 41
2.0
 42
0.5
 43
10.0
 44
1.0
 45
0.0
 46
0.0
 47
1.0
 48
1.0
140
3.0
141
0.0
142
0.0
143
0.03937
144
1.0
145
0.0
146
10.0
147
1.0
 71
     0
 72
     0
 73
     0
 74
     0
 75
     0
 76
     0
 77
     1
 78
     8
170
     0
171
     2
172
     0
173
     1
174
     0
175
     0
176
     0
177
     0
178
     0
  0
ENDTAB
  0
ENDSEC
  0
SECTION
  2
BLOCKS
  0
BLOCK
  8
0
  2
$MODEL_SPACE
 70
     0
 10
0.0
 20
0.0
 30
0.0
  3
$MODEL_SPACE
  1

  0
ENDBLK
  5
1B
  8
0
  0
BLOCK
 67
     1
  8
0
  2
$PAPER_SPACE
 70
     0
 10
0.0
 20
0.0
 30
0.0
  3
$PAPER_SPACE
  1

  0
ENDBLK
  5
18
 67
     1
  8
0
  0
BLOCK
  8
0
  2
_OPEN
 70
     0
 10
0.0
 20
0.0
 30
0.0
  3
_OPEN
  1

  0
LINE
  5
7BCC
  8
0
  6
BYBLOCK
 62
     0
 10
-1.0
 20
0.166667
 30
0.0
 11
0.0
 21
0.0
 31
0.0
  0
LINE
  5
7BCD
  8
0
  6
BYBLOCK
 62
     0
 10
0.0
 20
0.0
 30
0.0
 11
-1.0
 21
-0.166667
 31
0.0
  0
LINE
  5
7BCE
  8
0
  6
BYBLOCK
 62
     0
 10
0.0
 20
0.0
 30
0.0
 11
-1.0
 21
0.0
 31
0.0
  0
ENDBLK
  5
7BCF
  8
0
  0
BLOCK
  8
0
  2
*D1
 70
     1
 10
0.0
 20
0.0
 30
0.0
  3
*D1
  1

  0
LINE
  5
7F11
  8
3
  6
CONTINUOUS
 62
     0
 10
1514.9154329999999
 20
3905.748521
 30
0.0
 11
1265.137252
 21
3905.748521
 31
0.0
  0
LINE
  5
7F12
  8
3
  6
CONTINUOUS
 62
     0
 10
1514.9154329999999
 20
3255.748521
 30
0.0
 11
1265.137252
 21
3255.748521
 31
0.0
  0
LINE
  5
7F13
  8
3
  6
CONTINUOUS
 62
     0
 10
1295.137252
 20
3845.748521
 30
0.0
 11
1295.137252
 21
3315.7485209999991
 31
0.0
  0
INSERT
  5
7F14
  8
3
  6
CONTINUOUS
 62
     0
  2
_OPEN
 10
1295.137252
 20
3905.748521
 30
0.0
 41
60.0
 42
60.0
 43
60.0
 50
90.0
  0
INSERT
  5
7F15
  8
3
  6
CONTINUOUS
 62
     0
  2
_OPEN
 10
1295.137252
 20
3255.748521
 30
0.0
 41
60.0
 42
60.0
 43
60.0
 50
270.0
  0
TEXT
  8
3
  40
90
  5
7F96
  62
0
  72
0
  71
0
 10
1040.14
 20
3407.74
 30
0.000000
  1
650
  0
POINT
  5
7F17
  8
DEFPOINTS
  6
CONTINUOUS
 62
     0
 10
1529.9154329999999
 20
3905.748521
 30
0.0
  0
POINT
  5
7F18
  8
DEFPOINTS
  6
CONTINUOUS
 62
     0
 10
1529.9154329999999
 20
3255.748521
 30
0.0
  0
POINT
  5
7F19
  8
DEFPOINTS
  6
CONTINUOUS
 62
     0
 10
1295.137252
 20
3255.748521
 30
0.0
  0
ENDBLK
  5
7D14
  8
0
  0
BLOCK
  8
0
  2
*D2
 70
     1
 10
0.0
 20
0.0
 30
0.0
  3
*D2
  1

  0
LINE
  5
7F1A
  8
3
  6
CONTINUOUS
 62
     0
 10
1434.9154329999999
 20
2624.748521
 30
0.0
 11
1434.9154329999999
 21
2337.2295260000001
 31
0.0
  0
LINE
  5
7F1B
  8
3
  6
CONTINUOUS
 62
     0
 10
2014.9154329999999
 20
2404.708607
 30
0.0
 11
2014.9154329999999
 21
2337.2295260000001
 31
0.0
  0
LINE
  5
7F1C
  8
3
  6
CONTINUOUS
 62
     0
 10
1494.9154329999999
 20
2367.2295260000001
 30
0.0
 11
1954.9154329999999
 21
2367.2295260000001
 31
0.0
  0
INSERT
  5
7F1D
  8
3
  6
CONTINUOUS
 62
     0
  2
_OPEN
 10
1434.9154329999999
 20
2367.2295260000001
 30
0.0
 41
60.0
 42
60.0
 43
60.0
 50
180.0
  0
INSERT
  5
7F1E
  8
3
  6
CONTINUOUS
 62
     0
  2
_OPEN
 10
2014.9154329999999
 20
2367.2295260000001
 30
0.0
 41
60.0
 42
60.0
 43
60.0
  0
TEXT
  8
3
  40
90
  5
7F97
  62
0
  72
0
  71
0
 10
1553.42
 20
2282.93
 30
0.000000
  1
580
  0
POINT
  5
7F20
  8
DEFPOINTS
  6
CONTINUOUS
 62
     0
 10
1434.9154329999999
 20
2639.748521
 30
0.0
  0
POINT
  5
7F21
  8
DEFPOINTS
  6
CONTINUOUS
 62
     0
 10
2014.9154329999999
 20
2419.708607
 30
0.0
  0
POINT
  5
7F22
  8
DEFPOINTS
  6
CONTINUOUS
 62
     0
 10
2014.9154329999999
 20
2367.2295260000001
 30
0.0
  0
ENDBLK
  5
7CCE
  8
0
  0
BLOCK
  8
0
  2
*D3
 70
     1
 10
0.0
 20
0.0
 30
0.0
  3
*D3
  1

  0
LINE
  5
7F23
  8
3
  6
CONTINUOUS
 62
     0
 10
3134.9154329999992
 20
2624.748521
 30
0.0
 11
3134.9154329999992
 21
2337.2295260000001
 31
0.0
  0
LINE
  5
7F24
  8
3
  6
CONTINUOUS
 62
     0
 10
2074.9154330000001
 20
2367.2295260000001
 30
0.0
 11
3074.9154329999992
 21
2367.2295260000001
 31
0.0
  0
INSERT
  5
7F25
  8
3
  6
CONTINUOUS
 62
     0
  2
_OPEN
 10
2014.9154329999999
 20
2367.2295260000001
 30
0.0
 41
60.0
 42
60.0
 43
60.0
 50
180.0
  0
INSERT
  5
7F26
  8
3
  6
CONTINUOUS
 62
     0
  2
_OPEN
 10
3134.9154329999992
 20
2367.2295260000001
 30
0.0
 41
60.0
 42
60.0
 43
60.0
  0
TEXT
  8
3
  40
90
  5
7F98
  62
0
  72
0
  71
0
 10
2394.92
 20
2282.93
 30
0.000000
  1
1120
  0
POINT
  5
7F28
  8
DEFPOINTS
  6
CONTINUOUS
 62
     0
 10
2014.9154329999999
 20
2419.708607
 30
0.0
  0
POINT
  5
7F29
  8
DEFPOINTS
  6
CONTINUOUS
 62
     0
 10
3134.9154329999992
 20
2639.748521
 30
0.0
  0
POINT
  5
7F2A
  8
DEFPOINTS
  6
CONTINUOUS
 62
     0
 10
3134.9154329999992
 20
2367.2295260000001
 30
0.0
  0
ENDBLK
  5
7CC3
  8
0
  0
BLOCK
  8
0
  2
*D4
 70
     1
 10
0.0
 20
0.0
 30
0.0
  3
*D4
  1

  0
LINE
  5
7F2B
  8
3
  6
CONTINUOUS
 62
     0
 10
1529.9154329999999
 20
3960.748521
 30
0.0
 11
1529.9154329999999
 21
4361.3486589999993
 31
0.0
  0
LINE
  5
7F2C
  8
3
  6
CONTINUOUS
 62
     0
 10
2014.9154329999999
 20
4275.4721090000003
 30
0.0
 11
2014.9154329999999
 21
4361.3486589999993
 31
0.0
  0
LINE
  5
7F2D
  8
3
  6
CONTINUOUS
 62
     0
 10
1589.9154329999999
 20
4331.3486590000002
 30
0.0
 11
1954.9154329999999
 21
4331.3486590000002
 31
0.0
  0
INSERT
  5
7F2E
  8
3
  6
CONTINUOUS
 62
     0
  2
_OPEN
 10
1529.9154329999999
 20
4331.3486590000002
 30
0.0
 41
60.0
 42
60.0
 43
60.0
 50
180.0
  0
INSERT
  5
7F2F
  8
3
  6
CONTINUOUS
 62
     0
  2
_OPEN
 10
2014.9154329999999
 20
4331.3486590000002
 30
0.0
 41
60.0
 42
60.0
 43
60.0
  0
TEXT
  8
3
  40
90
  5
7F99
  62
0
  72
0
  71
0
 10
1593.23
 20
4247.05
 30
0.000000
  1
485
  0
POINT
  5
7F31
  8
DEFPOINTS
  6
CONTINUOUS
 62
     0
 10
1529.9154329999999
 20
3945.748521
 30
0.0
  0
POINT
  5
7F32
  8
DEFPOINTS
  6
CONTINUOUS
 62
     0
 10
2014.9154329999999
 20
4260.4721090000012
 30
0.0
  0
POINT
  5
7F33
  8
DEFPOINTS
  6
CONTINUOUS
 62
     0
 10
2014.9154329999999
 20
4331.3486590000002
 30
0.0
  0
ENDBLK
  5
7C39
  8
0
  0
BLOCK
  8
0
  2
*D5
 70
     1
 10
0.0
 20
0.0
 30
0.0
  3
*D5
  1

  0
LINE
  5
7F34
  8
3
  6
CONTINUOUS
 62
     0
 10
5197.2371780000003
 20
2624.748521
 30
0.0
 11
5197.2371780000003
 21
2338.2703099999999
 31
0.0
  0
LINE
  5
7F35
  8
3
  6
CONTINUOUS
 62
     0
 10
4892.2371780000012
 20
2368.2703099999999
 30
0.0
 11
5137.2371780000003
 21
2368.2703099999999
 31
0.0
  0
TEXT
  8
3
  40
90
  5
7F9A
  62
0
  72
0
  71
0
 10
4822.81
 20
2284.33
 30
0.000000
  1
365
  0
INSERT
  5
7F37
  8
3
  6
CONTINUOUS
 62
     0
  2
_OPEN
 10
4832.2371780000003
 20
2368.2703099999999
 30
0.0
 41
60.0
 42
60.0
 43
60.0
 50
180.0
  0
INSERT
  5
7F38
  8
3
  6
CONTINUOUS
 62
     0
  2
_OPEN
 10
5197.2371780000003
 20
2368.2703099999999
 30
0.0
 41
60.0
 42
60.0
 43
60.0
  0
POINT
  5
7F39
  8
DEFPOINTS
  6
CONTINUOUS
 62
     0
 10
4832.2371780000003
 20
2399.515402
 30
0.0
  0
POINT
  5
7F3A
  8
DEFPOINTS
  6
CONTINUOUS
 62
     0
 10
5197.2371780000003
 20
2639.748521
 30
0.0
  0
POINT
  5
7F3B
  8
DEFPOINTS
  6
CONTINUOUS
 62
     0
 10
5197.2371780000003
 20
2368.2703099999999
 30
0.0
  0
ENDBLK
  5
7DA3
  8
0
  0
BLOCK
  8
0
  2
*D6
 70
     1
 10
0.0
 20
0.0
 30
0.0
  3
*D6
  1

  0
LINE
  5
7F3C
  8
3
  6
CONTINUOUS
 62
     0
 10
5069.7371780000003
 20
3920.748521
 30
0.0
 11
5069.7371780000003
 21
4266.3446719404274
 31
0.0
  0
LINE
  5
7F3D
  8
3
  6
CONTINUOUS
 62
     0
 10
4594.7371780000003
 20
3920.748521
 30
0.0
 11
4594.7371780000003
 21
4266.3446719404274
 31
0.0
  0
LINE
  5
7F3E
  8
3
  6
CONTINUOUS
 62
     0
 10
5009.7371780000003
 20
4236.3446719404274
 30
0.0
 11
4654.7371780000003
 21
4236.3446719404274
 31
0.0
  0
INSERT
  5
7F3F
  8
3
  6
CONTINUOUS
 62
     0
  2
_OPEN
 10
5069.7371780000003
 20
4236.3446719404274
 30
0.0
 41
60.0
 42
60.0
 43
60.0
  0
INSERT
  5
7F40
  8
3
  6
CONTINUOUS
 62
     0
  2
_OPEN
 10
4594.7371780000003
 20
4236.3446719404274
 30
0.0
 41
60.0
 42
60.0
 43
60.0
 50
180.0
  0
TEXT
  8
3
  40
90
  5
7F9B
  62
0
  72
0
  71
0
 10
4620.45
 20
4152.04
 30
0.000000
  1
475
  0
POINT
  5
7F42
  8
DEFPOINTS
  6
CONTINUOUS
 62
     0
 10
5069.7371780000003
 20
3905.748521
 30
0.0
  0
POINT
  5
7F43
  8
DEFPOINTS
  6
CONTINUOUS
 62
     0
 10
4594.7371780000003
 20
3905.748521
 30
0.0
  0
POINT
  5
7F44
  8
DEFPOINTS
  6
CONTINUOUS
 62
     0
 10
4594.7371780000003
 20
4236.3446719404274
 30
0.0
  0
ENDBLK
  5
7E20
  8
0
  0
BLOCK
  8
0
  2
*D7
 70
     1
 10
0.0
 20
0.0
 30
0.0
  3
*D7
  1

  0
LINE
  5
7F45
  8
3
  6
CONTINUOUS
 62
     0
 10
5088.2371780000003
 20
3620.748521
 30
0.0
 11
5439.8555180000012
 21
3620.7485209999991
 31
0.0
  0
LINE
  5
7F46
  8
3
  6
CONTINUOUS
 62
     0
 10
5088.2371780000003
 20
2950.7485209999991
 30
0.0
 11
5439.8555180000012
 21
2950.7485209999991
 31
0.0
  0
LINE
  5
7F47
  8
3
  6
CONTINUOUS
 62
     0
 10
5409.8555180000012
 20
3560.7485209999991
 30
0.0
 11
5409.8555180000012
 21
3010.748521
 31
0.0
  0
INSERT
  5
7F48
  8
3
  6
CONTINUOUS
 62
     0
  2
_OPEN
 10
5409.8555180000012
 20
3620.7485209999991
 30
0.0
 41
60.0
 42
60.0
 43
60.0
 50
90.0
  0
INSERT
  5
7F49
  8
3
  6
CONTINUOUS
 62
     0
  2
_OPEN
 10
5409.8555180000012
 20
2950.7485209999991
 30
0.0
 41
60.0
 42
60.0
 43
60.0
 50
270.0
  0
TEXT
  8
3
  40
90
  5
7F9C
  62
0
  72
0
  71
0
 10
5154.86
 20
3137.77
 30
0.000000
  1
φ670
  0
POINT
  5
7F4B
  8
DEFPOINTS
  6
CONTINUOUS
 62
     0
 10
5073.2371780000003
 20
3620.748521
 30
0.0
  0
POINT
  5
7F4C
  8
DEFPOINTS
  6
CONTINUOUS
 62
     0
 10
5073.2371780000003
 20
2950.7485209999991
 30
0.0
  0
POINT
  5
7F4D
  8
DEFPOINTS
  6
CONTINUOUS
 62
     0
 10
5409.8555180000012
 20
2950.7485209999991
 30
0.0
  0
ENDBLK
  5
7E2B
  8
0
  0
BLOCK
  8
0
  2
*D8
 70
     1
 10
0.0
 20
0.0
 30
0.0
  3
*D8
  1

  0
LINE
  5
7E0C
  8
0
  6
BYBLOCK
 62
     0
 10
5073.2371780000003
 20
3635.748521
 30
0.0
 11
5073.2371780000003
 21
4539.1525756525989
 31
0.0
  0
LINE
  5
7E0D
  8
0
  6
BYBLOCK
 62
     0
 10
4832.2371780000003
 20
4372.4514259999996
 30
0.0
 11
4832.2371780000003
 21
4539.1525756525989
 31
0.0
  0
LINE
  5
7E0E
  8
0
  6
BYBLOCK
 62
     0
 10
5013.2371780000003
 20
4509.1525756525989
 30
0.0
 11
4892.2371780000012
 21
4509.1525756525989
 31
0.0
  0
TEXT
  5
7E0F
  8
3
 62
     0
 10
4854.2084658437861
 20
4556.8523869130031
 30
0.0
 40
90.0
  1
241
  0
INSERT
  5
7E10
  8
0
  6
BYBLOCK
 62
     0
  2
_OPEN
 10
5073.2371780000003
 20
4509.1525756525989
 30
0.0
 41
60.0
 42
60.0
 43
60.0
  0
INSERT
  5
7E11
  8
0
  6
BYBLOCK
 62
     0
  2
_OPEN
 10
4832.2371780000003
 20
4509.1525756525989
 30
0.0
 41
60.0
 42
60.0
 43
60.0
 50
180.0
  0
POINT
  5
7E12
  8
DEFPOINTS
  6
BYBLOCK
 62
     0
 10
5073.2371780000003
 20
3620.748521
 30
0.0
  0
POINT
  5
7E13
  8
DEFPOINTS
  6
BYBLOCK
 62
     0
 10
4832.2371780000003
 20
4357.4514259999987
 30
0.0
  0
POINT
  5
7E14
  8
DEFPOINTS
  6
BYBLOCK
 62
     0
 10
4832.2371780000003
 20
4509.1525756525989
 30
0.0
  0
ENDBLK
  5
7E15
  8
0
  0
BLOCK
  8
0
  2
*D9
 70
     1
 10
0.0
 20
0.0
 30
0.0
  3
*D9
  1

  0
LINE
  5
7F4E
  8
3
  6
CONTINUOUS
 62
     0
 10
4232.2371780000003
 20
4189.7485210000013
 30
0.0
 11
4052.163438
 21
4189.7485210000013
 31
0.0
  0
LINE
  5
7F4F
  8
3
  6
CONTINUOUS
 62
     0
 10
4232.2371780000003
 20
2639.748521
 30
0.0
 11
4052.163438
 21
2639.748521
 31
0.0
  0
LINE
  5
7F50
  8
3
  6
CONTINUOUS
 62
     0
 10
4082.163438000001
 20
4129.7485210000004
 30
0.0
 11
4082.163438000001
 21
2699.748521
 31
0.0
  0
INSERT
  5
7F51
  8
3
  6
CONTINUOUS
 62
     0
  2
_OPEN
 10
4082.163438000001
 20
4189.7485210000013
 30
0.0
 41
60.0
 42
60.0
 43
60.0
 50
90.0
  0
INSERT
  5
7F52
  8
3
  6
CONTINUOUS
 62
     0
  2
_OPEN
 10
4082.163438000001
 20
2639.748521
 30
0.0
 41
60.0
 42
60.0
 43
60.0
 50
270.0
  0
TEXT
  8
3
  40
90
  5
7F9D
  62
0
  72
0
  71
0
 10
3827.16
 20
3184.18
 30
0.000000
  1
1550
  0
POINT
  5
7F54
  8
DEFPOINTS
  6
CONTINUOUS
 62
     0
 10
4247.2371780000003
 20
4189.7485210000013
 30
0.0
  0
POINT
  5
7F55
  8
DEFPOINTS
  6
CONTINUOUS
 62
     0
 10
4247.2371780000003
 20
2639.748521
 30
0.0
  0
POINT
  5
7F56
  8
DEFPOINTS
  6
CONTINUOUS
 62
     0
 10
4082.163438000001
 20
2639.748521
 30
0.0
  0
ENDBLK
  5
7C99
  8
0
  0
BLOCK
  8
0
  2
*D10
 70
     1
 10
0.0
 20
0.0
 30
0.0
  3
*D10
  1

  0
LINE
  5
7F57
  8
3
  6
CONTINUOUS
 62
     0
 10
1434.9154329999999
 20
6149.6038930000004
 30
0.0
 11
1434.9154329999999
 21
6391.8049099999998
 31
0.0
  0
LINE
  5
7F58
  8
3
  6
CONTINUOUS
 62
     0
 10
3134.9154329999992
 20
6149.6038930000004
 30
0.0
 11
3134.9154329999992
 21
6391.8049099999998
 31
0.0
  0
LINE
  5
7F59
  8
3
  6
CONTINUOUS
 62
     0
 10
1494.9154329999999
 20
6361.8049099999998
 30
0.0
 11
3074.9154329999992
 21
6361.8049099999998
 31
0.0
  0
INSERT
  5
7F5A
  8
3
  6
CONTINUOUS
 62
     0
  2
_OPEN
 10
1434.9154329999999
 20
6361.8049099999998
 30
0.0
 41
60.0
 42
60.0
 43
60.0
 50
180.0
  0
INSERT
  5
7F5B
  8
3
  6
CONTINUOUS
 62
     0
  2
_OPEN
 10
3134.9154329999992
 20
6361.8049099999998
 30
0.0
 41
60.0
 42
60.0
 43
60.0
  0
TEXT
  8
3
  40
90
  5
7F9E
  62
0
  72
0
  71
0
 10
2084.31
 20
6277.50
 30
0.000000
  1
1700
  0
POINT
  5
7F5D
  8
DEFPOINTS
  6
CONTINUOUS
 62
     0
 10
1434.9154329999999
 20
6134.6038930000004
 30
0.0
  0
POINT
  5
7F5E
  8
DEFPOINTS
  6
CONTINUOUS
 62
     0
 10
3134.9154329999992
 20
6134.6038930000004
 30
0.0
  0
POINT
  5
7F5F
  8
DEFPOINTS
  6
CONTINUOUS
 62
     0
 10
3134.9154329999992
 20
6361.8049099999998
 30
0.0
  0
ENDBLK
  5
7DB8
  8
0
  0
BLOCK
  8
0
  2
*D11
 70
     1
 10
0.0
 20
0.0
 30
0.0
  3
*D11
  1

  0
LINE
  5
7F60
  8
3
  6
CONTINUOUS
 62
     0
 10
1514.9154329999999
 20
3905.748521
 30
0.0
 11
1047.1739700000001
 21
3905.748521
 31
0.0
  0
LINE
  5
7F61
  8
3
  6
CONTINUOUS
 62
     0
 10
1514.9154329999999
 20
3285.748521
 30
0.0
 11
1047.1739700000001
 21
3285.748521
 31
0.0
  0
LINE
  5
7F62
  8
3
  6
CONTINUOUS
 62
     0
 10
1077.1739700000001
 20
3845.748521
 30
0.0
 11
1077.1739700000001
 21
3345.748521
 31
0.0
  0
INSERT
  5
7F63
  8
3
  6
CONTINUOUS
 62
     0
  2
_OPEN
 10
1077.1739700000001
 20
3905.748521
 30
0.0
 41
60.0
 42
60.0
 43
60.0
 50
90.0
  0
INSERT
  5
7F64
  8
3
  6
CONTINUOUS
 62
     0
  2
_OPEN
 10
1077.1739700000001
 20
3285.748521
 30
0.0
 41
60.0
 42
60.0
 43
60.0
 50
270.0
  0
TEXT
  8
3
  40
90
  5
7F9F
  62
0
  72
0
  71
0
 10
822.174
 20
3419.59
 30
0.000000
  1
620
  0
POINT
  5
7F66
  8
DEFPOINTS
  6
CONTINUOUS
 62
     0
 10
1529.9154329999999
 20
3905.748521
 30
0.0
  0
POINT
  5
7F67
  8
DEFPOINTS
  6
CONTINUOUS
 62
     0
 10
1529.9154329999999
 20
3285.748521
 30
0.0
  0
POINT
  5
7F68
  8
DEFPOINTS
  6
CONTINUOUS
 62
     0
 10
1077.1739700000001
 20
3285.748521
 30
0.0
  0
ENDBLK
  5
7D2D
  8
0
  0
BLOCK
  8
0
  2
*D12
 70
     1
 10
0.0
 20
0.0
 30
0.0
  3
*D12
  1

  0
LINE
  5
7F69
  8
3
  6
CONTINUOUS
 62
     0
 10
1569.9154329999999
 20
2715.748521
 30
0.0
 11
1047.1739700000001
 21
2715.748521
 31
0.0
  0
LINE
  5
7F6A
  8
3
  6
CONTINUOUS
 62
     0
 10
1077.1739699999989
 20
3225.7485209999991
 30
0.0
 11
1077.1739699999989
 21
2775.748521
 31
0.0
  0
INSERT
  5
7F6B
  8
3
  6
CONTINUOUS
 62
     0
  2
_OPEN
 10
1077.1739699999989
 20
3285.748521
 30
0.0
 41
60.0
 42
60.0
 43
60.0
 50
90.0
  0
INSERT
  5
7F6C
  8
3
  6
CONTINUOUS
 62
     0
  2
_OPEN
 10
1077.1739699999989
 20
2715.748521
 30
0.0
 41
60.0
 42
60.0
 43
60.0
 50
270.0
  0
TEXT
  8
3
  40
90
  5
7FA0
  62
0
  72
0
  71
0
 10
822.174
 20
2841.45
 30
0.000000
  1
570
  0
POINT
  5
7F6E
  8
DEFPOINTS
  6
CONTINUOUS
 62
     0
 10
1529.9154329999999
 20
3285.748521
 30
0.0
  0
POINT
  5
7F6F
  8
DEFPOINTS
  6
CONTINUOUS
 62
     0
 10
1584.9154329999999
 20
2715.748521
 30
0.0
  0
POINT
  5
7F70
  8
DEFPOINTS
  6
CONTINUOUS
 62
     0
 10
1077.1739699999989
 20
2715.748521
 30
0.0
  0
ENDBLK
  5
7D39
  8
0
  0
BLOCK
  8
0
  2
*D13
 70
     1
 10
0.0
 20
0.0
 30
0.0
  3
*D13
  1

  0
LINE
  5
7F71
  8
3
  6
CONTINUOUS
 62
     0
 10
1569.9154329999999
 20
2715.748521
 30
0.0
 11
1047.1739700000001
 21
2715.748521
 31
0.0
  0
LINE
  5
7F72
  8
3
  6
CONTINUOUS
 62
     0
 10
1419.9154329999999
 20
2639.748521
 30
0.0
 11
1047.1739700000001
 21
2639.748521
 31
0.0
  0
LINE
  5
7F73
  8
3
  6
CONTINUOUS
 62
     0
 10
1077.1739700000001
 20
2775.748521
 30
0.0
 11
1077.1739700000001
 21
2835.748521
 31
0.0
  0
LINE
  5
7F74
  8
3
  6
CONTINUOUS
 62
     0
 10
1077.1739700000001
 20
2579.748521
 30
0.0
 11
1077.1739700000001
 21
2318.319949571428
 31
0.0
  0
LINE
  5
7F75
  8
3
  6
CONTINUOUS
 62
     0
 10
1077.1739700000001
 20
2715.748521
 30
0.0
 11
1077.1739700000001
 21
2639.748521
 31
0.0
  0
INSERT
  5
7F76
  8
3
  6
CONTINUOUS
 62
     0
  2
_OPEN
 10
1077.1739700000001
 20
2715.748521
 30
0.0
 41
60.0
 42
60.0
 43
60.0
 50
270.0
  0
INSERT
  5
7F77
  8
3
  6
CONTINUOUS
 62
     0
  2
_OPEN
 10
1077.1739700000001
 20
2639.748521
 30
0.0
 41
60.0
 42
60.0
 43
60.0
 50
90.0
  0
TEXT
  8
3
  40
90
  5
7FA1
  62
0
  72
0
  71
0
 10
822.174
 20
2259.73
 30
0.000000
  1
76
  0
POINT
  5
7F79
  8
DEFPOINTS
  6
CONTINUOUS
 62
     0
 10
1584.9154329999999
 20
2715.748521
 30
0.0
  0
POINT
  5
7F7A
  8
DEFPOINTS
  6
CONTINUOUS
 62
     0
 10
1434.9154329999999
 20
2639.748521
 30
0.0
  0
POINT
  5
7F7B
  8
DEFPOINTS
  6
CONTINUOUS
 62
     0
 10
1077.1739700000001
 20
2639.748521
 30
0.0
  0
ENDBLK
  5
7DDD
  8
0
  0
BLOCK
  8
0
  2
*D14
 70
     1
 10
0.0
 20
0.0
 30
0.0
  3
*D14
  1

  0
LINE
  5
7F7C
  8
3
  6
CONTINUOUS
 62
     0
 10
3149.9154329999992
 20
6134.6038930000004
 30
0.0
 11
3474.11825
 21
6134.6038930000004
 31
0.0
  0
LINE
  5
7F7D
  8
3
  6
CONTINUOUS
 62
     0
 10
3149.9154329999992
 20
5184.6038930000004
 30
0.0
 11
3474.11825
 21
5184.6038930000004
 31
0.0
  0
LINE
  5
7F7E
  8
3
  6
CONTINUOUS
 62
     0
 10
3444.1182500000009
 20
6074.6038929999986
 30
0.0
 11
3444.1182500000009
 21
5244.6038929999986
 31
0.0
  0
INSERT
  5
7F7F
  8
3
  6
CONTINUOUS
 62
     0
  2
_OPEN
 10
3444.1182500000009
 20
6134.6038930000004
 30
0.0
 41
60.0
 42
60.0
 43
60.0
 50
90.0
  0
INSERT
  5
7F80
  8
3
  6
CONTINUOUS
 62
     0
  2
_OPEN
 10
3444.1182500000009
 20
5184.6038930000004
 30
0.0
 41
60.0
 42
60.0
 43
60.0
 50
270.0
  0
TEXT
  8
3
  40
90
  5
7FA2
  62
0
  72
0
  71
0
 10
3189.12
 20
5538.77
 30
0.000000
  1
950
  0
POINT
  5
7F82
  8
DEFPOINTS
  6
CONTINUOUS
 62
     0
 10
3134.9154329999992
 20
6134.6038930000004
 30
0.0
  0
POINT
  5
7F83
  8
DEFPOINTS
  6
CONTINUOUS
 62
     0
 10
3134.9154329999992
 20
5184.6038930000004
 30
0.0
  0
POINT
  5
7F84
  8
DEFPOINTS
  6
CONTINUOUS
 62
     0
 10
3444.1182500000009
 20
5184.6038930000004
 30
0.0
  0
ENDBLK
  5
7D72
  8
0
  0
BLOCK
  8
0
  2
*D15
 70
     1
 10
0.0
 20
0.0
 30
0.0
  3
*D15
  1

  0
LINE
  5
7F85
  8
3
  6
CONTINUOUS
 62
     0
 10
4832.2371780000003
 20
2384.5154019999991
 30
0.0
 11
4832.2371780000003
 21
2338.2703099999999
 31
0.0
  0
LINE
  5
7F86
  8
3
  6
CONTINUOUS
 62
     0
 10
4247.2371780000003
 20
2624.748521
 30
0.0
 11
4247.2371780000003
 21
2338.2703099999999
 31
0.0
  0
LINE
  5
7F87
  8
3
  6
CONTINUOUS
 62
     0
 10
4772.2371780000003
 20
2368.2703099999999
 30
0.0
 11
4307.2371780000003
 21
2368.2703099999999
 31
0.0
  0
INSERT
  5
7F88
  8
3
  6
CONTINUOUS
 62
     0
  2
_OPEN
 10
4832.2371780000003
 20
2368.2703099999999
 30
0.0
 41
60.0
 42
60.0
 43
60.0
  0
INSERT
  5
7F89
  8
3
  6
CONTINUOUS
 62
     0
  2
_OPEN
 10
4247.2371780000003
 20
2368.2703099999999
 30
0.0
 41
60.0
 42
60.0
 43
60.0
 50
180.0
  0
TEXT
  8
3
  40
90
  5
7FA3
  62
0
  72
0
  71
0
 10
4359.74
 20
2283.97
 30
0.000000
  1
585
  0
POINT
  5
7F8B
  8
DEFPOINTS
  6
CONTINUOUS
 62
     0
 10
4832.2371780000003
 20
2399.515402
 30
0.0
  0
POINT
  5
7F8C
  8
DEFPOINTS
  6
CONTINUOUS
 62
     0
 10
4247.2371780000003
 20
2639.748521
 30
0.0
  0
POINT
  5
7F8D
  8
DEFPOINTS
  6
CONTINUOUS
 62
     0
 10
4247.2371780000003
 20
2368.2703099999999
 30
0.0
  0
ENDBLK
  5
7E36
  8
0
  0
BLOCK
  8
0
  2
*D16
 70
     1
 10
0.0
 20
0.0
 30
0.0
  3
*D16
  1

  0
LINE
  5
7F8E
  8
3
 62
     0
 10
2536.9154330000001
 20
3341.748521
 30
0.0
 11
2536.9154330000001
 21
4361.3486589999993
 31
0.0
  0
LINE
  5
7F8F
  8
3
 62
     0
 10
2074.9154330000001
 20
4331.3486590000002
 30
0.0
 11
2476.9154330000001
 21
4331.3486590000002
 31
0.0
  0
INSERT
  5
7F90
  8
3
 62
     0
  2
_OPEN
 10
2014.9154329999999
 20
4331.3486590000002
 30
0.0
 41
60.0
 42
60.0
 43
60.0
 50
180.0
  0
INSERT
  5
7F91
  8
3
 62
     0
  2
_OPEN
 10
2536.9154330000001
 20
4331.3486590000002
 30
0.0
 41
60.0
 42
60.0
 43
60.0
  0
TEXT
  8
3
  40
90
  5
7FA4
  62
0
  72
0
  71
0
 10
2095.92
 20
4247.05
 30
0.000000
  1
522
  0
POINT
  5
7F93
  8
DEFPOINTS
 62
     0
 10
2014.9154329999999
 20
4260.4721090000012
 30
0.0
  0
POINT
  5
7F94
  8
DEFPOINTS
 62
     0
 10
2536.9154330000001
 20
3326.748521
 30
0.0
  0
POINT
  5
7F95
  8
DEFPOINTS
 62
     0
 10
2536.9154330000001
 20
4331.3486590000002
 30
0.0
  0
ENDBLK
  5
7DF4
  8
0
  0
ENDSEC
  0
SECTION
  2
ENTITIES
  0
LINE
  5
7AD6
  8
1
  6
CONTINUOUS
 10
1484.9154329999999
 20
4139.7485210000004
 30
0.0
 11
1484.9154329999999
 21
2689.748521
 31
0.0
  0
LINE
  5
7AD7
  8
1
  6
CONTINUOUS
 10
3084.9154329999992
 20
2689.748521
 30
0.0
 11
3084.9154329999992
 21
4139.7485210000004
 31
0.0
  0
LINE
  5
7AD8
  8
1
  6
CONTINUOUS
 10
1434.9154329999999
 20
4189.7485210000013
 30
0.0
 11
1434.9154329999999
 21
2639.748521
 31
0.0
  0
LINE
  5
7AD9
  8
1
  6
CONTINUOUS
 10
3134.9154329999992
 20
2639.748521
 30
0.0
 11
3134.9154329999992
 21
4189.7485210000013
 31
0.0
  0
LINE
  5
7ADC
  8
1
  6
CONTINUOUS
 10
5147.2371780000012
 20
2689.748521
 30
0.0
 11
5147.2371780000012
 21
4139.7485210000004
 31
0.0
  0
LINE
  5
7ADD
  8
1
  6
CONTINUOUS
 10
4297.2371780000003
 20
4139.7485210000004
 30
0.0
 11
4297.2371780000003
 21
2689.748521
 31
0.0
  0
LINE
  5
7AEE
  8
1
  6
CONTINUOUS
 10
1484.9154329999999
 20
2689.748521
 30
0.0
 11
3084.9154329999992
 21
2689.748521
 31
0.0
  0
LINE
  5
7AEF
  8
1
  6
CONTINUOUS
 10
1434.9154329999999
 20
2639.748521
 30
0.0
 11
3134.9154329999992
 21
2639.748521
 31
0.0
  0
LINE
  5
7AF1
  8
1
  6
CONTINUOUS
 10
2714.6325459999998
 20
2938.589931
 30
0.0
 11
1975.2933479999999
 21
3141.0761649999999
 31
0.0
  0
LINE
  5
7AF2
  8
1
  6
CONTINUOUS
 10
2770.5217440000001
 20
3087.803512
 30
0.0
 11
2080.0855949999991
 21
3420.8516289999989
 31
0.0
  0
CIRCLE
  5
7AF3
  8
1
  6
CONTINUOUS
 10
2014.9154329999999
 20
3285.748521
 30
0.0
 40
150.0
  0
ARC
  5
7AF5
  8
1
  6
CONTINUOUS
 10
2049.9154329999992
 20
3320.748521
 30
0.0
 40
488.25444700000003
 50
262.64762100000002
 51
355.48601200000002
  0
ARC
  5
7AF6
  8
1
  6
CONTINUOUS
 10
1973.915432999999
 20
3326.748521
 30
0.0
 40
564.49092099999984
 50
355.48601200000002
 51
85.834835999999996
  0
LINE
  5
7AF7
  8
1
  6
CONTINUOUS
 10
2944.9154330000001
 20
3115.748521
 30
0.0
 11
2114.9154329999992
 21
3815.7485209999991
 31
0.0
  0
LINE
  5
7AF8
  8
1
  6
CONTINUOUS
 10
2994.9154330000001
 20
2715.748521
 30
0.0
 11
1584.9154329999999
 21
2715.748521
 31
0.0
  0
LINE
  5
7AF9
  8
1
  6
CONTINUOUS
 10
1572.9154329999999
 20
2815.748521
 30
0.0
 11
2994.9154330000001
 21
2815.748521
 31
0.0
  0
LINE
  5
7AFA
  8
1
  6
CONTINUOUS
 10
1572.9154329999999
 20
3727.748521
 30
0.0
 11
2456.9154329999992
 21
3727.748521
 31
0.0
  0
LINE
  5
7AFC
  8
1
  6
CONTINUOUS
 10
1584.9154329999999
 20
2715.748521
 30
0.0
 11
1584.9154329999999
 21
2815.748521
 31
0.0
  0
LINE
  5
7AFD
  8
1
  6
CONTINUOUS
 10
1559.9154329999999
 20
3255.748521
 30
0.0
 11
1559.9154329999999
 21
3904.4289330000001
 31
0.0
  0
LINE
  5
7AFE
  8
2
  6
CENTER
 10
2014.9154329999999
 20
6247.2973849999998
 30
0.0
 11
2014.9154329999999
 21
5186.7775080000001
 31
0.0
  0
LINE
  5
7AFF
  8
1
  6
CONTINUOUS
 10
1674.9154329999999
 20
2815.748521
 30
0.0
 11
1674.9154329999999
 21
3815.7485209999991
 31
0.0
  0
LINE
  5
7B00
  8
1
  6
CONTINUOUS
 10
1572.9154329999999
 20
3727.748521
 30
0.0
 11
1572.9154329999999
 21
2815.748521
 31
0.0
  0
LINE
  5
7B01
  8
1
  6
CONTINUOUS
 10
1529.9154329999999
 20
3215.748521
 30
0.0
 11
1529.9154329999999
 21
3945.748521
 31
0.0
  0
ARC
  5
7B02
  8
1
  6
CONTINUOUS
 10
2041.915432999999
 20
3258.7485209999991
 30
0.0
 40
425.74044800000001
 50
180.403741
 51
262.64762100000002
  0
LINE
  5
7B03
  8
1
  6
CONTINUOUS
 10
1616.185553999999
 20
3255.748521
 30
0.0
 11
1529.9154329999999
 21
3255.748521
 31
0.0
  0
LINE
  5
7B04
  8
1
  6
CONTINUOUS
 10
1529.9154329999999
 20
3905.748521
 30
0.0
 11
2014.9154329999999
 21
3889.7485209999991
 31
0.0
  0
LINE
  5
7B05
  8
1
  6
CONTINUOUS
 10
1674.9154329999999
 20
3815.7485209999991
 30
0.0
 11
2114.9154329999992
 21
3815.7485209999991
 31
0.0
  0
LINE
  5
7B07
  8
1
  6
CONTINUOUS
 10
2994.9154330000001
 20
2815.748521
 30
0.0
 11
2994.9154330000001
 21
2715.748521
 31
0.0
  0
LINE
  5
7B08
  8
1
  6
CONTINUOUS
 10
2456.9154329999992
 20
3727.748521
 30
0.0
 11
2456.9154329999992
 21
2815.748521
 31
0.0
  0
LINE
  5
7B09
  8
1
  6
CONTINUOUS
 10
2581.7643239999989
 20
2855.748521
 30
0.0
 11
2889.7643239999989
 21
2855.748521
 31
0.0
  0
ARC
  5
7B0A
  8
1
  6
CONTINUOUS
 10
2735.7643239999989
 20
3015.748521
 30
0.0
 40
162.0
 50
324.972283
 51
215.02771699999991
  0
LINE
  5
7B0B
  8
1
  6
CONTINUOUS
 10
2581.7643239999989
 20
2815.748521
 30
0.0
 11
2581.7643239999989
 21
2873.7485209999991
 31
0.0
  0
LINE
  5
7B0C
  8
1
  6
CONTINUOUS
 10
2581.7643239999989
 20
2873.7485209999991
 30
0.0
 11
2603.106659
 21
2922.7649539999989
 31
0.0
  0
LINE
  5
7B0D
  8
2
  6
CENTER
 10
2655.7643239999989
 20
3015.748521
 30
0.0
 11
2815.7643239999989
 21
3015.748521
 31
0.0
  0
LINE
  5
7B0E
  8
2
  6
CENTER
 10
2735.7643239999989
 20
3095.748521
 30
0.0
 11
2735.7643239999989
 21
2935.748521
 31
0.0
  0
LINE
  5
7B0F
  8
1
  6
CONTINUOUS
 10
2889.7643239999989
 20
2815.748521
 30
0.0
 11
2889.7643239999989
 21
2873.7485209999991
 31
0.0
  0
LINE
  5
7B10
  8
1
  6
CONTINUOUS
 10
2889.7643239999989
 20
2855.748521
 30
0.0
 11
2889.7643239999989
 21
2873.7485209999991
 31
0.0
  0
LINE
  5
7B11
  8
1
  6
CONTINUOUS
 10
2944.9154330000001
 20
2815.748521
 30
0.0
 11
2944.9154330000001
 21
3115.748521
 31
0.0
  0
LINE
  5
7B12
  8
1
  6
CONTINUOUS
 10
2889.7643239999989
 20
2873.7485209999991
 30
0.0
 11
2868.4219899999989
 21
2922.7649539999989
 31
0.0
  0
CIRCLE
  5
7B13
  8
1
  6
CONTINUOUS
 10
2735.7643239999989
 20
3015.748521
 30
0.0
 40
80.0
  0
LINE
  5
7B32
  8
1
  6
CONTINUOUS
 10
4421.2371780000012
 20
2815.748521
 30
0.0
 11
4421.2371780000012
 21
2715.748521
 31
0.0
  0
LINE
  5
7B33
  8
1
  6
CONTINUOUS
 10
5121.2371780000012
 20
2815.748521
 30
0.0
 11
5121.2371780000012
 21
2715.748521
 31
0.0
  0
LINE
  5
7B34
  8
1
  6
CONTINUOUS
 10
4297.2371780000003
 20
2689.748521
 30
0.0
 11
5147.2371780000012
 21
2689.748521
 31
0.0
  0
LINE
  5
7B35
  8
1
  6
CONTINUOUS
 10
4421.2371780000012
 20
2715.748521
 30
0.0
 11
5121.2371780000012
 21
2715.748521
 31
0.0
  0
LINE
  5
7B38
  8
1
  6
CONTINUOUS
 10
4421.2371780000012
 20
2815.748521
 30
0.0
 11
5121.2371780000012
 21
2815.748521
 31
0.0
  0
LINE
  5
7B39
  8
1
  6
CONTINUOUS
 10
4594.7371780000003
 20
3905.748521
 30
0.0
 11
5069.7371780000003
 21
3905.748521
 31
0.0
  0
LINE
  5
7B3A
  8
1
  6
CONTINUOUS
 10
4594.7371780000003
 20
3255.748521
 30
0.0
 11
5069.7371780000003
 21
3255.748521
 31
0.0
  0
LINE
  5
7B3B
  8
1
  6
CONTINUOUS
 10
5069.7371780000003
 20
3905.748521
 30
0.0
 11
4594.7371780000003
 21
3255.748521
 31
0.0
  0
LINE
  5
7B3C
  8
1
  6
CONTINUOUS
 10
4594.7371780000003
 20
3905.748521
 30
0.0
 11
5069.7371780000003
 21
3255.748521
 31
0.0
  0
LINE
  5
7B3D
  8
1
  6
CONTINUOUS
 10
4594.7371780000003
 20
3905.748521
 30
0.0
 11
4594.7371780000003
 21
2815.748521
 31
0.0
  0
LINE
  5
7B3E
  8
1
  6
CONTINUOUS
 10
4352.2371780000012
 20
3815.7485209999991
 30
0.0
 11
4352.2371780000012
 21
2815.748521
 31
0.0
  0
LINE
  5
7B3F
  8
1
  6
CONTINUOUS
 10
4492.2371780000003
 20
3815.7485209999991
 30
0.0
 11
4492.2371780000003
 21
2815.748521
 31
0.0
  0
LINE
  5
7B40
  8
1
  6
CONTINUOUS
 10
4387.2371780000003
 20
3435.748521
 30
0.0
 11
4387.2371780000003
 21
3135.748521
 31
0.0
  0
LINE
  5
7B41
  8
1
  6
CONTINUOUS
 10
4457.2371780000003
 20
3435.748521
 30
0.0
 11
4457.2371780000003
 21
3135.748521
 31
0.0
  0
LINE
  5
7B42
  8
1
  6
CONTINUOUS
 10
4387.2371780000003
 20
3135.748521
 30
0.0
 11
4457.2371780000003
 21
3135.748521
 31
0.0
  0
LINE
  5
7B43
  8
1
  6
CONTINUOUS
 10
4387.2371780000003
 20
2935.748521
 30
0.0
 11
4457.2371780000003
 21
2935.748521
 31
0.0
  0
LINE
  5
7B44
  8
1
  6
CONTINUOUS
 10
4387.2371780000003
 20
3095.748521
 30
0.0
 11
4457.2371780000003
 21
3095.748521
 31
0.0
  0
LINE
  5
7B45
  8
1
  6
CONTINUOUS
 10
4352.2371780000012
 20
2815.748521
 30
0.0
 11
4421.2371780000012
 21
2815.748521
 31
0.0
  0
LINE
  5
7B46
  8
1
  6
CONTINUOUS
 10
4387.2371780000003
 20
3095.748521
 30
0.0
 11
4387.2371780000003
 21
2935.748521
 31
0.0
  0
LINE
  5
7B47
  8
1
  6
CONTINUOUS
 10
4457.2371780000003
 20
3264.748521
 30
0.0
 11
4594.7371780000003
 21
3264.748521
 31
0.0
  0
LINE
  5
7B48
  8
1
  6
CONTINUOUS
 10
4457.2371780000003
 20
3306.748521
 30
0.0
 11
4594.7371780000003
 21
3306.748521
 31
0.0
  0
LINE
  5
7B49
  8
1
  6
CONTINUOUS
 10
4457.2371780000003
 20
2994.7485209999991
 30
0.0
 11
4594.7371780000003
 21
2994.7485209999991
 31
0.0
  0
LINE
  5
7B4A
  8
1
  6
CONTINUOUS
 10
4457.2371780000003
 20
3036.748521
 30
0.0
 11
4594.7371780000003
 21
3036.748521
 31
0.0
  0
LINE
  5
7B4B
  8
1
  6
CONTINUOUS
 10
4457.2371780000003
 20
3095.748521
 30
0.0
 11
4457.2371780000003
 21
2935.748521
 31
0.0
  0
LINE
  5
7B4C
  8
1
  6
CONTINUOUS
 10
4492.2371780000003
 20
3815.7485209999991
 30
0.0
 11
4352.2371780000012
 21
3815.7485209999991
 31
0.0
  0
LINE
  5
7B4D
  8
1
  6
CONTINUOUS
 10
4387.2371780000003
 20
3435.748521
 30
0.0
 11
4457.2371780000003
 21
3435.748521
 31
0.0
  0
LINE
  5
7B4E
  8
1
  6
CONTINUOUS
 10
5069.7371780000003
 20
3905.748521
 30
0.0
 11
5069.7371780000003
 21
2815.748521
 31
0.0
  0
LINE
  5
7B5C
  8
1
  6
CONTINUOUS
 10
3084.9154329999992
 20
5234.6038930000004
 30
0.0
 11
1484.9154329999999
 21
5234.6038930000004
 31
0.0
  0
LINE
  5
7B5D
  8
1
  6
CONTINUOUS
 10
1484.9154329999999
 20
6084.6038930000004
 30
0.0
 11
3084.9154329999992
 21
6084.6038930000004
 31
0.0
  0
LINE
  5
7B5E
  8
1
  6
CONTINUOUS
 10
3134.9154329999992
 20
5184.6038930000004
 30
0.0
 11
1434.9154329999999
 21
5184.6038930000004
 31
0.0
  0
LINE
  5
7B5F
  8
1
  6
CONTINUOUS
 10
1434.9154329999999
 20
6134.6038930000004
 30
0.0
 11
3134.9154329999992
 21
6134.6038930000004
 31
0.0
  0
LINE
  5
7B60
  8
1
  6
CONTINUOUS
 10
3084.9154329999992
 20
4139.7485210000004
 30
0.0
 11
1484.9154329999999
 21
4139.7485210000004
 31
0.0
  0
LINE
  5
7B61
  8
1
  6
CONTINUOUS
 10
3134.9154329999992
 20
4189.7485210000013
 30
0.0
 11
1434.9154329999999
 21
4189.7485210000013
 31
0.0
  0
LINE
  5
7B62
  8
1
  6
CONTINUOUS
 10
1584.9154329999999
 20
6058.6038929999986
 30
0.0
 11
2994.9154330000001
 21
6058.6038929999986
 31
0.0
  0
LINE
  5
7B63
  8
1
  6
CONTINUOUS
 10
1529.9154329999999
 20
5532.1038929999986
 30
0.0
 11
2538.4063540000002
 21
5532.1038929999986
 31
0.0
  0
LINE
  5
7B64
  8
1
  6
CONTINUOUS
 10
1529.9154329999999
 20
6007.1038930000004
 30
0.0
 11
2538.4063540000002
 21
6007.1038930000004
 31
0.0
  0
LINE
  5
7B65
  8
1
  6
CONTINUOUS
 10
2164.9154330000001
 20
5324.6038929999986
 30
0.0
 11
1864.9154329999999
 21
5324.6038929999986
 31
0.0
  0
LINE
  5
7B66
  8
1
  6
CONTINUOUS
 10
2164.9154330000001
 20
5394.6038929999986
 30
0.0
 11
1864.9154329999999
 21
5394.6038929999986
 31
0.0
  0
LINE
  5
7B67
  8
1
  6
CONTINUOUS
 10
1674.9154329999999
 20
5429.6038929999986
 30
0.0
 11
2944.9154330000001
 21
5429.6038929999986
 31
0.0
  0
LINE
  5
7B68
  8
1
  6
CONTINUOUS
 10
1674.9154329999999
 20
5289.6038929999986
 30
0.0
 11
2944.9154330000001
 21
5289.6038929999986
 31
0.0
  0
LINE
  5
7B69
  8
1
  6
CONTINUOUS
 10
1484.9154329999999
 20
5234.6038930000004
 30
0.0
 11
1484.9154329999999
 21
6084.6038930000004
 31
0.0
  0
LINE
  5
7B6A
  8
1
  6
CONTINUOUS
 10
1434.9154329999999
 20
5184.6038930000004
 30
0.0
 11
1434.9154329999999
 21
6134.6038930000004
 31
0.0
  0
LINE
  5
7B6B
  8
1
  6
CONTINUOUS
 10
1569.9154329999999
 20
5532.1038929999986
 30
0.0
 11
1569.9154329999999
 21
6007.1038930000004
 31
0.0
  0
LINE
  5
7B6C
  8
1
  6
CONTINUOUS
 10
1529.9154329999999
 20
5489.6038929999986
 30
0.0
 11
1529.9154329999999
 21
6049.6038930000004
 31
0.0
  0
LINE
  5
7B6D
  8
1
  6
CONTINUOUS
 10
1864.9154329999999
 20
5358.6038929999986
 30
0.0
 11
1584.9154329999999
 21
5358.6038929999986
 31
0.0
  0
LINE
  5
7B6E
  8
1
  6
CONTINUOUS
 10
1584.9154329999999
 20
5358.6038929999986
 30
0.0
 11
1584.9154329999999
 21
5532.1038929999986
 31
0.0
  0
LINE
  5
7B6F
  8
1
  6
CONTINUOUS
 10
1993.9154329999999
 20
5394.6038929999986
 30
0.0
 11
1993.9154329999999
 21
5532.1038929999986
 31
0.0
  0
LINE
  5
7B70
  8
1
  6
CONTINUOUS
 10
2035.915432999999
 20
5394.6038929999986
 30
0.0
 11
2035.915432999999
 21
5532.1038929999986
 31
0.0
  0
LINE
  5
7B71
  8
1
  6
CONTINUOUS
 10
1674.9154329999999
 20
5289.6038929999986
 30
0.0
 11
1674.9154329999999
 21
5429.6038929999986
 31
0.0
  0
LINE
  5
7B72
  8
1
  6
CONTINUOUS
 10
1864.9154329999999
 20
5324.6038929999986
 30
0.0
 11
1864.9154329999999
 21
5394.6038929999986
 31
0.0
  0
LINE
  5
7B73
  8
1
  6
CONTINUOUS
 10
1584.9154329999999
 20
6007.1038930000004
 30
0.0
 11
1584.9154329999999
 21
6058.6038929999986
 31
0.0
  0
LINE
  5
7B74
  8
1
  6
CONTINUOUS
 10
3084.9154329999992
 20
6084.6038930000004
 30
0.0
 11
3084.9154329999992
 21
5234.6038930000004
 31
0.0
  0
LINE
  5
7B75
  8
1
  6
CONTINUOUS
 10
3134.9154329999992
 20
6134.6038930000004
 30
0.0
 11
3134.9154329999992
 21
5184.6038930000004
 31
0.0
  0
LINE
  5
7B79
  8
1
  6
CONTINUOUS
 10
2538.4063540000002
 20
5532.1038929999986
 30
0.0
 11
2538.4063540000002
 21
6007.1038930000004
 31
0.0
  0
LINE
  5
7B7A
  8
1
  6
CONTINUOUS
 10
2994.9154330000001
 20
6058.6038929999986
 30
0.0
 11
2994.9154330000001
 21
5358.6038929999986
 31
0.0
  0
LINE
  5
7B7B
  8
1
  6
CONTINUOUS
 10
2655.7643239999989
 20
5358.6038929999986
 30
0.0
 11
2164.9154330000001
 21
5358.6038929999986
 31
0.0
  0
LINE
  5
7B7C
  8
1
  6
CONTINUOUS
 10
2897.7643240000002
 20
5461.3358100000014
 30
0.0
 11
2573.7643239999989
 21
5461.3358100000014
 31
0.0
  0
LINE
  5
7B7D
  8
1
  6
CONTINUOUS
 10
2897.7643240000002
 20
5946.3358099999996
 30
0.0
 11
2573.7643239999989
 21
5946.3358099999996
 31
0.0
  0
LINE
  5
7B7E
  8
1
  6
CONTINUOUS
 10
2164.9154330000001
 20
5324.6038929999986
 30
0.0
 11
2164.9154330000001
 21
5394.6038929999986
 31
0.0
  0
LINE
  5
7B7F
  8
1
  6
CONTINUOUS
 10
2573.7643239999989
 20
5461.3358100000014
 30
0.0
 11
2573.7643239999989
 21
5946.3358099999996
 31
0.0
  0
LINE
  5
7B80
  8
1
  6
CONTINUOUS
 10
2573.7643239999989
 20
5783.0522579999997
 30
0.0
 11
2573.7643239999989
 21
5540.8052180000004
 31
0.0
  0
LINE
  5
7B81
  8
1
  6
CONTINUOUS
 10
2944.9154330000001
 20
5289.6038929999986
 30
0.0
 11
2944.9154330000001
 21
5429.6038929999986
 31
0.0
  0
LINE
  5
7B82
  8
1
  6
CONTINUOUS
 10
2815.7643239999989
 20
5394.6038929999986
 30
0.0
 11
2655.7643239999989
 21
5394.6038929999986
 31
0.0
  0
LINE
  5
7B83
  8
1
  6
CONTINUOUS
 10
2815.7643239999989
 20
5324.6038929999986
 30
0.0
 11
2655.7643239999989
 21
5324.6038929999986
 31
0.0
  0
LINE
  5
7B84
  8
1
  6
CONTINUOUS
 10
2655.7643239999989
 20
5324.6038929999986
 30
0.0
 11
2655.7643239999989
 21
5394.6038929999986
 31
0.0
  0
LINE
  5
7B85
  8
1
  6
CONTINUOUS
 10
2815.7643239999989
 20
5324.6038929999986
 30
0.0
 11
2815.7643239999989
 21
5394.6038929999986
 31
0.0
  0
LINE
  5
7B86
  8
1
  6
CONTINUOUS
 10
2897.7643240000002
 20
5461.3358100000014
 30
0.0
 11
2897.7643240000002
 21
5946.3358099999996
 31
0.0
  0
LINE
  5
7B87
  8
1
  6
CONTINUOUS
 10
2756.7643240000002
 20
5394.6038929999986
 30
0.0
 11
2756.7643240000002
 21
5461.3358100000014
 31
0.0
  0
LINE
  5
7B88
  8
1
  6
CONTINUOUS
 10
2714.7643239999989
 20
5394.6038929999986
 30
0.0
 11
2714.7643239999989
 21
5461.3358100000014
 31
0.0
  0
LINE
  5
7B89
  8
1
  6
CONTINUOUS
 10
2994.9154330000001
 20
5358.6038929999986
 30
0.0
 11
2815.7643239999989
 21
5358.6038929999986
 31
0.0
  0
LINE
  5
7BA6
  8
1
  6
CONTINUOUS
 10
5147.2371780000012
 20
4139.7485210000004
 30
0.0
 11
4297.2371780000003
 21
4139.7485210000004
 31
0.0
  0
LINE
  5
7BA7
  8
2
  6
CENTER
 10
4832.2371780000003
 20
4243.3718100000006
 30
0.0
 11
4832.2371780000003
 21
2399.515402
 31
0.0
  0
LINE
  5
7BA8
  8
2
  6
CENTER
 10
3193.373564
 20
5769.6038929999986
 30
0.0
 11
1305.0326460000001
 21
5769.6038929999986
 31
0.0
  0
LINE
  5
7BA9
  8
2
  6
CENTER
 10
2014.9154329999999
 20
4260.4721090000012
 30
0.0
 11
2014.9154329999999
 21
2419.708607
 31
0.0
  0
LINE
  5
7BAA
  8
2
  6
CENTER
 10
4253.6724450000002
 20
3285.748521
 30
0.0
 11
5243.9511510000002
 21
3285.748521
 31
0.0
  0
LINE
  5
7BAB
  8
4
  6
CONTINUOUS
 10
5550.0
 20
1500.0
 30
0.0
 11
5550.0
 21
900.0
 31
0.0
  0
LINE
  5
7BAC
  8
4
  6
CONTINUOUS
 10
3450.0
 20
1500.0
 30
0.0
 11
3450.0
 21
900.0
 31
0.0
  0
LINE
  5
7BAD
  8
4
  6
CONTINUOUS
 10
1950.0
 20
1500.0
 30
0.0
 11
1950.0
 21
900.0
 31
0.0
  0
LINE
  5
7BB0
  8
4
  6
CONTINUOUS
 10
1950.0
 20
900.0
 30
0.0
 11
5550.0
 21
900.0
 31
0.0
  0
LINE
  5
7BB1
  8
4
  6
CONTINUOUS
 10
1950.0
 20
1200.0
 30
0.0
 11
5550.0
 21
1200.0
 31
0.0
  0
TEXT
  5
7BB2
  8
4
  6
CONTINUOUS
 10
2065.5062429999989
 20
1294.6290779999999
 30
0.0
 40
150.0
  1
機器名称
  0
TEXT
  5
7BB3
  8
4
  6
CONTINUOUS
 10
2058.7743179999989
 20
964.9354699999999
 30
0.0
 40
150.0
  1
機器型番
  0
TEXT
  5
7BB4
  8
4
  6
CONTINUOUS
 10
3533.0362359999999
 20
1267.7153069999999
 30
0.0
 40
150.0
  1
ミツヤ多翼送風機
  0
TEXT
  5
7BB5
  8
4
  6
CONTINUOUS
 10
3559.9634869999991
 20
951.47875299999987
 30
0.0
 40
150.0
  1
MF#4-4
  0
TEXT
  5
7BB7
  8
4
  6
CONTINUOUS
 10
2165.447705
 20
7150.2865239999992
 30
0.0
 40
162.0
  1
天井吊枠防振ベット
  0
TEXT
  5
7BB8
  8
4
  6
CONTINUOUS
 10
948.50278000000014
 20
7601.6429289999996
 30
0.0
 40
216.0
  1
ベルト駆動式片吸込両持多翼ファン
  0
LINE
  5
7BB9
  8
4
  6
CONTINUOUS
 10
750.0
 20
7408.2262629999996
 30
0.0
 11
5550.0
 21
7408.2262629999996
 31
0.0
  0
LINE
  5
7BBA
  8
4
  6
CONTINUOUS
 10
750.0
 20
8008.2262629999996
 30
0.0
 11
5550.0
 21
8008.2262629999996
 31
0.0
  0
LINE
  5
7BBB
  8
4
  6
CONTINUOUS
 10
1950.0
 20
1500.0
 30
0.0
 11
5550.0
 21
1500.0
 31
0.0
  0
LINE
  5
7BBC
  8
4
  6
CONTINUOUS
 10
750.0
 20
8008.2262629999996
 30
0.0
 11
750.0
 21
7408.2262629999996
 31
0.0
  0
TEXT
  5
7BBD
  8
4
  6
CONTINUOUS
 10
857.87120800000002
 20
7146.9584329999998
 30
0.0
 40
162.0
  1
左回転左横向
  0
TEXT
  5
7BBE
  8
4
  6
CONTINUOUS
 10
4406.9086779999989
 20
8118.1832439999989
 30
0.0
 40
168.0
  1
No.
  0
TEXT
  5
7BBF
  8
4
  6
CONTINUOUS
 10
4198.8790239999998
 20
7150.2865239999992
 30
0.0
 40
162.0
  1
縮尺：1/30
  0
LINE
  5
7BC0
  8
4
  6
CONTINUOUS
 10
5550.0
 20
8008.2262629999996
 30
0.0
 11
5550.0
 21
7408.2262629999996
 31
0.0
  0
LINE
  5
7BC2
  8
4
  6
CONTINUOUS
 10
4321.8522670000002
 20
8043.7907490000007
 30
0.0
 11
4321.8522670000002
 21
8359.9567849999985
 31
0.0
  0
LINE
  5
7BC3
  8
4
  6
CONTINUOUS
 10
4321.8522670000002
 20
8359.9567849999985
 30
0.0
 11
5550.0
 21
8359.9567849999985
 31
0.0
  0
LINE
  5
7BC4
  8
4
  6
CONTINUOUS
 10
5550.0
 20
8359.9567849999985
 30
0.0
 11
5550.0
 21
8043.7907490000007
 31
0.0
  0
LINE
  5
7BC5
  8
4
  6
CONTINUOUS
 10
5550.0
 20
8043.7907490000007
 30
0.0
 11
4321.8522670000002
 21
8043.7907490000007
 31
0.0
  0
DIMENSION
  5
7BDD
  8
3
  6
CONTINUOUS
  2
*D1
 10
1295.137252
 20
3255.748521
 30
0.0
 11
1295.1372519999991
 21
3567.0377170000002
 31
0.0
 70
   128
 13
1529.9154329999999
 23
3905.748521
 33
0.0
 14
1529.9154329999999
 24
3255.748521
 34
0.0
 50
90.0
1001
ACAD
1000
DSTYLE
1002
{
1070
   287
1070
     3
1070
   287
1070
     3
1070
    40
1040
30.0
1070
   143
1040
0.039
1070
   172
1070
     1
1070
   271
1070
     0
1070
   279
1070
     0
1070
   288
1070
     1
1002
}
  0
DIMENSION
  5
7C21
  8
3
  6
CONTINUOUS
  2
*D2
 10
2014.9154329999999
 20
2367.2295260000001
 30
0.0
 11
1733.415422
 21
2367.2295260000001
 31
0.0
 70
   128
 13
1434.9154329999999
 23
2639.748521
 33
0.0
 14
2014.9154329999999
 24
2419.708607
 34
0.0
1001
ACAD
1000
DSTYLE
1002
{
1070
   287
1070
     3
1070
   287
1070
     3
1070
    40
1040
30.0
1070
   143
1040
0.039
1070
   172
1070
     1
1070
   271
1070
     0
1070
   279
1070
     0
1070
   288
1070
     1
1002
}
  0
DIMENSION
  5
7C2D
  8
3
  6
CONTINUOUS
  2
*D3
 10
3134.9154329999992
 20
2367.2295260000001
 30
0.0
 11
2574.9154330000001
 21
2442.2295260000001
 31
0.0
 70
     0
 13
2014.9154329999999
 23
2419.708607
 33
0.0
 14
3134.9154329999992
 24
2639.748521
 34
0.0
1001
ACAD
1000
DSTYLE
1002
{
1070
   287
1070
     4
1070
   287
1070
     4
1070
    40
1040
30.0
1070
    75
1070
     1
1070
   143
1040
0.039
1070
   172
1070
     1
1070
   271
1070
     0
1070
   279
1070
     1
1070
   288
1070
     1
1002
}
  0
DIMENSION
  5
7C3A
  8
3
  6
CONTINUOUS
  2
*D4
 10
2014.9154329999999
 20
4331.3486590000002
 30
0.0
 11
1773.2324679999999
 21
4331.3486590000002
 31
0.0
 70
   128
 13
1529.9154329999999
 23
3945.748521
 33
0.0
 14
2014.9154329999999
 24
4260.4721090000012
 34
0.0
1001
ACAD
1000
DSTYLE
1002
{
1070
   287
1070
     3
1070
   287
1070
     3
1070
    40
1040
30.0
1070
   143
1040
0.039
1070
   172
1070
     1
1070
   271
1070
     0
1070
   279
1070
     0
1070
   288
1070
     1
1002
}
  0
DIMENSION
  5
7C55
  8
3
  6
CONTINUOUS
  2
*D5
 10
5197.2371780000003
 20
2368.2703099999999
 30
0.0
 11
5002.8149149999999
 21
2368.6346359999989
 31
0.0
 70
   128
 13
4832.2371780000003
 23
2399.515402
 33
0.0
 14
5197.2371780000003
 24
2639.748521
 34
0.0
1001
ACAD
1000
DSTYLE
1002
{
1070
   287
1070
     4
1070
   287
1070
     4
1070
    40
1040
30.0
1070
    75
1070
     1
1070
   143
1040
0.039
1070
   172
1070
     1
1070
   271
1070
     0
1070
   279
1070
     1
1070
   288
1070
     1
1002
}
  0
DIMENSION
  5
7C63
  8
3
  6
CONTINUOUS
  2
*D6
 10
4594.7371780000003
 20
4236.3446719404274
 30
0.0
 11
4800.4514637142847
 21
4236.3446719404274
 31
0.0
 70
   128
 13
5069.7371780000003
 23
3905.748521
 33
0.0
 14
4594.7371780000003
 24
3905.748521
 34
0.0
1001
ACAD
1000
DSTYLE
1002
{
1070
   287
1070
     3
1070
   287
1070
     3
1070
    40
1040
30.0
1070
   143
1040
0.039
1070
   172
1070
     1
1070
   271
1070
     0
1070
   279
1070
     0
1070
   288
1070
     1
1002
}
  0
LINE
  5
7C64
  8
1
  6
CONTINUOUS
 10
5073.2371780000003
 20
3620.748521
 30
0.0
 11
5073.2371780000003
 21
2950.7485209999991
 31
0.0
  0
DIMENSION
  5
7C73
  8
3
  6
CONTINUOUS
  2
*D7
 10
5409.8555180000012
 20
2950.7485209999991
 30
0.0
 11
5409.8555180000003
 21
3297.0715519999999
 31
0.0
 70
   128
 13
5073.2371780000003
 23
3620.748521
 33
0.0
 14
5073.2371780000003
 24
2950.7485209999991
 34
0.0
 50
90.0
1001
ACAD
1000
DSTYLE
1002
{
1070
   287
1070
     3
1070
   287
1070
     3
1070
     3
1000
φ<>
1070
    40
1040
30.0
1070
   143
1040
0.039
1070
   172
1070
     1
1070
   271
1070
     0
1070
   279
1070
     0
1070
   288
1070
     1
1002
}
  0
DIMENSION
  5
7C81
  8
3
  6
CONTINUOUS
  2
*D8
 10
4832.2371780000003
 20
4509.1525756525989
 30
0.0
 11
4950.6370372723577
 21
4601.852386913004
 31
0.0
 70
   128
 13
5073.2371780000003
 23
3620.748521
 33
0.0
 14
4832.2371780000003
 24
4357.4514259999987
 34
0.0
1001
ACAD
1000
DSTYLE
1002
{
1070
   288
1070
     1
1070
   172
1070
     1
1070
    40
1040
30.0
1070
   271
1070
     0
1070
   143
1040
0.039
1002
}
  0
DIMENSION
  5
7C9A
  8
3
  6
CONTINUOUS
  2
*D9
 10
4082.163438000001
 20
2639.748521
 30
0.0
 11
4082.163438
 21
3343.4814079999992
 31
0.0
 70
   128
 13
4247.2371780000003
 23
4189.7485210000013
 33
0.0
 14
4247.2371780000003
 24
2639.748521
 34
0.0
 50
90.0
1001
ACAD
1000
DSTYLE
1002
{
1070
   287
1070
     3
1070
   287
1070
     3
1070
    40
1040
30.0
1070
   143
1040
0.039
1070
   172
1070
     1
1070
   271
1070
     0
1070
   279
1070
     0
1070
   288
1070
     1
1002
}
  0
DIMENSION
  5
7CA7
  8
3
  6
CONTINUOUS
  2
*D10
 10
3134.9154329999992
 20
6361.8049099999998
 30
0.0
 11
2264.3093149999991
 21
6361.8049099999998
 31
0.0
 70
   128
 13
1434.9154329999999
 23
6134.6038930000004
 33
0.0
 14
3134.9154329999992
 24
6134.6038930000004
 34
0.0
1001
ACAD
1000
DSTYLE
1002
{
1070
   287
1070
     3
1070
   287
1070
     3
1070
    40
1040
30.0
1070
   143
1040
0.039
1070
   172
1070
     1
1070
   271
1070
     0
1070
   279
1070
     0
1070
   288
1070
     1
1002
}
  0
LINE
  5
7D21
  8
2
  6
CENTER
 10
1371.9790760000001
 20
3285.748521
 30
0.0
 11
3193.400631999999
 21
3285.748521
 31
0.0
  0
DIMENSION
  5
7D2E
  8
3
  6
CONTINUOUS
  2
*D11
 10
1077.1739700000001
 20
3285.748521
 30
0.0
 11
1077.1739699999989
 21
3578.8945819999999
 31
0.0
 70
   128
 13
1529.9154329999999
 23
3905.748521
 33
0.0
 14
1529.9154329999999
 24
3285.748521
 34
0.0
 50
90.0
1001
ACAD
1000
DSTYLE
1002
{
1070
   287
1070
     3
1070
   287
1070
     3
1070
    40
1040
30.0
1070
   143
1040
0.039
1070
   172
1070
     1
1070
   271
1070
     0
1070
   279
1070
     0
1070
   288
1070
     1
1002
}
  0
DIMENSION
  5
7D3A
  8
3
  6
CONTINUOUS
  2
*D12
 10
1077.1739699999989
 20
2715.748521
 30
0.0
 11
1002.173969999999
 21
3000.748521
 31
0.0
 70
     0
 13
1529.9154329999999
 23
3285.748521
 33
0.0
 14
1584.9154329999999
 24
2715.748521
 34
0.0
 50
90.0
1001
ACAD
1000
DSTYLE
1002
{
1070
   287
1070
     4
1070
   287
1070
     4
1070
    40
1040
30.0
1070
    75
1070
     1
1070
   143
1040
0.039
1070
   172
1070
     1
1070
   271
1070
     0
1070
   279
1070
     1
1070
   288
1070
     1
1002
}
  0
DIMENSION
  5
7D4A
  8
3
  6
CONTINUOUS
  2
*D13
 10
1077.1739700000001
 20
2639.748521
 30
0.0
 11
1077.1739699999989
 21
2419.0342352857142
 31
0.0
 70
   128
 13
1584.9154329999999
 23
2715.748521
 33
0.0
 14
1434.9154329999999
 24
2639.748521
 34
0.0
 50
90.0
1001
ACAD
1000
DSTYLE
1002
{
1070
   287
1070
     3
1070
   287
1070
     3
1070
    40
1040
30.0
1070
   143
1040
0.039
1070
   172
1070
     1
1070
   271
1070
     0
1070
   279
1070
     0
1070
   288
1070
     1
1002
}
  0
DIMENSION
  5
7D73
  8
3
  6
CONTINUOUS
  2
*D14
 10
3444.1182500000009
 20
5184.6038930000004
 30
0.0
 11
3444.11825
 21
5698.0659820000001
 31
0.0
 70
   128
 13
3134.9154329999992
 23
6134.6038930000004
 33
0.0
 14
3134.9154329999992
 24
5184.6038930000004
 34
0.0
 50
90.0
1001
ACAD
1000
DSTYLE
1002
{
1070
   287
1070
     3
1070
   287
1070
     3
1070
    40
1040
30.0
1070
   143
1040
0.039
1070
   172
1070
     1
1070
   271
1070
     0
1070
   279
1070
     0
1070
   288
1070
     1
1002
}
  0
LINE
  5
7D74
  8
1
  6
CONTINUOUS
 10
4247.2371780000003
 20
4189.7485210000013
 30
0.0
 11
4247.2371780000003
 21
2639.748521
 31
0.0
  0
LINE
  5
7D75
  8
1
  6
CONTINUOUS
 10
4247.2371780000003
 20
2639.748521
 30
0.0
 11
5197.2371780000003
 21
2639.748521
 31
0.0
  0
LINE
  5
7D76
  8
1
  6
CONTINUOUS
 10
5197.2371780000003
 20
2639.748521
 30
0.0
 11
5197.2371780000003
 21
4189.7485210000013
 31
0.0
  0
LINE
  5
7D77
  8
1
  6
CONTINUOUS
 10
5197.2371780000003
 20
4189.7485210000013
 30
0.0
 11
4247.2371780000003
 21
4189.7485210000013
 31
0.0
  0
DIMENSION
  5
7D83
  8
3
  6
CONTINUOUS
  2
*D15
 10
4247.2371780000003
 20
2368.2703099999999
 30
0.0
 11
4539.7371780000012
 21
2443.2703099999999
 31
0.0
 70
     0
 13
4832.2371780000003
 23
2399.515402
 33
0.0
 14
4247.2371780000003
 24
2639.748521
 34
0.0
1001
ACAD
1000
DSTYLE
1002
{
1070
   287
1070
     3
1070
   287
1070
     3
1070
    40
1040
30.0
1070
   143
1040
0.039
1070
   172
1070
     1
1070
   271
1070
     0
1070
   279
1070
     0
1070
   288
1070
     1
1002
}
  0
DIMENSION
  5
7DE9
  8
3
  2
*D16
 10
2536.9154330000001
 20
4331.3486590000002
 30
0.0
 11
2275.9154330000001
 21
4406.3486590000002
 31
0.0
 70
     0
 13
2014.9154329999999
 23
4260.4721090000012
 33
0.0
 14
2536.9154330000001
 24
3326.748521
 34
0.0
1001
ACAD
1000
DSTYLE
1002
{
1070
   287
1070
     4
1070
   287
1070
     4
1070
    40
1040
30.0
1070
    75
1070
     1
1070
   143
1040
0.039
1070
   172
1070
     1
1070
   271
1070
     0
1070
   279
1070
     1
1070
   288
1070
     1
1002
}
  0
ENDSEC
  0
EOF
