  0
SECTION
  2
HEADER
  9
$ACADVER
  1
AC1009
  9
$INSBASE
 10
0.0
 20
0.0
 30
0.0
  9
$EXTMIN
 10
750.0
 20
900.0
 30
0.0
  9
$EXTMAX
 10
5550.0
 20
8359.9567849999985
 30
0.0
  9
$LIMMIN
 10
0.0
 20
0.0
  9
$LIMMAX
 10
297.0
 20
210.0
  9
$ORTHOMODE
 70
     0
  9
$REGENMODE
 70
     1
  9
$FILLMODE
 70
     0
  9
$QTEXTMODE
 70
     0
  9
$MIRRTEXT
 70
     1
  9
$DRAGMODE
 70
     2
  9
$LTSCALE
 40
100.0
  9
$OSMODE
 70
    37
  9
$ATTMODE
 70
     1
  9
$TEXTSIZE
 40
180.0
  9
$TRACEWID
 40
0.05
  9
$TEXTSTYLE
  7
STANDARD
  9
$CLAYER
  8
3
  9
$CELTYPE
  6
BYLAYER
  9
$CECOLOR
 62
   256
  9
$DIMSCALE
 40
30.0
  9
$DIMASZ
 40
2.0
  9
$DIMEXO
 40
0.5
  9
$DIMDLI
 40
10.0
  9
$DIMRND
 40
0.0
  9
$DIMDLE
 40
0.0
  9
$DIMEXE
 40
1.0
  9
$DIMTP
 40
1.0
  9
$DIMTM
 40
1.0
  9
$DIMTXT
 40
3.0
  9
$DIMCEN
 40
0.0
  9
$DIMTSZ
 40
0.0
  9
$DIMTOL
 70
     0
  9
$DIMLIM
 70
     0
  9
$DIMTIH
 70
     0
  9
$DIMTOH
 70
     0
  9
$DIMSE1
 70
     0
  9
$DIMSE2
 70
     0
  9
$DIMTAD
 70
     1
  9
$DIMZIN
 70
     8
  9
$DIMBLK
  1

  9
$DIMASO
 70
     1
  9
$DIMSHO
 70
     1
  9
$DIMPOST
  1

  9
$DIMAPOST
  1

  9
$DIMALT
 70
     0
  9
$DIMALTD
 70
     2
  9
$DIMALTF
 40
0.039
  9
$DIMLFAC
 40
1.0
  9
$DIMTOFL
 70
     1
  9
$DIMTVP
 40
0.0
  9
$DIMTIX
 70
     0
  9
$DIMSOXD
 70
     0
  9
$DIMSAH
 70
     1
  9
$DIMBLK1
  1
OPEN
  9
$DIMBLK2
  1
OPEN
  9
$DIMSTYLE
  2
IGA
  9
$DIMCLRD
 70
     0
  9
$DIMCLRE
 70
     0
  9
$DIMCLRT
 70
     0
  9
$DIMTFAC
 40
10.0
  9
$DIMGAP
 40
1.0
  9
$LUNITS
 70
     2
  9
$LUPREC
 70
     3
  9
$SKETCHINC
 40
0.1
  9
$FILLETRAD
 40
50.0
  9
$AUNITS
 70
     0
  9
$AUPREC
 70
     0
  9
$MENU
  1
acad
  9
$ELEVATION
 40
0.0
  9
$PELEVATION
 40
0.0
  9
$THICKNESS
 40
0.0
  9
$LIMCHECK
 70
     0
  9
$BLIPMODE
 70
     0
  9
$CHAMFERA
 40
0.5
  9
$CHAMFERB
 40
0.5
  9
$SKPOLY
 70
     0
  9
$TDCREATE
 40
2450742.4717126158
  9
$TDUPDATE
 40
2454953.7709347801
  9
$TDINDWG
 40
0.0093678241
  9
$TDUSRTIMER
 40
0.0093678241
  9
$USRTIMER
 70
     1
  9
$ANGBASE
 50
0.0
  9
$ANGDIR
 70
     0
  9
$PDMODE
 70
     0
  9
$PDSIZE
 40
0.0
  9
$PLINEWID
 40
0.0
  9
$COORDS
 70
     1
  9
$SPLFRAME
 70
     0
  9
$SPLINETYPE
 70
     6
  9
$SPLINESEGS
 70
     8
  9
$ATTDIA
 70
     0
  9
$ATTREQ
 70
     1
  9
$HANDLING
 70
 10241
  9
$HANDSEED
  5
8072
  9
$SURFTAB1
 70
     6
  9
$SURFTAB2
 70
     6
  9
$SURFTYPE
 70
     6
  9
$SURFU
 70
     6
  9
$SURFV
 70
     6
  9
$UCSNAME
  2

  9
$UCSORG
 10
0.0
 20
0.0
 30
0.0
  9
$UCSXDIR
 10
1.0
 20
0.0
 30
0.0
  9
$UCSYDIR
 10
0.0
 20
1.0
 30
0.0
  9
$PUCSNAME
  2

  9
$PUCSORG
 10
0.0
 20
0.0
 30
0.0
  9
$PUCSXDIR
 10
1.0
 20
0.0
 30
0.0
  9
$PUCSYDIR
 10
0.0
 20
1.0
 30
0.0
  9
$USERI1
 70
     0
  9
$USERI2
 70
     0
  9
$USERI3
 70
     0
  9
$USERI4
 70
     0
  9
$USERI5
 70
     0
  9
$USERR1
 40
0.0
  9
$USERR2
 40
0.0
  9
$USERR3
 40
0.0
  9
$USERR4
 40
0.0
  9
$USERR5
 40
0.0
  9
$WORLDVIEW
 70
     1
  9
$SHADEDGE
 70
     3
  9
$SHADEDIF
 70
    70
  9
$TILEMODE
 70
     1
  9
$MAXACTVP
 70
    16
  9
$PLIMCHECK
 70
     0
  9
$PEXTMIN
 10
1.0000000000000000E+020
 20
1.0000000000000000E+020
 30
1.0000000000000000E+020
  9
$PEXTMAX
 10
-1.0000000000000000E+020
 20
-1.0000000000000000E+020
 30
-1.0000000000000000E+020
  9
$PLIMMIN
 10
0.0
 20
0.0
  9
$PLIMMAX
 10
12.0
 20
9.0
  9
$UNITMODE
 70
     0
  9
$VISRETAIN
 70
     0
  9
$PLINEGEN
 70
     0
  9
$PSLTSCALE
 70
     1
  0
ENDSEC
  0
SECTION
  2
TABLES
  0
TABLE
  2
VPORT
 70
     2
  0
VPORT
  2
*ACTIVE
 70
     0
 10
0.0
 20
0.0
 11
1.0
 21
1.0
 12
9438.4567678319436
 22
4630.0975558305709
 13
0.0
 23
0.0
 14
10.0
 24
10.0
 15
10.0
 25
10.0
 16
0.0
 26
0.0
 36
1.0
 17
0.0
 27
0.0
 37
0.0
 40
7517.4747125171307
 41
3.1666666666666661
 42
50.0
 43
0.0
 44
0.0
 50
0.0
 51
0.0
 71
     0
 72
   100
 73
     1
 74
     0
 75
     0
 76
     0
 77
     0
 78
     0
  0
ENDTAB
  0
TABLE
  2
LTYPE
 70
     2
  0
LTYPE
  2
CONTINUOUS
 70
     0
  3
Solid line
 72
    65
 73
     0
 40
0.0
  0
LTYPE
  2
CENTER
 70
     0
  3
____ _ ____ _ ____ _ ____ _ ____ _ ____ _ ____ 
 72
    65
 73
     4
 40
2.0
 49
1.25
 49
-0.25
 49
0.25
 49
-0.25
  0
ENDTAB
  0
TABLE
  2
LAYER
 70
     6
  0
LAYER
  2
0
 70
     0
 62
     7
  6
CONTINUOUS
  0
LAYER
  2
3
 70
     0
 62
     2
  6
CONTINUOUS
  0
LAYER
  2
2
 70
     0
 62
     3
  6
CENTER
  0
LAYER
  2
1
 70
     0
 62
     4
  6
CONTINUOUS
  0
LAYER
  2
4
 70
     0
 62
     7
  6
CONTINUOUS
  0
LAYER
  2
DEFPOINTS
 70
     0
 62
     7
  6
CONTINUOUS
  0
ENDTAB
  0
TABLE
  2
STYLE
 70
     1
  0
STYLE
  2
STANDARD
 70
     0
 40
0.0
 41
1.0
 50
0.0
 71
     0
 42
180.0
  3
simplex.shx
  4
extfont.shx
  0
ENDTAB
  0
TABLE
  2
VIEW
 70
     0
  0
ENDTAB
  0
TABLE
  2
UCS
 70
     0
  0
ENDTAB
  0
TABLE
  2
APPID
 70
     1
  0
APPID
  2
ACAD
 70
     0
  0
ENDTAB
  0
TABLE
  2
DIMSTYLE
 70
     1
  0
DIMSTYLE
  2
IGA
 70
     0
  3

  4

  5

  6
OPEN
  7
OPEN
 40
2.0
 41
2.0
 42
0.5
 43
10.0
 44
1.0
 45
0.0
 46
0.0
 47
1.0
 48
1.0
140
3.0
141
0.0
142
0.0
143
0.03937
144
1.0
145
0.0
146
10.0
147
1.0
 71
     0
 72
     0
 73
     0
 74
     0
 75
     0
 76
     0
 77
     1
 78
     8
170
     0
171
     2
172
     0
173
     1
174
     0
175
     0
176
     0
177
     0
178
     0
  0
ENDTAB
  0
ENDSEC
  0
SECTION
  2
BLOCKS
  0
BLOCK
  8
0
  2
$MODEL_SPACE
 70
     0
 10
0.0
 20
0.0
 30
0.0
  3
$MODEL_SPACE
  1

  0
ENDBLK
  5
1B
  8
0
  0
BLOCK
 67
     1
  8
0
  2
$PAPER_SPACE
 70
     0
 10
0.0
 20
0.0
 30
0.0
  3
$PAPER_SPACE
  1

  0
ENDBLK
  5
18
 67
     1
  8
0
  0
BLOCK
  8
0
  2
_OPEN
 70
     0
 10
0.0
 20
0.0
 30
0.0
  3
_OPEN
  1

  0
LINE
  5
7BB0
  8
0
  6
BYBLOCK
 62
     0
 10
-1.0
 20
0.166667
 30
0.0
 11
0.0
 21
0.0
 31
0.0
  0
LINE
  5
7BB1
  8
0
  6
BYBLOCK
 62
     0
 10
0.0
 20
0.0
 30
0.0
 11
-1.0
 21
-0.166667
 31
0.0
  0
LINE
  5
7BB2
  8
0
  6
BYBLOCK
 62
     0
 10
0.0
 20
0.0
 30
0.0
 11
-1.0
 21
0.0
 31
0.0
  0
ENDBLK
  5
7BB3
  8
0
  0
BLOCK
  8
0
  2
*D1
 70
     1
 10
0.0
 20
0.0
 30
0.0
  3
*D1
  1

  0
LINE
  5
7FCA
  8
3
  6
CONTINUOUS
 62
     0
 10
1649.942305
 20
3893.391247
 30
0.0
 11
1546.6260360000001
 21
3893.391247
 31
0.0
  0
LINE
  5
7FCB
  8
3
  6
CONTINUOUS
 62
     0
 10
1649.942305
 20
3243.391247
 30
0.0
 11
1546.6260360000001
 21
3243.391247
 31
0.0
  0
LINE
  5
7FCC
  8
3
  6
CONTINUOUS
 62
     0
 10
1576.6260360000001
 20
3833.391247
 30
0.0
 11
1576.6260360000001
 21
3303.391247
 31
0.0
  0
INSERT
  5
7FCD
  8
3
  6
CONTINUOUS
 62
     0
  2
_OPEN
 10
1576.6260360000001
 20
3893.391247
 30
0.0
 41
60.0
 42
60.0
 43
60.0
 50
90.0
  0
INSERT
  5
7FCE
  8
3
  6
CONTINUOUS
 62
     0
  2
_OPEN
 10
1576.6260360000001
 20
3243.391247
 30
0.0
 41
60.0
 42
60.0
 43
60.0
 50
270.0
  0
TEXT
  8
3
  40
90
  5
8060
  62
0
  72
0
  71
0
 10
1321.63
 20
3396.19
 30
0.000000
  1
650
  0
POINT
  5
7FD0
  8
DEFPOINTS
  6
CONTINUOUS
 62
     0
 10
1664.942305
 20
3893.391247
 30
0.0
  0
POINT
  5
7FD1
  8
DEFPOINTS
  6
CONTINUOUS
 62
     0
 10
1664.942305
 20
3243.391247
 30
0.0
  0
POINT
  5
7FD2
  8
DEFPOINTS
  6
CONTINUOUS
 62
     0
 10
1576.6260360000001
 20
3243.391247
 30
0.0
  0
ENDBLK
  5
7BC0
  8
0
  0
BLOCK
  8
0
  2
*D2
 70
     1
 10
0.0
 20
0.0
 30
0.0
  3
*D2
  1

  0
LINE
  5
7FD3
  8
3
  6
CONTINUOUS
 62
     0
 10
1649.942305
 20
3243.391247
 30
0.0
 11
1366.5599480000001
 21
3243.391247
 31
0.0
  0
LINE
  5
7FD4
  8
3
  6
CONTINUOUS
 62
     0
 10
1525.6400530000001
 20
3863.391247
 30
0.0
 11
1366.5599480000001
 21
3863.391247
 31
0.0
  0
LINE
  5
7FD5
  8
3
  6
CONTINUOUS
 62
     0
 10
1396.5599480000001
 20
3303.391247
 30
0.0
 11
1396.559948000001
 21
3803.391247
 31
0.0
  0
INSERT
  5
7FD6
  8
3
  6
CONTINUOUS
 62
     0
  2
_OPEN
 10
1396.5599480000001
 20
3243.391247
 30
0.0
 41
60.0
 42
60.0
 43
60.0
 50
270.0
  0
INSERT
  5
7FD7
  8
3
  6
CONTINUOUS
 62
     0
  2
_OPEN
 10
1396.559948000001
 20
3863.391247
 30
0.0
 41
60.0
 42
60.0
 43
60.0
 50
90.0
  0
TEXT
  8
3
  40
90
  5
8061
  62
0
  72
0
  71
0
 10
1141.56
 20
3396.19
 30
0.000000
  1
620
  0
POINT
  5
7FD9
  8
DEFPOINTS
  6
CONTINUOUS
 62
     0
 10
1664.942305
 20
3243.391247
 30
0.0
  0
POINT
  5
7FDA
  8
DEFPOINTS
  6
CONTINUOUS
 62
     0
 10
1540.6400529999989
 20
3863.391247
 30
0.0
  0
POINT
  5
7FDB
  8
DEFPOINTS
  6
CONTINUOUS
 62
     0
 10
1396.559948000001
 20
3863.391247
 30
0.0
  0
ENDBLK
  5
7BCD
  8
0
  0
BLOCK
  8
0
  2
*D3
 70
     1
 10
0.0
 20
0.0
 30
0.0
  3
*D3
  1

  0
LINE
  5
7FDC
  8
3
  6
CONTINUOUS
 62
     0
 10
1704.942305
 20
3063.391247
 30
0.0
 11
1192.9248379999999
 21
3063.391247
 31
0.0
  0
LINE
  5
7FDD
  8
3
  6
CONTINUOUS
 62
     0
 10
1222.9248379999999
 20
3803.391247
 30
0.0
 11
1222.9248379999999
 21
3123.391247
 31
0.0
  0
INSERT
  5
7FDE
  8
3
  6
CONTINUOUS
 62
     0
  2
_OPEN
 10
1222.9248379999999
 20
3863.391247
 30
0.0
 41
60.0
 42
60.0
 43
60.0
 50
90.0
  0
INSERT
  5
7FDF
  8
3
  6
CONTINUOUS
 62
     0
  2
_OPEN
 10
1222.9248379999999
 20
3063.391247
 30
0.0
 41
60.0
 42
60.0
 43
60.0
 50
270.0
  0
TEXT
  8
3
  40
90
  5
8062
  62
0
  72
0
  71
0
 10
967.925
 20
3304.09
 30
0.000000
  1
800
  0
POINT
  5
7FE1
  8
DEFPOINTS
  6
CONTINUOUS
 62
     0
 10
1540.6400529999989
 20
3863.391247
 30
0.0
  0
POINT
  5
7FE2
  8
DEFPOINTS
  6
CONTINUOUS
 62
     0
 10
1719.942305
 20
3063.391247
 30
0.0
  0
POINT
  5
7FE3
  8
DEFPOINTS
  6
CONTINUOUS
 62
     0
 10
1222.9248379999999
 20
3063.391247
 30
0.0
  0
ENDBLK
  5
7BE6
  8
0
  0
BLOCK
  8
0
  2
*D4
 70
     1
 10
0.0
 20
0.0
 30
0.0
  3
*D4
  1

  0
LINE
  5
7FE4
  8
3
  6
CONTINUOUS
 62
     0
 10
1704.942305
 20
3063.391247
 30
0.0
 11
1191.664121
 21
3063.391247
 31
0.0
  0
LINE
  5
7FE5
  8
3
  6
CONTINUOUS
 62
     0
 10
1654.942305
 20
2937.391247
 30
0.0
 11
1191.664121
 21
2937.391247
 31
0.0
  0
LINE
  5
7FE6
  8
3
  6
CONTINUOUS
 62
     0
 10
1221.664121
 20
3123.391247
 30
0.0
 11
1221.664121
 21
3183.391247
 31
0.0
  0
LINE
  5
7FE7
  8
3
  6
CONTINUOUS
 62
     0
 10
1221.664121
 20
2877.391247
 30
0.0
 11
1221.664121
 21
2547.391247
 31
0.0
  0
LINE
  5
7FE8
  8
3
  6
CONTINUOUS
 62
     0
 10
1221.664121
 20
3063.391247
 30
0.0
 11
1221.664121
 21
2937.391247
 31
0.0
  0
INSERT
  5
7FE9
  8
3
  6
CONTINUOUS
 62
     0
  2
_OPEN
 10
1221.664121
 20
3063.391247
 30
0.0
 41
60.0
 42
60.0
 43
60.0
 50
270.0
  0
INSERT
  5
7FEA
  8
3
  6
CONTINUOUS
 62
     0
  2
_OPEN
 10
1221.664121
 20
2937.391247
 30
0.0
 41
60.0
 42
60.0
 43
60.0
 50
90.0
  0
TEXT
  8
3
  40
90
  5
8063
  62
0
  72
0
  71
0
 10
966.664
 20
2523.09
 30
0.000000
  1
126
  0
POINT
  5
7FEC
  8
DEFPOINTS
  6
CONTINUOUS
 62
     0
 10
1719.942305
 20
3063.391247
 30
0.0
  0
POINT
  5
7FED
  8
DEFPOINTS
  6
CONTINUOUS
 62
     0
 10
1669.942305
 20
2937.391247
 30
0.0
  0
POINT
  5
7FEE
  8
DEFPOINTS
  6
CONTINUOUS
 62
     0
 10
1221.664121
 20
2937.391247
 30
0.0
  0
ENDBLK
  5
7D80
  8
0
  0
BLOCK
  8
0
  2
*D5
 70
     1
 10
0.0
 20
0.0
 30
0.0
  3
*D5
  1

  0
LINE
  5
7FEF
  8
3
  6
CONTINUOUS
 62
     0
 10
1669.942305
 20
2922.391247
 30
0.0
 11
1669.942305
 21
2493.3951405656539
 31
0.0
  0
LINE
  5
7FF0
  8
3
  6
CONTINUOUS
 62
     0
 10
2149.942305
 20
2797.0321800000002
 30
0.0
 11
2149.942305
 21
2493.3951405656539
 31
0.0
  0
LINE
  5
7FF1
  8
3
  6
CONTINUOUS
 62
     0
 10
1729.942305
 20
2523.3951405656539
 30
0.0
 11
2089.942305
 21
2523.3951405656539
 31
0.0
  0
INSERT
  5
7FF2
  8
3
  6
CONTINUOUS
 62
     0
  2
_OPEN
 10
1669.942305
 20
2523.3951405656539
 30
0.0
 41
60.0
 42
60.0
 43
60.0
 50
180.0
  0
INSERT
  5
7FF3
  8
3
  6
CONTINUOUS
 62
     0
  2
_OPEN
 10
2149.942305
 20
2523.3951405656539
 30
0.0
 41
60.0
 42
60.0
 43
60.0
  0
TEXT
  8
3
  40
90
  5
8064
  62
0
  72
0
  71
0
 10
1731.03
 20
2439.10
 30
0.000000
  1
480
  0
POINT
  5
7FF5
  8
DEFPOINTS
  6
CONTINUOUS
 62
     0
 10
1669.942305
 20
2937.391247
 30
0.0
  0
POINT
  5
7FF6
  8
DEFPOINTS
  6
CONTINUOUS
 62
     0
 10
2149.942305
 20
2812.0321800000002
 30
0.0
  0
POINT
  5
7FF7
  8
DEFPOINTS
  6
CONTINUOUS
 62
     0
 10
2149.942305
 20
2523.3951405656539
 30
0.0
  0
ENDBLK
  5
7CD3
  8
0
  0
BLOCK
  8
0
  2
*D6
 70
     1
 10
0.0
 20
0.0
 30
0.0
  3
*D6
  1

  0
LINE
  5
7FF8
  8
3
  6
CONTINUOUS
 62
     0
 10
3179.942305
 20
2922.391247
 30
0.0
 11
3179.942305
 21
2493.3951405656539
 31
0.0
  0
LINE
  5
7FF9
  8
3
  6
CONTINUOUS
 62
     0
 10
2209.942305
 20
2523.3951405656539
 30
0.0
 11
3119.942305
 21
2523.3951405656539
 31
0.0
  0
INSERT
  5
7FFA
  8
3
  6
CONTINUOUS
 62
     0
  2
_OPEN
 10
2149.942305
 20
2523.3951405656539
 30
0.0
 41
60.0
 42
60.0
 43
60.0
 50
180.0
  0
INSERT
  5
7FFB
  8
3
  6
CONTINUOUS
 62
     0
  2
_OPEN
 10
3179.942305
 20
2523.3951405656539
 30
0.0
 41
60.0
 42
60.0
 43
60.0
  0
TEXT
  8
3
  40
90
  5
8065
  62
0
  72
0
  71
0
 10
2484.94
 20
2439.10
 30
0.000000
  1
1030
  0
POINT
  5
7FFD
  8
DEFPOINTS
  6
CONTINUOUS
 62
     0
 10
2149.942305
 20
2812.0321800000002
 30
0.0
  0
POINT
  5
7FFE
  8
DEFPOINTS
  6
CONTINUOUS
 62
     0
 10
3179.942305
 20
2937.391247
 30
0.0
  0
POINT
  5
7FFF
  8
DEFPOINTS
  6
CONTINUOUS
 62
     0
 10
3179.942305
 20
2523.3951405656539
 30
0.0
  0
ENDBLK
  5
7CC8
  8
0
  0
BLOCK
  8
0
  2
*D7
 70
     1
 10
0.0
 20
0.0
 30
0.0
  3
*D7
  1

  0
LINE
  5
8000
  8
3
  6
CONTINUOUS
 62
     0
 10
1664.942305
 20
3948.3912469999991
 30
0.0
 11
1664.942305
 21
4497.8328740000006
 31
0.0
  0
LINE
  5
8001
  8
3
  6
CONTINUOUS
 62
     0
 10
2149.942305
 20
4434.2545499999997
 30
0.0
 11
2149.942305
 21
4497.8328740000006
 31
0.0
  0
LINE
  5
8002
  8
3
  6
CONTINUOUS
 62
     0
 10
1724.942305
 20
4467.8328739999997
 30
0.0
 11
2089.942305
 21
4467.8328739999997
 31
0.0
  0
INSERT
  5
8003
  8
3
  6
CONTINUOUS
 62
     0
  2
_OPEN
 10
1664.942305
 20
4467.8328739999997
 30
0.0
 41
60.0
 42
60.0
 43
60.0
 50
180.0
  0
INSERT
  5
8004
  8
3
  6
CONTINUOUS
 62
     0
  2
_OPEN
 10
2149.942305
 20
4467.8328739999997
 30
0.0
 41
60.0
 42
60.0
 43
60.0
  0
TEXT
  8
3
  40
90
  5
8066
  62
0
  72
0
  71
0
 10
1731.03
 20
4383.53
 30
0.000000
  1
485
  0
POINT
  5
8006
  8
DEFPOINTS
  6
CONTINUOUS
 62
     0
 10
1664.942305
 20
3933.391247
 30
0.0
  0
POINT
  5
8007
  8
DEFPOINTS
  6
CONTINUOUS
 62
     0
 10
2149.942305
 20
4419.2545499999987
 30
0.0
  0
POINT
  5
8008
  8
DEFPOINTS
  6
CONTINUOUS
 62
     0
 10
2149.942305
 20
4467.8328739999997
 30
0.0
  0
ENDBLK
  5
7C29
  8
0
  0
BLOCK
  8
0
  2
*D8
 70
     1
 10
0.0
 20
0.0
 30
0.0
  3
*D8
  1

  0
LINE
  5
8009
  8
3
  6
CONTINUOUS
 62
     0
 10
4844.607422
 20
4331.6456939999998
 30
0.0
 11
4844.607422
 21
4519.3448090000002
 31
0.0
  0
LINE
  5
800A
  8
3
  6
CONTINUOUS
 62
     0
 10
4369.607422
 20
4331.6456939999998
 30
0.0
 11
4369.607422
 21
4519.3448090000002
 31
0.0
  0
LINE
  5
800B
  8
3
  6
CONTINUOUS
 62
     0
 10
4784.6074219999991
 20
4489.3448090000002
 30
0.0
 11
4429.607422
 21
4489.3448090000002
 31
0.0
  0
INSERT
  5
800C
  8
3
  6
CONTINUOUS
 62
     0
  2
_OPEN
 10
4844.607422
 20
4489.3448090000002
 30
0.0
 41
60.0
 42
60.0
 43
60.0
  0
INSERT
  5
800D
  8
3
  6
CONTINUOUS
 62
     0
  2
_OPEN
 10
4369.607422
 20
4489.3448090000002
 30
0.0
 41
60.0
 42
60.0
 43
60.0
 50
180.0
  0
TEXT
  8
3
  40
90
  5
8067
  62
0
  72
0
  71
0
 10
4395.32
 20
4405.04
 30
0.000000
  1
475
  0
POINT
  5
800F
  8
DEFPOINTS
  6
CONTINUOUS
 62
     0
 10
4844.607422
 20
4316.6456939999989
 30
0.0
  0
POINT
  5
8010
  8
DEFPOINTS
  6
CONTINUOUS
 62
     0
 10
4369.607422
 20
4316.6456939999989
 30
0.0
  0
POINT
  5
8011
  8
DEFPOINTS
  6
CONTINUOUS
 62
     0
 10
4369.607422
 20
4489.3448090000002
 30
0.0
  0
ENDBLK
  5
7D69
  8
0
  0
BLOCK
  8
0
  2
*D9
 70
     1
 10
0.0
 20
0.0
 30
0.0
  3
*D9
  1

  0
LINE
  5
8012
  8
3
  6
CONTINUOUS
 62
     0
 10
4863.107422
 20
4198.3912469999987
 30
0.0
 11
5112.5334890000013
 21
4198.3912469999987
 31
0.0
  0
LINE
  5
8013
  8
3
  6
CONTINUOUS
 62
     0
 10
4863.107422
 20
3528.391247
 30
0.0
 11
5112.5334890000013
 21
3528.391247
 31
0.0
  0
LINE
  5
8014
  8
3
  6
CONTINUOUS
 62
     0
 10
5082.5334890000022
 20
4138.3912469999996
 30
0.0
 11
5082.5334890000022
 21
3588.391247
 31
0.0
  0
INSERT
  5
8015
  8
3
  6
CONTINUOUS
 62
     0
  2
_OPEN
 10
5082.5334890000022
 20
4198.3912469999987
 30
0.0
 41
60.0
 42
60.0
 43
60.0
 50
90.0
  0
INSERT
  5
8016
  8
3
  6
CONTINUOUS
 62
     0
  2
_OPEN
 10
5082.5334890000022
 20
3528.391247
 30
0.0
 41
60.0
 42
60.0
 43
60.0
 50
270.0
  0
TEXT
  8
3
  40
90
  5
8068
  62
0
  72
0
  71
0
 10
4827.53
 20
3704.59
 30
0.000000
  1
φ670
  0
POINT
  5
8018
  8
DEFPOINTS
  6
CONTINUOUS
 62
     0
 10
4848.107422
 20
4198.3912469999987
 30
0.0
  0
POINT
  5
8019
  8
DEFPOINTS
  6
CONTINUOUS
 62
     0
 10
4848.107422
 20
3528.391247
 30
0.0
  0
POINT
  5
801A
  8
DEFPOINTS
  6
CONTINUOUS
 62
     0
 10
5082.5334890000022
 20
3528.391247
 30
0.0
  0
ENDBLK
  5
7DB8
  8
0
  0
BLOCK
  8
0
  2
*D10
 70
     1
 10
0.0
 20
0.0
 30
0.0
  3
*D10
  1

  0
LINE
  5
7D9A
  8
0
  6
BYBLOCK
 62
     0
 10
4848.107422
 20
4213.3912469999987
 30
0.0
 11
4848.107422
 21
4705.667801999999
 31
0.0
  0
LINE
  5
7D9B
  8
0
  6
BYBLOCK
 62
     0
 10
4607.107422
 20
4635.8338119999999
 30
0.0
 11
4607.107422
 21
4705.667801999999
 31
0.0
  0
LINE
  5
7D9C
  8
0
  6
BYBLOCK
 62
     0
 10
4788.107422
 20
4675.6678019999999
 30
0.0
 11
4667.1074219999991
 21
4675.6678019999999
 31
0.0
  0
TEXT
  5
7D9D
  8
3
 62
     0
 10
4626.5490689566041
 20
4728.2005477637504
 30
0.0
 40
90.0
  1
241
  0
INSERT
  5
7D9E
  8
0
  6
BYBLOCK
 62
     0
  2
_OPEN
 10
4848.107422
 20
4675.6678019999999
 30
0.0
 41
60.0
 42
60.0
 43
60.0
  0
INSERT
  5
7D9F
  8
0
  6
BYBLOCK
 62
     0
  2
_OPEN
 10
4607.107422
 20
4675.6678019999999
 30
0.0
 41
60.0
 42
60.0
 43
60.0
 50
180.0
  0
POINT
  5
7DA0
  8
DEFPOINTS
  6
BYBLOCK
 62
     0
 10
4848.107422
 20
4198.3912469999987
 30
0.0
  0
POINT
  5
7DA1
  8
DEFPOINTS
  6
BYBLOCK
 62
     0
 10
4607.107422
 20
4620.8338119999989
 30
0.0
  0
POINT
  5
7DA2
  8
DEFPOINTS
  6
BYBLOCK
 62
     0
 10
4607.107422
 20
4675.6678019999999
 30
0.0
  0
ENDBLK
  5
7DA3
  8
0
  0
BLOCK
  8
0
  2
*D11
 70
     1
 10
0.0
 20
0.0
 30
0.0
  3
*D11
  1

  0
LINE
  5
801B
  8
3
  6
CONTINUOUS
 62
     0
 10
4127.107422
 20
4178.3912469999987
 30
0.0
 11
4127.107422
 21
4705.667801999999
 31
0.0
  0
LINE
  5
801C
  8
3
  6
CONTINUOUS
 62
     0
 10
4547.1074219999991
 20
4675.6678019999999
 30
0.0
 11
4187.107422
 21
4675.6678019999999
 31
0.0
  0
INSERT
  5
801D
  8
3
  6
CONTINUOUS
 62
     0
  2
_OPEN
 10
4607.107422
 20
4675.6678019999999
 30
0.0
 41
60.0
 42
60.0
 43
60.0
  0
INSERT
  5
801E
  8
3
  6
CONTINUOUS
 62
     0
  2
_OPEN
 10
4127.107422
 20
4675.6678019999999
 30
0.0
 41
60.0
 42
60.0
 43
60.0
 50
180.0
  0
TEXT
  8
3
  40
90
  5
8069
  62
0
  72
0
  71
0
 10
4187.11
 20
4666.37
 30
0.000000
  1
MAX
  0
TEXT
  8
3
  40
90
  5
806A
  62
0
  72
0
  71
0
 10
4187.11
 20
4549.37
 30
0.000000
  1
530
  0
POINT
  5
8020
  8
DEFPOINTS
  6
CONTINUOUS
 62
     0
 10
4607.107422
 20
4620.8338119999989
 30
0.0
  0
POINT
  5
8021
  8
DEFPOINTS
  6
CONTINUOUS
 62
     0
 10
4127.107422
 20
4163.3912469999987
 30
0.0
  0
POINT
  5
8022
  8
DEFPOINTS
  6
CONTINUOUS
 62
     0
 10
4127.107422
 20
4675.6678019999999
 30
0.0
  0
ENDBLK
  5
7DAD
  8
0
  0
BLOCK
  8
0
  2
*D12
 70
     1
 10
0.0
 20
0.0
 30
0.0
  3
*D12
  1

  0
LINE
  5
8023
  8
3
  6
CONTINUOUS
 62
     0
 10
4081.107422
 20
2922.391247
 30
0.0
 11
4081.107422
 21
2478.8239655656539
 31
0.0
  0
LINE
  5
8024
  8
3
  6
CONTINUOUS
 62
     0
 10
4607.107422
 20
2847.3616200000001
 30
0.0
 11
4607.107422
 21
2478.8239655656539
 31
0.0
  0
LINE
  5
8025
  8
3
  6
CONTINUOUS
 62
     0
 10
4141.107422
 20
2508.8239655656539
 30
0.0
 11
4547.1074219999991
 21
2508.8239655656539
 31
0.0
  0
INSERT
  5
8026
  8
3
  6
CONTINUOUS
 62
     0
  2
_OPEN
 10
4081.107422
 20
2508.8239655656539
 30
0.0
 41
60.0
 42
60.0
 43
60.0
 50
180.0
  0
INSERT
  5
8027
  8
3
  6
CONTINUOUS
 62
     0
  2
_OPEN
 10
4607.107422
 20
2508.8239655656539
 30
0.0
 41
60.0
 42
60.0
 43
60.0
  0
TEXT
  8
3
  40
90
  5
806B
  62
0
  72
0
  71
0
 10
4162.98
 20
2424.52
 30
0.000000
  1
526
  0
POINT
  5
8029
  8
DEFPOINTS
  6
CONTINUOUS
 62
     0
 10
4081.107422
 20
2937.391247
 30
0.0
  0
POINT
  5
802A
  8
DEFPOINTS
  6
CONTINUOUS
 62
     0
 10
4607.107422
 20
2862.3616200000001
 30
0.0
  0
POINT
  5
802B
  8
DEFPOINTS
  6
CONTINUOUS
 62
     0
 10
4607.107422
 20
2508.8239655656539
 30
0.0
  0
ENDBLK
  5
7D3E
  8
0
  0
BLOCK
  8
0
  2
*D13
 70
     1
 10
0.0
 20
0.0
 30
0.0
  3
*D13
  1

  0
LINE
  5
802C
  8
3
  6
CONTINUOUS
 62
     0
 10
5011.107422
 20
2922.391247
 30
0.0
 11
5011.107422
 21
2478.8239655656539
 31
0.0
  0
LINE
  5
802D
  8
3
  6
CONTINUOUS
 62
     0
 10
4667.1074219999991
 20
2508.8239655656539
 30
0.0
 11
4951.107422
 21
2508.8239655656539
 31
0.0
  0
TEXT
  8
3
  40
90
  5
806C
  62
0
  72
0
  71
0
 10
4633.50
 20
2425.40
 30
0.000000
  1
404
  0
INSERT
  5
802F
  8
3
  6
CONTINUOUS
 62
     0
  2
_OPEN
 10
4607.107422
 20
2508.8239655656539
 30
0.0
 41
60.0
 42
60.0
 43
60.0
 50
180.0
  0
INSERT
  5
8030
  8
3
  6
CONTINUOUS
 62
     0
  2
_OPEN
 10
5011.107422
 20
2508.8239655656539
 30
0.0
 41
60.0
 42
60.0
 43
60.0
  0
POINT
  5
8031
  8
DEFPOINTS
  6
CONTINUOUS
 62
     0
 10
4607.107422
 20
2862.3616200000001
 30
0.0
  0
POINT
  5
8032
  8
DEFPOINTS
  6
CONTINUOUS
 62
     0
 10
5011.107422
 20
2937.391247
 30
0.0
  0
POINT
  5
8033
  8
DEFPOINTS
  6
CONTINUOUS
 62
     0
 10
5011.107422
 20
2508.8239655656539
 30
0.0
  0
ENDBLK
  5
7D48
  8
0
  0
BLOCK
  8
0
  2
*D14
 70
     1
 10
0.0
 20
0.0
 30
0.0
  3
*D14
  1

  0
LINE
  5
8034
  8
3
  6
CONTINUOUS
 62
     0
 10
1669.942305
 20
6081.2833909999999
 30
0.0
 11
1669.942305
 21
6281.9957290000011
 31
0.0
  0
LINE
  5
8035
  8
3
  6
CONTINUOUS
 62
     0
 10
3179.942305
 20
6081.2833909999999
 30
0.0
 11
3179.942305
 21
6281.9957290000011
 31
0.0
  0
LINE
  5
8036
  8
3
  6
CONTINUOUS
 62
     0
 10
1729.942305
 20
6251.9957290000002
 30
0.0
 11
3119.942305
 21
6251.9957290000002
 31
0.0
  0
INSERT
  5
8037
  8
3
  6
CONTINUOUS
 62
     0
  2
_OPEN
 10
1669.942305
 20
6251.9957290000002
 30
0.0
 41
60.0
 42
60.0
 43
60.0
 50
180.0
  0
INSERT
  5
8038
  8
3
  6
CONTINUOUS
 62
     0
  2
_OPEN
 10
3179.942305
 20
6251.9957290000002
 30
0.0
 41
60.0
 42
60.0
 43
60.0
  0
TEXT
  8
3
  40
90
  5
806D
  62
0
  72
0
  71
0
 10
2206.92
 20
6167.70
 30
0.000000
  1
1510
  0
POINT
  5
803A
  8
DEFPOINTS
  6
CONTINUOUS
 62
     0
 10
1669.942305
 20
6066.2833909999999
 30
0.0
  0
POINT
  5
803B
  8
DEFPOINTS
  6
CONTINUOUS
 62
     0
 10
3179.942305
 20
6066.2833909999999
 30
0.0
  0
POINT
  5
803C
  8
DEFPOINTS
  6
CONTINUOUS
 62
     0
 10
3179.942305
 20
6251.9957290000002
 30
0.0
  0
ENDBLK
  5
7D1D
  8
0
  0
BLOCK
  8
0
  2
*D15
 70
     1
 10
0.0
 20
0.0
 30
0.0
  3
*D15
  1

  0
LINE
  5
803D
  8
3
  6
CONTINUOUS
 62
     0
 10
3194.942305
 20
6066.2833909999999
 30
0.0
 11
3465.1651600000009
 21
6066.2833909999999
 31
0.0
  0
LINE
  5
803E
  8
3
  6
CONTINUOUS
 62
     0
 10
3194.942305
 20
5136.2833909999999
 30
0.0
 11
3465.1651600000009
 21
5136.2833909999999
 31
0.0
  0
LINE
  5
803F
  8
3
  6
CONTINUOUS
 62
     0
 10
3435.1651600000009
 20
6006.2833909999999
 30
0.0
 11
3435.1651600000009
 21
5196.2833909999999
 31
0.0
  0
INSERT
  5
8040
  8
3
  6
CONTINUOUS
 62
     0
  2
_OPEN
 10
3435.1651600000009
 20
6066.2833909999999
 30
0.0
 41
60.0
 42
60.0
 43
60.0
 50
90.0
  0
INSERT
  5
8041
  8
3
  6
CONTINUOUS
 62
     0
  2
_OPEN
 10
3435.1651600000009
 20
5136.2833909999999
 30
0.0
 41
60.0
 42
60.0
 43
60.0
 50
270.0
  0
TEXT
  8
3
  40
90
  5
806E
  62
0
  72
0
  71
0
 10
3180.17
 20
5391.09
 30
0.000000
  1
930
  0
POINT
  5
8043
  8
DEFPOINTS
  6
CONTINUOUS
 62
     0
 10
3179.942305
 20
6066.2833909999999
 30
0.0
  0
POINT
  5
8044
  8
DEFPOINTS
  6
CONTINUOUS
 62
     0
 10
3179.942305
 20
5136.2833909999999
 30
0.0
  0
POINT
  5
8045
  8
DEFPOINTS
  6
CONTINUOUS
 62
     0
 10
3435.1651600000009
 20
5136.2833909999999
 30
0.0
  0
ENDBLK
  5
7CB7
  8
0
  0
BLOCK
  8
0
  2
*D16
 70
     1
 10
0.0
 20
0.0
 30
0.0
  3
*D16
  1

  0
LINE
  5
8046
  8
3
  6
CONTINUOUS
 62
     0
 10
2671.9423049999991
 20
3878.391247
 30
0.0
 11
2671.9423049999991
 21
4497.8328740000006
 31
0.0
  0
LINE
  5
8047
  8
3
  6
CONTINUOUS
 62
     0
 10
2209.942305
 20
4467.8328739999997
 30
0.0
 11
2611.942305
 21
4467.8328739999997
 31
0.0
  0
INSERT
  5
8048
  8
3
  6
CONTINUOUS
 62
     0
  2
_OPEN
 10
2149.942305
 20
4467.8328739999997
 30
0.0
 41
60.0
 42
60.0
 43
60.0
 50
180.0
  0
INSERT
  5
8049
  8
3
  6
CONTINUOUS
 62
     0
  2
_OPEN
 10
2671.9423049999991
 20
4467.8328739999997
 30
0.0
 41
60.0
 42
60.0
 43
60.0
  0
TEXT
  8
3
  40
90
  5
806F
  62
0
  72
0
  71
0
 10
2230.94
 20
4383.53
 30
0.000000
  1
522
  0
POINT
  5
804B
  8
DEFPOINTS
  6
CONTINUOUS
 62
     0
 10
2149.942305
 20
4419.2545499999987
 30
0.0
  0
POINT
  5
804C
  8
DEFPOINTS
  6
CONTINUOUS
 62
     0
 10
2671.9423049999991
 20
3863.391247
 30
0.0
  0
POINT
  5
804D
  8
DEFPOINTS
  6
CONTINUOUS
 62
     0
 10
2671.9423049999991
 20
4467.8328739999997
 30
0.0
  0
ENDBLK
  5
7D11
  8
0
  0
BLOCK
  8
0
  2
*D17
 70
     1
 10
0.0
 20
0.0
 30
0.0
  3
*D17
  1

  0
LINE
  5
804E
  8
3
 62
     0
 10
1664.942305
 20
3948.3912469999991
 30
0.0
 11
1664.942305
 21
4702.612042032345
 31
0.0
  0
LINE
  5
804F
  8
3
 62
     0
 10
3179.942305
 20
3052.391247
 30
0.0
 11
3179.942305
 21
4702.612042032345
 31
0.0
  0
LINE
  5
8050
  8
3
 62
     0
 10
1724.942305
 20
4672.6120420323459
 30
0.0
 11
3119.942305
 21
4672.6120420323459
 31
0.0
  0
INSERT
  5
8051
  8
3
 62
     0
  2
_OPEN
 10
1664.942305
 20
4672.6120420323459
 30
0.0
 41
60.0
 42
60.0
 43
60.0
 50
180.0
  0
INSERT
  5
8052
  8
3
 62
     0
  2
_OPEN
 10
3179.942305
 20
4672.6120420323459
 30
0.0
 41
60.0
 42
60.0
 43
60.0
  0
TEXT
  8
3
  40
90
  5
8070
  62
0
  72
0
  71
0
 10
2257.14
 20
4588.31
 30
0.000000
  1
1515
  0
POINT
  5
8054
  8
DEFPOINTS
 62
     0
 10
1664.942305
 20
3933.391247
 30
0.0
  0
POINT
  5
8055
  8
DEFPOINTS
 62
     0
 10
3179.942305
 20
3037.391247
 30
0.0
  0
POINT
  5
8056
  8
DEFPOINTS
 62
     0
 10
3179.942305
 20
4672.6120420323459
 30
0.0
  0
ENDBLK
  5
7D8C
  8
0
  0
BLOCK
  8
0
  2
*D18
 70
     1
 10
0.0
 20
0.0
 30
0.0
  3
*D18
  1

  0
LINE
  5
8057
  8
3
 62
     0
 10
1525.6400530000001
 20
3863.391247
 30
0.0
 11
1192.9248379999999
 21
3863.391247
 31
0.0
  0
LINE
  5
8058
  8
3
 62
     0
 10
2161.942305
 20
4316.580150003002
 30
0.0
 11
1192.9248379999999
 21
4316.5801500030038
 31
0.0
  0
LINE
  5
8059
  8
3
 62
     0
 10
1222.9248379999999
 20
3923.3912469999991
 30
0.0
 11
1222.9248379999999
 21
4256.5801500030038
 31
0.0
  0
INSERT
  5
805A
  8
3
 62
     0
  2
_OPEN
 10
1222.9248379999999
 20
3863.391247
 30
0.0
 41
60.0
 42
60.0
 43
60.0
 50
270.0
  0
INSERT
  5
805B
  8
3
 62
     0
  2
_OPEN
 10
1222.9248379999999
 20
4316.5801500030038
 30
0.0
 41
60.0
 42
60.0
 43
60.0
 50
90.0
  0
TEXT
  8
3
  40
90
  5
8071
  62
0
  72
0
  71
0
 10
967.925
 20
3930.69
 30
0.000000
  1
452
  0
POINT
  5
805D
  8
DEFPOINTS
 62
     0
 10
1540.6400529999989
 20
3863.391247
 30
0.0
  0
POINT
  5
805E
  8
DEFPOINTS
 62
     0
 10
2176.942305
 20
4316.580150003002
 30
0.0
  0
POINT
  5
805F
  8
DEFPOINTS
 62
     0
 10
1222.9248379999999
 20
4316.5801500030038
 30
0.0
  0
ENDBLK
  5
7E06
  8
0
  0
ENDSEC
  0
SECTION
  2
ENTITIES
  0
LINE
  5
7AC8
  8
1
  6
CONTINUOUS
 10
3179.942305
 20
3037.391247
 30
0.0
 11
1669.942305
 21
3037.391247
 31
0.0
  0
LINE
  5
7AC9
  8
1
  6
CONTINUOUS
 10
3179.942305
 20
2937.391247
 30
0.0
 11
1669.942305
 21
2937.391247
 31
0.0
  0
LINE
  5
7ACA
  8
1
  6
CONTINUOUS
 10
2830.5862899999988
 20
3294.227922
 30
0.0
 11
2074.5581050000001
 21
3733.7100129999999
 31
0.0
  0
LINE
  5
7ACB
  8
1
  6
CONTINUOUS
 10
2921.486312
 20
3425.2782829999992
 30
0.0
 11
2244.9956469999988
 21
3979.429439
 31
0.0
  0
ARC
  5
7ACC
  8
1
  6
CONTINUOUS
 10
2184.942305
 20
3828.391247
 30
0.0
 40
488.25444700000003
 50
4.5139879999999986
 51
97.352379000000013
  0
ARC
  5
7ACD
  8
1
  6
CONTINUOUS
 10
2108.942305
 20
3822.391247
 30
0.0
 40
564.49092099999984
 50
274.165164
 51
4.5139879999999986
  0
LINE
  5
7ACE
  8
1
  6
CONTINUOUS
 10
3079.942305
 20
3463.391247
 30
0.0
 11
2249.942305
 21
4163.3912469999987
 31
0.0
  0
LINE
  5
7ACF
  8
1
  6
CONTINUOUS
 10
1719.942305
 20
3163.3912469999991
 30
0.0
 11
3129.942305
 21
3163.391247
 31
0.0
  0
LINE
  5
7AD0
  8
1
  6
CONTINUOUS
 10
3129.942305
 20
3063.391247
 30
0.0
 11
1719.942305
 21
3063.391247
 31
0.0
  0
LINE
  5
7AD1
  8
1
  6
CONTINUOUS
 10
2790.7911960000001
 20
5251.2833909999999
 30
0.0
 11
2299.942305
 21
5251.2833909999999
 31
0.0
  0
LINE
  5
7AD2
  8
1
  6
CONTINUOUS
 10
1719.942305
 20
5951.2833909999999
 30
0.0
 11
3129.942305
 21
5951.2833909999999
 31
0.0
  0
LINE
  5
7AD3
  8
1
  6
CONTINUOUS
 10
1664.942305
 20
5424.7833909999999
 30
0.0
 11
2673.4332260000001
 21
5424.7833909999999
 31
0.0
  0
LINE
  5
7AD4
  8
1
  6
CONTINUOUS
 10
1664.942305
 20
5899.783390999999
 30
0.0
 11
2673.4332260000001
 21
5899.783390999999
 31
0.0
  0
LINE
  5
7AD5
  8
1
  6
CONTINUOUS
 10
1809.942305
 20
5322.2833909999999
 30
0.0
 11
3079.942305
 21
5322.2833909999999
 31
0.0
  0
LINE
  5
7AD6
  8
1
  6
CONTINUOUS
 10
1809.942305
 20
5182.2833909999999
 30
0.0
 11
3079.942305
 21
5182.2833909999999
 31
0.0
  0
LINE
  5
7AD9
  8
1
  6
CONTINUOUS
 10
1694.942305
 20
3893.391247
 30
0.0
 11
1694.942305
 21
3244.380936999999
 31
0.0
  0
LINE
  5
7ADA
  8
1
  6
CONTINUOUS
 10
1809.942305
 20
3163.391247
 30
0.0
 11
1809.942305
 21
4163.3912469999987
 31
0.0
  0
LINE
  5
7ADB
  8
1
  6
CONTINUOUS
 10
1664.942305
 20
3933.391247
 30
0.0
 11
1664.942305
 21
3203.391247
 31
0.0
  0
LINE
  5
7ADD
  8
1
  6
CONTINUOUS
 10
1664.942305
 20
3243.391247
 30
0.0
 11
2149.942305
 21
3259.3912469999991
 31
0.0
  0
LINE
  5
7ADE
  8
1
  6
CONTINUOUS
 10
1669.942305
 20
3037.391247
 30
0.0
 11
1669.942305
 21
2937.391247
 31
0.0
  0
LINE
  5
7ADF
  8
1
  6
CONTINUOUS
 10
1719.942305
 20
3063.391247
 30
0.0
 11
1719.942305
 21
3163.391247
 31
0.0
  0
ARC
  5
7AE0
  8
1
  6
CONTINUOUS
 10
2176.942305
 20
3890.391247
 30
0.0
 40
425.74044800000001
 50
97.352379000000013
 51
179.596259
  0
CIRCLE
  5
7AE3
  8
1
  6
CONTINUOUS
 10
2149.942305
 20
3863.391247
 30
0.0
 40
150.0
  0
LINE
  5
7AE4
  8
2
  6
CENTER
 10
1540.6400529999989
 20
3863.391247
 30
0.0
 11
2896.555073
 21
3863.391247
 31
0.0
  0
LINE
  5
7AE5
  8
1
  6
CONTINUOUS
 10
1751.2124260000001
 20
3893.391247
 30
0.0
 11
1664.942305
 21
3893.391247
 31
0.0
  0
LINE
  5
7AE6
  8
2
  6
CENTER
 10
2149.942305
 20
6041.700871
 30
0.0
 11
2149.942305
 21
5058.4000759999999
 31
0.0
  0
LINE
  5
7AE7
  8
1
  6
CONTINUOUS
 10
1809.942305
 20
4163.3912469999987
 30
0.0
 11
2249.942305
 21
4163.3912469999987
 31
0.0
  0
LINE
  5
7AE8
  8
1
  6
CONTINUOUS
 10
1704.942305
 20
5424.7833909999999
 30
0.0
 11
1704.942305
 21
5899.783390999999
 31
0.0
  0
LINE
  5
7AE9
  8
1
  6
CONTINUOUS
 10
1664.942305
 20
5382.2833909999999
 30
0.0
 11
1664.942305
 21
5942.2833909999999
 31
0.0
  0
LINE
  5
7AEA
  8
1
  6
CONTINUOUS
 10
2299.942305
 20
5217.2833909999999
 30
0.0
 11
1999.942305
 21
5217.2833909999999
 31
0.0
  0
LINE
  5
7AEB
  8
1
  6
CONTINUOUS
 10
2299.942305
 20
5287.283390999999
 30
0.0
 11
1999.942305
 21
5287.283390999999
 31
0.0
  0
LINE
  5
7AEC
  8
1
  6
CONTINUOUS
 10
1669.942305
 20
5424.7833909999999
 30
0.0
 11
1669.942305
 21
5136.2833909999999
 31
0.0
  0
LINE
  5
7AED
  8
1
  6
CONTINUOUS
 10
1719.942305
 20
5136.2833909999999
 30
0.0
 11
1669.942305
 21
5136.2833909999999
 31
0.0
  0
LINE
  5
7AEE
  8
1
  6
CONTINUOUS
 10
1999.942305
 20
5251.2833909999999
 30
0.0
 11
1719.942305
 21
5251.2833909999999
 31
0.0
  0
LINE
  5
7AEF
  8
1
  6
CONTINUOUS
 10
1809.942305
 20
5182.2833909999999
 30
0.0
 11
1809.942305
 21
5322.2833909999999
 31
0.0
  0
LINE
  5
7AF0
  8
1
  6
CONTINUOUS
 10
1999.942305
 20
5217.2833909999999
 30
0.0
 11
1999.942305
 21
5287.283390999999
 31
0.0
  0
LINE
  5
7AF1
  8
1
  6
CONTINUOUS
 10
1719.942305
 20
5136.2833909999999
 30
0.0
 11
1719.942305
 21
5424.7833909999999
 31
0.0
  0
LINE
  5
7AF2
  8
1
  6
CONTINUOUS
 10
2170.942305
 20
5287.283390999999
 30
0.0
 11
2170.942305
 21
5424.7833909999999
 31
0.0
  0
LINE
  5
7AF3
  8
1
  6
CONTINUOUS
 10
2128.942305
 20
5287.283390999999
 30
0.0
 11
2128.942305
 21
5424.7833909999999
 31
0.0
  0
LINE
  5
7AF4
  8
1
  6
CONTINUOUS
 10
2299.942305
 20
5217.2833909999999
 30
0.0
 11
2299.942305
 21
5287.283390999999
 31
0.0
  0
LINE
  5
7AF5
  8
1
  6
CONTINUOUS
 10
1719.942305
 20
6066.2833909999999
 30
0.0
 11
1669.942305
 21
6066.2833909999999
 31
0.0
  0
LINE
  5
7AF6
  8
1
  6
CONTINUOUS
 10
1669.942305
 20
6066.2833909999999
 30
0.0
 11
1669.942305
 21
5899.783390999999
 31
0.0
  0
LINE
  5
7AF7
  8
1
  6
CONTINUOUS
 10
1719.942305
 20
5899.783390999999
 30
0.0
 11
1719.942305
 21
6066.2833909999999
 31
0.0
  0
CIRCLE
  5
7B09
  8
1
  6
CONTINUOUS
 10
2870.7911960000001
 20
3363.391247
 30
0.0
 40
80.0
  0
LINE
  5
7B0A
  8
2
  6
CENTER
 10
2870.7911960000001
 20
3443.391247
 30
0.0
 11
2870.7911960000001
 21
3283.391247
 31
0.0
  0
ARC
  5
7B0B
  8
1
  6
CONTINUOUS
 10
2870.7911960000001
 20
3363.391247
 30
0.0
 40
162.0
 50
324.972283
 51
215.02771699999991
  0
LINE
  5
7B0C
  8
1
  6
CONTINUOUS
 10
3079.942305
 20
3163.391247
 30
0.0
 11
3079.942305
 21
3463.391247
 31
0.0
  0
LINE
  5
7B0E
  8
2
  6
CENTER
 10
2790.7911960000001
 20
3363.391247
 30
0.0
 11
2950.7911960000001
 21
3363.391247
 31
0.0
  0
LINE
  5
7B0F
  8
1
  6
CONTINUOUS
 10
3024.7911960000001
 20
3221.391247
 30
0.0
 11
3003.4488620000002
 21
3270.4076799999998
 31
0.0
  0
LINE
  5
7B10
  8
1
  6
CONTINUOUS
 10
2716.7911960000001
 20
3221.391247
 30
0.0
 11
2738.1335309999999
 21
3270.4076799999998
 31
0.0
  0
LINE
  5
7B11
  8
1
  6
CONTINUOUS
 10
3024.7911960000001
 20
3203.391247
 30
0.0
 11
3024.7911960000001
 21
3221.391247
 31
0.0
  0
LINE
  5
7B12
  8
1
  6
CONTINUOUS
 10
2716.7911960000001
 20
3163.391247
 30
0.0
 11
2716.7911960000001
 21
3221.391247
 31
0.0
  0
LINE
  5
7B13
  8
1
  6
CONTINUOUS
 10
3024.7911960000001
 20
3163.391247
 30
0.0
 11
3024.7911960000001
 21
3221.391247
 31
0.0
  0
LINE
  5
7B14
  8
1
  6
CONTINUOUS
 10
2716.7911960000001
 20
3203.391247
 30
0.0
 11
3024.7911960000001
 21
3203.391247
 31
0.0
  0
LINE
  5
7B15
  8
1
  6
CONTINUOUS
 10
3179.942305
 20
3037.391247
 30
0.0
 11
3179.942305
 21
2937.391247
 31
0.0
  0
LINE
  5
7B16
  8
1
  6
CONTINUOUS
 10
3129.942305
 20
3163.391247
 30
0.0
 11
3129.942305
 21
3063.391247
 31
0.0
  0
LINE
  5
7B32
  8
1
  6
CONTINUOUS
 10
4369.607422
 20
3163.391247
 30
0.0
 11
4369.607422
 21
4316.6456939999989
 31
0.0
  0
LINE
  5
7B33
  8
1
  6
CONTINUOUS
 10
4844.607422
 20
3163.391247
 30
0.0
 11
4844.607422
 21
4316.6456939999989
 31
0.0
  0
LINE
  5
7B34
  8
1
  6
CONTINUOUS
 10
4127.107422
 20
4163.3912469999987
 30
0.0
 11
4127.107422
 21
3163.391247
 31
0.0
  0
LINE
  5
7B35
  8
1
  6
CONTINUOUS
 10
4844.607422
 20
3243.391247
 30
0.0
 11
4369.607422
 21
3893.391247
 31
0.0
  0
LINE
  5
7B36
  8
1
  6
CONTINUOUS
 10
4369.607422
 20
3243.391247
 30
0.0
 11
4844.607422
 21
3893.391247
 31
0.0
  0
LINE
  5
7B37
  8
1
  6
CONTINUOUS
 10
4267.107422
 20
4163.3912469999987
 30
0.0
 11
4267.107422
 21
3163.391247
 31
0.0
  0
LINE
  5
7B38
  8
1
  6
CONTINUOUS
 10
4232.107422
 20
3443.391247
 30
0.0
 11
4232.107422
 21
3283.391247
 31
0.0
  0
LINE
  5
7B39
  8
1
  6
CONTINUOUS
 10
4162.107422
 20
3443.391247
 30
0.0
 11
4162.107422
 21
3283.391247
 31
0.0
  0
LINE
  5
7B3A
  8
1
  6
CONTINUOUS
 10
4081.107422
 20
3037.391247
 30
0.0
 11
5011.107422
 21
3037.391247
 31
0.0
  0
LINE
  5
7B3B
  8
1
  6
CONTINUOUS
 10
4081.107422
 20
2937.391247
 30
0.0
 11
5011.107422
 21
2937.391247
 31
0.0
  0
LINE
  5
7B3C
  8
1
  6
CONTINUOUS
 10
4196.1074219999991
 20
3063.391247
 30
0.0
 11
4896.107422
 21
3063.391247
 31
0.0
  0
LINE
  5
7B3D
  8
1
  6
CONTINUOUS
 10
4369.607422
 20
3243.391247
 30
0.0
 11
4844.607422
 21
3243.391247
 31
0.0
  0
LINE
  5
7B3E
  8
1
  6
CONTINUOUS
 10
4896.107422
 20
3163.391247
 30
0.0
 11
4196.1074219999991
 21
3163.391247
 31
0.0
  0
LINE
  5
7B3F
  8
1
  6
CONTINUOUS
 10
4196.1074219999991
 20
3163.391247
 30
0.0
 11
4196.1074219999991
 21
3063.391247
 31
0.0
  0
LINE
  5
7B40
  8
1
  6
CONTINUOUS
 10
4127.107422
 20
3163.391247
 30
0.0
 11
4196.1074219999991
 21
3163.391247
 31
0.0
  0
LINE
  5
7B41
  8
1
  6
CONTINUOUS
 10
4162.107422
 20
3283.391247
 30
0.0
 11
4232.107422
 21
3283.391247
 31
0.0
  0
LINE
  5
7B42
  8
1
  6
CONTINUOUS
 10
4232.107422
 20
3342.391247
 30
0.0
 11
4369.607422
 21
3342.391247
 31
0.0
  0
LINE
  5
7B43
  8
1
  6
CONTINUOUS
 10
4081.107422
 20
3037.391247
 30
0.0
 11
4081.107422
 21
2937.391247
 31
0.0
  0
LINE
  5
7B44
  8
1
  6
CONTINUOUS
 10
4896.107422
 20
3163.391247
 30
0.0
 11
4896.107422
 21
3063.391247
 31
0.0
  0
LINE
  5
7B45
  8
1
  6
CONTINUOUS
 10
5011.107422
 20
3037.391247
 30
0.0
 11
5011.107422
 21
2937.391247
 31
0.0
  0
LINE
  5
7B46
  8
1
  6
CONTINUOUS
 10
4369.607422
 20
3893.391247
 30
0.0
 11
4844.607422
 21
3893.391247
 31
0.0
  0
LINE
  5
7B47
  8
1
  6
CONTINUOUS
 10
4162.107422
 20
4013.391247
 30
0.0
 11
4232.107422
 21
4013.391247
 31
0.0
  0
LINE
  5
7B48
  8
1
  6
CONTINUOUS
 10
4162.107422
 20
3713.391247
 30
0.0
 11
4232.107422
 21
3713.391247
 31
0.0
  0
LINE
  5
7B49
  8
1
  6
CONTINUOUS
 10
4232.107422
 20
4013.391247
 30
0.0
 11
4232.107422
 21
3713.391247
 31
0.0
  0
LINE
  5
7B4A
  8
1
  6
CONTINUOUS
 10
4162.107422
 20
4013.391247
 30
0.0
 11
4162.107422
 21
3713.391247
 31
0.0
  0
LINE
  5
7B4B
  8
1
  6
CONTINUOUS
 10
4232.107422
 20
3884.3912469999991
 30
0.0
 11
4369.607422
 21
3884.3912469999991
 31
0.0
  0
LINE
  5
7B4C
  8
1
  6
CONTINUOUS
 10
4232.107422
 20
3842.391247
 30
0.0
 11
4369.607422
 21
3842.391247
 31
0.0
  0
LINE
  5
7B4D
  8
1
  6
CONTINUOUS
 10
4162.107422
 20
3443.391247
 30
0.0
 11
4232.107422
 21
3443.391247
 31
0.0
  0
LINE
  5
7B4E
  8
1
  6
CONTINUOUS
 10
4232.107422
 20
3384.3912469999991
 30
0.0
 11
4369.607422
 21
3384.3912469999991
 31
0.0
  0
LINE
  5
7B4F
  8
1
  6
CONTINUOUS
 10
4369.607422
 20
4316.6456939999989
 30
0.0
 11
4844.607422
 21
4316.6456939999989
 31
0.0
  0
LINE
  5
7B50
  8
1
  6
CONTINUOUS
 10
4267.107422
 20
4163.3912469999987
 30
0.0
 11
4127.107422
 21
4163.3912469999987
 31
0.0
  0
LINE
  5
7B57
  8
1
  6
CONTINUOUS
 10
3179.942305
 20
6066.2833909999999
 30
0.0
 11
3179.942305
 21
5136.2833909999999
 31
0.0
  0
LINE
  5
7B58
  8
1
  6
CONTINUOUS
 10
2673.4332260000001
 20
5424.7833909999999
 30
0.0
 11
2673.4332260000001
 21
5899.783390999999
 31
0.0
  0
LINE
  5
7B59
  8
1
  6
CONTINUOUS
 10
3032.7911960000001
 20
5354.0153080000009
 30
0.0
 11
3032.7911960000001
 21
5839.015308
 31
0.0
  0
LINE
  5
7B5A
  8
1
  6
CONTINUOUS
 10
2708.7911960000001
 20
5354.0153080000009
 30
0.0
 11
2708.7911960000001
 21
5839.015308
 31
0.0
  0
LINE
  5
7B5B
  8
1
  6
CONTINUOUS
 10
2708.7911960000001
 20
5675.731756000001
 30
0.0
 11
2708.7911960000001
 21
5433.4847159999999
 31
0.0
  0
LINE
  5
7B5C
  8
1
  6
CONTINUOUS
 10
3129.942305
 20
6066.2833909999999
 30
0.0
 11
3129.942305
 21
5136.2833909999999
 31
0.0
  0
LINE
  5
7B5D
  8
1
  6
CONTINUOUS
 10
3129.942305
 20
5251.2833909999999
 30
0.0
 11
2950.7911960000001
 21
5251.2833909999999
 31
0.0
  0
LINE
  5
7B5E
  8
1
  6
CONTINUOUS
 10
2849.7911960000001
 20
5287.283390999999
 30
0.0
 11
2849.7911960000001
 21
5354.0153080000009
 31
0.0
  0
LINE
  5
7B5F
  8
1
  6
CONTINUOUS
 10
2891.7911960000001
 20
5287.283390999999
 30
0.0
 11
2891.7911960000001
 21
5354.0153080000009
 31
0.0
  0
LINE
  5
7B60
  8
1
  6
CONTINUOUS
 10
2950.7911960000001
 20
5217.2833909999999
 30
0.0
 11
2950.7911960000001
 21
5287.283390999999
 31
0.0
  0
LINE
  5
7B61
  8
1
  6
CONTINUOUS
 10
2790.7911960000001
 20
5217.2833909999999
 30
0.0
 11
2790.7911960000001
 21
5287.283390999999
 31
0.0
  0
LINE
  5
7B62
  8
1
  6
CONTINUOUS
 10
2950.7911960000001
 20
5217.2833909999999
 30
0.0
 11
2790.7911960000001
 21
5217.2833909999999
 31
0.0
  0
LINE
  5
7B63
  8
1
  6
CONTINUOUS
 10
2950.7911960000001
 20
5287.283390999999
 30
0.0
 11
2790.7911960000001
 21
5287.283390999999
 31
0.0
  0
LINE
  5
7B64
  8
1
  6
CONTINUOUS
 10
3032.7911960000001
 20
5354.0153080000009
 30
0.0
 11
2708.7911960000001
 21
5354.0153080000009
 31
0.0
  0
LINE
  5
7B65
  8
1
  6
CONTINUOUS
 10
3179.942305
 20
5136.2833909999999
 30
0.0
 11
3129.942305
 21
5136.2833909999999
 31
0.0
  0
LINE
  5
7B66
  8
1
  6
CONTINUOUS
 10
3079.942305
 20
5182.2833909999999
 30
0.0
 11
3079.942305
 21
5322.2833909999999
 31
0.0
  0
LINE
  5
7B67
  8
1
  6
CONTINUOUS
 10
3032.7911960000001
 20
5839.015308
 30
0.0
 11
2708.7911960000001
 21
5839.015308
 31
0.0
  0
LINE
  5
7B68
  8
1
  6
CONTINUOUS
 10
3179.942305
 20
6066.2833909999999
 30
0.0
 11
3129.942305
 21
6066.2833909999999
 31
0.0
  0
LINE
  5
7B8B
  8
2
  6
CENTER
 10
3242.2372270000001
 20
5662.283390999999
 30
0.0
 11
1535.0519389999999
 21
5662.283390999999
 31
0.0
  0
LINE
  5
7B8C
  8
2
  6
CENTER
 10
4607.107422
 20
4452.4335709999996
 30
0.0
 11
4607.107422
 21
2862.3616200000001
 31
0.0
  0
LINE
  5
7B8D
  8
2
  6
CENTER
 10
2149.942305
 20
4419.2545499999987
 30
0.0
 11
2149.942305
 21
2812.0321800000002
 31
0.0
  0
LINE
  5
7B8E
  8
2
  6
CENTER
 10
4018.9273249999992
 20
3863.391247
 30
0.0
 11
4921.7601869999999
 21
3863.391247
 31
0.0
  0
LINE
  5
7B8F
  8
4
  6
CONTINUOUS
 10
5550.0
 20
1500.0
 30
0.0
 11
5550.0
 21
900.0
 31
0.0
  0
LINE
  5
7B90
  8
4
  6
CONTINUOUS
 10
3450.0
 20
1500.0
 30
0.0
 11
3450.0
 21
900.0
 31
0.0
  0
LINE
  5
7B91
  8
4
  6
CONTINUOUS
 10
1950.0
 20
1500.0
 30
0.0
 11
1950.0
 21
900.0
 31
0.0
  0
LINE
  5
7B94
  8
4
  6
CONTINUOUS
 10
1950.0
 20
900.0
 30
0.0
 11
5550.0
 21
900.0
 31
0.0
  0
LINE
  5
7B95
  8
4
  6
CONTINUOUS
 10
1950.0
 20
1200.0
 30
0.0
 11
5550.0
 21
1200.0
 31
0.0
  0
TEXT
  5
7B96
  8
4
  6
CONTINUOUS
 10
2065.5062429999989
 20
1294.6290779999999
 30
0.0
 40
150.0
  1
機器名称
  0
TEXT
  5
7B97
  8
4
  6
CONTINUOUS
 10
2058.7743179999989
 20
964.9354699999999
 30
0.0
 40
150.0
  1
機器型番
  0
TEXT
  5
7B98
  8
4
  6
CONTINUOUS
 10
3533.0362359999999
 20
1267.7153069999999
 30
0.0
 40
150.0
  1
ミツヤ多翼送風機
  0
TEXT
  5
7B99
  8
4
  6
CONTINUOUS
 10
3559.9634869999991
 20
951.47875299999987
 30
0.0
 40
150.0
  1
MF#4-4
  0
TEXT
  5
7B9B
  8
4
  6
CONTINUOUS
 10
2203.3035070000001
 20
7150.2865239999992
 30
0.0
 40
162.0
  1
天井吊防振ベット
  0
TEXT
  5
7B9C
  8
4
  6
CONTINUOUS
 10
948.50278000000014
 20
7601.6429289999996
 30
0.0
 40
216.0
  1
ベルト駆動式片吸込両持多翼ファン
  0
LINE
  5
7B9D
  8
4
  6
CONTINUOUS
 10
750.0
 20
7408.2262629999996
 30
0.0
 11
5550.0
 21
7408.2262629999996
 31
0.0
  0
LINE
  5
7B9E
  8
4
  6
CONTINUOUS
 10
750.0
 20
8008.2262629999996
 30
0.0
 11
5550.0
 21
8008.2262629999996
 31
0.0
  0
LINE
  5
7B9F
  8
4
  6
CONTINUOUS
 10
1950.0
 20
1500.0
 30
0.0
 11
5550.0
 21
1500.0
 31
0.0
  0
LINE
  5
7BA0
  8
4
  6
CONTINUOUS
 10
750.0
 20
8008.2262629999996
 30
0.0
 11
750.0
 21
7408.2262629999996
 31
0.0
  0
TEXT
  5
7BA1
  8
4
  6
CONTINUOUS
 10
895.72700999999995
 20
7146.9584329999998
 30
0.0
 40
162.0
  1
右回転左横向
  0
TEXT
  5
7BA2
  8
4
  6
CONTINUOUS
 10
4406.9086779999989
 20
8118.1832439999989
 30
0.0
 40
168.0
  1
No.
  0
TEXT
  5
7BA3
  8
4
  6
CONTINUOUS
 10
3933.8881879999999
 20
7150.2865239999992
 30
0.0
 40
162.0
  1
縮尺：1/30
  0
LINE
  5
7BA4
  8
4
  6
CONTINUOUS
 10
5550.0
 20
8008.2262629999996
 30
0.0
 11
5550.0
 21
7408.2262629999996
 31
0.0
  0
LINE
  5
7BA6
  8
4
  6
CONTINUOUS
 10
4321.8522670000002
 20
8043.7907490000007
 30
0.0
 11
4321.8522670000002
 21
8359.9567849999985
 31
0.0
  0
LINE
  5
7BA7
  8
4
  6
CONTINUOUS
 10
4321.8522670000002
 20
8359.9567849999985
 30
0.0
 11
5550.0
 21
8359.9567849999985
 31
0.0
  0
LINE
  5
7BA8
  8
4
  6
CONTINUOUS
 10
5550.0
 20
8359.9567849999985
 30
0.0
 11
5550.0
 21
8043.7907490000007
 31
0.0
  0
LINE
  5
7BA9
  8
4
  6
CONTINUOUS
 10
5550.0
 20
8043.7907490000007
 30
0.0
 11
4321.8522670000002
 21
8043.7907490000007
 31
0.0
  0
DIMENSION
  5
7BC1
  8
3
  6
CONTINUOUS
  2
*D1
 10
1576.6260360000001
 20
3243.391247
 30
0.0
 11
1576.626035999999
 21
3555.4927369999991
 31
0.0
 70
   128
 13
1664.942305
 23
3893.391247
 33
0.0
 14
1664.942305
 24
3243.391247
 34
0.0
 50
90.0
1001
ACAD
1000
DSTYLE
1002
{
1070
   287
1070
     3
1070
   287
1070
     3
1070
    40
1040
30.0
1070
   143
1040
0.039
1070
   172
1070
     1
1070
   271
1070
     0
1070
   279
1070
     0
1070
   288
1070
     1
1002
}
  0
DIMENSION
  5
7BCE
  8
3
  6
CONTINUOUS
  2
*D2
 10
1396.559948000001
 20
3863.391247
 30
0.0
 11
1396.5599480000001
 21
3555.4927369999991
 31
0.0
 70
   128
 13
1664.942305
 23
3243.391247
 33
0.0
 14
1540.6400529999989
 24
3863.391247
 34
0.0
 50
90.0
1001
ACAD
1000
DSTYLE
1002
{
1070
   287
1070
     3
1070
   287
1070
     3
1070
    40
1040
30.0
1070
   143
1040
0.039
1070
   172
1070
     1
1070
   271
1070
     0
1070
   279
1070
     0
1070
   288
1070
     1
1002
}
  0
DIMENSION
  5
7BE7
  8
3
  6
CONTINUOUS
  2
*D3
 10
1222.9248379999999
 20
3063.391247
 30
0.0
 11
1147.924837999999
 21
3463.391247
 31
0.0
 70
     0
 13
1540.6400529999989
 23
3863.391247
 33
0.0
 14
1719.942305
 24
3063.391247
 34
0.0
 50
90.0
1001
ACAD
1000
DSTYLE
1002
{
1070
   287
1070
     4
1070
   287
1070
     4
1070
    40
1040
30.0
1070
    75
1070
     1
1070
   143
1040
0.039
1070
   172
1070
     1
1070
   271
1070
     0
1070
   279
1070
     1
1070
   288
1070
     1
1002
}
  0
DIMENSION
  5
7BF7
  8
3
  6
CONTINUOUS
  2
*D4
 10
1221.664121
 20
2937.391247
 30
0.0
 11
1221.664121
 21
2682.391247
 31
0.0
 70
   128
 13
1719.942305
 23
3063.391247
 33
0.0
 14
1669.942305
 24
2937.391247
 34
0.0
 50
90.0
1001
ACAD
1000
DSTYLE
1002
{
1070
   287
1070
     3
1070
   287
1070
     3
1070
    40
1040
30.0
1070
   143
1040
0.039
1070
   172
1070
     1
1070
   271
1070
     0
1070
   279
1070
     0
1070
   288
1070
     1
1002
}
  0
DIMENSION
  5
7C11
  8
3
  6
CONTINUOUS
  2
*D5
 10
2149.942305
 20
2523.3951405656539
 30
0.0
 11
1911.0344480000001
 21
2523.3951405656539
 31
0.0
 70
   128
 13
1669.942305
 23
2937.391247
 33
0.0
 14
2149.942305
 24
2812.0321800000002
 34
0.0
1001
ACAD
1000
DSTYLE
1002
{
1070
   287
1070
     3
1070
   287
1070
     3
1070
    40
1040
30.0
1070
   143
1040
0.039
1070
   172
1070
     1
1070
   271
1070
     0
1070
   279
1070
     0
1070
   288
1070
     1
1002
}
  0
DIMENSION
  5
7C1D
  8
3
  6
CONTINUOUS
  2
*D6
 10
3179.942305
 20
2523.3951405656539
 30
0.0
 11
2664.942305
 21
2598.3951405656539
 31
0.0
 70
     0
 13
2149.942305
 23
2812.0321800000002
 33
0.0
 14
3179.942305
 24
2937.391247
 34
0.0
1001
ACAD
1000
DSTYLE
1002
{
1070
   287
1070
     4
1070
   287
1070
     4
1070
    40
1040
30.0
1070
    75
1070
     1
1070
   143
1040
0.039
1070
   172
1070
     1
1070
   271
1070
     0
1070
   279
1070
     1
1070
   288
1070
     1
1002
}
  0
DIMENSION
  5
7C2A
  8
3
  6
CONTINUOUS
  2
*D7
 10
2149.942305
 20
4467.8328739999997
 30
0.0
 11
1911.0344480000001
 21
4467.8328739999997
 31
0.0
 70
   128
 13
1664.942305
 23
3933.391247
 33
0.0
 14
2149.942305
 24
4419.2545499999987
 34
0.0
1001
ACAD
1000
DSTYLE
1002
{
1070
   287
1070
     3
1070
   287
1070
     3
1070
    40
1040
30.0
1070
   143
1040
0.039
1070
   172
1070
     1
1070
   271
1070
     0
1070
   279
1070
     0
1070
   288
1070
     1
1002
}
  0
DIMENSION
  5
7C43
  8
3
  6
CONTINUOUS
  2
*D8
 10
4369.607422
 20
4489.3448090000002
 30
0.0
 11
4575.3217079999986
 21
4489.3448090000002
 31
0.0
 70
   128
 13
4844.607422
 23
4316.6456939999989
 33
0.0
 14
4369.607422
 24
4316.6456939999989
 34
0.0
1001
ACAD
1000
DSTYLE
1002
{
1070
   287
1070
     3
1070
   287
1070
     3
1070
    40
1040
30.0
1070
   143
1040
0.039
1070
   172
1070
     1
1070
   271
1070
     0
1070
   279
1070
     0
1070
   288
1070
     1
1002
}
  0
LINE
  5
7C44
  8
1
  6
CONTINUOUS
 10
4848.107422
 20
3528.391247
 30
0.0
 11
4848.107422
 21
4198.3912469999987
 31
0.0
  0
DIMENSION
  5
7C53
  8
3
  6
CONTINUOUS
  2
*D9
 10
5082.5334890000022
 20
3528.391247
 30
0.0
 11
5082.5334890000013
 21
3863.889396999999
 31
0.0
 70
   128
 13
4848.107422
 23
4198.3912469999987
 33
0.0
 14
4848.107422
 24
3528.391247
 34
0.0
 50
90.0
1001
ACAD
1000
DSTYLE
1002
{
1070
   287
1070
     3
1070
   287
1070
     3
1070
     3
1000
φ<>
1070
    40
1040
30.0
1070
   143
1040
0.039
1070
   172
1070
     1
1070
   271
1070
     0
1070
   279
1070
     0
1070
   288
1070
     1
1002
}
  0
DIMENSION
  5
7C61
  8
3
  6
CONTINUOUS
  2
*D10
 10
4607.107422
 20
4675.6678019999999
 30
0.0
 11
4722.9776403851756
 21
4773.2005477637504
 31
0.0
 70
   128
 13
4848.107422
 23
4198.3912469999987
 33
0.0
 14
4607.107422
 24
4620.8338119999989
 34
0.0
1001
ACAD
1000
DSTYLE
1002
{
1070
   288
1070
     1
1070
   172
1070
     1
1070
    40
1040
30.0
1070
   271
1070
     0
1070
   143
1040
0.039
1002
}
  0
DIMENSION
  5
7C6D
  8
3
  6
CONTINUOUS
  2
*D11
 10
4127.107422
 20
4675.6678019999999
 30
0.0
 11
4367.107422
 21
4825.6678019999999
 31
0.0
 70
     0
  1
MAX\P530
 13
4607.107422
 23
4620.8338119999989
 33
0.0
 14
4127.107422
 24
4163.3912469999987
 34
0.0
1001
ACAD
1000
DSTYLE
1002
{
1070
   287
1070
     4
1070
   287
1070
     4
1070
    40
1040
30.0
1070
    75
1070
     1
1070
   143
1040
0.039
1070
   172
1070
     1
1070
   271
1070
     0
1070
   279
1070
     1
1070
   288
1070
     1
1002
}
  0
DIMENSION
  5
7C7A
  8
3
  6
CONTINUOUS
  2
*D12
 10
4607.107422
 20
2508.8239655656539
 30
0.0
 11
4342.9764260000002
 21
2508.8239655656539
 31
0.0
 70
   128
 13
4081.107422
 23
2937.391247
 33
0.0
 14
4607.107422
 24
2862.3616200000001
 34
0.0
1001
ACAD
1000
DSTYLE
1002
{
1070
   287
1070
     3
1070
   287
1070
     3
1070
    40
1040
30.0
1070
   143
1040
0.039
1070
   172
1070
     1
1070
   271
1070
     0
1070
   279
1070
     0
1070
   288
1070
     1
1002
}
  0
DIMENSION
  5
7C88
  8
3
  6
CONTINUOUS
  2
*D13
 10
5011.107422
 20
2508.8239655656539
 30
0.0
 11
4813.5045270000001
 21
2509.702795565654
 31
0.0
 70
   128
 13
4607.107422
 23
2862.3616200000001
 33
0.0
 14
5011.107422
 24
2937.391247
 34
0.0
1001
ACAD
1000
DSTYLE
1002
{
1070
   287
1070
     4
1070
   287
1070
     4
1070
    40
1040
30.0
1070
    75
1070
     1
1070
   143
1040
0.039
1070
   172
1070
     1
1070
   271
1070
     0
1070
   279
1070
     1
1070
   288
1070
     1
1002
}
  0
DIMENSION
  5
7CAB
  8
3
  6
CONTINUOUS
  2
*D14
 10
3179.942305
 20
6251.9957290000002
 30
0.0
 11
2386.9233749999989
 21
6251.9957290000002
 31
0.0
 70
   128
 13
1669.942305
 23
6066.2833909999999
 33
0.0
 14
3179.942305
 24
6066.2833909999999
 34
0.0
1001
ACAD
1000
DSTYLE
1002
{
1070
   287
1070
     3
1070
   287
1070
     3
1070
    40
1040
30.0
1070
   143
1040
0.039
1070
   172
1070
     1
1070
   271
1070
     0
1070
   279
1070
     0
1070
   288
1070
     1
1002
}
  0
DIMENSION
  5
7CB8
  8
3
  6
CONTINUOUS
  2
*D15
 10
3435.1651600000009
 20
5136.2833909999999
 30
0.0
 11
3435.16516
 21
5550.3855219999996
 31
0.0
 70
   128
 13
3179.942305
 23
6066.2833909999999
 33
0.0
 14
3179.942305
 24
5136.2833909999999
 34
0.0
 50
90.0
1001
ACAD
1000
DSTYLE
1002
{
1070
   287
1070
     3
1070
   287
1070
     3
1070
    40
1040
30.0
1070
   143
1040
0.039
1070
   172
1070
     1
1070
   271
1070
     0
1070
   279
1070
     0
1070
   288
1070
     1
1002
}
  0
DIMENSION
  5
7D12
  8
3
  6
CONTINUOUS
  2
*D16
 10
2671.9423049999991
 20
4467.8328739999997
 30
0.0
 11
2410.942305
 21
4542.8328740000006
 31
0.0
 70
     0
 13
2149.942305
 23
4419.2545499999987
 33
0.0
 14
2671.9423049999991
 24
3863.391247
 34
0.0
1001
ACAD
1000
DSTYLE
1002
{
1070
   287
1070
     4
1070
   287
1070
     4
1070
    40
1040
30.0
1070
    75
1070
     1
1070
   143
1040
0.039
1070
   172
1070
     1
1070
   271
1070
     0
1070
   279
1070
     1
1070
   288
1070
     1
1002
}
  0
DIMENSION
  5
7D8D
  8
3
  2
*D17
 10
3179.942305
 20
4672.6120420323459
 30
0.0
 11
2437.1403795168949
 21
4672.6120420323459
 31
0.0
 70
   128
 13
1664.942305
 23
3933.391247
 33
0.0
 14
3179.942305
 24
3037.391247
 34
0.0
1001
ACAD
1000
DSTYLE
1002
{
1070
   287
1070
     3
1070
   287
1070
     3
1070
    40
1040
30.0
1070
   143
1040
0.039
1070
   172
1070
     1
1070
   271
1070
     0
1070
   279
1070
     0
1070
   288
1070
     1
1002
}
  0
LINE
  5
7DF6
  8
1
  6
CONTINUOUS
 10
1739.942305
 20
3983.3912469999991
 30
0.0
 11
1739.942305
 21
3163.3912469999991
 31
0.0
  0
LINE
  5
7DF7
  8
1
  6
CONTINUOUS
 10
2559.942305
 20
4141.0690444453503
 30
0.0
 11
2559.9423049999991
 21
3163.3912469999991
 31
0.0
  0
LINE
  5
7DF8
  8
1
  6
CONTINUOUS
 10
1739.942305
 20
3983.3912469999991
 30
0.0
 11
2559.942305
 21
3983.3912470000009
 31
0.0
  0
DIMENSION
  5
7DFA
  8
3
  2
*D18
 10
1222.9248379999999
 20
4316.5801500030038
 30
0.0
 11
1147.924837999999
 21
4089.9856985015022
 31
0.0
 70
     0
  1
452
 13
1540.6400529999989
 23
3863.391247
 33
0.0
 14
2176.942305
 24
4316.580150003002
 34
0.0
 50
90.0
1001
ACAD
1000
DSTYLE
1002
{
1070
   287
1070
     4
1070
   287
1070
     4
1070
    40
1040
30.0
1070
   143
1040
0.039
1070
   172
1070
     1
1070
   271
1070
     0
1070
   279
1070
     1
1070
   288
1070
     1
1002
}
  0
ENDSEC
  0
EOF
