  0
SECTION
  2
HEADER
  9
$ACADVER
  1
AC1009
  9
$INSBASE
 10
0.0
 20
0.0
 30
0.0
  9
$EXTMIN
 10
750.0
 20
900.0
 30
0.0
  9
$EXTMAX
 10
5550.0
 20
8359.9567849999985
 30
0.0
  9
$LIMMIN
 10
0.0
 20
0.0
  9
$LIMMAX
 10
297.0
 20
210.0
  9
$ORTHOMODE
 70
     0
  9
$REGENMODE
 70
     1
  9
$FILLMODE
 70
     0
  9
$QTEXTMODE
 70
     0
  9
$MIRRTEXT
 70
     1
  9
$DRAGMODE
 70
     2
  9
$LTSCALE
 40
100.0
  9
$OSMODE
 70
    37
  9
$ATTMODE
 70
     1
  9
$TEXTSIZE
 40
180.0
  9
$TRACEWID
 40
0.05
  9
$TEXTSTYLE
  7
STANDARD
  9
$CLAYER
  8
3
  9
$CELTYPE
  6
BYLAYER
  9
$CECOLOR
 62
   256
  9
$DIMSCALE
 40
30.0
  9
$DIMASZ
 40
2.0
  9
$DIMEXO
 40
0.5
  9
$DIMDLI
 40
10.0
  9
$DIMRND
 40
0.0
  9
$DIMDLE
 40
0.0
  9
$DIMEXE
 40
1.0
  9
$DIMTP
 40
1.0
  9
$DIMTM
 40
1.0
  9
$DIMTXT
 40
3.0
  9
$DIMCEN
 40
0.0
  9
$DIMTSZ
 40
0.0
  9
$DIMTOL
 70
     0
  9
$DIMLIM
 70
     0
  9
$DIMTIH
 70
     0
  9
$DIMTOH
 70
     0
  9
$DIMSE1
 70
     0
  9
$DIMSE2
 70
     0
  9
$DIMTAD
 70
     1
  9
$DIMZIN
 70
     8
  9
$DIMBLK
  1

  9
$DIMASO
 70
     1
  9
$DIMSHO
 70
     1
  9
$DIMPOST
  1

  9
$DIMAPOST
  1

  9
$DIMALT
 70
     0
  9
$DIMALTD
 70
     2
  9
$DIMALTF
 40
0.039
  9
$DIMLFAC
 40
1.0
  9
$DIMTOFL
 70
     1
  9
$DIMTVP
 40
0.0
  9
$DIMTIX
 70
     0
  9
$DIMSOXD
 70
     0
  9
$DIMSAH
 70
     1
  9
$DIMBLK1
  1
OPEN
  9
$DIMBLK2
  1
OPEN
  9
$DIMSTYLE
  2
IGA
  9
$DIMCLRD
 70
     0
  9
$DIMCLRE
 70
     0
  9
$DIMCLRT
 70
     0
  9
$DIMTFAC
 40
10.0
  9
$DIMGAP
 40
1.0
  9
$LUNITS
 70
     2
  9
$LUPREC
 70
     3
  9
$SKETCHINC
 40
0.1
  9
$FILLETRAD
 40
50.0
  9
$AUNITS
 70
     0
  9
$AUPREC
 70
     0
  9
$MENU
  1
acad
  9
$ELEVATION
 40
0.0
  9
$PELEVATION
 40
0.0
  9
$THICKNESS
 40
0.0
  9
$LIMCHECK
 70
     0
  9
$BLIPMODE
 70
     0
  9
$CHAMFERA
 40
0.5
  9
$CHAMFERB
 40
0.5
  9
$SKPOLY
 70
     0
  9
$TDCREATE
 40
2450742.4595489581
  9
$TDUPDATE
 40
2454953.770882153
  9
$TDINDWG
 40
0.0094657639
  9
$TDUSRTIMER
 40
0.0094657639
  9
$USRTIMER
 70
     1
  9
$ANGBASE
 50
0.0
  9
$ANGDIR
 70
     0
  9
$PDMODE
 70
     0
  9
$PDSIZE
 40
0.0
  9
$PLINEWID
 40
0.0
  9
$COORDS
 70
     1
  9
$SPLFRAME
 70
     0
  9
$SPLINETYPE
 70
     6
  9
$SPLINESEGS
 70
     8
  9
$ATTDIA
 70
     0
  9
$ATTREQ
 70
     1
  9
$HANDLING
 70
 10241
  9
$HANDSEED
  5
8022
  9
$SURFTAB1
 70
     6
  9
$SURFTAB2
 70
     6
  9
$SURFTYPE
 70
     6
  9
$SURFU
 70
     6
  9
$SURFV
 70
     6
  9
$UCSNAME
  2

  9
$UCSORG
 10
0.0
 20
0.0
 30
0.0
  9
$UCSXDIR
 10
1.0
 20
0.0
 30
0.0
  9
$UCSYDIR
 10
0.0
 20
1.0
 30
0.0
  9
$PUCSNAME
  2

  9
$PUCSORG
 10
0.0
 20
0.0
 30
0.0
  9
$PUCSXDIR
 10
1.0
 20
0.0
 30
0.0
  9
$PUCSYDIR
 10
0.0
 20
1.0
 30
0.0
  9
$USERI1
 70
     0
  9
$USERI2
 70
     0
  9
$USERI3
 70
     0
  9
$USERI4
 70
     0
  9
$USERI5
 70
     0
  9
$USERR1
 40
0.0
  9
$USERR2
 40
0.0
  9
$USERR3
 40
0.0
  9
$USERR4
 40
0.0
  9
$USERR5
 40
0.0
  9
$WORLDVIEW
 70
     1
  9
$SHADEDGE
 70
     3
  9
$SHADEDIF
 70
    70
  9
$TILEMODE
 70
     1
  9
$MAXACTVP
 70
    16
  9
$PLIMCHECK
 70
     0
  9
$PEXTMIN
 10
1.0000000000000000E+020
 20
1.0000000000000000E+020
 30
1.0000000000000000E+020
  9
$PEXTMAX
 10
-1.0000000000000000E+020
 20
-1.0000000000000000E+020
 30
-1.0000000000000000E+020
  9
$PLIMMIN
 10
0.0
 20
0.0
  9
$PLIMMAX
 10
12.0
 20
9.0
  9
$UNITMODE
 70
     0
  9
$VISRETAIN
 70
     0
  9
$PLINEGEN
 70
     0
  9
$PSLTSCALE
 70
     1
  0
ENDSEC
  0
SECTION
  2
TABLES
  0
TABLE
  2
VPORT
 70
     2
  0
VPORT
  2
*ACTIVE
 70
     0
 10
0.0
 20
0.0
 11
1.0
 21
1.0
 12
9438.4567678319436
 22
4630.0975558305709
 13
0.0
 23
0.0
 14
10.0
 24
10.0
 15
10.0
 25
10.0
 16
0.0
 26
0.0
 36
1.0
 17
0.0
 27
0.0
 37
0.0
 40
7517.4747125171307
 41
3.1666666666666661
 42
50.0
 43
0.0
 44
0.0
 50
0.0
 51
0.0
 71
     0
 72
   100
 73
     1
 74
     0
 75
     0
 76
     0
 77
     0
 78
     0
  0
ENDTAB
  0
TABLE
  2
LTYPE
 70
     2
  0
LTYPE
  2
CONTINUOUS
 70
     0
  3
Solid line
 72
    65
 73
     0
 40
0.0
  0
LTYPE
  2
CENTER
 70
     0
  3
____ _ ____ _ ____ _ ____ _ ____ _ ____ _ ____ 
 72
    65
 73
     4
 40
2.0
 49
1.25
 49
-0.25
 49
0.25
 49
-0.25
  0
ENDTAB
  0
TABLE
  2
LAYER
 70
     6
  0
LAYER
  2
0
 70
     0
 62
     7
  6
CONTINUOUS
  0
LAYER
  2
3
 70
     0
 62
     2
  6
CONTINUOUS
  0
LAYER
  2
2
 70
     0
 62
     3
  6
CENTER
  0
LAYER
  2
1
 70
     0
 62
     4
  6
CONTINUOUS
  0
LAYER
  2
4
 70
     0
 62
     7
  6
CONTINUOUS
  0
LAYER
  2
DEFPOINTS
 70
     0
 62
     7
  6
CONTINUOUS
  0
ENDTAB
  0
TABLE
  2
STYLE
 70
     1
  0
STYLE
  2
STANDARD
 70
     0
 40
0.0
 41
1.0
 50
0.0
 71
     0
 42
180.0
  3
simplex.shx
  4
extfont.shx
  0
ENDTAB
  0
TABLE
  2
VIEW
 70
     0
  0
ENDTAB
  0
TABLE
  2
UCS
 70
     0
  0
ENDTAB
  0
TABLE
  2
APPID
 70
     1
  0
APPID
  2
ACAD
 70
     0
  0
ENDTAB
  0
TABLE
  2
DIMSTYLE
 70
     1
  0
DIMSTYLE
  2
IGA
 70
     0
  3

  4

  5

  6
OPEN
  7
OPEN
 40
2.0
 41
2.0
 42
0.5
 43
10.0
 44
1.0
 45
0.0
 46
0.0
 47
1.0
 48
1.0
140
3.0
141
0.0
142
0.0
143
0.03937
144
1.0
145
0.0
146
10.0
147
1.0
 71
     0
 72
     0
 73
     0
 74
     0
 75
     0
 76
     0
 77
     1
 78
     8
170
     0
171
     2
172
     0
173
     1
174
     0
175
     0
176
     0
177
     0
178
     0
  0
ENDTAB
  0
ENDSEC
  0
SECTION
  2
BLOCKS
  0
BLOCK
  8
0
  2
$MODEL_SPACE
 70
     0
 10
0.0
 20
0.0
 30
0.0
  3
$MODEL_SPACE
  1

  0
ENDBLK
  5
1B
  8
0
  0
BLOCK
 67
     1
  8
0
  2
$PAPER_SPACE
 70
     0
 10
0.0
 20
0.0
 30
0.0
  3
$PAPER_SPACE
  1

  0
ENDBLK
  5
18
 67
     1
  8
0
  0
BLOCK
  8
0
  2
_OPEN
 70
     0
 10
0.0
 20
0.0
 30
0.0
  3
_OPEN
  1

  0
LINE
  5
7B0A
  8
0
  6
BYBLOCK
 62
     0
 10
-1.0
 20
0.166667
 30
0.0
 11
0.0
 21
0.0
 31
0.0
  0
LINE
  5
7B0B
  8
0
  6
BYBLOCK
 62
     0
 10
0.0
 20
0.0
 30
0.0
 11
-1.0
 21
-0.166667
 31
0.0
  0
LINE
  5
7B0C
  8
0
  6
BYBLOCK
 62
     0
 10
0.0
 20
0.0
 30
0.0
 11
-1.0
 21
0.0
 31
0.0
  0
ENDBLK
  5
7B0D
  8
0
  0
BLOCK
  8
0
  2
*D1
 70
     1
 10
0.0
 20
0.0
 30
0.0
  3
*D1
  1

  0
LINE
  5
7F79
  8
3
  6
CONTINUOUS
 62
     0
 10
1680.2305839999999
 20
3665.166577
 30
0.0
 11
1680.2305839999999
 21
3807.972327
 31
0.0
  0
LINE
  5
7F7A
  8
3
  6
CONTINUOUS
 62
     0
 10
2330.2305839999999
 20
3665.166577
 30
0.0
 11
2330.2305839999999
 21
3807.972327
 31
0.0
  0
LINE
  5
7F7B
  8
3
  6
CONTINUOUS
 62
     0
 10
1740.2305839999999
 20
3777.972327
 30
0.0
 11
2270.2305839999999
 21
3777.972327
 31
0.0
  0
INSERT
  5
7F7C
  8
3
  6
CONTINUOUS
 62
     0
  2
_OPEN
 10
1680.2305839999999
 20
3777.972327
 30
0.0
 41
60.0
 42
60.0
 43
60.0
 50
180.0
  0
INSERT
  5
7F7D
  8
3
  6
CONTINUOUS
 62
     0
  2
_OPEN
 10
2330.2305839999999
 20
3777.972327
 30
0.0
 41
60.0
 42
60.0
 43
60.0
  0
TEXT
  8
3
  40
90
  5
8010
  62
0
  72
0
  71
0
 10
1821.02
 20
3693.67
 30
0.000000
  1
650
  0
POINT
  5
7F7F
  8
DEFPOINTS
  6
CONTINUOUS
 62
     0
 10
1680.2305839999999
 20
3650.166577
 30
0.0
  0
POINT
  5
7F80
  8
DEFPOINTS
  6
CONTINUOUS
 62
     0
 10
2330.2305839999999
 20
3650.166577
 30
0.0
  0
POINT
  5
7F81
  8
DEFPOINTS
  6
CONTINUOUS
 62
     0
 10
2330.2305839999999
 20
3777.972327
 30
0.0
  0
ENDBLK
  5
7B1A
  8
0
  0
BLOCK
  8
0
  2
*D2
 70
     1
 10
0.0
 20
0.0
 30
0.0
  3
*D2
  1

  0
LINE
  5
7F82
  8
3
  6
CONTINUOUS
 62
     0
 10
1680.2305839999999
 20
3665.166577
 30
0.0
 11
1680.2305839999999
 21
4008.2378829999989
 31
0.0
  0
LINE
  5
7F83
  8
3
  6
CONTINUOUS
 62
     0
 10
2300.230583999999
 20
3823.5356550000001
 30
0.0
 11
2300.230583999999
 21
4008.2378829999989
 31
0.0
  0
LINE
  5
7F84
  8
3
  6
CONTINUOUS
 62
     0
 10
1740.2305839999999
 20
3978.2378829999998
 30
0.0
 11
2240.2305839999999
 21
3978.2378829999998
 31
0.0
  0
INSERT
  5
7F85
  8
3
  6
CONTINUOUS
 62
     0
  2
_OPEN
 10
1680.2305839999999
 20
3978.2378829999998
 30
0.0
 41
60.0
 42
60.0
 43
60.0
 50
180.0
  0
INSERT
  5
7F86
  8
3
  6
CONTINUOUS
 62
     0
  2
_OPEN
 10
2300.230583999999
 20
3978.2378829999998
 30
0.0
 41
60.0
 42
60.0
 43
60.0
  0
TEXT
  8
3
  40
90
  5
8011
  62
0
  72
0
  71
0
 10
1821.02
 20
3893.94
 30
0.000000
  1
620
  0
POINT
  5
7F88
  8
DEFPOINTS
  6
CONTINUOUS
 62
     0
 10
1680.2305839999999
 20
3650.166577
 30
0.0
  0
POINT
  5
7F89
  8
DEFPOINTS
  6
CONTINUOUS
 62
     0
 10
2300.230583999999
 20
3808.5356550000001
 30
0.0
  0
POINT
  5
7F8A
  8
DEFPOINTS
  6
CONTINUOUS
 62
     0
 10
2300.230583999999
 20
3978.2378829999998
 30
0.0
  0
ENDBLK
  5
7CCD
  8
0
  0
BLOCK
  8
0
  2
*D3
 70
     1
 10
0.0
 20
0.0
 30
0.0
  3
*D3
  1

  0
LINE
  5
7F8B
  8
3
  6
CONTINUOUS
 62
     0
 10
2385.230583999999
 20
3650.166577
 30
0.0
 11
3126.3310210000009
 21
3650.166577
 31
0.0
  0
LINE
  5
7F8C
  8
3
  6
CONTINUOUS
 62
     0
 10
2869.147868
 20
3165.166577
 30
0.0
 11
3126.3310210000009
 21
3165.1665769999991
 31
0.0
  0
LINE
  5
7F8D
  8
3
  6
CONTINUOUS
 62
     0
 10
3096.3310210000009
 20
3590.166577
 30
0.0
 11
3096.3310210000009
 21
3225.1665769999991
 31
0.0
  0
INSERT
  5
7F8E
  8
3
  6
CONTINUOUS
 62
     0
  2
_OPEN
 10
3096.3310210000009
 20
3650.166577
 30
0.0
 41
60.0
 42
60.0
 43
60.0
 50
90.0
  0
INSERT
  5
7F8F
  8
3
  6
CONTINUOUS
 62
     0
  2
_OPEN
 10
3096.3310210000009
 20
3165.1665769999991
 30
0.0
 41
60.0
 42
60.0
 43
60.0
 50
270.0
  0
TEXT
  8
3
  40
90
  5
8012
  62
0
  72
0
  71
0
 10
2841.33
 20
3242.93
 30
0.000000
  1
485
  0
POINT
  5
7F91
  8
DEFPOINTS
  6
CONTINUOUS
 62
     0
 10
2370.2305839999999
 20
3650.166577
 30
0.0
  0
POINT
  5
7F92
  8
DEFPOINTS
  6
CONTINUOUS
 62
     0
 10
2854.147868
 20
3165.166577
 30
0.0
  0
POINT
  5
7F93
  8
DEFPOINTS
  6
CONTINUOUS
 62
     0
 10
3096.3310210000009
 20
3165.1665769999991
 30
0.0
  0
ENDBLK
  5
7CAE
  8
0
  0
BLOCK
  8
0
  2
*D4
 70
     1
 10
0.0
 20
0.0
 30
0.0
  3
*D4
  1

  0
LINE
  5
7F94
  8
3
  6
CONTINUOUS
 62
     0
 10
2745.2305839999999
 20
2595.166577
 30
0.0
 11
3126.331021
 21
2595.1665769999991
 31
0.0
  0
LINE
  5
7F95
  8
3
  6
CONTINUOUS
 62
     0
 10
3096.3310210000009
 20
3105.1665769999991
 30
0.0
 11
3096.331021
 21
2655.1665769999991
 31
0.0
  0
INSERT
  5
7F96
  8
3
  6
CONTINUOUS
 62
     0
  2
_OPEN
 10
3096.3310210000009
 20
3165.1665769999991
 30
0.0
 41
60.0
 42
60.0
 43
60.0
 50
90.0
  0
INSERT
  5
7F97
  8
3
  6
CONTINUOUS
 62
     0
  2
_OPEN
 10
3096.331021
 20
2595.1665769999991
 30
0.0
 41
60.0
 42
60.0
 43
60.0
 50
270.0
  0
TEXT
  8
3
  40
90
  5
8013
  62
0
  72
0
  71
0
 10
2841.33
 20
2720.87
 30
0.000000
  1
570
  0
POINT
  5
7F99
  8
DEFPOINTS
  6
CONTINUOUS
 62
     0
 10
2854.147868
 20
3165.166577
 30
0.0
  0
POINT
  5
7F9A
  8
DEFPOINTS
  6
CONTINUOUS
 62
     0
 10
2730.2305839999999
 20
2595.166577
 30
0.0
  0
POINT
  5
7F9B
  8
DEFPOINTS
  6
CONTINUOUS
 62
     0
 10
3096.331021
 20
2595.1665769999991
 30
0.0
  0
ENDBLK
  5
7CB8
  8
0
  0
BLOCK
  8
0
  2
*D5
 70
     1
 10
0.0
 20
0.0
 30
0.0
  3
*D5
  1

  0
LINE
  5
7F9C
  8
3
  6
CONTINUOUS
 62
     0
 10
2745.2305839999999
 20
2595.166577
 30
0.0
 11
3124.9919180000002
 21
2595.1665769999991
 31
0.0
  0
LINE
  5
7F9D
  8
3
  6
CONTINUOUS
 62
     0
 10
2795.2305839999999
 20
2469.166577
 30
0.0
 11
3124.9919180000002
 21
2469.1665769999991
 31
0.0
  0
LINE
  5
7F9E
  8
3
  6
CONTINUOUS
 62
     0
 10
3094.9919180000002
 20
2655.1665769999991
 30
0.0
 11
3094.9919180000002
 21
2715.1665769999991
 31
0.0
  0
LINE
  5
7F9F
  8
3
  6
CONTINUOUS
 62
     0
 10
3094.9919180000002
 20
2409.1665769999991
 30
0.0
 11
3094.9919180000002
 21
2079.1665769999991
 31
0.0
  0
LINE
  5
7FA0
  8
3
  6
CONTINUOUS
 62
     0
 10
3094.9919180000002
 20
2595.1665769999991
 30
0.0
 11
3094.9919180000002
 21
2469.1665769999991
 31
0.0
  0
INSERT
  5
7FA1
  8
3
  6
CONTINUOUS
 62
     0
  2
_OPEN
 10
3094.9919180000002
 20
2595.1665769999991
 30
0.0
 41
60.0
 42
60.0
 43
60.0
 50
270.0
  0
INSERT
  5
7FA2
  8
3
  6
CONTINUOUS
 62
     0
  2
_OPEN
 10
3094.9919180000002
 20
2469.1665769999991
 30
0.0
 41
60.0
 42
60.0
 43
60.0
 50
90.0
  0
TEXT
  8
3
  40
90
  5
8014
  62
0
  72
0
  71
0
 10
2839.99
 20
2054.87
 30
0.000000
  1
126
  0
POINT
  5
7FA4
  8
DEFPOINTS
  6
CONTINUOUS
 62
     0
 10
2730.2305839999999
 20
2595.166577
 30
0.0
  0
POINT
  5
7FA5
  8
DEFPOINTS
  6
CONTINUOUS
 62
     0
 10
2780.230583999999
 20
2469.166577
 30
0.0
  0
POINT
  5
7FA6
  8
DEFPOINTS
  6
CONTINUOUS
 62
     0
 10
3094.9919180000002
 20
2469.1665769999991
 30
0.0
  0
ENDBLK
  5
7D5A
  8
0
  0
BLOCK
  8
0
  2
*D6
 70
     1
 10
0.0
 20
0.0
 30
0.0
  3
*D6
  1

  0
LINE
  5
7FA7
  8
3
  6
CONTINUOUS
 62
     0
 10
2400.2305839999999
 20
3650.166577
 30
0.0
 11
3386.385631000001
 21
3650.166577
 31
0.0
  0
LINE
  5
7FA8
  8
3
  6
CONTINUOUS
 62
     0
 10
2795.2305839999999
 20
2469.166577
 30
0.0
 11
3386.3856310000001
 21
2469.1665769999991
 31
0.0
  0
LINE
  5
7FA9
  8
3
  6
CONTINUOUS
 62
     0
 10
3356.385631000001
 20
3590.166577
 30
0.0
 11
3356.3856310000001
 21
2529.1665769999991
 31
0.0
  0
INSERT
  5
7FAA
  8
3
  6
CONTINUOUS
 62
     0
  2
_OPEN
 10
3356.385631000001
 20
3650.166577
 30
0.0
 41
60.0
 42
60.0
 43
60.0
 50
90.0
  0
INSERT
  5
7FAB
  8
3
  6
CONTINUOUS
 62
     0
  2
_OPEN
 10
3356.3856310000001
 20
2469.1665769999991
 30
0.0
 41
60.0
 42
60.0
 43
60.0
 50
270.0
  0
TEXT
  8
3
  40
90
  5
8015
  62
0
  72
0
  71
0
 10
3101.39
 20
2833.18
 30
0.000000
  1
1181
  0
POINT
  5
7FAD
  8
DEFPOINTS
  6
CONTINUOUS
 62
     0
 10
2385.230583999999
 20
3650.166577
 30
0.0
  0
POINT
  5
7FAE
  8
DEFPOINTS
  6
CONTINUOUS
 62
     0
 10
2780.230583999999
 20
2469.166577
 30
0.0
  0
POINT
  5
7FAF
  8
DEFPOINTS
  6
CONTINUOUS
 62
     0
 10
3356.3856310000001
 20
2469.1665769999991
 30
0.0
  0
ENDBLK
  5
7C97
  8
0
  0
BLOCK
  8
0
  2
*D7
 70
     1
 10
0.0
 20
0.0
 30
0.0
  3
*D7
  1

  0
LINE
  5
7FB0
  8
3
  6
CONTINUOUS
 62
     0
 10
1270.2305839999999
 20
2454.166577
 30
0.0
 11
1270.2305839999999
 21
2163.6354199999992
 31
0.0
  0
LINE
  5
7FB1
  8
3
  6
CONTINUOUS
 62
     0
 10
2300.230583999999
 20
2207.479096
 30
0.0
 11
2300.230583999999
 21
2223.6354200000001
 31
0.0
  0
LINE
  5
7FB2
  8
3
  6
CONTINUOUS
 62
     0
 10
1330.230583999999
 20
2193.6354200000001
 30
0.0
 11
2240.2305839999999
 21
2193.6354200000001
 31
0.0
  0
INSERT
  5
7FB3
  8
3
  6
CONTINUOUS
 62
     0
  2
_OPEN
 10
1270.2305839999999
 20
2193.6354200000001
 30
0.0
 41
60.0
 42
60.0
 43
60.0
 50
180.0
  0
INSERT
  5
7FB4
  8
3
  6
CONTINUOUS
 62
     0
  2
_OPEN
 10
2300.230583999999
 20
2193.6354200000001
 30
0.0
 41
60.0
 42
60.0
 43
60.0
  0
TEXT
  8
3
  40
90
  5
8016
  62
0
  72
0
  71
0
 10
1626.91
 20
2109.34
 30
0.000000
  1
1030
  0
POINT
  5
7FB6
  8
DEFPOINTS
  6
CONTINUOUS
 62
     0
 10
1270.2305839999999
 20
2469.166577
 30
0.0
  0
POINT
  5
7FB7
  8
DEFPOINTS
  6
CONTINUOUS
 62
     0
 10
2300.230583999999
 20
2192.479096
 30
0.0
  0
POINT
  5
7FB8
  8
DEFPOINTS
  6
CONTINUOUS
 62
     0
 10
2300.230583999999
 20
2193.6354200000001
 30
0.0
  0
ENDBLK
  5
7D1C
  8
0
  0
BLOCK
  8
0
  2
*D8
 70
     1
 10
0.0
 20
0.0
 30
0.0
  3
*D8
  1

  0
LINE
  5
7FB9
  8
3
  6
CONTINUOUS
 62
     0
 10
2780.230583999999
 20
2454.166577
 30
0.0
 11
2780.230583999999
 21
2163.6354199999992
 31
0.0
  0
LINE
  5
7FBA
  8
3
  6
CONTINUOUS
 62
     0
 10
2360.230583999999
 20
2193.6354200000001
 30
0.0
 11
2720.2305839999999
 21
2193.6354200000001
 31
0.0
  0
INSERT
  5
7FBB
  8
3
  6
CONTINUOUS
 62
     0
  2
_OPEN
 10
2300.230583999999
 20
2193.6354200000001
 30
0.0
 41
60.0
 42
60.0
 43
60.0
 50
180.0
  0
INSERT
  5
7FBC
  8
3
  6
CONTINUOUS
 62
     0
  2
_OPEN
 10
2780.230583999999
 20
2193.6354200000001
 30
0.0
 41
60.0
 42
60.0
 43
60.0
  0
TEXT
  8
3
  40
90
  5
8017
  62
0
  72
0
  71
0
 10
2360.23
 20
2109.34
 30
0.000000
  1
480
  0
POINT
  5
7FBE
  8
DEFPOINTS
  6
CONTINUOUS
 62
     0
 10
2300.230583999999
 20
2192.479096
 30
0.0
  0
POINT
  5
7FBF
  8
DEFPOINTS
  6
CONTINUOUS
 62
     0
 10
2780.230583999999
 20
2469.166577
 30
0.0
  0
POINT
  5
7FC0
  8
DEFPOINTS
  6
CONTINUOUS
 62
     0
 10
2780.230583999999
 20
2193.6354200000001
 30
0.0
  0
ENDBLK
  5
7D26
  8
0
  0
BLOCK
  8
0
  2
*D9
 70
     1
 10
0.0
 20
0.0
 30
0.0
  3
*D9
  1

  0
LINE
  5
7FC1
  8
3
  6
CONTINUOUS
 62
     0
 10
4871.6000880000001
 20
3665.166577
 30
0.0
 11
4871.6000880000001
 21
3735.2475800000002
 31
0.0
  0
LINE
  5
7FC2
  8
3
  6
CONTINUOUS
 62
     0
 10
4396.6000880000001
 20
3665.166577
 30
0.0
 11
4396.6000880000001
 21
3735.2475800000002
 31
0.0
  0
LINE
  5
7FC3
  8
3
  6
CONTINUOUS
 62
     0
 10
4811.6000880000001
 20
3705.2475799999988
 30
0.0
 11
4456.6000880000001
 21
3705.2475799999988
 31
0.0
  0
INSERT
  5
7FC4
  8
3
  6
CONTINUOUS
 62
     0
  2
_OPEN
 10
4871.6000880000001
 20
3705.2475799999988
 30
0.0
 41
60.0
 42
60.0
 43
60.0
  0
INSERT
  5
7FC5
  8
3
  6
CONTINUOUS
 62
     0
  2
_OPEN
 10
4396.6000880000001
 20
3705.2475799999988
 30
0.0
 41
60.0
 42
60.0
 43
60.0
 50
180.0
  0
TEXT
  8
3
  40
90
  5
8018
  62
0
  72
0
  71
0
 10
4422.31
 20
3620.95
 30
0.000000
  1
475
  0
POINT
  5
7FC7
  8
DEFPOINTS
  6
CONTINUOUS
 62
     0
 10
4871.6000880000001
 20
3650.166577
 30
0.0
  0
POINT
  5
7FC8
  8
DEFPOINTS
  6
CONTINUOUS
 62
     0
 10
4396.6000880000001
 20
3650.166577
 30
0.0
  0
POINT
  5
7FC9
  8
DEFPOINTS
  6
CONTINUOUS
 62
     0
 10
4396.6000880000001
 20
3705.2475799999988
 30
0.0
  0
ENDBLK
  5
7B8F
  8
0
  0
BLOCK
  8
0
  2
*D10
 70
     1
 10
0.0
 20
0.0
 30
0.0
  3
*D10
  1

  0
LINE
  5
7FCA
  8
3
  6
CONTINUOUS
 62
     0
 10
4890.1000880000001
 20
3500.166577
 30
0.0
 11
5143.145829000001
 21
3500.166577
 31
0.0
  0
LINE
  5
7FCB
  8
3
  6
CONTINUOUS
 62
     0
 10
4890.1000880000001
 20
2830.1665769999991
 30
0.0
 11
5143.145829000001
 21
2830.1665769999991
 31
0.0
  0
LINE
  5
7FCC
  8
3
  6
CONTINUOUS
 62
     0
 10
5113.145829000001
 20
3440.1665770000009
 30
0.0
 11
5113.145829000001
 21
2890.166577
 31
0.0
  0
INSERT
  5
7FCD
  8
3
  6
CONTINUOUS
 62
     0
  2
_OPEN
 10
5113.145829000001
 20
3500.166577
 30
0.0
 41
60.0
 42
60.0
 43
60.0
 50
90.0
  0
INSERT
  5
7FCE
  8
3
  6
CONTINUOUS
 62
     0
  2
_OPEN
 10
5113.145829000001
 20
2830.1665769999991
 30
0.0
 41
60.0
 42
60.0
 43
60.0
 50
270.0
  0
TEXT
  8
3
  40
90
  5
8019
  62
0
  72
0
  71
0
 10
4858.15
 20
3006.57
 30
0.000000
  1
φ670
  0
POINT
  5
7FD0
  8
DEFPOINTS
  6
CONTINUOUS
 62
     0
 10
4875.1000879999992
 20
3500.166577
 30
0.0
  0
POINT
  5
7FD1
  8
DEFPOINTS
  6
CONTINUOUS
 62
     0
 10
4875.1000879999992
 20
2830.1665769999991
 30
0.0
  0
POINT
  5
7FD2
  8
DEFPOINTS
  6
CONTINUOUS
 62
     0
 10
5113.145829000001
 20
2830.1665769999991
 30
0.0
  0
ENDBLK
  5
7D85
  8
0
  0
BLOCK
  8
0
  2
*D11
 70
     1
 10
0.0
 20
0.0
 30
0.0
  3
*D11
  1

  0
LINE
  5
7DA6
  8
0
  6
BYBLOCK
 62
     0
 10
4875.1000879999992
 20
3515.166577
 30
0.0
 11
4875.1000879999992
 21
3974.9726801448851
 31
0.0
  0
LINE
  5
7DA7
  8
0
  6
BYBLOCK
 62
     0
 10
4634.1000880000001
 20
3873.7858509999992
 30
0.0
 11
4634.1000880000001
 21
3974.9726801448851
 31
0.0
  0
LINE
  5
7DA8
  8
0
  6
BYBLOCK
 62
     0
 10
4815.1000880000011
 20
3944.9726801448851
 30
0.0
 11
4694.1000880000001
 21
3944.9726801448851
 31
0.0
  0
TEXT
  5
7DA9
  8
3
 62
     0
 10
4655.7215619166864
 20
3995.9217077360231
 30
0.0
 40
90.0
  1
241
  0
INSERT
  5
7DAA
  8
0
  6
BYBLOCK
 62
     0
  2
_OPEN
 10
4875.1000879999992
 20
3944.9726801448851
 30
0.0
 41
60.0
 42
60.0
 43
60.0
  0
INSERT
  5
7DAB
  8
0
  6
BYBLOCK
 62
     0
  2
_OPEN
 10
4634.1000880000001
 20
3944.9726801448851
 30
0.0
 41
60.0
 42
60.0
 43
60.0
 50
180.0
  0
POINT
  5
7DAC
  8
DEFPOINTS
  6
BYBLOCK
 62
     0
 10
4875.1000879999992
 20
3500.166577
 30
0.0
  0
POINT
  5
7DAD
  8
DEFPOINTS
  6
BYBLOCK
 62
     0
 10
4634.1000880000001
 20
3858.7858510000001
 30
0.0
  0
POINT
  5
7DAE
  8
DEFPOINTS
  6
BYBLOCK
 62
     0
 10
4634.1000880000001
 20
3944.9726801448851
 30
0.0
  0
ENDBLK
  5
7DAF
  8
0
  0
BLOCK
  8
0
  2
*D12
 70
     1
 10
0.0
 20
0.0
 30
0.0
  3
*D12
  1

  0
LINE
  5
7FD3
  8
3
  6
CONTINUOUS
 62
     0
 10
4154.1000880000001
 20
3710.166577
 30
0.0
 11
4154.1000880000001
 21
3974.9726801448851
 31
0.0
  0
LINE
  5
7FD4
  8
3
  6
CONTINUOUS
 62
     0
 10
4574.1000880000001
 20
3944.9726801448851
 30
0.0
 11
4214.1000880000001
 21
3944.9726801448851
 31
0.0
  0
INSERT
  5
7FD5
  8
3
  6
CONTINUOUS
 62
     0
  2
_OPEN
 10
4634.1000880000001
 20
3944.9726801448851
 30
0.0
 41
60.0
 42
60.0
 43
60.0
  0
INSERT
  5
7FD6
  8
3
  6
CONTINUOUS
 62
     0
  2
_OPEN
 10
4154.1000880000001
 20
3944.9726801448851
 30
0.0
 41
60.0
 42
60.0
 43
60.0
 50
180.0
  0
TEXT
  8
3
  40
90
  5
801A
  62
0
  72
0
  71
0
 10
4214.10
 20
3935.67
 30
0.000000
  1
MAX
  0
TEXT
  8
3
  40
90
  5
801B
  62
0
  72
0
  71
0
 10
4214.10
 20
3818.67
 30
0.000000
  1
530
  0
POINT
  5
7FD8
  8
DEFPOINTS
  6
CONTINUOUS
 62
     0
 10
4634.1000880000001
 20
3858.7858510000001
 30
0.0
  0
POINT
  5
7FD9
  8
DEFPOINTS
  6
CONTINUOUS
 62
     0
 10
4154.1000880000001
 20
3695.166577
 30
0.0
  0
POINT
  5
7FDA
  8
DEFPOINTS
  6
CONTINUOUS
 62
     0
 10
4154.1000880000001
 20
3944.9726801448851
 30
0.0
  0
ENDBLK
  5
7DA4
  8
0
  0
BLOCK
  8
0
  2
*D13
 70
     1
 10
0.0
 20
0.0
 30
0.0
  3
*D13
  1

  0
LINE
  5
7FDB
  8
3
  6
CONTINUOUS
 62
     0
 10
4108.1000880000001
 20
2454.166577
 30
0.0
 11
4108.1000880000001
 21
2167.7004779999988
 31
0.0
  0
LINE
  5
7FDC
  8
3
  6
CONTINUOUS
 62
     0
 10
4634.1000880000001
 20
2358.6185489999998
 30
0.0
 11
4634.1000880000001
 21
2167.7004779999988
 31
0.0
  0
LINE
  5
7FDD
  8
3
  6
CONTINUOUS
 62
     0
 10
4168.1000880000001
 20
2197.7004780000002
 30
0.0
 11
4574.1000880000001
 21
2197.7004780000002
 31
0.0
  0
INSERT
  5
7FDE
  8
3
  6
CONTINUOUS
 62
     0
  2
_OPEN
 10
4108.1000880000001
 20
2197.7004780000002
 30
0.0
 41
60.0
 42
60.0
 43
60.0
 50
180.0
  0
INSERT
  5
7FDF
  8
3
  6
CONTINUOUS
 62
     0
  2
_OPEN
 10
4634.1000880000001
 20
2197.7004780000002
 30
0.0
 41
60.0
 42
60.0
 43
60.0
  0
TEXT
  8
3
  40
90
  5
801C
  62
0
  72
0
  71
0
 10
4211.29
 20
2113.40
 30
0.000000
  1
526
  0
POINT
  5
7FE1
  8
DEFPOINTS
  6
CONTINUOUS
 62
     0
 10
4108.1000880000001
 20
2469.166577
 30
0.0
  0
POINT
  5
7FE2
  8
DEFPOINTS
  6
CONTINUOUS
 62
     0
 10
4634.1000880000001
 20
2373.6185489999989
 30
0.0
  0
POINT
  5
7FE3
  8
DEFPOINTS
  6
CONTINUOUS
 62
     0
 10
4634.1000880000001
 20
2197.7004780000002
 30
0.0
  0
ENDBLK
  5
7D07
  8
0
  0
BLOCK
  8
0
  2
*D14
 70
     1
 10
0.0
 20
0.0
 30
0.0
  3
*D14
  1

  0
LINE
  5
7FE4
  8
3
  6
CONTINUOUS
 62
     0
 10
5038.1000880000001
 20
2454.166577
 30
0.0
 11
5038.1000880000001
 21
2167.7004779999988
 31
0.0
  0
LINE
  5
7FE5
  8
3
  6
CONTINUOUS
 62
     0
 10
4694.1000880000001
 20
2197.7004780000002
 30
0.0
 11
4978.1000880000001
 21
2197.7004780000002
 31
0.0
  0
TEXT
  8
3
  40
90
  5
801D
  62
0
  72
0
  71
0
 10
4656.80
 20
2111.77
 30
0.000000
  1
404
  0
INSERT
  5
7FE7
  8
3
  6
CONTINUOUS
 62
     0
  2
_OPEN
 10
4634.1000880000001
 20
2197.7004780000002
 30
0.0
 41
60.0
 42
60.0
 43
60.0
 50
180.0
  0
INSERT
  5
7FE8
  8
3
  6
CONTINUOUS
 62
     0
  2
_OPEN
 10
5038.1000880000001
 20
2197.7004780000002
 30
0.0
 41
60.0
 42
60.0
 43
60.0
  0
POINT
  5
7FE9
  8
DEFPOINTS
  6
CONTINUOUS
 62
     0
 10
4634.1000880000001
 20
2373.6185489999989
 30
0.0
  0
POINT
  5
7FEA
  8
DEFPOINTS
  6
CONTINUOUS
 62
     0
 10
5038.1000880000001
 20
2469.166577
 30
0.0
  0
POINT
  5
7FEB
  8
DEFPOINTS
  6
CONTINUOUS
 62
     0
 10
5038.1000880000001
 20
2197.7004780000002
 30
0.0
  0
ENDBLK
  5
7D11
  8
0
  0
BLOCK
  8
0
  2
*D15
 70
     1
 10
0.0
 20
0.0
 30
0.0
  3
*D15
  1

  0
LINE
  5
7FEC
  8
3
  6
CONTINUOUS
 62
     0
 10
1270.2305839999999
 20
6068.021968
 30
0.0
 11
1270.2305839999999
 21
6198.5896240000002
 31
0.0
  0
LINE
  5
7FED
  8
3
  6
CONTINUOUS
 62
     0
 10
2780.230583999999
 20
6068.021968
 30
0.0
 11
2780.230583999999
 21
6198.5896240000002
 31
0.0
  0
LINE
  5
7FEE
  8
3
  6
CONTINUOUS
 62
     0
 10
1330.230583999999
 20
6168.5896240000002
 30
0.0
 11
2720.2305839999999
 21
6168.5896240000002
 31
0.0
  0
INSERT
  5
7FEF
  8
3
  6
CONTINUOUS
 62
     0
  2
_OPEN
 10
1270.2305839999999
 20
6168.5896240000002
 30
0.0
 41
60.0
 42
60.0
 43
60.0
 50
180.0
  0
INSERT
  5
7FF0
  8
3
  6
CONTINUOUS
 62
     0
  2
_OPEN
 10
2780.230583999999
 20
6168.5896240000002
 30
0.0
 41
60.0
 42
60.0
 43
60.0
  0
TEXT
  8
3
  40
90
  5
801E
  62
0
  72
0
  71
0
 10
1912.01
 20
6084.29
 30
0.000000
  1
1510
  0
POINT
  5
7FF2
  8
DEFPOINTS
  6
CONTINUOUS
 62
     0
 10
1270.2305839999999
 20
6053.021968
 30
0.0
  0
POINT
  5
7FF3
  8
DEFPOINTS
  6
CONTINUOUS
 62
     0
 10
2780.230583999999
 20
6053.021968
 30
0.0
  0
POINT
  5
7FF4
  8
DEFPOINTS
  6
CONTINUOUS
 62
     0
 10
2780.230583999999
 20
6168.5896240000002
 30
0.0
  0
ENDBLK
  5
7BEF
  8
0
  0
BLOCK
  8
0
  2
*D16
 70
     1
 10
0.0
 20
0.0
 30
0.0
  3
*D16
  1

  0
LINE
  5
7FF5
  8
3
  6
CONTINUOUS
 62
     0
 10
2795.2305839999999
 20
6053.021968
 30
0.0
 11
3092.5825949999999
 21
6053.021968
 31
0.0
  0
LINE
  5
7FF6
  8
3
  6
CONTINUOUS
 62
     0
 10
2795.2305839999999
 20
5123.021968
 30
0.0
 11
3092.5825949999999
 21
5123.021968
 31
0.0
  0
LINE
  5
7FF7
  8
3
  6
CONTINUOUS
 62
     0
 10
3062.5825949999999
 20
5993.021968
 30
0.0
 11
3062.5825949999999
 21
5183.021968
 31
0.0
  0
INSERT
  5
7FF8
  8
3
  6
CONTINUOUS
 62
     0
  2
_OPEN
 10
3062.5825949999999
 20
6053.021968
 30
0.0
 41
60.0
 42
60.0
 43
60.0
 50
90.0
  0
INSERT
  5
7FF9
  8
3
  6
CONTINUOUS
 62
     0
  2
_OPEN
 10
3062.5825949999999
 20
5123.021968
 30
0.0
 41
60.0
 42
60.0
 43
60.0
 50
270.0
  0
TEXT
  8
3
  40
90
  5
801F
  62
0
  72
0
  71
0
 10
2807.58
 20
5439.61
 30
0.000000
  1
930
  0
POINT
  5
7FFB
  8
DEFPOINTS
  6
CONTINUOUS
 62
     0
 10
2780.230583999999
 20
6053.021968
 30
0.0
  0
POINT
  5
7FFC
  8
DEFPOINTS
  6
CONTINUOUS
 62
     0
 10
2780.230583999999
 20
5123.021968
 30
0.0
  0
POINT
  5
7FFD
  8
DEFPOINTS
  6
CONTINUOUS
 62
     0
 10
3062.5825949999999
 20
5123.021968
 30
0.0
  0
ENDBLK
  5
7BFC
  8
0
  0
BLOCK
  8
0
  2
*D17
 70
     1
 10
0.0
 20
0.0
 30
0.0
  3
*D17
  1

  0
LINE
  5
7FFE
  8
3
  6
CONTINUOUS
 62
     0
 10
1270.2305839999999
 20
5108.021968
 30
0.0
 11
1270.2305839999999
 21
4802.3541489999998
 31
0.0
  0
LINE
  5
7FFF
  8
3
  6
CONTINUOUS
 62
     0
 10
2780.230583999999
 20
5108.021968
 30
0.0
 11
2780.230583999999
 21
4802.3541489999998
 31
0.0
  0
LINE
  5
8000
  8
3
  6
CONTINUOUS
 62
     0
 10
1330.230583999999
 20
4832.3541489999998
 30
0.0
 11
2720.2305839999999
 21
4832.3541489999998
 31
0.0
  0
INSERT
  5
8001
  8
3
  6
CONTINUOUS
 62
     0
  2
_OPEN
 10
1270.2305839999999
 20
4832.3541489999998
 30
0.0
 41
60.0
 42
60.0
 43
60.0
 50
180.0
  0
INSERT
  5
8002
  8
3
  6
CONTINUOUS
 62
     0
  2
_OPEN
 10
2780.230583999999
 20
4832.3541489999998
 30
0.0
 41
60.0
 42
60.0
 43
60.0
  0
TEXT
  8
3
  40
90
  5
8020
  62
0
  72
0
  71
0
 10
1881.16
 20
4748.05
 30
0.000000
  1
1510
  0
POINT
  5
8004
  8
DEFPOINTS
  6
CONTINUOUS
 62
     0
 10
1270.2305839999999
 20
5123.021968
 30
0.0
  0
POINT
  5
8005
  8
DEFPOINTS
  6
CONTINUOUS
 62
     0
 10
2780.230583999999
 20
5123.021968
 30
0.0
  0
POINT
  5
8006
  8
DEFPOINTS
  6
CONTINUOUS
 62
     0
 10
2780.230583999999
 20
4832.3541489999998
 30
0.0
  0
ENDBLK
  5
7CE5
  8
0
  0
BLOCK
  8
0
  2
*D18
 70
     1
 10
0.0
 20
0.0
 30
0.0
  3
*D18
  1

  0
LINE
  5
8007
  8
3
 62
     0
 10
2300.230583999999
 20
3823.5356550000001
 30
0.0
 11
2300.230583999999
 21
4008.2378829999989
 31
0.0
  0
LINE
  5
8008
  8
3
 62
     0
 10
2753.4850309999988
 20
3145.166577
 30
0.0
 11
2753.4850309999988
 21
4008.2378829999989
 31
0.0
  0
LINE
  5
8009
  8
3
 62
     0
 10
2360.230583999999
 20
3978.2378829999998
 30
0.0
 11
2693.4850309999988
 21
3978.2378829999998
 31
0.0
  0
INSERT
  5
800A
  8
3
 62
     0
  2
_OPEN
 10
2300.230583999999
 20
3978.2378829999998
 30
0.0
 41
60.0
 42
60.0
 43
60.0
 50
180.0
  0
INSERT
  5
800B
  8
3
 62
     0
  2
_OPEN
 10
2753.4850309999988
 20
3978.2378829999998
 30
0.0
 41
60.0
 42
60.0
 43
60.0
  0
TEXT
  8
3
  40
90
  5
8021
  62
0
  72
0
  71
0
 10
2346.86
 20
3893.94
 30
0.000000
  1
452
  0
POINT
  5
800D
  8
DEFPOINTS
 62
     0
 10
2300.230583999999
 20
3808.5356550000001
 30
0.0
  0
POINT
  5
800E
  8
DEFPOINTS
 62
     0
 10
2753.4850309999988
 20
3130.166577
 30
0.0
  0
POINT
  5
800F
  8
DEFPOINTS
 62
     0
 10
2753.4850309999988
 20
3978.2378829999998
 30
0.0
  0
ENDBLK
  5
7DD5
  8
0
  0
ENDSEC
  0
SECTION
  2
ENTITIES
  0
LINE
  5
7A78
  8
1
  6
CONTINUOUS
 10
1320.230583999999
 20
2595.166577
 30
0.0
 11
2730.2305839999999
 21
2595.166577
 31
0.0
  0
LINE
  5
7A79
  8
1
  6
CONTINUOUS
 10
2730.230583999999
 20
2695.166577
 30
0.0
 11
1320.230583999999
 21
2695.166577
 31
0.0
  0
LINE
  5
7A7A
  8
1
  6
CONTINUOUS
 10
2640.2305839999999
 20
3695.166577
 30
0.0
 11
2200.230583999999
 21
3695.166577
 31
0.0
  0
ARC
  5
7A7B
  8
1
  6
CONTINUOUS
 10
2265.2305839999999
 20
3130.166577
 30
0.0
 40
488.25444700000003
 50
274.51398799999993
 51
7.3523789999999991
  0
ARC
  5
7A7C
  8
1
  6
CONTINUOUS
 10
2327.2305839999999
 20
3138.166577
 30
0.0
 40
425.74044800000001
 50
7.3523789999999991
 51
89.596259000000003
  0
LINE
  5
7A7D
  8
1
  6
CONTINUOUS
 10
1270.2305839999999
 20
2469.166577
 30
0.0
 11
2780.230583999999
 21
2469.166577
 31
0.0
  0
LINE
  5
7A7E
  8
1
  6
CONTINUOUS
 10
1270.2305839999999
 20
2569.166577
 30
0.0
 11
2780.230583999999
 21
2569.166577
 31
0.0
  0
LINE
  5
7A81
  8
1
  6
CONTINUOUS
 10
1370.230583999999
 20
2695.166577
 30
0.0
 11
1370.230583999999
 21
2995.166577
 31
0.0
  0
ARC
  5
7A82
  8
1
  6
CONTINUOUS
 10
1579.381693
 20
2895.166577
 30
0.0
 40
162.0
 50
324.972283
 51
215.02771699999991
  0
LINE
  5
7A83
  8
2
  6
CENTER
 10
1579.381693
 20
2975.1665769999991
 30
0.0
 11
1579.381693
 21
2815.166577
 31
0.0
  0
CIRCLE
  5
7A84
  8
1
  6
CONTINUOUS
 10
1579.381693
 20
2895.166577
 30
0.0
 40
80.0
  0
ARC
  5
7A85
  8
1
  6
CONTINUOUS
 10
2259.230583999999
 20
3206.1665769999991
 30
0.0
 40
564.49092099999984
 50
184.16516399999989
 51
274.51398799999993
  0
LINE
  5
7A86
  8
1
  6
CONTINUOUS
 10
1600.513471
 20
2818.007987
 30
0.0
 11
2339.8526689999999
 21
3020.494220999999
 31
0.0
  0
LINE
  5
7A87
  8
1
  6
CONTINUOUS
 10
1733.381693
 20
2735.166577
 30
0.0
 11
1425.381693
 21
2735.166577
 31
0.0
  0
LINE
  5
7A88
  8
2
  6
CENTER
 10
1659.381693
 20
2895.166577
 30
0.0
 11
1499.381693
 21
2895.166577
 31
0.0
  0
LINE
  5
7A89
  8
1
  6
CONTINUOUS
 10
1320.230583999999
 20
2695.166577
 30
0.0
 11
1320.230583999999
 21
2595.166577
 31
0.0
  0
LINE
  5
7A8A
  8
1
  6
CONTINUOUS
 10
1425.381693
 20
2695.166577
 30
0.0
 11
1425.381693
 21
2753.166577
 31
0.0
  0
LINE
  5
7A8B
  8
1
  6
CONTINUOUS
 10
1425.381693
 20
2735.166577
 30
0.0
 11
1425.381693
 21
2753.166577
 31
0.0
  0
LINE
  5
7A8C
  8
1
  6
CONTINUOUS
 10
1425.381693
 20
2753.166577
 30
0.0
 11
1446.724027
 21
2802.1830100000002
 31
0.0
  0
LINE
  5
7A8D
  8
1
  6
CONTINUOUS
 10
1270.2305839999999
 20
2569.166577
 30
0.0
 11
1270.2305839999999
 21
2469.166577
 31
0.0
  0
LINE
  5
7A8E
  8
1
  6
CONTINUOUS
 10
1733.381693
 20
2695.166577
 30
0.0
 11
1733.381693
 21
2753.166577
 31
0.0
  0
LINE
  5
7A8F
  8
1
  6
CONTINUOUS
 10
1733.381693
 20
2753.166577
 30
0.0
 11
1712.039358
 21
2802.1830100000002
 31
0.0
  0
LINE
  5
7A90
  8
1
  6
CONTINUOUS
 10
1370.230583999999
 20
2995.166577
 30
0.0
 11
2200.230583999999
 21
3695.166577
 31
0.0
  0
LINE
  5
7A91
  8
1
  6
CONTINUOUS
 10
1544.6242729999999
 20
2967.2215679999999
 30
0.0
 11
2235.060422
 21
3300.2696849999988
 31
0.0
  0
LINE
  5
7A92
  8
1
  6
CONTINUOUS
 10
2330.2305839999999
 20
3563.8964550000001
 30
0.0
 11
2330.2305839999999
 21
3650.166577
 31
0.0
  0
LINE
  5
7A93
  8
1
  6
CONTINUOUS
 10
1680.2305839999999
 20
3650.166577
 30
0.0
 11
1696.2305839999999
 21
3165.166577
 31
0.0
  0
CIRCLE
  5
7A94
  8
1
  6
CONTINUOUS
 10
2300.230583999999
 20
3165.166577
 30
0.0
 40
150.0
  0
LINE
  5
7A95
  8
2
  6
CENTER
 10
2300.230583999999
 20
6011.019335
 30
0.0
 11
2300.230583999999
 21
5005.6974090000003
 31
0.0
  0
LINE
  5
7A96
  8
2
  6
CENTER
 10
4955.4283759999998
 20
3165.166577
 30
0.0
 11
4046.4699679999999
 21
3165.166577
 31
0.0
  0
LINE
  5
7A97
  8
1
  6
CONTINUOUS
 10
2370.2305839999999
 20
3650.166577
 30
0.0
 11
1640.2305839999999
 21
3650.166577
 31
0.0
  0
LINE
  5
7A98
  8
1
  6
CONTINUOUS
 10
2330.2305839999999
 20
3620.166577
 30
0.0
 11
1681.2202749999999
 21
3620.166577
 31
0.0
  0
LINE
  5
7A99
  8
1
  6
CONTINUOUS
 10
4223.1000880000001
 20
2695.166577
 30
0.0
 11
4923.1000880000001
 21
2695.166577
 31
0.0
  0
LINE
  5
7A9A
  8
1
  6
CONTINUOUS
 10
4223.1000880000001
 20
2595.166577
 30
0.0
 11
4923.1000880000001
 21
2595.166577
 31
0.0
  0
LINE
  5
7A9B
  8
1
  6
CONTINUOUS
 10
4354.1000880000001
 20
3650.166577
 30
0.0
 11
4914.1000880000001
 21
3650.166577
 31
0.0
  0
LINE
  5
7A9C
  8
1
  6
CONTINUOUS
 10
4396.6000880000001
 20
3610.166577
 30
0.0
 11
4871.6000880000001
 21
3610.166577
 31
0.0
  0
LINE
  5
7A9D
  8
1
  6
CONTINUOUS
 10
4108.1000880000001
 20
2569.166577
 30
0.0
 11
5038.1000880000001
 21
2569.166577
 31
0.0
  0
LINE
  5
7A9E
  8
1
  6
CONTINUOUS
 10
4108.1000880000001
 20
2469.166577
 30
0.0
 11
5038.1000880000001
 21
2469.166577
 31
0.0
  0
LINE
  5
7AA0
  8
1
  6
CONTINUOUS
 10
4294.1000880000001
 20
3695.166577
 30
0.0
 11
4294.1000880000001
 21
2695.166577
 31
0.0
  0
LINE
  5
7AA1
  8
1
  6
CONTINUOUS
 10
4154.1000880000001
 20
3695.166577
 30
0.0
 11
4154.1000880000001
 21
2695.166577
 31
0.0
  0
LINE
  5
7AA2
  8
1
  6
CONTINUOUS
 10
4396.6000880000001
 20
3650.166577
 30
0.0
 11
4396.6000880000001
 21
2695.166577
 31
0.0
  0
LINE
  5
7AA3
  8
1
  6
CONTINUOUS
 10
2640.2305839999999
 20
2695.166577
 30
0.0
 11
2640.2305839999999
 21
3695.166577
 31
0.0
  0
LINE
  5
7AA4
  8
1
  6
CONTINUOUS
 10
4259.1000880000001
 20
2975.1665769999991
 30
0.0
 11
4259.1000880000001
 21
2815.166577
 31
0.0
  0
LINE
  5
7AA5
  8
1
  6
CONTINUOUS
 10
4189.1000879999992
 20
2975.1665769999991
 30
0.0
 11
4189.1000879999992
 21
2815.166577
 31
0.0
  0
LINE
  5
7AA7
  8
1
  6
CONTINUOUS
 10
2730.2305839999999
 20
2595.166577
 30
0.0
 11
2730.2305839999999
 21
2695.166577
 31
0.0
  0
LINE
  5
7AA8
  8
1
  6
CONTINUOUS
 10
2780.230583999999
 20
2569.166577
 30
0.0
 11
2780.230583999999
 21
2469.166577
 31
0.0
  0
LINE
  5
7AAA
  8
1
  6
CONTINUOUS
 10
4259.1000880000001
 20
2874.166577
 30
0.0
 11
4396.6000880000001
 21
2874.166577
 31
0.0
  0
LINE
  5
7AAB
  8
1
  6
CONTINUOUS
 10
4154.1000880000001
 20
2695.166577
 30
0.0
 11
4223.1000880000001
 21
2695.166577
 31
0.0
  0
LINE
  5
7AAC
  8
1
  6
CONTINUOUS
 10
4223.1000880000001
 20
2695.166577
 30
0.0
 11
4223.1000880000001
 21
2595.166577
 31
0.0
  0
LINE
  5
7AAD
  8
1
  6
CONTINUOUS
 10
4189.1000879999992
 20
2815.166577
 30
0.0
 11
4259.1000880000001
 21
2815.166577
 31
0.0
  0
LINE
  5
7AAE
  8
1
  6
CONTINUOUS
 10
4108.1000880000001
 20
2569.166577
 30
0.0
 11
4108.1000880000001
 21
2469.166577
 31
0.0
  0
LINE
  5
7AB1
  8
1
  6
CONTINUOUS
 10
4259.1000880000001
 20
3186.166577
 30
0.0
 11
4396.6000880000001
 21
3186.166577
 31
0.0
  0
LINE
  5
7AB2
  8
1
  6
CONTINUOUS
 10
4259.1000880000001
 20
3144.166577
 30
0.0
 11
4396.6000880000001
 21
3144.166577
 31
0.0
  0
LINE
  5
7AB3
  8
1
  6
CONTINUOUS
 10
4259.1000880000001
 20
2916.166577
 30
0.0
 11
4396.6000880000001
 21
2916.166577
 31
0.0
  0
LINE
  5
7AB4
  8
1
  6
CONTINUOUS
 10
4189.1000879999992
 20
3315.166577
 30
0.0
 11
4259.1000880000001
 21
3315.166577
 31
0.0
  0
LINE
  5
7AB5
  8
1
  6
CONTINUOUS
 10
4189.1000879999992
 20
3015.166577
 30
0.0
 11
4259.1000880000001
 21
3015.166577
 31
0.0
  0
LINE
  5
7AB6
  8
1
  6
CONTINUOUS
 10
4259.1000880000001
 20
3315.166577
 30
0.0
 11
4259.1000880000001
 21
3015.166577
 31
0.0
  0
LINE
  5
7AB7
  8
1
  6
CONTINUOUS
 10
4189.1000879999992
 20
3315.166577
 30
0.0
 11
4189.1000879999992
 21
3015.166577
 31
0.0
  0
LINE
  5
7AB8
  8
1
  6
CONTINUOUS
 10
4189.1000879999992
 20
2975.1665769999991
 30
0.0
 11
4259.1000880000001
 21
2975.1665769999991
 31
0.0
  0
LINE
  5
7AB9
  8
1
  6
CONTINUOUS
 10
4294.1000880000001
 20
3695.166577
 30
0.0
 11
4154.1000880000001
 21
3695.166577
 31
0.0
  0
LINE
  5
7ABA
  8
1
  6
CONTINUOUS
 10
4871.6000880000001
 20
3650.166577
 30
0.0
 11
4871.6000880000001
 21
2695.166577
 31
0.0
  0
LINE
  5
7ABB
  8
1
  6
CONTINUOUS
 10
4923.1000880000001
 20
2695.166577
 30
0.0
 11
4923.1000880000001
 21
2595.166577
 31
0.0
  0
LINE
  5
7ABC
  8
1
  6
CONTINUOUS
 10
5038.1000880000001
 20
2569.166577
 30
0.0
 11
5038.1000880000001
 21
2469.166577
 31
0.0
  0
LINE
  5
7ABD
  8
1
  6
CONTINUOUS
 10
2450.230583999999
 20
5238.021968
 30
0.0
 11
2730.2305839999999
 21
5238.021968
 31
0.0
  0
LINE
  5
7ABE
  8
1
  6
CONTINUOUS
 10
2730.2305839999999
 20
5938.0219680000009
 30
0.0
 11
1320.230583999999
 21
5938.0219680000009
 31
0.0
  0
LINE
  5
7ABF
  8
1
  6
CONTINUOUS
 10
2640.2305839999999
 20
5309.021968
 30
0.0
 11
1370.230583999999
 21
5309.021968
 31
0.0
  0
LINE
  5
7AC0
  8
1
  6
CONTINUOUS
 10
2640.2305839999999
 20
5169.021968
 30
0.0
 11
1370.230583999999
 21
5169.021968
 31
0.0
  0
LINE
  5
7AC1
  8
1
  6
CONTINUOUS
 10
1680.2305839999999
 20
5886.521968
 30
0.0
 11
2753.4850309999988
 21
5886.521968
 31
0.0
  0
LINE
  5
7AC2
  8
1
  6
CONTINUOUS
 10
1680.2305839999999
 20
5411.521968
 30
0.0
 11
2753.4850309999988
 21
5411.521968
 31
0.0
  0
LINE
  5
7AC3
  8
1
  6
CONTINUOUS
 10
1417.381693
 20
5340.7538850000001
 30
0.0
 11
1741.381693
 21
5340.7538850000001
 31
0.0
  0
LINE
  5
7AC4
  8
1
  6
CONTINUOUS
 10
1417.381693
 20
5825.753885000001
 30
0.0
 11
1680.2305839999999
 21
5825.753885000001
 31
0.0
  0
LINE
  5
7AC5
  8
1
  6
CONTINUOUS
 10
1499.381693
 20
5274.021968
 30
0.0
 11
1659.381693
 21
5274.021968
 31
0.0
  0
LINE
  5
7AC6
  8
1
  6
CONTINUOUS
 10
1499.381693
 20
5204.021968
 30
0.0
 11
1659.381693
 21
5204.021968
 31
0.0
  0
LINE
  5
7AC7
  8
1
  6
CONTINUOUS
 10
1417.381693
 20
5340.7538850000001
 30
0.0
 11
1417.381693
 21
5825.753885000001
 31
0.0
  0
LINE
  5
7AC8
  8
1
  6
CONTINUOUS
 10
1320.230583999999
 20
6053.021968
 30
0.0
 11
1320.230583999999
 21
5123.021968
 31
0.0
  0
LINE
  5
7AC9
  8
1
  6
CONTINUOUS
 10
1270.2305839999999
 20
6053.021968
 30
0.0
 11
1270.2305839999999
 21
5123.021968
 31
0.0
  0
LINE
  5
7ACA
  8
1
  6
CONTINUOUS
 10
1370.230583999999
 20
5169.021968
 30
0.0
 11
1370.230583999999
 21
5309.021968
 31
0.0
  0
LINE
  5
7ACB
  8
1
  6
CONTINUOUS
 10
1320.230583999999
 20
5238.021968
 30
0.0
 11
1499.381693
 21
5238.021968
 31
0.0
  0
LINE
  5
7ACC
  8
1
  6
CONTINUOUS
 10
1499.381693
 20
5204.021968
 30
0.0
 11
1499.381693
 21
5274.021968
 31
0.0
  0
LINE
  5
7ACD
  8
1
  6
CONTINUOUS
 10
1558.381693
 20
5274.021968
 30
0.0
 11
1558.381693
 21
5340.7538850000001
 31
0.0
  0
LINE
  5
7ACE
  8
1
  6
CONTINUOUS
 10
1270.2305839999999
 20
5123.021968
 30
0.0
 11
1320.230583999999
 21
5123.021968
 31
0.0
  0
LINE
  5
7ACF
  8
1
  6
CONTINUOUS
 10
1270.2305839999999
 20
6053.021968
 30
0.0
 11
1320.230583999999
 21
6053.021968
 31
0.0
  0
LINE
  5
7AD0
  8
1
  6
CONTINUOUS
 10
1680.2305839999999
 20
5411.521968
 30
0.0
 11
2330.2305839999999
 21
5886.521968
 31
0.0
  0
LINE
  5
7AD1
  8
1
  6
CONTINUOUS
 10
1680.2305839999999
 20
5886.521968
 30
0.0
 11
2330.2305839999999
 21
5411.521968
 31
0.0
  0
LINE
  5
7AD2
  8
1
  6
CONTINUOUS
 10
2330.2305839999999
 20
5411.521968
 30
0.0
 11
2330.2305839999999
 21
5886.521968
 31
0.0
  0
LINE
  5
7AD3
  8
1
  6
CONTINUOUS
 10
1680.2305839999999
 20
5411.521968
 30
0.0
 11
1680.2305839999999
 21
5886.521968
 31
0.0
  0
LINE
  5
7AD4
  8
1
  6
CONTINUOUS
 10
1659.381693
 20
5238.021968
 30
0.0
 11
2150.2305839999999
 21
5238.021968
 31
0.0
  0
LINE
  5
7AD5
  8
1
  6
CONTINUOUS
 10
1741.381693
 20
5340.7538850000001
 30
0.0
 11
1741.381693
 21
5411.521968
 31
0.0
  0
LINE
  5
7AD6
  8
1
  6
CONTINUOUS
 10
1659.381693
 20
5204.021968
 30
0.0
 11
1659.381693
 21
5274.021968
 31
0.0
  0
LINE
  5
7AD7
  8
1
  6
CONTINUOUS
 10
1600.381693
 20
5274.021968
 30
0.0
 11
1600.381693
 21
5340.7538850000001
 31
0.0
  0
LINE
  5
7AD8
  8
1
  6
CONTINUOUS
 10
2150.2305839999999
 20
5204.021968
 30
0.0
 11
2450.230583999999
 21
5204.021968
 31
0.0
  0
LINE
  5
7AD9
  8
1
  6
CONTINUOUS
 10
2150.2305839999999
 20
5274.021968
 30
0.0
 11
2450.230583999999
 21
5274.021968
 31
0.0
  0
LINE
  5
7ADA
  8
1
  6
CONTINUOUS
 10
2450.230583999999
 20
5204.021968
 30
0.0
 11
2450.230583999999
 21
5274.021968
 31
0.0
  0
LINE
  5
7ADB
  8
1
  6
CONTINUOUS
 10
2150.2305839999999
 20
5204.021968
 30
0.0
 11
2150.2305839999999
 21
5274.021968
 31
0.0
  0
LINE
  5
7ADC
  8
1
  6
CONTINUOUS
 10
2321.230583999999
 20
5274.021968
 30
0.0
 11
2321.230583999999
 21
5411.521968
 31
0.0
  0
LINE
  5
7ADD
  8
1
  6
CONTINUOUS
 10
2279.2305839999999
 20
5274.021968
 30
0.0
 11
2279.2305839999999
 21
5411.521968
 31
0.0
  0
LINE
  5
7ADE
  8
1
  6
CONTINUOUS
 10
2753.4850309999988
 20
5411.521968
 30
0.0
 11
2753.4850309999988
 21
5886.521968
 31
0.0
  0
LINE
  5
7ADF
  8
1
  6
CONTINUOUS
 10
2780.230583999999
 20
6053.021968
 30
0.0
 11
2780.230583999999
 21
5123.021968
 31
0.0
  0
LINE
  5
7AE0
  8
1
  6
CONTINUOUS
 10
2640.2305839999999
 20
5169.021968
 30
0.0
 11
2640.2305839999999
 21
5309.021968
 31
0.0
  0
LINE
  5
7AE1
  8
1
  6
CONTINUOUS
 10
2730.2305839999999
 20
5123.021968
 30
0.0
 11
2730.2305839999999
 21
5411.521968
 31
0.0
  0
LINE
  5
7AE2
  8
1
  6
CONTINUOUS
 10
2730.2305839999999
 20
5123.021968
 30
0.0
 11
2780.230583999999
 21
5123.021968
 31
0.0
  0
LINE
  5
7AE3
  8
1
  6
CONTINUOUS
 10
2730.2305839999999
 20
6053.021968
 30
0.0
 11
2780.230583999999
 21
6053.021968
 31
0.0
  0
LINE
  5
7AE4
  8
1
  6
CONTINUOUS
 10
2730.2305839999999
 20
5886.521968
 30
0.0
 11
2730.2305839999999
 21
6053.021968
 31
0.0
  0
LINE
  5
7AE6
  8
2
  6
CENTER
 10
1151.9520680000001
 20
5649.021968
 30
0.0
 11
2903.673984
 21
5649.021968
 31
0.0
  0
LINE
  5
7AE7
  8
2
  6
CENTER
 10
2300.230583999999
 20
3808.5356550000001
 30
0.0
 11
2300.230583999999
 21
2192.479096
 31
0.0
  0
LINE
  5
7AE8
  8
2
  6
CENTER
 10
2868.6679979999999
 20
3165.166577
 30
0.0
 11
1415.9020780000001
 21
3165.166577
 31
0.0
  0
LINE
  5
7AE9
  8
4
  6
CONTINUOUS
 10
5550.0
 20
1500.0
 30
0.0
 11
5550.0
 21
900.0
 31
0.0
  0
LINE
  5
7AEA
  8
4
  6
CONTINUOUS
 10
3450.0
 20
1500.0
 30
0.0
 11
3450.0
 21
900.0
 31
0.0
  0
LINE
  5
7AEB
  8
4
  6
CONTINUOUS
 10
1950.0
 20
1500.0
 30
0.0
 11
1950.0
 21
900.0
 31
0.0
  0
LINE
  5
7AEE
  8
4
  6
CONTINUOUS
 10
1950.0
 20
900.0
 30
0.0
 11
5550.0
 21
900.0
 31
0.0
  0
LINE
  5
7AEF
  8
4
  6
CONTINUOUS
 10
1950.0
 20
1200.0
 30
0.0
 11
5550.0
 21
1200.0
 31
0.0
  0
TEXT
  5
7AF0
  8
4
  6
CONTINUOUS
 10
2065.5062429999989
 20
1294.6290779999999
 30
0.0
 40
150.0
  1
機器名称
  0
TEXT
  5
7AF1
  8
4
  6
CONTINUOUS
 10
2058.7743179999989
 20
964.9354699999999
 30
0.0
 40
150.0
  1
機器型番
  0
TEXT
  5
7AF2
  8
4
  6
CONTINUOUS
 10
3533.0362359999999
 20
1267.7153069999999
 30
0.0
 40
150.0
  1
ミツヤ多翼送風機
  0
TEXT
  5
7AF3
  8
4
  6
CONTINUOUS
 10
3559.9634869999991
 20
951.47875299999987
 30
0.0
 40
150.0
  1
MF#4-4
  0
TEXT
  5
7AF5
  8
4
  6
CONTINUOUS
 10
2220.3065780000002
 20
7150.2865239999992
 30
0.0
 40
162.0
  1
天井吊防振ベット
  0
TEXT
  5
7AF6
  8
4
  6
CONTINUOUS
 10
948.50278000000014
 20
7601.6429289999996
 30
0.0
 40
216.0
  1
ベルト駆動式片吸込両持多翼ファン
  0
LINE
  5
7AF7
  8
4
  6
CONTINUOUS
 10
750.0
 20
7408.2262629999996
 30
0.0
 11
5550.0
 21
7408.2262629999996
 31
0.0
  0
LINE
  5
7AF8
  8
4
  6
CONTINUOUS
 10
750.0
 20
8008.2262629999996
 30
0.0
 11
5550.0
 21
8008.2262629999996
 31
0.0
  0
LINE
  5
7AF9
  8
4
  6
CONTINUOUS
 10
1950.0
 20
1500.0
 30
0.0
 11
5550.0
 21
1500.0
 31
0.0
  0
LINE
  5
7AFA
  8
4
  6
CONTINUOUS
 10
750.0
 20
8008.2262629999996
 30
0.0
 11
750.0
 21
7408.2262629999996
 31
0.0
  0
TEXT
  5
7AFB
  8
4
  6
CONTINUOUS
 10
912.73008100000015
 20
7146.9584329999998
 30
0.0
 40
162.0
  1
右回転上向
  0
TEXT
  5
7AFC
  8
4
  6
CONTINUOUS
 10
4406.9086779999989
 20
8118.1832439999989
 30
0.0
 40
168.0
  1
No.
  0
TEXT
  5
7AFD
  8
4
  6
CONTINUOUS
 10
3933.8881879999999
 20
7150.2865239999992
 30
0.0
 40
162.0
  1
縮尺：1/30
  0
LINE
  5
7AFE
  8
4
  6
CONTINUOUS
 10
5550.0
 20
8008.2262629999996
 30
0.0
 11
5550.0
 21
7408.2262629999996
 31
0.0
  0
LINE
  5
7B00
  8
4
  6
CONTINUOUS
 10
4321.8522670000002
 20
8043.7907490000007
 30
0.0
 11
4321.8522670000002
 21
8359.9567849999985
 31
0.0
  0
LINE
  5
7B01
  8
4
  6
CONTINUOUS
 10
4321.8522670000002
 20
8359.9567849999985
 30
0.0
 11
5550.0
 21
8359.9567849999985
 31
0.0
  0
LINE
  5
7B02
  8
4
  6
CONTINUOUS
 10
5550.0
 20
8359.9567849999985
 30
0.0
 11
5550.0
 21
8043.7907490000007
 31
0.0
  0
LINE
  5
7B03
  8
4
  6
CONTINUOUS
 10
5550.0
 20
8043.7907490000007
 30
0.0
 11
4321.8522670000002
 21
8043.7907490000007
 31
0.0
  0
DIMENSION
  5
7B1B
  8
3
  6
CONTINUOUS
  2
*D1
 10
2330.2305839999999
 20
3777.972327
 30
0.0
 11
2001.022931
 21
3777.972327
 31
0.0
 70
   128
 13
1680.2305839999999
 23
3650.166577
 33
0.0
 14
2330.2305839999999
 24
3650.166577
 34
0.0
1001
ACAD
1000
DSTYLE
1002
{
1070
   287
1070
     3
1070
   287
1070
     3
1070
    40
1040
30.0
1070
   143
1040
0.039
1070
   172
1070
     1
1070
   271
1070
     0
1070
   279
1070
     0
1070
   288
1070
     1
1002
}
  0
DIMENSION
  5
7B28
  8
3
  6
CONTINUOUS
  2
*D2
 10
2300.230583999999
 20
3978.2378829999998
 30
0.0
 11
2001.022931
 21
3978.2378829999998
 31
0.0
 70
   128
 13
1680.2305839999999
 23
3650.166577
 33
0.0
 14
2300.230583999999
 24
3808.5356550000001
 34
0.0
1001
ACAD
1000
DSTYLE
1002
{
1070
   287
1070
     3
1070
   287
1070
     3
1070
    40
1040
30.0
1070
   143
1040
0.039
1070
   172
1070
     1
1070
   271
1070
     0
1070
   279
1070
     0
1070
   288
1070
     1
1002
}
  0
DIMENSION
  5
7B41
  8
3
  6
CONTINUOUS
  2
*D3
 10
3096.3310210000009
 20
3165.1665769999991
 30
0.0
 11
3096.331021
 21
3402.2278189999988
 31
0.0
 70
   128
 13
2370.2305839999999
 23
3650.166577
 33
0.0
 14
2854.147868
 24
3165.166577
 34
0.0
 50
90.0
1001
ACAD
1000
DSTYLE
1002
{
1070
   287
1070
     3
1070
   287
1070
     3
1070
    40
1040
30.0
1070
   143
1040
0.039
1070
   172
1070
     1
1070
   271
1070
     0
1070
   279
1070
     0
1070
   288
1070
     1
1002
}
  0
DIMENSION
  5
7B4D
  8
3
  6
CONTINUOUS
  2
*D4
 10
3096.331021
 20
2595.1665769999991
 30
0.0
 11
3021.3310209999991
 21
2880.166577
 31
0.0
 70
     0
 13
2854.147868
 23
3165.166577
 33
0.0
 14
2730.2305839999999
 24
2595.166577
 34
0.0
 50
90.0
1001
ACAD
1000
DSTYLE
1002
{
1070
   287
1070
     4
1070
   287
1070
     4
1070
    40
1040
30.0
1070
    75
1070
     1
1070
   143
1040
0.039
1070
   172
1070
     1
1070
   271
1070
     0
1070
   279
1070
     1
1070
   288
1070
     1
1002
}
  0
DIMENSION
  5
7B5D
  8
3
  6
CONTINUOUS
  2
*D5
 10
3094.9919180000002
 20
2469.1665769999991
 30
0.0
 11
3094.9919180000002
 21
2214.166577
 31
0.0
 70
   128
 13
2730.2305839999999
 23
2595.166577
 33
0.0
 14
2780.230583999999
 24
2469.166577
 34
0.0
 50
90.0
1001
ACAD
1000
DSTYLE
1002
{
1070
   287
1070
     3
1070
   287
1070
     3
1070
    40
1040
30.0
1070
   143
1040
0.039
1070
   172
1070
     1
1070
   271
1070
     0
1070
   279
1070
     0
1070
   288
1070
     1
1002
}
  0
DIMENSION
  5
7B6A
  8
3
  6
CONTINUOUS
  2
*D6
 10
3356.3856310000001
 20
2469.1665769999991
 30
0.0
 11
3356.3856310000001
 21
2992.4777989999989
 31
0.0
 70
   128
 13
2385.230583999999
 23
3650.166577
 33
0.0
 14
2780.230583999999
 24
2469.166577
 34
0.0
 50
90.0
1001
ACAD
1000
DSTYLE
1002
{
1070
   287
1070
     3
1070
   287
1070
     3
1070
    40
1040
30.0
1070
   143
1040
0.039
1070
   172
1070
     1
1070
   271
1070
     0
1070
   279
1070
     0
1070
   288
1070
     1
1002
}
  0
DIMENSION
  5
7B77
  8
3
  6
CONTINUOUS
  2
*D7
 10
2300.230583999999
 20
2193.6354200000001
 30
0.0
 11
1806.909136
 21
2193.6354200000001
 31
0.0
 70
   128
 13
1270.2305839999999
 23
2469.166577
 33
0.0
 14
2300.230583999999
 24
2192.479096
 34
0.0
1001
ACAD
1000
DSTYLE
1002
{
1070
   287
1070
     3
1070
   287
1070
     3
1070
    40
1040
30.0
1070
   143
1040
0.039
1070
   172
1070
     1
1070
   271
1070
     0
1070
   279
1070
     0
1070
   288
1070
     1
1002
}
  0
DIMENSION
  5
7B83
  8
3
  6
CONTINUOUS
  2
*D8
 10
2780.230583999999
 20
2193.6354200000001
 30
0.0
 11
2540.2305839999999
 21
2268.6354200000001
 31
0.0
 70
     0
 13
2300.230583999999
 23
2192.479096
 33
0.0
 14
2780.230583999999
 24
2469.166577
 34
0.0
1001
ACAD
1000
DSTYLE
1002
{
1070
   287
1070
     4
1070
   287
1070
     4
1070
    40
1040
30.0
1070
    75
1070
     1
1070
   143
1040
0.039
1070
   172
1070
     1
1070
   271
1070
     0
1070
   279
1070
     1
1070
   288
1070
     1
1002
}
  0
DIMENSION
  5
7B90
  8
3
  6
CONTINUOUS
  2
*D9
 10
4396.6000880000001
 20
3705.2475799999988
 30
0.0
 11
4602.3143740000014
 21
3705.2475799999988
 31
0.0
 70
   128
 13
4871.6000880000001
 23
3650.166577
 33
0.0
 14
4396.6000880000001
 24
3650.166577
 34
0.0
1001
ACAD
1000
DSTYLE
1002
{
1070
   287
1070
     3
1070
   287
1070
     3
1070
    40
1040
30.0
1070
   143
1040
0.039
1070
   172
1070
     1
1070
   271
1070
     0
1070
   279
1070
     0
1070
   288
1070
     1
1002
}
  0
LINE
  5
7B91
  8
1
  6
CONTINUOUS
 10
4875.1000879999992
 20
3500.166577
 30
0.0
 11
4875.1000879999992
 21
2830.1665769999991
 31
0.0
  0
DIMENSION
  5
7BA0
  8
3
  6
CONTINUOUS
  2
*D10
 10
5113.145829000001
 20
2830.1665769999991
 30
0.0
 11
5113.145829
 21
3165.8723970000001
 31
0.0
 70
   128
 13
4875.1000879999992
 23
3500.166577
 33
0.0
 14
4875.1000879999992
 24
2830.1665769999991
 34
0.0
 50
90.0
1001
ACAD
1000
DSTYLE
1002
{
1070
   287
1070
     3
1070
   287
1070
     3
1070
     3
1000
φ<>
1070
    40
1040
30.0
1070
   143
1040
0.039
1070
   172
1070
     1
1070
   271
1070
     0
1070
   279
1070
     0
1070
   288
1070
     1
1002
}
  0
DIMENSION
  5
7BBC
  8
3
  6
CONTINUOUS
  2
*D11
 10
4634.1000880000001
 20
3944.9726801448851
 30
0.0
 11
4752.1501333452579
 21
4040.9217077360222
 31
0.0
 70
   128
 13
4875.1000879999992
 23
3500.166577
 33
0.0
 14
4634.1000880000001
 24
3858.7858510000001
 34
0.0
1001
ACAD
1000
DSTYLE
1002
{
1070
   288
1070
     1
1070
   172
1070
     1
1070
    40
1040
30.0
1070
   271
1070
     0
1070
   143
1040
0.039
1002
}
  0
DIMENSION
  5
7BC8
  8
3
  6
CONTINUOUS
  2
*D12
 10
4154.1000880000001
 20
3944.9726801448851
 30
0.0
 11
4394.1000880000001
 21
4094.9726801448851
 31
0.0
 70
     0
  1
MAX\P530
 13
4634.1000880000001
 23
3858.7858510000001
 33
0.0
 14
4154.1000880000001
 24
3695.166577
 34
0.0
1001
ACAD
1000
DSTYLE
1002
{
1070
   287
1070
     4
1070
   287
1070
     4
1070
    40
1040
30.0
1070
    75
1070
     1
1070
   143
1040
0.039
1070
   172
1070
     1
1070
   271
1070
     0
1070
   279
1070
     1
1070
   288
1070
     1
1002
}
  0
DIMENSION
  5
7BD5
  8
3
  6
CONTINUOUS
  2
*D13
 10
4634.1000880000001
 20
2197.7004780000002
 30
0.0
 11
4391.2852039999989
 21
2197.7004780000002
 31
0.0
 70
   128
 13
4108.1000880000001
 23
2469.166577
 33
0.0
 14
4634.1000880000001
 24
2373.6185489999989
 34
0.0
1001
ACAD
1000
DSTYLE
1002
{
1070
   287
1070
     3
1070
   287
1070
     3
1070
    40
1040
30.0
1070
   143
1040
0.039
1070
   172
1070
     1
1070
   271
1070
     0
1070
   279
1070
     0
1070
   288
1070
     1
1002
}
  0
DIMENSION
  5
7BE3
  8
3
  6
CONTINUOUS
  2
*D14
 10
5038.1000880000001
 20
2197.7004780000002
 30
0.0
 11
4836.798229
 21
2196.066452999999
 31
0.0
 70
   128
 13
4634.1000880000001
 23
2373.6185489999989
 33
0.0
 14
5038.1000880000001
 24
2469.166577
 34
0.0
1001
ACAD
1000
DSTYLE
1002
{
1070
   287
1070
     4
1070
   287
1070
     4
1070
    40
1040
30.0
1070
    75
1070
     1
1070
   143
1040
0.039
1070
   172
1070
     1
1070
   271
1070
     0
1070
   279
1070
     1
1070
   288
1070
     1
1002
}
  0
DIMENSION
  5
7BF0
  8
3
  6
CONTINUOUS
  2
*D15
 10
2780.230583999999
 20
6168.5896240000002
 30
0.0
 11
2092.0137030000001
 21
6168.5896240000002
 31
0.0
 70
   128
 13
1270.2305839999999
 23
6053.021968
 33
0.0
 14
2780.230583999999
 24
6053.021968
 34
0.0
1001
ACAD
1000
DSTYLE
1002
{
1070
   287
1070
     3
1070
   287
1070
     3
1070
    40
1040
30.0
1070
   143
1040
0.039
1070
   172
1070
     1
1070
   271
1070
     0
1070
   279
1070
     0
1070
   288
1070
     1
1002
}
  0
DIMENSION
  5
7BFD
  8
3
  6
CONTINUOUS
  2
*D16
 10
3062.5825949999999
 20
5123.021968
 30
0.0
 11
3062.5825949999999
 21
5598.9124419999989
 31
0.0
 70
   128
 13
2780.230583999999
 23
6053.021968
 33
0.0
 14
2780.230583999999
 24
5123.021968
 34
0.0
 50
90.0
1001
ACAD
1000
DSTYLE
1002
{
1070
   287
1070
     3
1070
   287
1070
     3
1070
    40
1040
30.0
1070
   143
1040
0.039
1070
   172
1070
     1
1070
   271
1070
     0
1070
   279
1070
     0
1070
   288
1070
     1
1002
}
  0
LINE
  5
7C14
  8
2
  6
CENTER
 10
4634.1000880000001
 20
3716.0492049999998
 30
0.0
 11
4634.1000880000001
 21
2373.6185489999989
 31
0.0
  0
DIMENSION
  5
7CE6
  8
3
  6
CONTINUOUS
  2
*D17
 10
2780.230583999999
 20
4832.3541489999998
 30
0.0
 11
2061.1552710000001
 21
4832.3541489999998
 31
0.0
 70
   128
 13
1270.2305839999999
 23
5123.021968
 33
0.0
 14
2780.230583999999
 24
5123.021968
 34
0.0
1001
ACAD
1000
DSTYLE
1002
{
1070
   287
1070
     3
1070
   287
1070
     3
1070
    40
1040
30.0
1070
   143
1040
0.039
1070
   172
1070
     1
1070
   271
1070
     0
1070
   279
1070
     0
1070
   288
1070
     1
1002
}
  0
DIMENSION
  5
7DC9
  8
3
  2
*D18
 10
2753.4850309999988
 20
3978.2378829999998
 30
0.0
 11
2526.8578074999991
 21
4053.2378829999998
 31
0.0
 70
     0
  1
452
 13
2300.230583999999
 23
3808.5356550000001
 33
0.0
 14
2753.4850309999988
 24
3130.166577
 34
0.0
1001
ACAD
1000
DSTYLE
1002
{
1070
   287
1070
     4
1070
   287
1070
     4
1070
    40
1040
30.0
1070
   143
1040
0.039
1070
   172
1070
     1
1070
   271
1070
     0
1070
   279
1070
     1
1070
   288
1070
     1
1002
}
  0
ENDSEC
  0
EOF
