  0
SECTION
  2
HEADER
  9
$ACADVER
  1
AC1009
  9
$INSBASE
 10
0.0
 20
0.0
 30
0.0
  9
$EXTMIN
 10
750.0
 20
900.0
 30
0.0
  9
$EXTMAX
 10
5550.0
 20
8359.9567849999985
 30
0.0
  9
$LIMMIN
 10
0.0
 20
0.0
  9
$LIMMAX
 10
297.0
 20
210.0
  9
$ORTHOMODE
 70
     0
  9
$REGENMODE
 70
     1
  9
$FILLMODE
 70
     0
  9
$QTEXTMODE
 70
     0
  9
$MIRRTEXT
 70
     1
  9
$DRAGMODE
 70
     2
  9
$LTSCALE
 40
100.0
  9
$OSMODE
 70
    37
  9
$ATTMODE
 70
     1
  9
$TEXTSIZE
 40
180.0
  9
$TRACEWID
 40
0.05
  9
$TEXTSTYLE
  7
STANDARD
  9
$CLAYER
  8
3
  9
$CELTYPE
  6
BYLAYER
  9
$CECOLOR
 62
   256
  9
$DIMSCALE
 40
30.0
  9
$DIMASZ
 40
2.0
  9
$DIMEXO
 40
0.5
  9
$DIMDLI
 40
10.0
  9
$DIMRND
 40
0.0
  9
$DIMDLE
 40
0.0
  9
$DIMEXE
 40
1.0
  9
$DIMTP
 40
1.0
  9
$DIMTM
 40
1.0
  9
$DIMTXT
 40
3.0
  9
$DIMCEN
 40
0.0
  9
$DIMTSZ
 40
0.0
  9
$DIMTOL
 70
     0
  9
$DIMLIM
 70
     0
  9
$DIMTIH
 70
     0
  9
$DIMTOH
 70
     0
  9
$DIMSE1
 70
     0
  9
$DIMSE2
 70
     0
  9
$DIMTAD
 70
     1
  9
$DIMZIN
 70
     8
  9
$DIMBLK
  1

  9
$DIMASO
 70
     1
  9
$DIMSHO
 70
     1
  9
$DIMPOST
  1

  9
$DIMAPOST
  1

  9
$DIMALT
 70
     0
  9
$DIMALTD
 70
     2
  9
$DIMALTF
 40
0.039
  9
$DIMLFAC
 40
1.0
  9
$DIMTOFL
 70
     1
  9
$DIMTVP
 40
0.0
  9
$DIMTIX
 70
     0
  9
$DIMSOXD
 70
     0
  9
$DIMSAH
 70
     1
  9
$DIMBLK1
  1
OPEN
  9
$DIMBLK2
  1
OPEN
  9
$DIMSTYLE
  2
IGA
  9
$DIMCLRD
 70
     0
  9
$DIMCLRE
 70
     0
  9
$DIMCLRT
 70
     0
  9
$DIMTFAC
 40
10.0
  9
$DIMGAP
 40
1.0
  9
$LUNITS
 70
     2
  9
$LUPREC
 70
     3
  9
$SKETCHINC
 40
0.1
  9
$FILLETRAD
 40
50.0
  9
$AUNITS
 70
     0
  9
$AUPREC
 70
     0
  9
$MENU
  1
acad
  9
$ELEVATION
 40
0.0
  9
$PELEVATION
 40
0.0
  9
$THICKNESS
 40
0.0
  9
$LIMCHECK
 70
     0
  9
$BLIPMODE
 70
     0
  9
$CHAMFERA
 40
0.5
  9
$CHAMFERB
 40
0.5
  9
$SKPOLY
 70
     0
  9
$TDCREATE
 40
2450742.43318287
  9
$TDUPDATE
 40
2454953.7708320599
  9
$TDINDWG
 40
0.0066710532
  9
$TDUSRTIMER
 40
0.0066710532
  9
$USRTIMER
 70
     1
  9
$ANGBASE
 50
0.0
  9
$ANGDIR
 70
     0
  9
$PDMODE
 70
     0
  9
$PDSIZE
 40
0.0
  9
$PLINEWID
 40
0.0
  9
$COORDS
 70
     1
  9
$SPLFRAME
 70
     0
  9
$SPLINETYPE
 70
     6
  9
$SPLINESEGS
 70
     8
  9
$ATTDIA
 70
     0
  9
$ATTREQ
 70
     1
  9
$HANDLING
 70
 10241
  9
$HANDSEED
  5
7E8A
  9
$SURFTAB1
 70
     6
  9
$SURFTAB2
 70
     6
  9
$SURFTYPE
 70
     6
  9
$SURFU
 70
     6
  9
$SURFV
 70
     6
  9
$UCSNAME
  2

  9
$UCSORG
 10
0.0
 20
0.0
 30
0.0
  9
$UCSXDIR
 10
1.0
 20
0.0
 30
0.0
  9
$UCSYDIR
 10
0.0
 20
1.0
 30
0.0
  9
$PUCSNAME
  2

  9
$PUCSORG
 10
0.0
 20
0.0
 30
0.0
  9
$PUCSXDIR
 10
1.0
 20
0.0
 30
0.0
  9
$PUCSYDIR
 10
0.0
 20
1.0
 30
0.0
  9
$USERI1
 70
     0
  9
$USERI2
 70
     0
  9
$USERI3
 70
     0
  9
$USERI4
 70
     0
  9
$USERI5
 70
     0
  9
$USERR1
 40
0.0
  9
$USERR2
 40
0.0
  9
$USERR3
 40
0.0
  9
$USERR4
 40
0.0
  9
$USERR5
 40
0.0
  9
$WORLDVIEW
 70
     1
  9
$SHADEDGE
 70
     3
  9
$SHADEDIF
 70
    70
  9
$TILEMODE
 70
     1
  9
$MAXACTVP
 70
    16
  9
$PLIMCHECK
 70
     0
  9
$PEXTMIN
 10
1.0000000000000000E+020
 20
1.0000000000000000E+020
 30
1.0000000000000000E+020
  9
$PEXTMAX
 10
-1.0000000000000000E+020
 20
-1.0000000000000000E+020
 30
-1.0000000000000000E+020
  9
$PLIMMIN
 10
0.0
 20
0.0
  9
$PLIMMAX
 10
12.0
 20
9.0
  9
$UNITMODE
 70
     0
  9
$VISRETAIN
 70
     0
  9
$PLINEGEN
 70
     0
  9
$PSLTSCALE
 70
     1
  0
ENDSEC
  0
SECTION
  2
TABLES
  0
TABLE
  2
VPORT
 70
     2
  0
VPORT
  2
*ACTIVE
 70
     0
 10
0.0
 20
0.0
 11
1.0
 21
1.0
 12
9438.4567678319436
 22
4630.0975558305709
 13
0.0
 23
0.0
 14
10.0
 24
10.0
 15
10.0
 25
10.0
 16
0.0
 26
0.0
 36
1.0
 17
0.0
 27
0.0
 37
0.0
 40
7517.4747125171307
 41
3.1666666666666661
 42
50.0
 43
0.0
 44
0.0
 50
0.0
 51
0.0
 71
     0
 72
   100
 73
     1
 74
     0
 75
     0
 76
     0
 77
     0
 78
     0
  0
ENDTAB
  0
TABLE
  2
LTYPE
 70
     2
  0
LTYPE
  2
CONTINUOUS
 70
     0
  3
Solid line
 72
    65
 73
     0
 40
0.0
  0
LTYPE
  2
CENTER
 70
     0
  3
____ _ ____ _ ____ _ ____ _ ____ _ ____ _ ____ 
 72
    65
 73
     4
 40
2.0
 49
1.25
 49
-0.25
 49
0.25
 49
-0.25
  0
ENDTAB
  0
TABLE
  2
LAYER
 70
     6
  0
LAYER
  2
0
 70
     0
 62
     7
  6
CONTINUOUS
  0
LAYER
  2
3
 70
     0
 62
     2
  6
CONTINUOUS
  0
LAYER
  2
2
 70
     0
 62
     3
  6
CENTER
  0
LAYER
  2
1
 70
     0
 62
     4
  6
CONTINUOUS
  0
LAYER
  2
4
 70
     0
 62
     7
  6
CONTINUOUS
  0
LAYER
  2
DEFPOINTS
 70
     0
 62
     7
  6
CONTINUOUS
  0
ENDTAB
  0
TABLE
  2
STYLE
 70
     1
  0
STYLE
  2
STANDARD
 70
     0
 40
0.0
 41
1.0
 50
0.0
 71
     0
 42
180.0
  3
simplex.shx
  4
extfont.shx
  0
ENDTAB
  0
TABLE
  2
VIEW
 70
     0
  0
ENDTAB
  0
TABLE
  2
UCS
 70
     0
  0
ENDTAB
  0
TABLE
  2
APPID
 70
     1
  0
APPID
  2
ACAD
 70
     0
  0
ENDTAB
  0
TABLE
  2
DIMSTYLE
 70
     1
  0
DIMSTYLE
  2
IGA
 70
     0
  3

  4

  5

  6
OPEN
  7
OPEN
 40
2.0
 41
2.0
 42
0.5
 43
10.0
 44
1.0
 45
0.0
 46
0.0
 47
1.0
 48
1.0
140
3.0
141
0.0
142
0.0
143
0.03937
144
1.0
145
0.0
146
10.0
147
1.0
 71
     0
 72
     0
 73
     0
 74
     0
 75
     0
 76
     0
 77
     1
 78
     8
170
     0
171
     2
172
     0
173
     1
174
     0
175
     0
176
     0
177
     0
178
     0
  0
ENDTAB
  0
ENDSEC
  0
SECTION
  2
BLOCKS
  0
BLOCK
  8
0
  2
$MODEL_SPACE
 70
     0
 10
0.0
 20
0.0
 30
0.0
  3
$MODEL_SPACE
  1

  0
ENDBLK
  5
1B
  8
0
  0
BLOCK
 67
     1
  8
0
  2
$PAPER_SPACE
 70
     0
 10
0.0
 20
0.0
 30
0.0
  3
$PAPER_SPACE
  1

  0
ENDBLK
  5
18
 67
     1
  8
0
  0
BLOCK
  8
0
  2
_OPEN
 70
     0
 10
0.0
 20
0.0
 30
0.0
  3
_OPEN
  1

  0
LINE
  5
7B0E
  8
0
  6
BYBLOCK
 62
     0
 10
-1.0
 20
0.166667
 30
0.0
 11
0.0
 21
0.0
 31
0.0
  0
LINE
  5
7B0F
  8
0
  6
BYBLOCK
 62
     0
 10
0.0
 20
0.0
 30
0.0
 11
-1.0
 21
-0.166667
 31
0.0
  0
LINE
  5
7B10
  8
0
  6
BYBLOCK
 62
     0
 10
0.0
 20
0.0
 30
0.0
 11
-1.0
 21
0.0
 31
0.0
  0
ENDBLK
  5
7B11
  8
0
  0
BLOCK
  8
0
  2
*D1
 70
     1
 10
0.0
 20
0.0
 30
0.0
  3
*D1
  1

  0
LINE
  5
7DE2
  8
3
  6
CONTINUOUS
 62
     0
 10
2669.7271426852631
 20
4009.29560467591
 30
0.0
 11
2891.2385966852639
 21
4009.29560467591
 31
0.0
  0
LINE
  5
7DE3
  8
3
  6
CONTINUOUS
 62
     0
 10
2669.7271426852631
 20
3359.29560467591
 30
0.0
 11
2891.2385966852639
 21
3359.29560467591
 31
0.0
  0
LINE
  5
7DE4
  8
3
  6
CONTINUOUS
 62
     0
 10
2861.2385966852639
 20
3949.29560467591
 30
0.0
 11
2861.2385966852639
 21
3419.29560467591
 31
0.0
  0
INSERT
  5
7DE5
  8
3
  6
CONTINUOUS
 62
     0
  2
_OPEN
 10
2861.2385966852639
 20
4009.29560467591
 30
0.0
 41
60.0
 42
60.0
 43
60.0
 50
90.0
  0
INSERT
  5
7DE6
  8
3
  6
CONTINUOUS
 62
     0
  2
_OPEN
 10
2861.2385966852639
 20
3359.29560467591
 30
0.0
 41
60.0
 42
60.0
 43
60.0
 50
270.0
  0
TEXT
  8
3
  40
90
  5
7E78
  62
0
  72
0
  71
0
 10
2606.24
 20
3481.25
 30
0.000000
  1
650
  0
POINT
  5
7DE8
  8
DEFPOINTS
  6
CONTINUOUS
 62
     0
 10
2654.7271426852631
 20
4009.29560467591
 30
0.0
  0
POINT
  5
7DE9
  8
DEFPOINTS
  6
CONTINUOUS
 62
     0
 10
2654.7271426852631
 20
3359.29560467591
 30
0.0
  0
POINT
  5
7DEA
  8
DEFPOINTS
  6
CONTINUOUS
 62
     0
 10
2861.2385966852639
 20
3359.29560467591
 30
0.0
  0
ENDBLK
  5
7B1E
  8
0
  0
BLOCK
  8
0
  2
*D2
 70
     1
 10
0.0
 20
0.0
 30
0.0
  3
*D2
  1

  0
LINE
  5
7DEB
  8
3
  6
CONTINUOUS
 62
     0
 10
2669.7271426852631
 20
4009.29560467591
 30
0.0
 11
3087.062745685264
 21
4009.29560467591
 31
0.0
  0
LINE
  5
7DEC
  8
3
  6
CONTINUOUS
 62
     0
 10
2782.2157426852632
 20
3389.29560467591
 30
0.0
 11
3087.062745685264
 21
3389.2956046759091
 31
0.0
  0
LINE
  5
7DED
  8
3
  6
CONTINUOUS
 62
     0
 10
3057.062745685264
 20
3949.29560467591
 30
0.0
 11
3057.062745685264
 21
3449.29560467591
 31
0.0
  0
INSERT
  5
7DEE
  8
3
  6
CONTINUOUS
 62
     0
  2
_OPEN
 10
3057.062745685264
 20
4009.29560467591
 30
0.0
 41
60.0
 42
60.0
 43
60.0
 50
90.0
  0
INSERT
  5
7DEF
  8
3
  6
CONTINUOUS
 62
     0
  2
_OPEN
 10
3057.062745685264
 20
3389.29560467591
 30
0.0
 41
60.0
 42
60.0
 43
60.0
 50
270.0
  0
TEXT
  8
3
  40
90
  5
7E79
  62
0
  72
0
  71
0
 10
2802.06
 20
3487.56
 30
0.000000
  1
620
  0
POINT
  5
7DF1
  8
DEFPOINTS
  6
CONTINUOUS
 62
     0
 10
2654.7271426852631
 20
4009.29560467591
 30
0.0
  0
POINT
  5
7DF2
  8
DEFPOINTS
  6
CONTINUOUS
 62
     0
 10
2767.2157426852632
 20
3389.29560467591
 30
0.0
  0
POINT
  5
7DF3
  8
DEFPOINTS
  6
CONTINUOUS
 62
     0
 10
3057.062745685264
 20
3389.29560467591
 30
0.0
  0
ENDBLK
  5
7B2B
  8
0
  0
BLOCK
  8
0
  2
*D3
 70
     1
 10
0.0
 20
0.0
 30
0.0
  3
*D3
  1

  0
LINE
  5
7DF4
  8
3
  6
CONTINUOUS
 62
     0
 10
2614.7271426852622
 20
2819.29560467591
 30
0.0
 11
3087.0627456852631
 21
2819.29560467591
 31
0.0
  0
LINE
  5
7DF5
  8
3
  6
CONTINUOUS
 62
     0
 10
3057.0627456852631
 20
3329.29560467591
 30
0.0
 11
3057.0627456852631
 21
2879.29560467591
 31
0.0
  0
INSERT
  5
7DF6
  8
3
  6
CONTINUOUS
 62
     0
  2
_OPEN
 10
3057.0627456852631
 20
3389.29560467591
 30
0.0
 41
60.0
 42
60.0
 43
60.0
 50
90.0
  0
INSERT
  5
7DF7
  8
3
  6
CONTINUOUS
 62
     0
  2
_OPEN
 10
3057.0627456852631
 20
2819.29560467591
 30
0.0
 41
60.0
 42
60.0
 43
60.0
 50
270.0
  0
TEXT
  8
3
  40
90
  5
7E7A
  62
0
  72
0
  71
0
 10
2802.06
 20
2945.00
 30
0.000000
  1
570
  0
POINT
  5
7DF9
  8
DEFPOINTS
  6
CONTINUOUS
 62
     0
 10
2767.2157426852632
 20
3389.29560467591
 30
0.0
  0
POINT
  5
7DFA
  8
DEFPOINTS
  6
CONTINUOUS
 62
     0
 10
2599.7271426852631
 20
2819.29560467591
 30
0.0
  0
POINT
  5
7DFB
  8
DEFPOINTS
  6
CONTINUOUS
 62
     0
 10
3057.0627456852631
 20
2819.29560467591
 30
0.0
  0
ENDBLK
  5
7B37
  8
0
  0
BLOCK
  8
0
  2
*D4
 70
     1
 10
0.0
 20
0.0
 30
0.0
  3
*D4
  1

  0
LINE
  5
7DFC
  8
3
  6
CONTINUOUS
 62
     0
 10
2614.7271426852622
 20
2819.29560467591
 30
0.0
 11
3088.7700486852641
 21
2819.29560467591
 31
0.0
  0
LINE
  5
7DFD
  8
3
  6
CONTINUOUS
 62
     0
 10
2664.7271426852631
 20
2693.29560467591
 30
0.0
 11
3088.7700486852641
 21
2693.29560467591
 31
0.0
  0
LINE
  5
7DFE
  8
3
  6
CONTINUOUS
 62
     0
 10
3058.7700486852632
 20
2879.29560467591
 30
0.0
 11
3058.7700486852632
 21
2939.29560467591
 31
0.0
  0
LINE
  5
7DFF
  8
3
  6
CONTINUOUS
 62
     0
 10
3058.7700486852632
 20
2633.29560467591
 30
0.0
 11
3058.7700486852632
 21
2303.29560467591
 31
0.0
  0
LINE
  5
7E00
  8
3
  6
CONTINUOUS
 62
     0
 10
3058.7700486852632
 20
2819.29560467591
 30
0.0
 11
3058.7700486852632
 21
2693.29560467591
 31
0.0
  0
INSERT
  5
7E01
  8
3
  6
CONTINUOUS
 62
     0
  2
_OPEN
 10
3058.7700486852632
 20
2819.29560467591
 30
0.0
 41
60.0
 42
60.0
 43
60.0
 50
270.0
  0
INSERT
  5
7E02
  8
3
  6
CONTINUOUS
 62
     0
  2
_OPEN
 10
3058.7700486852632
 20
2693.29560467591
 30
0.0
 41
60.0
 42
60.0
 43
60.0
 50
90.0
  0
TEXT
  8
3
  40
90
  5
7E7B
  62
0
  72
0
  71
0
 10
2803.77
 20
2279.00
 30
0.000000
  1
126
  0
POINT
  5
7E04
  8
DEFPOINTS
  6
CONTINUOUS
 62
     0
 10
2599.7271426852631
 20
2819.29560467591
 30
0.0
  0
POINT
  5
7E05
  8
DEFPOINTS
  6
CONTINUOUS
 62
     0
 10
2649.7271426852631
 20
2693.29560467591
 30
0.0
  0
POINT
  5
7E06
  8
DEFPOINTS
  6
CONTINUOUS
 62
     0
 10
3058.7700486852632
 20
2693.29560467591
 30
0.0
  0
ENDBLK
  5
7CEA
  8
0
  0
BLOCK
  8
0
  2
*D5
 70
     1
 10
0.0
 20
0.0
 30
0.0
  3
*D5
  1

  0
LINE
  5
7E07
  8
3
  6
CONTINUOUS
 62
     0
 10
2669.7271426852631
 20
4049.29560467591
 30
0.0
 11
3302.8612776852642
 21
4049.29560467591
 31
0.0
  0
LINE
  5
7E08
  8
3
  6
CONTINUOUS
 62
     0
 10
2664.7271426852631
 20
2693.29560467591
 30
0.0
 11
3302.8612776852642
 21
2693.29560467591
 31
0.0
  0
LINE
  5
7E09
  8
3
  6
CONTINUOUS
 62
     0
 10
3272.8612776852642
 20
3989.2956046759091
 30
0.0
 11
3272.8612776852628
 21
2753.29560467591
 31
0.0
  0
INSERT
  5
7E0A
  8
3
  6
CONTINUOUS
 62
     0
  2
_OPEN
 10
3272.8612776852642
 20
4049.29560467591
 30
0.0
 41
60.0
 42
60.0
 43
60.0
 50
90.0
  0
INSERT
  5
7E0B
  8
3
  6
CONTINUOUS
 62
     0
  2
_OPEN
 10
3272.8612776852628
 20
2693.29560467591
 30
0.0
 41
60.0
 42
60.0
 43
60.0
 50
270.0
  0
TEXT
  8
3
  40
90
  5
7E7C
  62
0
  72
0
  71
0
 10
3017.86
 20
3235.12
 30
0.000000
  1
1356
  0
POINT
  5
7E0D
  8
DEFPOINTS
  6
CONTINUOUS
 62
     0
 10
2654.7271426852631
 20
4049.29560467591
 30
0.0
  0
POINT
  5
7E0E
  8
DEFPOINTS
  6
CONTINUOUS
 62
     0
 10
2649.7271426852631
 20
2693.29560467591
 30
0.0
  0
POINT
  5
7E0F
  8
DEFPOINTS
  6
CONTINUOUS
 62
     0
 10
3272.8612776852628
 20
2693.29560467591
 30
0.0
  0
ENDBLK
  5
7C59
  8
0
  0
BLOCK
  8
0
  2
*D6
 70
     1
 10
0.0
 20
0.0
 30
0.0
  3
*D6
  1

  0
LINE
  5
7E10
  8
3
  6
CONTINUOUS
 62
     0
 10
1139.7271426852631
 20
2678.29560467591
 30
0.0
 11
1139.7271426852631
 21
2393.5779236759099
 31
0.0
  0
LINE
  5
7E11
  8
3
  6
CONTINUOUS
 62
     0
 10
2169.7271426852631
 20
2551.2649166759102
 30
0.0
 11
2169.7271426852631
 21
2393.5779236759099
 31
0.0
  0
LINE
  5
7E12
  8
3
  6
CONTINUOUS
 62
     0
 10
1199.7271426852631
 20
2423.5779236759099
 30
0.0
 11
2109.7271426852631
 21
2423.5779236759099
 31
0.0
  0
INSERT
  5
7E13
  8
3
  6
CONTINUOUS
 62
     0
  2
_OPEN
 10
1139.7271426852631
 20
2423.5779236759099
 30
0.0
 41
60.0
 42
60.0
 43
60.0
 50
180.0
  0
INSERT
  5
7E14
  8
3
  6
CONTINUOUS
 62
     0
  2
_OPEN
 10
2169.7271426852631
 20
2423.5779236759099
 30
0.0
 41
60.0
 42
60.0
 43
60.0
  0
TEXT
  8
3
  40
90
  5
7E7D
  62
0
  72
0
  71
0
 10
1537.88
 20
2339.28
 30
0.000000
  1
1030
  0
POINT
  5
7E16
  8
DEFPOINTS
  6
CONTINUOUS
 62
     0
 10
1139.7271426852631
 20
2693.29560467591
 30
0.0
  0
POINT
  5
7E17
  8
DEFPOINTS
  6
CONTINUOUS
 62
     0
 10
2169.7271426852631
 20
2566.2649166759102
 30
0.0
  0
POINT
  5
7E18
  8
DEFPOINTS
  6
CONTINUOUS
 62
     0
 10
2169.7271426852631
 20
2423.5779236759099
 30
0.0
  0
ENDBLK
  5
7C2A
  8
0
  0
BLOCK
  8
0
  2
*D7
 70
     1
 10
0.0
 20
0.0
 30
0.0
  3
*D7
  1

  0
LINE
  5
7E19
  8
3
  6
CONTINUOUS
 62
     0
 10
2649.7271426852631
 20
2678.29560467591
 30
0.0
 11
2649.7271426852631
 21
2393.5779236759099
 31
0.0
  0
LINE
  5
7E1A
  8
3
  6
CONTINUOUS
 62
     0
 10
2229.7271426852631
 20
2423.5779236759099
 30
0.0
 11
2589.7271426852631
 21
2423.5779236759099
 31
0.0
  0
INSERT
  5
7E1B
  8
3
  6
CONTINUOUS
 62
     0
  2
_OPEN
 10
2169.7271426852631
 20
2423.5779236759099
 30
0.0
 41
60.0
 42
60.0
 43
60.0
 50
180.0
  0
INSERT
  5
7E1C
  8
3
  6
CONTINUOUS
 62
     0
  2
_OPEN
 10
2649.7271426852631
 20
2423.5779236759099
 30
0.0
 41
60.0
 42
60.0
 43
60.0
  0
TEXT
  8
3
  40
90
  5
7E7E
  62
0
  72
0
  71
0
 10
2229.73
 20
2339.28
 30
0.000000
  1
480
  0
POINT
  5
7E1E
  8
DEFPOINTS
  6
CONTINUOUS
 62
     0
 10
2169.7271426852631
 20
2566.2649166759102
 30
0.0
  0
POINT
  5
7E1F
  8
DEFPOINTS
  6
CONTINUOUS
 62
     0
 10
2649.7271426852631
 20
2693.29560467591
 30
0.0
  0
POINT
  5
7E20
  8
DEFPOINTS
  6
CONTINUOUS
 62
     0
 10
2649.7271426852631
 20
2423.5779236759099
 30
0.0
  0
ENDBLK
  5
7C34
  8
0
  0
BLOCK
  8
0
  2
*D8
 70
     1
 10
0.0
 20
0.0
 30
0.0
  3
*D8
  1

  0
LINE
  5
7E21
  8
3
  6
CONTINUOUS
 62
     0
 10
2654.7271426852631
 20
4064.29560467591
 30
0.0
 11
2654.7271426852631
 21
4181.7375286759088
 31
0.0
  0
LINE
  5
7E22
  8
3
  6
CONTINUOUS
 62
     0
 10
2169.7271426852631
 20
4138.1956376759099
 30
0.0
 11
2169.7271426852631
 21
4181.7375286759088
 31
0.0
  0
LINE
  5
7E23
  8
3
  6
CONTINUOUS
 62
     0
 10
2594.7271426852631
 20
4151.7375286759088
 30
0.0
 11
2229.7271426852631
 21
4151.7375286759088
 31
0.0
  0
INSERT
  5
7E24
  8
3
  6
CONTINUOUS
 62
     0
  2
_OPEN
 10
2654.7271426852631
 20
4151.7375286759088
 30
0.0
 41
60.0
 42
60.0
 43
60.0
  0
INSERT
  5
7E25
  8
3
  6
CONTINUOUS
 62
     0
  2
_OPEN
 10
2169.7271426852631
 20
4151.7375286759088
 30
0.0
 41
60.0
 42
60.0
 43
60.0
 50
180.0
  0
TEXT
  8
3
  40
90
  5
7E7F
  62
0
  72
0
  71
0
 10
2226.42
 20
4067.44
 30
0.000000
  1
485
  0
POINT
  5
7E27
  8
DEFPOINTS
  6
CONTINUOUS
 62
     0
 10
2654.7271426852631
 20
4049.29560467591
 30
0.0
  0
POINT
  5
7E28
  8
DEFPOINTS
  6
CONTINUOUS
 62
     0
 10
2169.7271426852631
 20
4123.1956376759108
 30
0.0
  0
POINT
  5
7E29
  8
DEFPOINTS
  6
CONTINUOUS
 62
     0
 10
2169.7271426852631
 20
4151.7375286759088
 30
0.0
  0
ENDBLK
  5
7B7A
  8
0
  0
BLOCK
  8
0
  2
*D9
 70
     1
 10
0.0
 20
0.0
 30
0.0
  3
*D9
  1

  0
LINE
  5
7E2A
  8
3
  6
CONTINUOUS
 62
     0
 10
4936.6512110000003
 20
4024.2956046759091
 30
0.0
 11
4936.6512110000003
 21
4197.0427466759111
 31
0.0
  0
LINE
  5
7E2B
  8
3
  6
CONTINUOUS
 62
     0
 10
4461.6512110000003
 20
4024.2956046759091
 30
0.0
 11
4461.6512110000003
 21
4197.0427466759111
 31
0.0
  0
LINE
  5
7E2C
  8
3
  6
CONTINUOUS
 62
     0
 10
4876.6512110000012
 20
4167.0427466759093
 30
0.0
 11
4521.6512110000003
 21
4167.0427466759093
 31
0.0
  0
INSERT
  5
7E2D
  8
3
  6
CONTINUOUS
 62
     0
  2
_OPEN
 10
4936.6512110000003
 20
4167.0427466759093
 30
0.0
 41
60.0
 42
60.0
 43
60.0
  0
INSERT
  5
7E2E
  8
3
  6
CONTINUOUS
 62
     0
  2
_OPEN
 10
4461.6512110000003
 20
4167.0427466759093
 30
0.0
 41
60.0
 42
60.0
 43
60.0
 50
180.0
  0
TEXT
  8
3
  40
90
  5
7E80
  62
0
  72
0
  71
0
 10
4487.37
 20
4082.74
 30
0.000000
  1
475
  0
POINT
  5
7E30
  8
DEFPOINTS
  6
CONTINUOUS
 62
     0
 10
4936.6512110000003
 20
4009.29560467591
 30
0.0
  0
POINT
  5
7E31
  8
DEFPOINTS
  6
CONTINUOUS
 62
     0
 10
4461.6512110000003
 20
4009.29560467591
 30
0.0
  0
POINT
  5
7E32
  8
DEFPOINTS
  6
CONTINUOUS
 62
     0
 10
4461.6512110000003
 20
4167.0427466759093
 30
0.0
  0
ENDBLK
  5
7CA7
  8
0
  0
BLOCK
  8
0
  2
*D10
 70
     1
 10
0.0
 20
0.0
 30
0.0
  3
*D10
  1

  0
LINE
  5
7E33
  8
3
  6
CONTINUOUS
 62
     0
 10
4955.1512110000003
 20
3724.2956046759091
 30
0.0
 11
5215.485385
 21
3724.2956046759091
 31
0.0
  0
LINE
  5
7E34
  8
3
  6
CONTINUOUS
 62
     0
 10
4955.1512110000003
 20
3054.29560467591
 30
0.0
 11
5215.485385
 21
3054.29560467591
 31
0.0
  0
LINE
  5
7E35
  8
3
  6
CONTINUOUS
 62
     0
 10
5185.4853850000009
 20
3664.2956046759091
 30
0.0
 11
5185.4853850000009
 21
3114.29560467591
 31
0.0
  0
INSERT
  5
7E36
  8
3
  6
CONTINUOUS
 62
     0
  2
_OPEN
 10
5185.4853850000009
 20
3724.2956046759091
 30
0.0
 41
60.0
 42
60.0
 43
60.0
 50
90.0
  0
INSERT
  5
7E37
  8
3
  6
CONTINUOUS
 62
     0
  2
_OPEN
 10
5185.4853850000009
 20
3054.29560467591
 30
0.0
 41
60.0
 42
60.0
 43
60.0
 50
270.0
  0
TEXT
  8
3
  40
90
  5
7E81
  62
0
  72
0
  71
0
 10
4930.49
 20
3154.71
 30
0.000000
  1
φ670
  0
POINT
  5
7E39
  8
DEFPOINTS
  6
CONTINUOUS
 62
     0
 10
4940.1512110000003
 20
3724.2956046759091
 30
0.0
  0
POINT
  5
7E3A
  8
DEFPOINTS
  6
CONTINUOUS
 62
     0
 10
4940.1512110000003
 20
3054.29560467591
 30
0.0
  0
POINT
  5
7E3B
  8
DEFPOINTS
  6
CONTINUOUS
 62
     0
 10
5185.4853850000009
 20
3054.29560467591
 30
0.0
  0
ENDBLK
  5
7CDD
  8
0
  0
BLOCK
  8
0
  2
*D11
 70
     1
 10
0.0
 20
0.0
 30
0.0
  3
*D11
  1

  0
LINE
  5
7CBF
  8
0
  6
BYBLOCK
 62
     0
 10
4940.1512110000003
 20
3739.29560467591
 30
0.0
 11
4940.1512110000003
 21
4367.4400896759089
 31
0.0
  0
LINE
  5
7CC0
  8
0
  6
BYBLOCK
 62
     0
 10
4699.1512110000003
 20
4304.7874676759102
 30
0.0
 11
4699.1512110000003
 21
4367.4400896759089
 31
0.0
  0
LINE
  5
7CC1
  8
0
  6
BYBLOCK
 62
     0
 10
4880.1512110000012
 20
4337.4400896759098
 30
0.0
 11
4759.1512110000003
 21
4337.4400896759098
 31
0.0
  0
TEXT
  5
7CC2
  8
3
 62
     0
 10
4716.6307894839347
 20
4397.4388414053456
 30
0.0
 40
90.0
  1
241
  0
INSERT
  5
7CC3
  8
0
  6
BYBLOCK
 62
     0
  2
_OPEN
 10
4940.1512110000003
 20
4337.4400896759098
 30
0.0
 41
60.0
 42
60.0
 43
60.0
  0
INSERT
  5
7CC4
  8
0
  6
BYBLOCK
 62
     0
  2
_OPEN
 10
4699.1512110000003
 20
4337.4400896759098
 30
0.0
 41
60.0
 42
60.0
 43
60.0
 50
180.0
  0
POINT
  5
7CC5
  8
DEFPOINTS
  6
BYBLOCK
 62
     0
 10
4940.1512110000003
 20
3724.2956046759091
 30
0.0
  0
POINT
  5
7CC6
  8
DEFPOINTS
  6
BYBLOCK
 62
     0
 10
4699.1512110000003
 20
4289.7874676759102
 30
0.0
  0
POINT
  5
7CC7
  8
DEFPOINTS
  6
BYBLOCK
 62
     0
 10
4699.1512110000003
 20
4337.4400896759098
 30
0.0
  0
ENDBLK
  5
7CC8
  8
0
  0
BLOCK
  8
0
  2
*D12
 70
     1
 10
0.0
 20
0.0
 30
0.0
  3
*D12
  1

  0
LINE
  5
7E3C
  8
3
  6
CONTINUOUS
 62
     0
 10
4219.1512110000003
 20
3934.2956046759091
 30
0.0
 11
4219.1512110000003
 21
4367.4400896759089
 31
0.0
  0
LINE
  5
7E3D
  8
3
  6
CONTINUOUS
 62
     0
 10
4639.1512110000003
 20
4337.4400896759098
 30
0.0
 11
4279.1512110000012
 21
4337.4400896759098
 31
0.0
  0
INSERT
  5
7E3E
  8
3
  6
CONTINUOUS
 62
     0
  2
_OPEN
 10
4699.1512110000003
 20
4337.4400896759098
 30
0.0
 41
60.0
 42
60.0
 43
60.0
  0
INSERT
  5
7E3F
  8
3
  6
CONTINUOUS
 62
     0
  2
_OPEN
 10
4219.1512110000003
 20
4337.4400896759098
 30
0.0
 41
60.0
 42
60.0
 43
60.0
 50
180.0
  0
TEXT
  8
3
  40
90
  5
7E82
  62
0
  72
0
  71
0
 10
4279.15
 20
4328.14
 30
0.000000
  1
MAX
  0
TEXT
  8
3
  40
90
  5
7E83
  62
0
  72
0
  71
0
 10
4279.15
 20
4211.14
 30
0.000000
  1
530
  0
POINT
  5
7E41
  8
DEFPOINTS
  6
CONTINUOUS
 62
     0
 10
4699.1512110000003
 20
4289.7874676759102
 30
0.0
  0
POINT
  5
7E42
  8
DEFPOINTS
  6
CONTINUOUS
 62
     0
 10
4219.1512110000003
 20
3919.29560467591
 30
0.0
  0
POINT
  5
7E43
  8
DEFPOINTS
  6
CONTINUOUS
 62
     0
 10
4219.1512110000003
 20
4337.4400896759098
 30
0.0
  0
ENDBLK
  5
7CD2
  8
0
  0
BLOCK
  8
0
  2
*D13
 70
     1
 10
0.0
 20
0.0
 30
0.0
  3
*D13
  1

  0
LINE
  5
7E44
  8
3
  6
CONTINUOUS
 62
     0
 10
4173.1512110000003
 20
2678.29560467591
 30
0.0
 11
4173.1512110000003
 21
2487.1850766759098
 31
0.0
  0
LINE
  5
7E45
  8
3
  6
CONTINUOUS
 62
     0
 10
4699.1512110000003
 20
2581.56504467591
 30
0.0
 11
4699.1512110000003
 21
2487.1850766759098
 31
0.0
  0
LINE
  5
7E46
  8
3
  6
CONTINUOUS
 62
     0
 10
4233.1512110000003
 20
2517.1850766759098
 30
0.0
 11
4639.1512110000003
 21
2517.1850766759098
 31
0.0
  0
INSERT
  5
7E47
  8
3
  6
CONTINUOUS
 62
     0
  2
_OPEN
 10
4173.1512110000003
 20
2517.1850766759098
 30
0.0
 41
60.0
 42
60.0
 43
60.0
 50
180.0
  0
INSERT
  5
7E48
  8
3
  6
CONTINUOUS
 62
     0
  2
_OPEN
 10
4699.1512110000003
 20
2517.1850766759098
 30
0.0
 41
60.0
 42
60.0
 43
60.0
  0
TEXT
  8
3
  40
90
  5
7E84
  62
0
  72
0
  71
0
 10
4266.41
 20
2432.89
 30
0.000000
  1
526
  0
POINT
  5
7E4A
  8
DEFPOINTS
  6
CONTINUOUS
 62
     0
 10
4173.1512110000003
 20
2693.29560467591
 30
0.0
  0
POINT
  5
7E4B
  8
DEFPOINTS
  6
CONTINUOUS
 62
     0
 10
4699.1512110000003
 20
2596.56504467591
 30
0.0
  0
POINT
  5
7E4C
  8
DEFPOINTS
  6
CONTINUOUS
 62
     0
 10
4699.1512110000003
 20
2517.1850766759098
 30
0.0
  0
ENDBLK
  5
7BDA
  8
0
  0
BLOCK
  8
0
  2
*D14
 70
     1
 10
0.0
 20
0.0
 30
0.0
  3
*D14
  1

  0
LINE
  5
7E4D
  8
3
  6
CONTINUOUS
 62
     0
 10
5103.1512110000003
 20
2678.29560467591
 30
0.0
 11
5103.1512110000003
 21
2487.1850766759098
 31
0.0
  0
LINE
  5
7E4E
  8
3
  6
CONTINUOUS
 62
     0
 10
4759.1512110000003
 20
2517.1850766759098
 30
0.0
 11
5043.1512110000012
 21
2517.1850766759098
 31
0.0
  0
TEXT
  8
3
  40
90
  5
7E85
  62
0
  72
0
  71
0
 10
4728.93
 20
2431.21
 30
0.000000
  1
404
  0
INSERT
  5
7E50
  8
3
  6
CONTINUOUS
 62
     0
  2
_OPEN
 10
4699.1512110000003
 20
2517.1850766759098
 30
0.0
 41
60.0
 42
60.0
 43
60.0
 50
180.0
  0
INSERT
  5
7E51
  8
3
  6
CONTINUOUS
 62
     0
  2
_OPEN
 10
5103.1512110000003
 20
2517.1850766759098
 30
0.0
 41
60.0
 42
60.0
 43
60.0
  0
POINT
  5
7E52
  8
DEFPOINTS
  6
CONTINUOUS
 62
     0
 10
4699.1512110000003
 20
2596.56504467591
 30
0.0
  0
POINT
  5
7E53
  8
DEFPOINTS
  6
CONTINUOUS
 62
     0
 10
5103.1512110000003
 20
2693.29560467591
 30
0.0
  0
POINT
  5
7E54
  8
DEFPOINTS
  6
CONTINUOUS
 62
     0
 10
5103.1512110000003
 20
2517.1850766759098
 30
0.0
  0
ENDBLK
  5
7C86
  8
0
  0
BLOCK
  8
0
  2
*D15
 70
     1
 10
0.0
 20
0.0
 30
0.0
  3
*D15
  1

  0
LINE
  5
7E55
  8
3
  6
CONTINUOUS
 62
     0
 10
1139.7271426852631
 20
6049.7893130000002
 30
0.0
 11
1139.7271426852631
 21
6274.8265729999994
 31
0.0
  0
LINE
  5
7E56
  8
3
  6
CONTINUOUS
 62
     0
 10
2649.7271426852631
 20
6049.7893130000002
 30
0.0
 11
2649.7271426852631
 21
6274.8265729999994
 31
0.0
  0
LINE
  5
7E57
  8
3
  6
CONTINUOUS
 62
     0
 10
1199.7271426852631
 20
6244.8265730000003
 30
0.0
 11
2589.7271426852631
 21
6244.8265730000003
 31
0.0
  0
INSERT
  5
7E58
  8
3
  6
CONTINUOUS
 62
     0
  2
_OPEN
 10
1139.7271426852631
 20
6244.8265730000003
 30
0.0
 41
60.0
 42
60.0
 43
60.0
 50
180.0
  0
INSERT
  5
7E59
  8
3
  6
CONTINUOUS
 62
     0
  2
_OPEN
 10
2649.7271426852631
 20
6244.8265730000003
 30
0.0
 41
60.0
 42
60.0
 43
60.0
  0
TEXT
  8
3
  40
90
  5
7E86
  62
0
  72
0
  71
0
 10
1740.02
 20
6160.53
 30
0.000000
  1
1510
  0
POINT
  5
7E5B
  8
DEFPOINTS
  6
CONTINUOUS
 62
     0
 10
1139.7271426852631
 20
6034.7893130000002
 30
0.0
  0
POINT
  5
7E5C
  8
DEFPOINTS
  6
CONTINUOUS
 62
     0
 10
2649.7271426852631
 20
6034.7893130000002
 30
0.0
  0
POINT
  5
7E5D
  8
DEFPOINTS
  6
CONTINUOUS
 62
     0
 10
2649.7271426852631
 20
6244.8265730000003
 30
0.0
  0
ENDBLK
  5
7C70
  8
0
  0
BLOCK
  8
0
  2
*D16
 70
     1
 10
0.0
 20
0.0
 30
0.0
  3
*D16
  1

  0
LINE
  5
7E5E
  8
3
  6
CONTINUOUS
 62
     0
 10
2664.7271426852631
 20
6034.7893130000002
 30
0.0
 11
2929.140048685264
 21
6034.7893130000002
 31
0.0
  0
LINE
  5
7E5F
  8
3
  6
CONTINUOUS
 62
     0
 10
2664.7271426852631
 20
5104.7893130000011
 30
0.0
 11
2929.140048685264
 21
5104.7893130000011
 31
0.0
  0
LINE
  5
7E60
  8
3
  6
CONTINUOUS
 62
     0
 10
2899.140048685264
 20
5974.7893130000002
 30
0.0
 11
2899.140048685264
 21
5164.7893129999993
 31
0.0
  0
INSERT
  5
7E61
  8
3
  6
CONTINUOUS
 62
     0
  2
_OPEN
 10
2899.140048685264
 20
6034.7893130000002
 30
0.0
 41
60.0
 42
60.0
 43
60.0
 50
90.0
  0
INSERT
  5
7E62
  8
3
  6
CONTINUOUS
 62
     0
  2
_OPEN
 10
2899.1400486852631
 20
5104.7893130000011
 30
0.0
 41
60.0
 42
60.0
 43
60.0
 50
270.0
  0
TEXT
  8
3
  40
90
  5
7E87
  62
0
  72
0
  71
0
 10
2644.14
 20
5387.06
 30
0.000000
  1
930
  0
POINT
  5
7E64
  8
DEFPOINTS
  6
CONTINUOUS
 62
     0
 10
2649.7271426852631
 20
6034.7893130000002
 30
0.0
  0
POINT
  5
7E65
  8
DEFPOINTS
  6
CONTINUOUS
 62
     0
 10
2649.7271426852631
 20
5104.7893130000011
 30
0.0
  0
POINT
  5
7E66
  8
DEFPOINTS
  6
CONTINUOUS
 62
     0
 10
2899.1400486852631
 20
5104.7893130000011
 30
0.0
  0
ENDBLK
  5
7C18
  8
0
  0
BLOCK
  8
0
  2
*D17
 70
     1
 10
0.0
 20
0.0
 30
0.0
  3
*D17
  1

  0
LINE
  5
7E67
  8
3
  6
CONTINUOUS
 62
     0
 10
1647.7271426852631
 20
3404.29560467591
 30
0.0
 11
1647.7271426852631
 21
4181.7375286759088
 31
0.0
  0
LINE
  5
7E68
  8
3
  6
CONTINUOUS
 62
     0
 10
2109.7271426852631
 20
4151.7375286759088
 30
0.0
 11
1707.7271426852619
 21
4151.7375286759088
 31
0.0
  0
INSERT
  5
7E69
  8
3
  6
CONTINUOUS
 62
     0
  2
_OPEN
 10
2169.7271426852631
 20
4151.7375286759088
 30
0.0
 41
60.0
 42
60.0
 43
60.0
  0
INSERT
  5
7E6A
  8
3
  6
CONTINUOUS
 62
     0
  2
_OPEN
 10
1647.7271426852631
 20
4151.7375286759088
 30
0.0
 41
60.0
 42
60.0
 43
60.0
 50
180.0
  0
TEXT
  8
3
  40
90
  5
7E88
  62
0
  72
0
  71
0
 10
1728.73
 20
4067.44
 30
0.000000
  1
522
  0
POINT
  5
7E6C
  8
DEFPOINTS
  6
CONTINUOUS
 62
     0
 10
2169.7271426852631
 20
4123.1956376759108
 30
0.0
  0
POINT
  5
7E6D
  8
DEFPOINTS
  6
CONTINUOUS
 62
     0
 10
1647.7271426852631
 20
3389.29560467591
 30
0.0
  0
POINT
  5
7E6E
  8
DEFPOINTS
  6
CONTINUOUS
 62
     0
 10
1647.7271426852631
 20
4151.7375286759088
 30
0.0
  0
ENDBLK
  5
7C64
  8
0
  0
BLOCK
  8
0
  2
*D18
 70
     1
 10
0.0
 20
0.0
 30
0.0
  3
*D18
  1

  0
LINE
  5
7E6F
  8
3
 62
     0
 10
2654.7271426852631
 20
4064.29560467591
 30
0.0
 11
2654.7271426852631
 21
4356.967329850133
 31
0.0
  0
LINE
  5
7E70
  8
3
 62
     0
 10
1139.7271426852631
 20
2808.29560467591
 30
0.0
 11
1139.7271426852631
 21
4356.967329850133
 31
0.0
  0
LINE
  5
7E71
  8
3
 62
     0
 10
2594.7271426852631
 20
4326.967329850133
 30
0.0
 11
1199.7271426852631
 21
4326.967329850133
 31
0.0
  0
INSERT
  5
7E72
  8
3
 62
     0
  2
_OPEN
 10
2654.7271426852631
 20
4326.967329850133
 30
0.0
 41
60.0
 42
60.0
 43
60.0
  0
INSERT
  5
7E73
  8
3
 62
     0
  2
_OPEN
 10
1139.7271426852631
 20
4326.967329850133
 30
0.0
 41
60.0
 42
60.0
 43
60.0
 50
180.0
  0
TEXT
  8
3
  40
90
  5
7E89
  62
0
  72
0
  71
0
 10
1743.89
 20
4242.67
 30
0.000000
  1
1515
  0
POINT
  5
7E75
  8
DEFPOINTS
 62
     0
 10
2654.7271426852631
 20
4049.29560467591
 30
0.0
  0
POINT
  5
7E76
  8
DEFPOINTS
 62
     0
 10
1139.7271426852631
 20
2793.29560467591
 30
0.0
  0
POINT
  5
7E77
  8
DEFPOINTS
 62
     0
 10
1139.7271426852631
 20
4326.967329850133
 30
0.0
  0
ENDBLK
  5
7CF6
  8
0
  0
ENDSEC
  0
SECTION
  2
ENTITIES
  0
LINE
  5
7A77
  8
1
  6
CONTINUOUS
 10
2611.7271426852631
 20
2919.29560467591
 30
0.0
 11
1189.7271426852631
 21
2919.29560467591
 31
0.0
  0
LINE
  5
7A78
  8
1
  6
CONTINUOUS
 10
1189.7271426852631
 20
2819.29560467591
 30
0.0
 11
2599.7271426852631
 21
2819.29560467591
 31
0.0
  0
ARC
  5
7A79
  8
1
  6
CONTINUOUS
 10
1448.878251685263
 20
3119.29560467591
 30
0.0
 40
162.0
 50
324.972283
 51
215.02771699999991
  0
LINE
  5
7A7A
  8
1
  6
CONTINUOUS
 10
1294.878251685263
 20
2977.29560467591
 30
0.0
 11
1316.2205856852629
 21
3026.3120376759098
 31
0.0
  0
LINE
  5
7A7B
  8
1
  6
CONTINUOUS
 10
1239.7271426852631
 20
3219.29560467591
 30
0.0
 11
2069.7271426852631
 21
3919.29560467591
 31
0.0
  0
LINE
  5
7A7C
  8
1
  6
CONTINUOUS
 10
1602.878251685263
 20
2959.29560467591
 30
0.0
 11
1294.878251685263
 21
2959.29560467591
 31
0.0
  0
LINE
  5
7A7D
  8
1
  6
CONTINUOUS
 10
1139.7271426852631
 20
2793.29560467591
 30
0.0
 11
2649.7271426852631
 21
2793.29560467591
 31
0.0
  0
LINE
  5
7A7E
  8
1
  6
CONTINUOUS
 10
1139.7271426852631
 20
2693.29560467591
 30
0.0
 11
2649.7271426852631
 21
2693.29560467591
 31
0.0
  0
LINE
  5
7A7F
  8
1
  6
CONTINUOUS
 10
1239.7271426852631
 20
2919.29560467591
 30
0.0
 11
1239.7271426852631
 21
3219.29560467591
 31
0.0
  0
LINE
  5
7A80
  8
1
  6
CONTINUOUS
 10
1189.7271426852631
 20
2919.29560467591
 30
0.0
 11
1189.7271426852631
 21
2819.29560467591
 31
0.0
  0
LINE
  5
7A81
  8
1
  6
CONTINUOUS
 10
1294.878251685263
 20
2959.29560467591
 30
0.0
 11
1294.878251685263
 21
2977.29560467591
 31
0.0
  0
LINE
  5
7A82
  8
1
  6
CONTINUOUS
 10
1294.878251685263
 20
2919.29560467591
 30
0.0
 11
1294.878251685263
 21
2977.29560467591
 31
0.0
  0
LINE
  5
7A83
  8
1
  6
CONTINUOUS
 10
1139.7271426852631
 20
2793.29560467591
 30
0.0
 11
1139.7271426852631
 21
2693.29560467591
 31
0.0
  0
LINE
  5
7A86
  8
1
  6
CONTINUOUS
 10
1727.7271426852631
 20
3831.29560467591
 30
0.0
 11
1727.7271426852631
 21
2919.29560467591
 31
0.0
  0
LINE
  5
7A87
  8
1
  6
CONTINUOUS
 10
2611.7271426852631
 20
3831.29560467591
 30
0.0
 11
2611.7271426852631
 21
2919.29560467591
 31
0.0
  0
CIRCLE
  5
7A88
  8
1
  6
CONTINUOUS
 10
1448.878251685263
 20
3119.29560467591
 30
0.0
 40
80.0
  0
LINE
  5
7A89
  8
1
  6
CONTINUOUS
 10
2509.7271426852631
 20
2919.29560467591
 30
0.0
 11
2509.7271426852631
 21
3919.29560467591
 31
0.0
  0
ARC
  5
7A8A
  8
1
  6
CONTINUOUS
 10
2134.7271426852631
 20
3424.29560467591
 30
0.0
 40
488.25444700000003
 50
184.5139879999999
 51
277.35237899999998
  0
ARC
  5
7A8B
  8
1
  6
CONTINUOUS
 10
2142.7271426852622
 20
3362.29560467591
 30
0.0
 40
425.74044800000001
 50
277.35237899999998
 51
359.59625899999992
  0
LINE
  5
7A8C
  8
2
  6
CENTER
 10
1448.878251685263
 20
3199.29560467591
 30
0.0
 11
1448.878251685263
 21
3039.29560467591
 31
0.0
  0
LINE
  5
7A8D
  8
1
  6
CONTINUOUS
 10
1470.0100296852629
 20
3042.13701467591
 30
0.0
 11
2209.349227685263
 21
3244.62324867591
 31
0.0
  0
LINE
  5
7A8F
  8
1
  6
CONTINUOUS
 10
1602.878251685263
 20
2977.29560467591
 30
0.0
 11
1581.5359166852629
 21
3026.3120376759098
 31
0.0
  0
LINE
  5
7A90
  8
1
  6
CONTINUOUS
 10
1602.878251685263
 20
2919.29560467591
 30
0.0
 11
1602.878251685263
 21
2977.29560467591
 31
0.0
  0
LINE
  5
7A91
  8
2
  6
CENTER
 10
1528.878251685263
 20
3119.29560467591
 30
0.0
 11
1368.878251685263
 21
3119.29560467591
 31
0.0
  0
LINE
  5
7A92
  8
1
  6
CONTINUOUS
 10
2599.7271426852631
 20
2819.29560467591
 30
0.0
 11
2599.7271426852631
 21
2919.29560467591
 31
0.0
  0
LINE
  5
7A93
  8
1
  6
CONTINUOUS
 10
2649.7271426852631
 20
2793.29560467591
 30
0.0
 11
2649.7271426852631
 21
2693.29560467591
 31
0.0
  0
LINE
  5
7A94
  8
1
  6
CONTINUOUS
 10
2611.7271426852631
 20
3831.29560467591
 30
0.0
 11
1727.7271426852631
 21
3831.29560467591
 31
0.0
  0
LINE
  5
7A95
  8
1
  6
CONTINUOUS
 10
2509.7271426852631
 20
3919.29560467591
 30
0.0
 11
2069.7271426852631
 21
3919.29560467591
 31
0.0
  0
LINE
  5
7A96
  8
1
  6
CONTINUOUS
 10
2654.7271426852631
 20
4009.29560467591
 30
0.0
 11
2169.7271426852631
 21
3993.29560467591
 31
0.0
  0
LINE
  5
7A97
  8
2
  6
CENTER
 10
4989.6612349999996
 20
3389.29560467591
 30
0.0
 11
4085.3140579999999
 21
3389.29560467591
 31
0.0
  0
CIRCLE
  5
7A98
  8
1
  6
CONTINUOUS
 10
2169.7271426852631
 20
3389.29560467591
 30
0.0
 40
150.0
  0
ARC
  5
7A99
  8
1
  6
CONTINUOUS
 10
2210.7271426852631
 20
3430.29560467591
 30
0.0
 40
564.49092099999984
 50
94.165164000000004
 51
184.5139879999999
  0
LINE
  5
7A9A
  8
1
  6
CONTINUOUS
 10
1414.1208316852631
 20
3191.35059567591
 30
0.0
 11
2104.5569806852618
 21
3524.3987126759098
 31
0.0
  0
LINE
  5
7A9B
  8
2
  6
CENTER
 10
2169.7271426852631
 20
6042.9970119999998
 30
0.0
 11
2169.7271426852631
 21
5008.827898999999
 31
0.0
  0
LINE
  5
7A9C
  8
1
  6
CONTINUOUS
 10
2654.7271426852631
 20
3319.29560467591
 30
0.0
 11
2654.7271426852631
 21
4049.29560467591
 31
0.0
  0
LINE
  5
7A9D
  8
1
  6
CONTINUOUS
 10
2624.7271426852631
 20
3359.29560467591
 30
0.0
 11
2624.7271426852631
 21
4007.9760166759102
 31
0.0
  0
LINE
  5
7A9E
  8
1
  6
CONTINUOUS
 10
2568.457021685263
 20
3359.29560467591
 30
0.0
 11
2654.7271426852631
 21
3359.29560467591
 31
0.0
  0
LINE
  5
7A9F
  8
1
  6
CONTINUOUS
 10
4461.6512110000003
 20
4009.29560467591
 30
0.0
 11
4461.6512110000003
 21
2919.29560467591
 31
0.0
  0
LINE
  5
7AA0
  8
1
  6
CONTINUOUS
 10
4936.6512110000003
 20
4009.29560467591
 30
0.0
 11
4936.6512110000003
 21
2919.29560467591
 31
0.0
  0
LINE
  5
7AA1
  8
1
  6
CONTINUOUS
 10
4219.1512110000003
 20
3919.29560467591
 30
0.0
 11
4219.1512110000003
 21
2919.29560467591
 31
0.0
  0
LINE
  5
7AA2
  8
1
  6
CONTINUOUS
 10
4359.1512110000003
 20
3919.29560467591
 30
0.0
 11
4359.1512110000003
 21
2919.29560467591
 31
0.0
  0
LINE
  5
7AA3
  8
1
  6
CONTINUOUS
 10
4254.1512110000003
 20
3199.29560467591
 30
0.0
 11
4254.1512110000003
 21
3039.29560467591
 31
0.0
  0
LINE
  5
7AA4
  8
1
  6
CONTINUOUS
 10
4324.1512110000003
 20
3199.29560467591
 30
0.0
 11
4324.1512110000003
 21
3039.29560467591
 31
0.0
  0
LINE
  5
7AA5
  8
1
  6
CONTINUOUS
 10
4288.1512110000003
 20
2819.29560467591
 30
0.0
 11
4988.1512110000003
 21
2819.29560467591
 31
0.0
  0
LINE
  5
7AA6
  8
1
  6
CONTINUOUS
 10
4288.1512110000003
 20
2919.29560467591
 30
0.0
 11
4988.1512110000003
 21
2919.29560467591
 31
0.0
  0
LINE
  5
7AA7
  8
1
  6
CONTINUOUS
 10
4173.1512110000003
 20
2693.29560467591
 30
0.0
 11
5103.1512110000003
 21
2693.29560467591
 31
0.0
  0
LINE
  5
7AA8
  8
1
  6
CONTINUOUS
 10
4173.1512110000003
 20
2793.29560467591
 30
0.0
 11
5103.1512110000003
 21
2793.29560467591
 31
0.0
  0
LINE
  5
7AAA
  8
1
  6
CONTINUOUS
 10
4254.1512110000003
 20
3039.29560467591
 30
0.0
 11
4324.1512110000003
 21
3039.29560467591
 31
0.0
  0
LINE
  5
7AAB
  8
1
  6
CONTINUOUS
 10
4288.1512110000003
 20
2919.29560467591
 30
0.0
 11
4288.1512110000003
 21
2819.29560467591
 31
0.0
  0
LINE
  5
7AAC
  8
1
  6
CONTINUOUS
 10
4219.1512110000003
 20
2919.29560467591
 30
0.0
 11
4288.1512110000003
 21
2919.29560467591
 31
0.0
  0
LINE
  5
7AAD
  8
1
  6
CONTINUOUS
 10
4173.1512110000003
 20
2793.29560467591
 30
0.0
 11
4173.1512110000003
 21
2693.29560467591
 31
0.0
  0
LINE
  5
7AB0
  8
1
  6
CONTINUOUS
 10
4324.1512110000003
 20
3098.29560467591
 30
0.0
 11
4461.6512110000003
 21
3098.29560467591
 31
0.0
  0
LINE
  5
7AB1
  8
1
  6
CONTINUOUS
 10
4988.1512110000003
 20
2919.29560467591
 30
0.0
 11
4988.1512110000003
 21
2819.29560467591
 31
0.0
  0
LINE
  5
7AB2
  8
1
  6
CONTINUOUS
 10
5103.1512110000003
 20
2793.29560467591
 30
0.0
 11
5103.1512110000003
 21
2693.29560467591
 31
0.0
  0
LINE
  5
7AB3
  8
1
  6
CONTINUOUS
 10
4461.6512110000003
 20
4009.29560467591
 30
0.0
 11
4936.6512110000003
 21
4009.29560467591
 31
0.0
  0
LINE
  5
7AB4
  8
1
  6
CONTINUOUS
 10
4461.6512110000003
 20
3359.29560467591
 30
0.0
 11
4936.6512110000003
 21
3359.29560467591
 31
0.0
  0
LINE
  5
7AB5
  8
1
  6
CONTINUOUS
 10
4936.6512110000003
 20
4009.29560467591
 30
0.0
 11
4461.6512110000003
 21
3359.29560467591
 31
0.0
  0
LINE
  5
7AB6
  8
1
  6
CONTINUOUS
 10
4461.6512110000003
 20
4009.29560467591
 30
0.0
 11
4936.6512110000003
 21
3359.29560467591
 31
0.0
  0
LINE
  5
7AB7
  8
1
  6
CONTINUOUS
 10
4254.1512110000003
 20
3239.29560467591
 30
0.0
 11
4324.1512110000003
 21
3239.29560467591
 31
0.0
  0
LINE
  5
7AB8
  8
1
  6
CONTINUOUS
 10
4254.1512110000003
 20
3539.29560467591
 30
0.0
 11
4324.1512110000003
 21
3539.29560467591
 31
0.0
  0
LINE
  5
7AB9
  8
1
  6
CONTINUOUS
 10
4254.1512110000003
 20
3199.29560467591
 30
0.0
 11
4324.1512110000003
 21
3199.29560467591
 31
0.0
  0
LINE
  5
7ABA
  8
1
  6
CONTINUOUS
 10
4254.1512110000003
 20
3539.29560467591
 30
0.0
 11
4254.1512110000003
 21
3239.29560467591
 31
0.0
  0
LINE
  5
7ABB
  8
1
  6
CONTINUOUS
 10
4324.1512110000003
 20
3368.29560467591
 30
0.0
 11
4461.6512110000003
 21
3368.29560467591
 31
0.0
  0
LINE
  5
7ABC
  8
1
  6
CONTINUOUS
 10
4324.1512110000003
 20
3410.29560467591
 30
0.0
 11
4461.6512110000003
 21
3410.29560467591
 31
0.0
  0
LINE
  5
7ABD
  8
1
  6
CONTINUOUS
 10
4324.1512110000003
 20
3539.29560467591
 30
0.0
 11
4324.1512110000003
 21
3239.29560467591
 31
0.0
  0
LINE
  5
7ABE
  8
1
  6
CONTINUOUS
 10
4324.1512110000003
 20
3140.29560467591
 30
0.0
 11
4461.6512110000003
 21
3140.29560467591
 31
0.0
  0
LINE
  5
7ABF
  8
1
  6
CONTINUOUS
 10
4359.1512110000003
 20
3919.29560467591
 30
0.0
 11
4219.1512110000003
 21
3919.29560467591
 31
0.0
  0
LINE
  5
7AC0
  8
1
  6
CONTINUOUS
 10
1189.7271426852631
 20
5219.7893130000002
 30
0.0
 11
1368.878251685263
 21
5219.7893130000002
 31
0.0
  0
LINE
  5
7AC1
  8
1
  6
CONTINUOUS
 10
1286.878251685263
 20
5807.5212299999994
 30
0.0
 11
1610.878251685263
 21
5807.5212299999994
 31
0.0
  0
LINE
  5
7AC2
  8
1
  6
CONTINUOUS
 10
1286.878251685263
 20
5322.5212299999994
 30
0.0
 11
1610.878251685263
 21
5322.5212299999994
 31
0.0
  0
LINE
  5
7AC3
  8
1
  6
CONTINUOUS
 10
2509.7271426852631
 20
5150.7893130000002
 30
0.0
 11
1239.7271426852631
 21
5150.7893130000002
 31
0.0
  0
LINE
  5
7AC4
  8
1
  6
CONTINUOUS
 10
2509.7271426852631
 20
5290.7893130000011
 30
0.0
 11
1239.7271426852631
 21
5290.7893130000011
 31
0.0
  0
LINE
  5
7AC5
  8
1
  6
CONTINUOUS
 10
2599.7271426852631
 20
5919.7893130000002
 30
0.0
 11
1189.7271426852631
 21
5919.7893130000002
 31
0.0
  0
LINE
  5
7AC6
  8
1
  6
CONTINUOUS
 10
1286.878251685263
 20
5322.5212299999994
 30
0.0
 11
1286.878251685263
 21
5807.5212299999994
 31
0.0
  0
LINE
  5
7AC7
  8
1
  6
CONTINUOUS
 10
1139.7271426852631
 20
6034.7893130000002
 30
0.0
 11
1139.7271426852631
 21
5104.7893130000011
 31
0.0
  0
LINE
  5
7AC8
  8
1
  6
CONTINUOUS
 10
1189.7271426852631
 20
6034.7893130000002
 30
0.0
 11
1189.7271426852631
 21
5104.7893130000011
 31
0.0
  0
LINE
  5
7AC9
  8
1
  6
CONTINUOUS
 10
1239.7271426852631
 20
5150.7893130000002
 30
0.0
 11
1239.7271426852631
 21
5290.7893130000011
 31
0.0
  0
LINE
  5
7ACA
  8
1
  6
CONTINUOUS
 10
1139.7271426852631
 20
5104.7893130000011
 30
0.0
 11
1189.7271426852631
 21
5104.7893130000011
 31
0.0
  0
LINE
  5
7ACB
  8
1
  6
CONTINUOUS
 10
1139.7271426852631
 20
6034.7893130000002
 30
0.0
 11
1189.7271426852631
 21
6034.7893130000002
 31
0.0
  0
LINE
  5
7ACC
  8
1
  6
CONTINUOUS
 10
2019.7271426852631
 20
5255.7893130000011
 30
0.0
 11
2319.7271426852631
 21
5255.7893130000011
 31
0.0
  0
LINE
  5
7ACD
  8
1
  6
CONTINUOUS
 10
2019.7271426852631
 20
5185.7893130000002
 30
0.0
 11
2319.7271426852631
 21
5185.7893130000002
 31
0.0
  0
LINE
  5
7ACE
  8
1
  6
CONTINUOUS
 10
2654.7271426852631
 20
5868.2893130000002
 30
0.0
 11
1646.236221685263
 21
5868.2893130000002
 31
0.0
  0
LINE
  5
7ACF
  8
1
  6
CONTINUOUS
 10
2654.7271426852631
 20
5393.2893130000002
 30
0.0
 11
1646.236221685263
 21
5393.2893130000002
 31
0.0
  0
LINE
  5
7AD0
  8
1
  6
CONTINUOUS
 10
1610.878251685263
 20
5644.2376780000004
 30
0.0
 11
1610.878251685263
 21
5401.9906380000002
 31
0.0
  0
LINE
  5
7AD1
  8
1
  6
CONTINUOUS
 10
1610.878251685263
 20
5322.5212299999994
 30
0.0
 11
1610.878251685263
 21
5807.5212299999994
 31
0.0
  0
LINE
  5
7AD2
  8
1
  6
CONTINUOUS
 10
1646.236221685263
 20
5393.2893130000002
 30
0.0
 11
1646.236221685263
 21
5868.2893130000002
 31
0.0
  0
LINE
  5
7AD3
  8
1
  6
CONTINUOUS
 10
1528.878251685263
 20
5219.7893130000002
 30
0.0
 11
2019.7271426852631
 21
5219.7893130000002
 31
0.0
  0
LINE
  5
7AD4
  8
1
  6
CONTINUOUS
 10
1469.878251685263
 20
5255.7893130000011
 30
0.0
 11
1469.878251685263
 21
5322.5212299999994
 31
0.0
  0
LINE
  5
7AD5
  8
1
  6
CONTINUOUS
 10
1427.878251685263
 20
5255.7893130000011
 30
0.0
 11
1427.878251685263
 21
5322.5212299999994
 31
0.0
  0
LINE
  5
7AD6
  8
1
  6
CONTINUOUS
 10
1368.878251685263
 20
5185.7893130000002
 30
0.0
 11
1368.878251685263
 21
5255.7893130000011
 31
0.0
  0
LINE
  5
7AD7
  8
1
  6
CONTINUOUS
 10
1528.878251685263
 20
5185.7893130000002
 30
0.0
 11
1528.878251685263
 21
5255.7893130000011
 31
0.0
  0
LINE
  5
7AD8
  8
1
  6
CONTINUOUS
 10
1368.878251685263
 20
5185.7893130000002
 30
0.0
 11
1528.878251685263
 21
5185.7893130000002
 31
0.0
  0
LINE
  5
7AD9
  8
1
  6
CONTINUOUS
 10
1368.878251685263
 20
5255.7893130000011
 30
0.0
 11
1528.878251685263
 21
5255.7893130000011
 31
0.0
  0
LINE
  5
7ADA
  8
1
  6
CONTINUOUS
 10
2019.7271426852631
 20
5185.7893130000002
 30
0.0
 11
2019.7271426852631
 21
5255.7893130000011
 31
0.0
  0
LINE
  5
7ADB
  8
1
  6
CONTINUOUS
 10
2148.7271426852631
 20
5255.7893130000011
 30
0.0
 11
2148.7271426852631
 21
5393.2893130000002
 31
0.0
  0
LINE
  5
7ADC
  8
1
  6
CONTINUOUS
 10
2190.7271426852631
 20
5255.7893130000011
 30
0.0
 11
2190.7271426852631
 21
5393.2893130000002
 31
0.0
  0
LINE
  5
7ADD
  8
1
  6
CONTINUOUS
 10
2654.7271426852631
 20
5350.7893130000002
 30
0.0
 11
2654.7271426852631
 21
5910.7893130000002
 31
0.0
  0
LINE
  5
7ADE
  8
1
  6
CONTINUOUS
 10
2614.7271426852622
 20
5393.2893130000002
 30
0.0
 11
2614.7271426852622
 21
5868.2893130000002
 31
0.0
  0
LINE
  5
7ADF
  8
1
  6
CONTINUOUS
 10
2319.7271426852631
 20
5185.7893130000002
 30
0.0
 11
2319.7271426852631
 21
5255.7893130000011
 31
0.0
  0
LINE
  5
7AE0
  8
1
  6
CONTINUOUS
 10
2509.7271426852631
 20
5150.7893130000002
 30
0.0
 11
2509.7271426852631
 21
5290.7893130000011
 31
0.0
  0
LINE
  5
7AE1
  8
1
  6
CONTINUOUS
 10
2319.7271426852631
 20
5219.7893130000002
 30
0.0
 11
2599.7271426852631
 21
5219.7893130000002
 31
0.0
  0
LINE
  5
7AE2
  8
1
  6
CONTINUOUS
 10
2649.7271426852631
 20
5393.2893130000002
 30
0.0
 11
2649.7271426852631
 21
5104.7893130000011
 31
0.0
  0
LINE
  5
7AE3
  8
1
  6
CONTINUOUS
 10
2599.7271426852631
 20
5104.7893130000011
 30
0.0
 11
2649.7271426852631
 21
5104.7893130000011
 31
0.0
  0
LINE
  5
7AE4
  8
1
  6
CONTINUOUS
 10
2599.7271426852631
 20
5393.2893130000002
 30
0.0
 11
2599.7271426852631
 21
5104.7893130000011
 31
0.0
  0
LINE
  5
7AE5
  8
1
  6
CONTINUOUS
 10
2599.7271426852631
 20
5868.2893130000002
 30
0.0
 11
2599.7271426852631
 21
5919.7893130000002
 31
0.0
  0
LINE
  5
7AE6
  8
1
  6
CONTINUOUS
 10
2599.7271426852631
 20
6034.7893130000002
 30
0.0
 11
2649.7271426852631
 21
6034.7893130000002
 31
0.0
  0
LINE
  5
7AE7
  8
1
  6
CONTINUOUS
 10
2649.7271426852631
 20
6034.7893130000002
 30
0.0
 11
2649.7271426852631
 21
5868.2893130000002
 31
0.0
  0
LINE
  5
7AE8
  8
1
  6
CONTINUOUS
 10
2599.7271426852631
 20
6034.7893130000002
 30
0.0
 11
2599.7271426852631
 21
5868.2893130000002
 31
0.0
  0
LINE
  5
7AE9
  8
2
  6
CENTER
 10
4699.1512110000003
 20
4104.1835516759102
 30
0.0
 11
4699.1512110000003
 21
2596.56504467591
 31
0.0
  0
LINE
  5
7AEA
  8
2
  6
CENTER
 10
1038.299828685263
 20
5630.7893130000011
 30
0.0
 11
2734.3543116852629
 21
5630.7893130000011
 31
0.0
  0
LINE
  5
7AEB
  8
2
  6
CENTER
 10
2169.7271426852631
 20
4123.1956376759108
 30
0.0
 11
2169.7271426852631
 21
2566.2649166759102
 31
0.0
  0
LINE
  5
7AEC
  8
2
  6
CENTER
 10
2767.2157426852632
 20
3389.29560467591
 30
0.0
 11
1173.4365336852629
 21
3389.29560467591
 31
0.0
  0
LINE
  5
7AED
  8
4
  6
CONTINUOUS
 10
5550.0
 20
1500.0
 30
0.0
 11
5550.0
 21
900.0
 31
0.0
  0
LINE
  5
7AEE
  8
4
  6
CONTINUOUS
 10
3450.0
 20
1500.0
 30
0.0
 11
3450.0
 21
900.0
 31
0.0
  0
LINE
  5
7AEF
  8
4
  6
CONTINUOUS
 10
1950.0
 20
1500.0
 30
0.0
 11
1950.0
 21
900.0
 31
0.0
  0
LINE
  5
7AF2
  8
4
  6
CONTINUOUS
 10
1950.0
 20
900.0
 30
0.0
 11
5550.0
 21
900.0
 31
0.0
  0
LINE
  5
7AF3
  8
4
  6
CONTINUOUS
 10
1950.0
 20
1200.0
 30
0.0
 11
5550.0
 21
1200.0
 31
0.0
  0
TEXT
  5
7AF4
  8
4
  6
CONTINUOUS
 10
2065.5062429999989
 20
1294.6290779999999
 30
0.0
 40
150.0
  1
機器名称
  0
TEXT
  5
7AF5
  8
4
  6
CONTINUOUS
 10
2058.7743179999989
 20
964.9354699999999
 30
0.0
 40
150.0
  1
機器型番
  0
TEXT
  5
7AF6
  8
4
  6
CONTINUOUS
 10
3533.0362359999999
 20
1267.7153069999999
 30
0.0
 40
150.0
  1
ミツヤ多翼送風機
  0
TEXT
  5
7AF7
  8
4
  6
CONTINUOUS
 10
3559.9634869999991
 20
951.47875299999987
 30
0.0
 40
150.0
  1
MF#4-4
  0
TEXT
  5
7AF9
  8
4
  6
CONTINUOUS
 10
2260.0873019999999
 20
7150.2865239999992
 30
0.0
 40
162.0
  1
天井吊防振ベット
  0
TEXT
  5
7AFA
  8
4
  6
CONTINUOUS
 10
948.50278000000014
 20
7601.6429289999996
 30
0.0
 40
216.0
  1
ベルト駆動式片吸込両持多翼ファン
  0
LINE
  5
7AFB
  8
4
  6
CONTINUOUS
 10
750.0
 20
7408.2262629999996
 30
0.0
 11
5550.0
 21
7408.2262629999996
 31
0.0
  0
LINE
  5
7AFC
  8
4
  6
CONTINUOUS
 10
750.0
 20
8008.2262629999996
 30
0.0
 11
5550.0
 21
8008.2262629999996
 31
0.0
  0
LINE
  5
7AFD
  8
4
  6
CONTINUOUS
 10
1950.0
 20
1500.0
 30
0.0
 11
5550.0
 21
1500.0
 31
0.0
  0
LINE
  5
7AFE
  8
4
  6
CONTINUOUS
 10
750.0
 20
8008.2262629999996
 30
0.0
 11
750.0
 21
7408.2262629999996
 31
0.0
  0
TEXT
  5
7AFF
  8
4
  6
CONTINUOUS
 10
952.51080500000012
 20
7146.9584329999998
 30
0.0
 40
162.0
  1
右回転右横向
  0
TEXT
  5
7B00
  8
4
  6
CONTINUOUS
 10
4406.9086779999989
 20
8118.1832439999989
 30
0.0
 40
168.0
  1
No.
  0
TEXT
  5
7B01
  8
4
  6
CONTINUOUS
 10
3933.8881879999999
 20
7150.2865239999992
 30
0.0
 40
162.0
  1
縮尺：1/30
  0
LINE
  5
7B02
  8
4
  6
CONTINUOUS
 10
5550.0
 20
8008.2262629999996
 30
0.0
 11
5550.0
 21
7408.2262629999996
 31
0.0
  0
LINE
  5
7B04
  8
4
  6
CONTINUOUS
 10
4321.8522670000002
 20
8043.7907490000007
 30
0.0
 11
4321.8522670000002
 21
8359.9567849999985
 31
0.0
  0
LINE
  5
7B05
  8
4
  6
CONTINUOUS
 10
4321.8522670000002
 20
8359.9567849999985
 30
0.0
 11
5550.0
 21
8359.9567849999985
 31
0.0
  0
LINE
  5
7B06
  8
4
  6
CONTINUOUS
 10
5550.0
 20
8359.9567849999985
 30
0.0
 11
5550.0
 21
8043.7907490000007
 31
0.0
  0
LINE
  5
7B07
  8
4
  6
CONTINUOUS
 10
5550.0
 20
8043.7907490000007
 30
0.0
 11
4321.8522670000002
 21
8043.7907490000007
 31
0.0
  0
DIMENSION
  5
7B1F
  8
3
  6
CONTINUOUS
  2
*D1
 10
2861.2385966852639
 20
3359.29560467591
 30
0.0
 11
2861.238596685263
 21
3640.5454586759101
 31
0.0
 70
   128
 13
2654.7271426852631
 23
4009.29560467591
 33
0.0
 14
2654.7271426852631
 24
3359.29560467591
 34
0.0
 50
90.0
1001
ACAD
1000
DSTYLE
1002
{
1070
   287
1070
     3
1070
   287
1070
     3
1070
    40
1040
30.0
1070
   143
1040
0.039
1070
   172
1070
     1
1070
   271
1070
     0
1070
   279
1070
     0
1070
   288
1070
     1
1002
}
  0
DIMENSION
  5
7B2C
  8
3
  6
CONTINUOUS
  2
*D2
 10
3057.062745685264
 20
3389.29560467591
 30
0.0
 11
3057.0627456852631
 21
3646.8564736759099
 31
0.0
 70
   128
 13
2654.7271426852631
 23
4009.29560467591
 33
0.0
 14
2767.2157426852632
 24
3389.29560467591
 34
0.0
 50
90.0
1001
ACAD
1000
DSTYLE
1002
{
1070
   287
1070
     3
1070
   287
1070
     3
1070
    40
1040
30.0
1070
   143
1040
0.039
1070
   172
1070
     1
1070
   271
1070
     0
1070
   279
1070
     0
1070
   288
1070
     1
1002
}
  0
DIMENSION
  5
7B38
  8
3
  6
CONTINUOUS
  2
*D3
 10
3057.0627456852631
 20
2819.29560467591
 30
0.0
 11
2982.0627456852621
 21
3104.2956046759109
 31
0.0
 70
     0
 13
2767.2157426852632
 23
3389.29560467591
 33
0.0
 14
2599.7271426852631
 24
2819.29560467591
 34
0.0
 50
90.0
1001
ACAD
1000
DSTYLE
1002
{
1070
   287
1070
     4
1070
   287
1070
     4
1070
    40
1040
30.0
1070
    75
1070
     1
1070
   143
1040
0.039
1070
   172
1070
     1
1070
   271
1070
     0
1070
   279
1070
     1
1070
   288
1070
     1
1002
}
  0
DIMENSION
  5
7B48
  8
3
  6
CONTINUOUS
  2
*D4
 10
3058.7700486852632
 20
2693.29560467591
 30
0.0
 11
3058.7700486852632
 21
2438.2956046759109
 31
0.0
 70
   128
 13
2599.7271426852631
 23
2819.29560467591
 33
0.0
 14
2649.7271426852631
 24
2693.29560467591
 34
0.0
 50
90.0
1001
ACAD
1000
DSTYLE
1002
{
1070
   287
1070
     3
1070
   287
1070
     3
1070
    40
1040
30.0
1070
   143
1040
0.039
1070
   172
1070
     1
1070
   271
1070
     0
1070
   279
1070
     0
1070
   288
1070
     1
1002
}
  0
DIMENSION
  5
7B55
  8
3
  6
CONTINUOUS
  2
*D5
 10
3272.8612776852628
 20
2693.29560467591
 30
0.0
 11
3272.8612776852628
 21
3394.4159346759102
 31
0.0
 70
   128
 13
2654.7271426852631
 23
4049.29560467591
 33
0.0
 14
2649.7271426852631
 24
2693.29560467591
 34
0.0
 50
90.0
1001
ACAD
1000
DSTYLE
1002
{
1070
   287
1070
     3
1070
   287
1070
     3
1070
    40
1040
30.0
1070
   143
1040
0.039
1070
   172
1070
     1
1070
   271
1070
     0
1070
   279
1070
     0
1070
   288
1070
     1
1002
}
  0
DIMENSION
  5
7B62
  8
3
  6
CONTINUOUS
  2
*D6
 10
2169.7271426852631
 20
2423.5779236759099
 30
0.0
 11
1717.878370685263
 21
2423.5779236759099
 31
0.0
 70
   128
 13
1139.7271426852631
 23
2693.29560467591
 33
0.0
 14
2169.7271426852631
 24
2566.2649166759102
 34
0.0
1001
ACAD
1000
DSTYLE
1002
{
1070
   287
1070
     3
1070
   287
1070
     3
1070
    40
1040
30.0
1070
   143
1040
0.039
1070
   172
1070
     1
1070
   271
1070
     0
1070
   279
1070
     0
1070
   288
1070
     1
1002
}
  0
DIMENSION
  5
7B6E
  8
3
  6
CONTINUOUS
  2
*D7
 10
2649.7271426852631
 20
2423.5779236759099
 30
0.0
 11
2409.7271426852631
 21
2498.5779236759099
 31
0.0
 70
     0
 13
2169.7271426852631
 23
2566.2649166759102
 33
0.0
 14
2649.7271426852631
 24
2693.29560467591
 34
0.0
1001
ACAD
1000
DSTYLE
1002
{
1070
   287
1070
     4
1070
   287
1070
     4
1070
    40
1040
30.0
1070
    75
1070
     1
1070
   143
1040
0.039
1070
   172
1070
     1
1070
   271
1070
     0
1070
   279
1070
     1
1070
   288
1070
     1
1002
}
  0
DIMENSION
  5
7B7B
  8
3
  6
CONTINUOUS
  2
*D8
 10
2169.7271426852631
 20
4151.7375286759088
 30
0.0
 11
2406.421283685263
 21
4151.7375286759088
 31
0.0
 70
   128
 13
2654.7271426852631
 23
4049.29560467591
 33
0.0
 14
2169.7271426852631
 24
4123.1956376759108
 34
0.0
1001
ACAD
1000
DSTYLE
1002
{
1070
   287
1070
     3
1070
   287
1070
     3
1070
    40
1040
30.0
1070
   143
1040
0.039
1070
   172
1070
     1
1070
   271
1070
     0
1070
   279
1070
     0
1070
   288
1070
     1
1002
}
  0
DIMENSION
  5
7BA4
  8
3
  6
CONTINUOUS
  2
*D9
 10
4461.6512110000003
 20
4167.0427466759093
 30
0.0
 11
4667.3654969999998
 21
4167.0427466759093
 31
0.0
 70
   128
 13
4936.6512110000003
 23
4009.29560467591
 33
0.0
 14
4461.6512110000003
 24
4009.29560467591
 34
0.0
1001
ACAD
1000
DSTYLE
1002
{
1070
   287
1070
     3
1070
   287
1070
     3
1070
    40
1040
30.0
1070
   143
1040
0.039
1070
   172
1070
     1
1070
   271
1070
     0
1070
   279
1070
     0
1070
   288
1070
     1
1002
}
  0
LINE
  5
7BA5
  8
1
  6
CONTINUOUS
 10
4940.1512110000003
 20
3724.2956046759091
 30
0.0
 11
4940.1512110000003
 21
3054.29560467591
 31
0.0
  0
DIMENSION
  5
7BB4
  8
3
  6
CONTINUOUS
  2
*D10
 10
5185.4853850000009
 20
3054.29560467591
 30
0.0
 11
5185.485384999999
 21
3314.0098903901958
 31
0.0
 70
   128
 13
4940.1512110000003
 23
3724.2956046759091
 33
0.0
 14
4940.1512110000003
 24
3054.29560467591
 34
0.0
 50
90.0
1001
ACAD
1000
DSTYLE
1002
{
1070
   287
1070
     3
1070
   287
1070
     3
1070
     3
1000
φ<>
1070
    40
1040
30.0
1070
   143
1040
0.039
1070
   172
1070
     1
1070
   271
1070
     0
1070
   279
1070
     0
1070
   288
1070
     1
1002
}
  0
DIMENSION
  5
7BC2
  8
3
  6
CONTINUOUS
  2
*D11
 10
4699.1512110000003
 20
4337.4400896759098
 30
0.0
 11
4813.0593609125062
 21
4442.4388414053474
 31
0.0
 70
   128
 13
4940.1512110000003
 23
3724.2956046759091
 33
0.0
 14
4699.1512110000003
 24
4289.7874676759102
 34
0.0
1001
ACAD
1000
DSTYLE
1002
{
1070
   288
1070
     1
1070
   172
1070
     1
1070
    40
1040
30.0
1070
   271
1070
     0
1070
   143
1040
0.039
1002
}
  0
DIMENSION
  5
7BCE
  8
3
  6
CONTINUOUS
  2
*D12
 10
4219.1512110000003
 20
4337.4400896759098
 30
0.0
 11
4459.1512110000003
 21
4487.4400896759089
 31
0.0
 70
     0
  1
MAX\P530
 13
4699.1512110000003
 23
4289.7874676759102
 33
0.0
 14
4219.1512110000003
 24
3919.29560467591
 34
0.0
1001
ACAD
1000
DSTYLE
1002
{
1070
   287
1070
     4
1070
   287
1070
     4
1070
    40
1040
30.0
1070
    75
1070
     1
1070
   143
1040
0.039
1070
   172
1070
     1
1070
   271
1070
     0
1070
   279
1070
     1
1070
   288
1070
     1
1002
}
  0
DIMENSION
  5
7BDB
  8
3
  6
CONTINUOUS
  2
*D13
 10
4699.1512110000003
 20
2517.1850766759098
 30
0.0
 11
4446.4072020000003
 21
2517.1850766759098
 31
0.0
 70
   128
 13
4173.1512110000003
 23
2693.29560467591
 33
0.0
 14
4699.1512110000003
 24
2596.56504467591
 34
0.0
1001
ACAD
1000
DSTYLE
1002
{
1070
   287
1070
     3
1070
   287
1070
     3
1070
    40
1040
30.0
1070
   143
1040
0.039
1070
   172
1070
     1
1070
   271
1070
     0
1070
   279
1070
     0
1070
   288
1070
     1
1002
}
  0
DIMENSION
  5
7BE9
  8
3
  6
CONTINUOUS
  2
*D14
 10
5103.1512110000003
 20
2517.1850766759098
 30
0.0
 11
4908.9252260000003
 21
2515.5075206759102
 31
0.0
 70
   128
 13
4699.1512110000003
 23
2596.56504467591
 33
0.0
 14
5103.1512110000003
 24
2693.29560467591
 34
0.0
1001
ACAD
1000
DSTYLE
1002
{
1070
   287
1070
     4
1070
   287
1070
     4
1070
    40
1040
30.0
1070
    75
1070
     1
1070
   143
1040
0.039
1070
   172
1070
     1
1070
   271
1070
     0
1070
   279
1070
     1
1070
   288
1070
     1
1002
}
  0
DIMENSION
  5
7C0C
  8
3
  6
CONTINUOUS
  2
*D15
 10
2649.7271426852631
 20
6244.8265730000003
 30
0.0
 11
1920.019410685263
 21
6244.8265730000003
 31
0.0
 70
   128
 13
1139.7271426852631
 23
6034.7893130000002
 33
0.0
 14
2649.7271426852631
 24
6034.7893130000002
 34
0.0
1001
ACAD
1000
DSTYLE
1002
{
1070
   287
1070
     3
1070
   287
1070
     3
1070
    40
1040
30.0
1070
   143
1040
0.039
1070
   172
1070
     1
1070
   271
1070
     0
1070
   279
1070
     0
1070
   288
1070
     1
1002
}
  0
DIMENSION
  5
7C19
  8
3
  6
CONTINUOUS
  2
*D16
 10
2899.1400486852631
 20
5104.7893130000011
 30
0.0
 11
2899.1400486852622
 21
5546.3635109999996
 31
0.0
 70
   128
 13
2649.7271426852631
 23
6034.7893130000002
 33
0.0
 14
2649.7271426852631
 24
5104.7893130000011
 34
0.0
 50
90.0
1001
ACAD
1000
DSTYLE
1002
{
1070
   287
1070
     3
1070
   287
1070
     3
1070
    40
1040
30.0
1070
   143
1040
0.039
1070
   172
1070
     1
1070
   271
1070
     0
1070
   279
1070
     0
1070
   288
1070
     1
1002
}
  0
DIMENSION
  5
7C65
  8
3
  6
CONTINUOUS
  2
*D17
 10
1647.7271426852631
 20
4151.7375286759088
 30
0.0
 11
1908.7271426852631
 21
4226.7375286759097
 31
0.0
 70
     0
 13
2169.7271426852631
 23
4123.1956376759108
 33
0.0
 14
1647.7271426852631
 24
3389.29560467591
 34
0.0
1001
ACAD
1000
DSTYLE
1002
{
1070
   287
1070
     4
1070
   287
1070
     4
1070
    40
1040
30.0
1070
    75
1070
     1
1070
   143
1040
0.039
1070
   172
1070
     1
1070
   271
1070
     0
1070
   279
1070
     1
1070
   288
1070
     1
1002
}
  0
DIMENSION
  5
7CF7
  8
3
  2
*D18
 10
1139.7271426852631
 20
4326.967329850133
 30
0.0
 11
1923.8874935683921
 21
4326.967329850133
 31
0.0
 70
   128
 13
2654.7271426852631
 23
4049.29560467591
 33
0.0
 14
1139.7271426852631
 24
2793.29560467591
 34
0.0
1001
ACAD
1000
DSTYLE
1002
{
1070
   287
1070
     3
1070
   287
1070
     3
1070
    40
1040
30.0
1070
   143
1040
0.039
1070
   172
1070
     1
1070
   271
1070
     0
1070
   279
1070
     0
1070
   288
1070
     1
1002
}
  0
ENDSEC
  0
EOF
