  0
SECTION
  2
HEADER
  9
$ACADVER
  1
AC1009
  9
$INSBASE
 10
0.0
 20
0.0
 30
0.0
  9
$EXTMIN
 10
750.0
 20
900.0
 30
0.0
  9
$EXTMAX
 10
5550.0
 20
8359.9567849999985
 30
0.0
  9
$LIMMIN
 10
0.0
 20
0.0
  9
$LIMMAX
 10
297.0
 20
210.0
  9
$ORTHOMODE
 70
     0
  9
$REGENMODE
 70
     1
  9
$FILLMODE
 70
     0
  9
$QTEXTMODE
 70
     0
  9
$MIRRTEXT
 70
     1
  9
$DRAGMODE
 70
     2
  9
$LTSCALE
 40
100.0
  9
$OSMODE
 70
    37
  9
$ATTMODE
 70
     1
  9
$TEXTSIZE
 40
180.0
  9
$TRACEWID
 40
0.05
  9
$TEXTSTYLE
  7
STANDARD
  9
$CLAYER
  8
3
  9
$CELTYPE
  6
BYLAYER
  9
$CECOLOR
 62
   256
  9
$DIMSCALE
 40
30.0
  9
$DIMASZ
 40
2.0
  9
$DIMEXO
 40
0.5
  9
$DIMDLI
 40
10.0
  9
$DIMRND
 40
0.0
  9
$DIMDLE
 40
0.0
  9
$DIMEXE
 40
1.0
  9
$DIMTP
 40
1.0
  9
$DIMTM
 40
1.0
  9
$DIMTXT
 40
3.0
  9
$DIMCEN
 40
0.0
  9
$DIMTSZ
 40
0.0
  9
$DIMTOL
 70
     0
  9
$DIMLIM
 70
     0
  9
$DIMTIH
 70
     0
  9
$DIMTOH
 70
     0
  9
$DIMSE1
 70
     0
  9
$DIMSE2
 70
     0
  9
$DIMTAD
 70
     1
  9
$DIMZIN
 70
     8
  9
$DIMBLK
  1

  9
$DIMASO
 70
     1
  9
$DIMSHO
 70
     1
  9
$DIMPOST
  1

  9
$DIMAPOST
  1

  9
$DIMALT
 70
     0
  9
$DIMALTD
 70
     2
  9
$DIMALTF
 40
0.039
  9
$DIMLFAC
 40
1.0
  9
$DIMTOFL
 70
     1
  9
$DIMTVP
 40
0.0
  9
$DIMTIX
 70
     0
  9
$DIMSOXD
 70
     0
  9
$DIMSAH
 70
     1
  9
$DIMBLK1
  1
OPEN
  9
$DIMBLK2
  1
OPEN
  9
$DIMSTYLE
  2
IGA
  9
$DIMCLRD
 70
     0
  9
$DIMCLRE
 70
     0
  9
$DIMCLRT
 70
     0
  9
$DIMTFAC
 40
10.0
  9
$DIMGAP
 40
1.0
  9
$LUNITS
 70
     2
  9
$LUPREC
 70
     3
  9
$SKETCHINC
 40
0.1
  9
$FILLETRAD
 40
50.0
  9
$AUNITS
 70
     0
  9
$AUPREC
 70
     0
  9
$MENU
  1
acad
  9
$ELEVATION
 40
0.0
  9
$PELEVATION
 40
0.0
  9
$THICKNESS
 40
0.0
  9
$LIMCHECK
 70
     0
  9
$BLIPMODE
 70
     0
  9
$CHAMFERA
 40
0.5
  9
$CHAMFERB
 40
0.5
  9
$SKPOLY
 70
     0
  9
$TDCREATE
 40
2450742.4843321759
  9
$TDUPDATE
 40
2454953.7707803352
  9
$TDINDWG
 40
0.0085311806
  9
$TDUSRTIMER
 40
0.0085311806
  9
$USRTIMER
 70
     1
  9
$ANGBASE
 50
0.0
  9
$ANGDIR
 70
     0
  9
$PDMODE
 70
     0
  9
$PDSIZE
 40
0.0
  9
$PLINEWID
 40
0.0
  9
$COORDS
 70
     1
  9
$SPLFRAME
 70
     0
  9
$SPLINETYPE
 70
     6
  9
$SPLINESEGS
 70
     8
  9
$ATTDIA
 70
     0
  9
$ATTREQ
 70
     1
  9
$HANDLING
 70
 10241
  9
$HANDSEED
  5
823D
  9
$SURFTAB1
 70
     6
  9
$SURFTAB2
 70
     6
  9
$SURFTYPE
 70
     6
  9
$SURFU
 70
     6
  9
$SURFV
 70
     6
  9
$UCSNAME
  2

  9
$UCSORG
 10
0.0
 20
0.0
 30
0.0
  9
$UCSXDIR
 10
1.0
 20
0.0
 30
0.0
  9
$UCSYDIR
 10
0.0
 20
1.0
 30
0.0
  9
$PUCSNAME
  2

  9
$PUCSORG
 10
0.0
 20
0.0
 30
0.0
  9
$PUCSXDIR
 10
1.0
 20
0.0
 30
0.0
  9
$PUCSYDIR
 10
0.0
 20
1.0
 30
0.0
  9
$USERI1
 70
     0
  9
$USERI2
 70
     0
  9
$USERI3
 70
     0
  9
$USERI4
 70
     0
  9
$USERI5
 70
     0
  9
$USERR1
 40
0.0
  9
$USERR2
 40
0.0
  9
$USERR3
 40
0.0
  9
$USERR4
 40
0.0
  9
$USERR5
 40
0.0
  9
$WORLDVIEW
 70
     1
  9
$SHADEDGE
 70
     3
  9
$SHADEDIF
 70
    70
  9
$TILEMODE
 70
     1
  9
$MAXACTVP
 70
    16
  9
$PLIMCHECK
 70
     0
  9
$PEXTMIN
 10
1.0000000000000000E+020
 20
1.0000000000000000E+020
 30
1.0000000000000000E+020
  9
$PEXTMAX
 10
-1.0000000000000000E+020
 20
-1.0000000000000000E+020
 30
-1.0000000000000000E+020
  9
$PLIMMIN
 10
0.0
 20
0.0
  9
$PLIMMAX
 10
12.0
 20
9.0
  9
$UNITMODE
 70
     0
  9
$VISRETAIN
 70
     0
  9
$PLINEGEN
 70
     0
  9
$PSLTSCALE
 70
     1
  0
ENDSEC
  0
SECTION
  2
TABLES
  0
TABLE
  2
VPORT
 70
     2
  0
VPORT
  2
*ACTIVE
 70
     0
 10
0.0
 20
0.0
 11
1.0
 21
1.0
 12
9437.9954746499006
 22
4629.9199394653269
 13
0.0
 23
0.0
 14
10.0
 24
10.0
 15
10.0
 25
10.0
 16
0.0
 26
0.0
 36
1.0
 17
0.0
 27
0.0
 37
0.0
 40
7517.061441529765
 41
3.1666666666666661
 42
50.0
 43
0.0
 44
0.0
 50
0.0
 51
0.0
 71
     0
 72
   100
 73
     1
 74
     0
 75
     0
 76
     0
 77
     0
 78
     0
  0
ENDTAB
  0
TABLE
  2
LTYPE
 70
     2
  0
LTYPE
  2
CONTINUOUS
 70
     0
  3
Solid line
 72
    65
 73
     0
 40
0.0
  0
LTYPE
  2
CENTER
 70
     0
  3
____ _ ____ _ ____ _ ____ _ ____ _ ____ _ ____ 
 72
    65
 73
     4
 40
2.0
 49
1.25
 49
-0.25
 49
0.25
 49
-0.25
  0
ENDTAB
  0
TABLE
  2
LAYER
 70
     6
  0
LAYER
  2
0
 70
     0
 62
     7
  6
CONTINUOUS
  0
LAYER
  2
3
 70
     0
 62
     2
  6
CONTINUOUS
  0
LAYER
  2
2
 70
     0
 62
     3
  6
CENTER
  0
LAYER
  2
1
 70
     0
 62
     4
  6
CONTINUOUS
  0
LAYER
  2
4
 70
     0
 62
     7
  6
CONTINUOUS
  0
LAYER
  2
DEFPOINTS
 70
     0
 62
     7
  6
CONTINUOUS
  0
ENDTAB
  0
TABLE
  2
STYLE
 70
     1
  0
STYLE
  2
STANDARD
 70
     0
 40
0.0
 41
1.0
 50
0.0
 71
     0
 42
180.0
  3
simplex.shx
  4
extfont.shx
  0
ENDTAB
  0
TABLE
  2
VIEW
 70
     0
  0
ENDTAB
  0
TABLE
  2
UCS
 70
     0
  0
ENDTAB
  0
TABLE
  2
APPID
 70
     1
  0
APPID
  2
ACAD
 70
     0
  0
ENDTAB
  0
TABLE
  2
DIMSTYLE
 70
     1
  0
DIMSTYLE
  2
IGA
 70
     0
  3

  4

  5

  6
OPEN
  7
OPEN
 40
2.0
 41
2.0
 42
0.5
 43
10.0
 44
1.0
 45
0.0
 46
0.0
 47
1.0
 48
1.0
140
3.0
141
0.0
142
0.0
143
0.03937
144
1.0
145
0.0
146
10.0
147
1.0
 71
     0
 72
     0
 73
     0
 74
     0
 75
     0
 76
     0
 77
     1
 78
     8
170
     0
171
     2
172
     0
173
     1
174
     0
175
     0
176
     0
177
     0
178
     0
  0
ENDTAB
  0
ENDSEC
  0
SECTION
  2
BLOCKS
  0
BLOCK
  8
0
  2
$MODEL_SPACE
 70
     0
 10
0.0
 20
0.0
 30
0.0
  3
$MODEL_SPACE
  1

  0
ENDBLK
  5
1B
  8
0
  0
BLOCK
 67
     1
  8
0
  2
$PAPER_SPACE
 70
     0
 10
0.0
 20
0.0
 30
0.0
  3
$PAPER_SPACE
  1

  0
ENDBLK
  5
18
 67
     1
  8
0
  0
BLOCK
  8
0
  2
_OPEN
 70
     0
 10
0.0
 20
0.0
 30
0.0
  3
_OPEN
  1

  0
LINE
  5
7B10
  8
0
  6
BYBLOCK
 62
     0
 10
-1.0
 20
0.166667
 30
0.0
 11
0.0
 21
0.0
 31
0.0
  0
LINE
  5
7B11
  8
0
  6
BYBLOCK
 62
     0
 10
0.0
 20
0.0
 30
0.0
 11
-1.0
 21
-0.166667
 31
0.0
  0
LINE
  5
7B12
  8
0
  6
BYBLOCK
 62
     0
 10
0.0
 20
0.0
 30
0.0
 11
-1.0
 21
0.0
 31
0.0
  0
ENDBLK
  5
7B13
  8
0
  0
BLOCK
  8
0
  2
*D1
 70
     1
 10
0.0
 20
0.0
 30
0.0
  3
*D1
  1

  0
LINE
  5
8194
  8
3
  6
CONTINUOUS
 62
     0
 10
2813.685931
 20
3662.0396707679579
 30
0.0
 11
3029.8696350000009
 21
3662.0396707679579
 31
0.0
  0
LINE
  5
8195
  8
3
  6
CONTINUOUS
 62
     0
 10
2813.685931
 20
3012.0396707679588
 30
0.0
 11
3029.869635
 21
3012.0396707679588
 31
0.0
  0
LINE
  5
8196
  8
3
  6
CONTINUOUS
 62
     0
 10
2999.8696350000009
 20
3602.0396707679579
 30
0.0
 11
2999.8696350000009
 21
3072.0396707679579
 31
0.0
  0
INSERT
  5
8197
  8
3
  6
CONTINUOUS
 62
     0
  2
_OPEN
 10
2999.8696350000009
 20
3662.0396707679579
 30
0.0
 41
60.0
 42
60.0
 43
60.0
 50
90.0
  0
INSERT
  5
8198
  8
3
  6
CONTINUOUS
 62
     0
  2
_OPEN
 10
2999.8696350000009
 20
3012.0396707679588
 30
0.0
 41
60.0
 42
60.0
 43
60.0
 50
270.0
  0
TEXT
  8
3
  40
90
  5
822B
  62
0
  72
0
  71
0
 10
2744.87
 20
3169.89
 30
0.000000
  1
650
  0
POINT
  5
819A
  8
DEFPOINTS
  6
CONTINUOUS
 62
     0
 10
2798.685931
 20
3662.0396707679579
 30
0.0
  0
POINT
  5
819B
  8
DEFPOINTS
  6
CONTINUOUS
 62
     0
 10
2798.685931
 20
3012.0396707679588
 30
0.0
  0
POINT
  5
819C
  8
DEFPOINTS
  6
CONTINUOUS
 62
     0
 10
2999.8696350000009
 20
3012.0396707679588
 30
0.0
  0
ENDBLK
  5
7B20
  8
0
  0
BLOCK
  8
0
  2
*D2
 70
     1
 10
0.0
 20
0.0
 30
0.0
  3
*D2
  1

  0
LINE
  5
819D
  8
3
  6
CONTINUOUS
 62
     0
 10
2934.5872719999988
 20
3632.0396707679588
 30
0.0
 11
3222.7063420000009
 21
3632.0396707679579
 31
0.0
  0
LINE
  5
819E
  8
3
  6
CONTINUOUS
 62
     0
 10
2813.685931
 20
3012.0396707679588
 30
0.0
 11
3222.7063419999999
 21
3012.0396707679579
 31
0.0
  0
LINE
  5
819F
  8
3
  6
CONTINUOUS
 62
     0
 10
3192.7063420000009
 20
3572.0396707679579
 30
0.0
 11
3192.7063420000009
 21
3072.0396707679579
 31
0.0
  0
INSERT
  5
81A0
  8
3
  6
CONTINUOUS
 62
     0
  2
_OPEN
 10
3192.7063420000009
 20
3632.0396707679579
 30
0.0
 41
60.0
 42
60.0
 43
60.0
 50
90.0
  0
INSERT
  5
81A1
  8
3
  6
CONTINUOUS
 62
     0
  2
_OPEN
 10
3192.7063420000009
 20
3012.0396707679579
 30
0.0
 41
60.0
 42
60.0
 43
60.0
 50
270.0
  0
TEXT
  8
3
  40
90
  5
822C
  62
0
  72
0
  71
0
 10
2937.71
 20
3169.89
 30
0.000000
  1
620
  0
POINT
  5
81A3
  8
DEFPOINTS
  6
CONTINUOUS
 62
     0
 10
2919.5872719999988
 20
3632.0396707679588
 30
0.0
  0
POINT
  5
81A4
  8
DEFPOINTS
  6
CONTINUOUS
 62
     0
 10
2798.685931
 20
3012.0396707679588
 30
0.0
  0
POINT
  5
81A5
  8
DEFPOINTS
  6
CONTINUOUS
 62
     0
 10
3192.7063420000009
 20
3012.0396707679579
 30
0.0
  0
ENDBLK
  5
7B2D
  8
0
  0
BLOCK
  8
0
  2
*D3
 70
     1
 10
0.0
 20
0.0
 30
0.0
  3
*D3
  1

  0
LINE
  5
81A6
  8
3
  6
CONTINUOUS
 62
     0
 10
2934.5872719999988
 20
3632.0396707679588
 30
0.0
 11
3429.3171149999998
 21
3632.0396707679579
 31
0.0
  0
LINE
  5
81A7
  8
3
  6
CONTINUOUS
 62
     0
 10
2758.685931
 20
2832.0396707679579
 30
0.0
 11
3429.3171149999989
 21
2832.0396707679579
 31
0.0
  0
LINE
  5
81A8
  8
3
  6
CONTINUOUS
 62
     0
 10
3399.3171149999998
 20
3572.0396707679579
 30
0.0
 11
3399.3171149999998
 21
2892.0396707679579
 31
0.0
  0
INSERT
  5
81A9
  8
3
  6
CONTINUOUS
 62
     0
  2
_OPEN
 10
3399.3171149999998
 20
3632.0396707679579
 30
0.0
 41
60.0
 42
60.0
 43
60.0
 50
90.0
  0
INSERT
  5
81AA
  8
3
  6
CONTINUOUS
 62
     0
  2
_OPEN
 10
3399.3171149999998
 20
2832.0396707679579
 30
0.0
 41
60.0
 42
60.0
 43
60.0
 50
270.0
  0
TEXT
  8
3
  40
90
  5
822D
  62
0
  72
0
  71
0
 10
3144.32
 20
3072.74
 30
0.000000
  1
800
  0
POINT
  5
81AC
  8
DEFPOINTS
  6
CONTINUOUS
 62
     0
 10
2919.5872719999988
 20
3632.0396707679588
 30
0.0
  0
POINT
  5
81AD
  8
DEFPOINTS
  6
CONTINUOUS
 62
     0
 10
2743.6859309999991
 20
2832.0396707679579
 30
0.0
  0
POINT
  5
81AE
  8
DEFPOINTS
  6
CONTINUOUS
 62
     0
 10
3399.3171149999998
 20
2832.0396707679579
 30
0.0
  0
ENDBLK
  5
7CF6
  8
0
  0
BLOCK
  8
0
  2
*D4
 70
     1
 10
0.0
 20
0.0
 30
0.0
  3
*D4
  1

  0
LINE
  5
81AF
  8
3
  6
CONTINUOUS
 62
     0
 10
2758.685931
 20
2832.0396707679579
 30
0.0
 11
3428.2740829999998
 21
2832.0396707679579
 31
0.0
  0
LINE
  5
81B0
  8
3
  6
CONTINUOUS
 62
     0
 10
2808.685931
 20
2706.0396707679588
 30
0.0
 11
3428.2740829999998
 21
2706.0396707679579
 31
0.0
  0
LINE
  5
81B1
  8
3
  6
CONTINUOUS
 62
     0
 10
3398.2740829999998
 20
2892.0396707679579
 30
0.0
 11
3398.2740829999998
 21
2952.0396707679579
 31
0.0
  0
LINE
  5
81B2
  8
3
  6
CONTINUOUS
 62
     0
 10
3398.2740829999998
 20
2646.0396707679579
 30
0.0
 11
3398.2740829999998
 21
2316.0396707679579
 31
0.0
  0
LINE
  5
81B3
  8
3
  6
CONTINUOUS
 62
     0
 10
3398.2740829999998
 20
2832.0396707679579
 30
0.0
 11
3398.2740829999998
 21
2706.0396707679579
 31
0.0
  0
INSERT
  5
81B4
  8
3
  6
CONTINUOUS
 62
     0
  2
_OPEN
 10
3398.2740829999998
 20
2832.0396707679579
 30
0.0
 41
60.0
 42
60.0
 43
60.0
 50
270.0
  0
INSERT
  5
81B5
  8
3
  6
CONTINUOUS
 62
     0
  2
_OPEN
 10
3398.2740829999998
 20
2706.0396707679579
 30
0.0
 41
60.0
 42
60.0
 43
60.0
 50
90.0
  0
TEXT
  8
3
  40
90
  5
822E
  62
0
  72
0
  71
0
 10
3143.27
 20
2291.74
 30
0.000000
  1
126
  0
POINT
  5
81B7
  8
DEFPOINTS
  6
CONTINUOUS
 62
     0
 10
2743.6859309999991
 20
2832.0396707679579
 30
0.0
  0
POINT
  5
81B8
  8
DEFPOINTS
  6
CONTINUOUS
 62
     0
 10
2793.685931
 20
2706.0396707679588
 30
0.0
  0
POINT
  5
81B9
  8
DEFPOINTS
  6
CONTINUOUS
 62
     0
 10
3398.2740829999998
 20
2706.0396707679579
 30
0.0
  0
ENDBLK
  5
7D03
  8
0
  0
BLOCK
  8
0
  2
*D5
 70
     1
 10
0.0
 20
0.0
 30
0.0
  3
*D5
  1

  0
LINE
  5
81BA
  8
3
  6
CONTINUOUS
 62
     0
 10
1283.6859309999991
 20
2691.0396707679579
 30
0.0
 11
1283.6859309999991
 21
2379.9726957679591
 31
0.0
  0
LINE
  5
81BB
  8
3
  6
CONTINUOUS
 62
     0
 10
2313.685931
 20
2528.3287127679582
 30
0.0
 11
2313.685931
 21
2379.9726957679591
 31
0.0
  0
LINE
  5
81BC
  8
3
  6
CONTINUOUS
 62
     0
 10
1343.685931
 20
2409.9726957679591
 30
0.0
 11
2253.685931
 21
2409.9726957679591
 31
0.0
  0
INSERT
  5
81BD
  8
3
  6
CONTINUOUS
 62
     0
  2
_OPEN
 10
1283.6859309999991
 20
2409.9726957679591
 30
0.0
 41
60.0
 42
60.0
 43
60.0
 50
180.0
  0
INSERT
  5
81BE
  8
3
  6
CONTINUOUS
 62
     0
  2
_OPEN
 10
2313.685931
 20
2409.9726957679591
 30
0.0
 41
60.0
 42
60.0
 43
60.0
  0
TEXT
  8
3
  40
90
  5
822F
  62
0
  72
0
  71
0
 10
1614.64
 20
2325.67
 30
0.000000
  1
1030
  0
POINT
  5
81C0
  8
DEFPOINTS
  6
CONTINUOUS
 62
     0
 10
1283.6859309999991
 20
2706.0396707679588
 30
0.0
  0
POINT
  5
81C1
  8
DEFPOINTS
  6
CONTINUOUS
 62
     0
 10
2313.685931
 20
2543.3287127679591
 30
0.0
  0
POINT
  5
81C2
  8
DEFPOINTS
  6
CONTINUOUS
 62
     0
 10
2313.685931
 20
2409.9726957679591
 30
0.0
  0
ENDBLK
  5
7C12
  8
0
  0
BLOCK
  8
0
  2
*D6
 70
     1
 10
0.0
 20
0.0
 30
0.0
  3
*D6
  1

  0
LINE
  5
81C3
  8
3
  6
CONTINUOUS
 62
     0
 10
2793.685931
 20
2691.0396707679579
 30
0.0
 11
2793.685931
 21
2379.9726957679591
 31
0.0
  0
LINE
  5
81C4
  8
3
  6
CONTINUOUS
 62
     0
 10
2373.685931
 20
2409.9726957679591
 30
0.0
 11
2733.685931
 21
2409.9726957679591
 31
0.0
  0
INSERT
  5
81C5
  8
3
  6
CONTINUOUS
 62
     0
  2
_OPEN
 10
2313.685931
 20
2409.9726957679591
 30
0.0
 41
60.0
 42
60.0
 43
60.0
 50
180.0
  0
INSERT
  5
81C6
  8
3
  6
CONTINUOUS
 62
     0
  2
_OPEN
 10
2793.685931
 20
2409.9726957679591
 30
0.0
 41
60.0
 42
60.0
 43
60.0
  0
TEXT
  8
3
  40
90
  5
8230
  62
0
  72
0
  71
0
 10
2373.69
 20
2325.67
 30
0.000000
  1
480
  0
POINT
  5
81C8
  8
DEFPOINTS
  6
CONTINUOUS
 62
     0
 10
2313.685931
 20
2543.3287127679591
 30
0.0
  0
POINT
  5
81C9
  8
DEFPOINTS
  6
CONTINUOUS
 62
     0
 10
2793.685931
 20
2706.0396707679588
 30
0.0
  0
POINT
  5
81CA
  8
DEFPOINTS
  6
CONTINUOUS
 62
     0
 10
2793.685931
 20
2409.9726957679591
 30
0.0
  0
ENDBLK
  5
7C1C
  8
0
  0
BLOCK
  8
0
  2
*D7
 70
     1
 10
0.0
 20
0.0
 30
0.0
  3
*D7
  1

  0
LINE
  5
81CB
  8
3
  6
CONTINUOUS
 62
     0
 10
2798.685931
 20
3717.0396707679579
 30
0.0
 11
2798.685931
 21
4246.7875777679583
 31
0.0
  0
LINE
  5
81CC
  8
3
  6
CONTINUOUS
 62
     0
 10
2313.685931
 20
4194.8361727679576
 30
0.0
 11
2313.685931
 21
4246.7875777679583
 31
0.0
  0
LINE
  5
81CD
  8
3
  6
CONTINUOUS
 62
     0
 10
2738.685931
 20
4216.7875777679583
 30
0.0
 11
2373.685931
 21
4216.7875777679583
 31
0.0
  0
INSERT
  5
81CE
  8
3
  6
CONTINUOUS
 62
     0
  2
_OPEN
 10
2798.685931
 20
4216.7875777679583
 30
0.0
 41
60.0
 42
60.0
 43
60.0
  0
INSERT
  5
81CF
  8
3
  6
CONTINUOUS
 62
     0
  2
_OPEN
 10
2313.685931
 20
4216.7875777679583
 30
0.0
 41
60.0
 42
60.0
 43
60.0
 50
180.0
  0
TEXT
  8
3
  40
90
  5
8231
  62
0
  72
0
  71
0
 10
2372.21
 20
4132.49
 30
0.000000
  1
485
  0
POINT
  5
81D1
  8
DEFPOINTS
  6
CONTINUOUS
 62
     0
 10
2798.685931
 20
3702.0396707679588
 30
0.0
  0
POINT
  5
81D2
  8
DEFPOINTS
  6
CONTINUOUS
 62
     0
 10
2313.685931
 20
4179.8361727679576
 30
0.0
  0
POINT
  5
81D3
  8
DEFPOINTS
  6
CONTINUOUS
 62
     0
 10
2313.685931
 20
4216.7875777679583
 30
0.0
  0
ENDBLK
  5
7B89
  8
0
  0
BLOCK
  8
0
  2
*D8
 70
     1
 10
0.0
 20
0.0
 30
0.0
  3
*D8
  1

  0
LINE
  5
81D4
  8
3
  6
CONTINUOUS
 62
     0
 10
4891.8884450000014
 20
4100.2941177679577
 30
0.0
 11
4891.8884450000014
 21
4212.3845947679583
 31
0.0
  0
LINE
  5
81D5
  8
3
  6
CONTINUOUS
 62
     0
 10
4416.8884449999996
 20
4100.2941177679577
 30
0.0
 11
4416.8884449999996
 21
4212.3845947679583
 31
0.0
  0
LINE
  5
81D6
  8
3
  6
CONTINUOUS
 62
     0
 10
4831.8884449999996
 20
4182.3845947679592
 30
0.0
 11
4476.8884450000014
 21
4182.3845947679592
 31
0.0
  0
INSERT
  5
81D7
  8
3
  6
CONTINUOUS
 62
     0
  2
_OPEN
 10
4891.8884450000014
 20
4182.3845947679592
 30
0.0
 41
60.0
 42
60.0
 43
60.0
  0
INSERT
  5
81D8
  8
3
  6
CONTINUOUS
 62
     0
  2
_OPEN
 10
4416.8884449999996
 20
4182.3845947679592
 30
0.0
 41
60.0
 42
60.0
 43
60.0
 50
180.0
  0
TEXT
  8
3
  40
90
  5
8232
  62
0
  72
0
  71
0
 10
4442.60
 20
4098.08
 30
0.000000
  1
475
  0
POINT
  5
81DA
  8
DEFPOINTS
  6
CONTINUOUS
 62
     0
 10
4891.8884450000014
 20
4085.2941177679591
 30
0.0
  0
POINT
  5
81DB
  8
DEFPOINTS
  6
CONTINUOUS
 62
     0
 10
4416.8884449999996
 20
4085.2941177679591
 30
0.0
  0
POINT
  5
81DC
  8
DEFPOINTS
  6
CONTINUOUS
 62
     0
 10
4416.8884449999996
 20
4182.3845947679592
 30
0.0
  0
ENDBLK
  5
7BA2
  8
0
  0
BLOCK
  8
0
  2
*D9
 70
     1
 10
0.0
 20
0.0
 30
0.0
  3
*D9
  1

  0
LINE
  5
81DD
  8
3
  6
CONTINUOUS
 62
     0
 10
4910.3884450000014
 20
3967.0396707679579
 30
0.0
 11
5209.4079340000008
 21
3967.0396707679579
 31
0.0
  0
LINE
  5
81DE
  8
3
  6
CONTINUOUS
 62
     0
 10
4910.3884450000014
 20
3297.0396707679588
 30
0.0
 11
5209.4079340000008
 21
3297.0396707679579
 31
0.0
  0
LINE
  5
81DF
  8
3
  6
CONTINUOUS
 62
     0
 10
5179.4079340000017
 20
3907.039670767957
 30
0.0
 11
5179.4079340000017
 21
3357.0396707679579
 31
0.0
  0
INSERT
  5
81E0
  8
3
  6
CONTINUOUS
 62
     0
  2
_OPEN
 10
5179.4079340000017
 20
3967.0396707679579
 30
0.0
 41
60.0
 42
60.0
 43
60.0
 50
90.0
  0
INSERT
  5
81E1
  8
3
  6
CONTINUOUS
 62
     0
  2
_OPEN
 10
5179.4079340000017
 20
3297.0396707679579
 30
0.0
 41
60.0
 42
60.0
 43
60.0
 50
270.0
  0
TEXT
  8
3
  40
90
  5
8233
  62
0
  72
0
  71
0
 10
4924.41
 20
3472.64
 30
0.000000
  1
φ670
  0
POINT
  5
81E3
  8
DEFPOINTS
  6
CONTINUOUS
 62
     0
 10
4895.3884449999996
 20
3967.0396707679579
 30
0.0
  0
POINT
  5
81E4
  8
DEFPOINTS
  6
CONTINUOUS
 62
     0
 10
4895.3884449999996
 20
3297.0396707679588
 30
0.0
  0
POINT
  5
81E5
  8
DEFPOINTS
  6
CONTINUOUS
 62
     0
 10
5179.4079340000017
 20
3297.0396707679579
 30
0.0
  0
ENDBLK
  5
7D31
  8
0
  0
BLOCK
  8
0
  2
*D10
 70
     1
 10
0.0
 20
0.0
 30
0.0
  3
*D10
  1

  0
LINE
  5
7D1D
  8
0
  6
BYBLOCK
 62
     0
 10
4895.3884449999996
 20
3982.0396707679579
 30
0.0
 11
4895.3884449999996
 21
4420.1135617679583
 31
0.0
  0
LINE
  5
7D1E
  8
0
  6
BYBLOCK
 62
     0
 10
4654.3884450000014
 20
4354.9920687679578
 30
0.0
 11
4654.3884450000014
 21
4420.1135617679583
 31
0.0
  0
LINE
  5
7D1F
  8
0
  6
BYBLOCK
 62
     0
 10
4835.3884450000014
 20
4390.1135617679593
 30
0.0
 11
4714.3884449999996
 21
4390.1135617679593
 31
0.0
  0
TEXT
  5
7D20
  8
3
 62
     0
 10
4679.9364278314324
 20
4452.4877978312716
 30
0.0
 40
90.0
  1
241
  0
INSERT
  5
7D21
  8
0
  6
BYBLOCK
 62
     0
  2
_OPEN
 10
4895.3884449999996
 20
4390.1135617679593
 30
0.0
 41
60.0
 42
60.0
 43
60.0
  0
INSERT
  5
7D22
  8
0
  6
BYBLOCK
 62
     0
  2
_OPEN
 10
4654.3884450000014
 20
4390.1135617679593
 30
0.0
 41
60.0
 42
60.0
 43
60.0
 50
180.0
  0
POINT
  5
7D23
  8
DEFPOINTS
  6
BYBLOCK
 62
     0
 10
4895.3884449999996
 20
3967.0396707679579
 30
0.0
  0
POINT
  5
7D24
  8
DEFPOINTS
  6
BYBLOCK
 62
     0
 10
4654.3884450000014
 20
4339.9920687679578
 30
0.0
  0
POINT
  5
7D25
  8
DEFPOINTS
  6
BYBLOCK
 62
     0
 10
4654.3884450000014
 20
4390.1135617679593
 30
0.0
  0
ENDBLK
  5
7D26
  8
0
  0
BLOCK
  8
0
  2
*D11
 70
     1
 10
0.0
 20
0.0
 30
0.0
  3
*D11
  1

  0
LINE
  5
81E6
  8
3
  6
CONTINUOUS
 62
     0
 10
4174.3884449999996
 20
3947.0396707679588
 30
0.0
 11
4174.3884449999996
 21
4420.1135617679583
 31
0.0
  0
LINE
  5
81E7
  8
3
  6
CONTINUOUS
 62
     0
 10
4594.3884449999996
 20
4390.1135617679593
 30
0.0
 11
4234.3884449999996
 21
4390.1135617679593
 31
0.0
  0
INSERT
  5
81E8
  8
3
  6
CONTINUOUS
 62
     0
  2
_OPEN
 10
4654.3884450000014
 20
4390.1135617679593
 30
0.0
 41
60.0
 42
60.0
 43
60.0
  0
INSERT
  5
81E9
  8
3
  6
CONTINUOUS
 62
     0
  2
_OPEN
 10
4174.3884449999996
 20
4390.1135617679593
 30
0.0
 41
60.0
 42
60.0
 43
60.0
 50
180.0
  0
TEXT
  8
3
  40
90
  5
8234
  62
0
  72
0
  71
0
 10
4234.39
 20
4380.81
 30
0.000000
  1
MAX
  0
TEXT
  8
3
  40
90
  5
8235
  62
0
  72
0
  71
0
 10
4234.39
 20
4263.81
 30
0.000000
  1
530
  0
POINT
  5
81EB
  8
DEFPOINTS
  6
CONTINUOUS
 62
     0
 10
4654.3884450000014
 20
4339.9920687679578
 30
0.0
  0
POINT
  5
81EC
  8
DEFPOINTS
  6
CONTINUOUS
 62
     0
 10
4174.3884449999996
 20
3932.0396707679588
 30
0.0
  0
POINT
  5
81ED
  8
DEFPOINTS
  6
CONTINUOUS
 62
     0
 10
4174.3884449999996
 20
4390.1135617679593
 30
0.0
  0
ENDBLK
  5
7D3B
  8
0
  0
BLOCK
  8
0
  2
*D12
 70
     1
 10
0.0
 20
0.0
 30
0.0
  3
*D12
  1

  0
LINE
  5
81EE
  8
3
  6
CONTINUOUS
 62
     0
 10
4128.3884450000014
 20
2691.0396707679579
 30
0.0
 11
4128.3884450000014
 21
2432.7253207679591
 31
0.0
  0
LINE
  5
81EF
  8
3
  6
CONTINUOUS
 62
     0
 10
4654.3884450000014
 20
2583.8492967679581
 30
0.0
 11
4654.3884450000014
 21
2432.7253207679591
 31
0.0
  0
LINE
  5
81F0
  8
3
  6
CONTINUOUS
 62
     0
 10
4188.3884449999996
 20
2462.7253207679591
 30
0.0
 11
4594.3884449999996
 21
2462.7253207679591
 31
0.0
  0
INSERT
  5
81F1
  8
3
  6
CONTINUOUS
 62
     0
  2
_OPEN
 10
4128.3884450000014
 20
2462.7253207679591
 30
0.0
 41
60.0
 42
60.0
 43
60.0
 50
180.0
  0
INSERT
  5
81F2
  8
3
  6
CONTINUOUS
 62
     0
  2
_OPEN
 10
4654.3884450000014
 20
2462.7253207679591
 30
0.0
 41
60.0
 42
60.0
 43
60.0
  0
TEXT
  8
3
  40
90
  5
8236
  62
0
  72
0
  71
0
 10
4207.40
 20
2378.43
 30
0.000000
  1
526
  0
POINT
  5
81F4
  8
DEFPOINTS
  6
CONTINUOUS
 62
     0
 10
4128.3884450000014
 20
2706.0396707679588
 30
0.0
  0
POINT
  5
81F5
  8
DEFPOINTS
  6
CONTINUOUS
 62
     0
 10
4654.3884450000014
 20
2598.849296767959
 30
0.0
  0
POINT
  5
81F6
  8
DEFPOINTS
  6
CONTINUOUS
 62
     0
 10
4654.3884450000014
 20
2462.7253207679591
 30
0.0
  0
ENDBLK
  5
7C6F
  8
0
  0
BLOCK
  8
0
  2
*D13
 70
     1
 10
0.0
 20
0.0
 30
0.0
  3
*D13
  1

  0
LINE
  5
81F7
  8
3
  6
CONTINUOUS
 62
     0
 10
5058.3884450000014
 20
2691.0396707679579
 30
0.0
 11
5058.3884450000014
 21
2432.7253207679591
 31
0.0
  0
LINE
  5
81F8
  8
3
  6
CONTINUOUS
 62
     0
 10
4714.3884449999996
 20
2462.7253207679591
 30
0.0
 11
4998.3884449999996
 21
2462.7253207679591
 31
0.0
  0
TEXT
  8
3
  40
90
  5
8237
  62
0
  72
0
  71
0
 10
4672.99
 20
2380.22
 30
0.000000
  1
404
  0
INSERT
  5
81FA
  8
3
  6
CONTINUOUS
 62
     0
  2
_OPEN
 10
4654.3884450000014
 20
2462.7253207679591
 30
0.0
 41
60.0
 42
60.0
 43
60.0
 50
180.0
  0
INSERT
  5
81FB
  8
3
  6
CONTINUOUS
 62
     0
  2
_OPEN
 10
5058.3884450000014
 20
2462.7253207679591
 30
0.0
 41
60.0
 42
60.0
 43
60.0
  0
POINT
  5
81FC
  8
DEFPOINTS
  6
CONTINUOUS
 62
     0
 10
4654.3884450000014
 20
2598.849296767959
 30
0.0
  0
POINT
  5
81FD
  8
DEFPOINTS
  6
CONTINUOUS
 62
     0
 10
5058.3884450000014
 20
2706.0396707679588
 30
0.0
  0
POINT
  5
81FE
  8
DEFPOINTS
  6
CONTINUOUS
 62
     0
 10
5058.3884450000014
 20
2462.7253207679591
 30
0.0
  0
ENDBLK
  5
7C85
  8
0
  0
BLOCK
  8
0
  2
*D14
 70
     1
 10
0.0
 20
0.0
 30
0.0
  3
*D14
  1

  0
LINE
  5
81FF
  8
3
  6
CONTINUOUS
 62
     0
 10
1283.6859309999991
 20
6062.5333598835196
 30
0.0
 11
1283.6859309999991
 21
6244.9957618835206
 31
0.0
  0
LINE
  5
8200
  8
3
  6
CONTINUOUS
 62
     0
 10
2793.685931
 20
6062.5333598835196
 30
0.0
 11
2793.685931
 21
6244.9957618835206
 31
0.0
  0
LINE
  5
8201
  8
3
  6
CONTINUOUS
 62
     0
 10
1343.685931
 20
6214.9957618835206
 30
0.0
 11
2733.685931
 21
6214.9957618835206
 31
0.0
  0
INSERT
  5
8202
  8
3
  6
CONTINUOUS
 62
     0
  2
_OPEN
 10
1283.6859309999991
 20
6214.9957618835206
 30
0.0
 41
60.0
 42
60.0
 43
60.0
 50
180.0
  0
INSERT
  5
8203
  8
3
  6
CONTINUOUS
 62
     0
  2
_OPEN
 10
2793.685931
 20
6214.9957618835206
 30
0.0
 41
60.0
 42
60.0
 43
60.0
  0
TEXT
  8
3
  40
90
  5
8238
  62
0
  72
0
  71
0
 10
1841.91
 20
6130.70
 30
0.000000
  1
1510
  0
POINT
  5
8205
  8
DEFPOINTS
  6
CONTINUOUS
 62
     0
 10
1283.6859309999991
 20
6047.5333598835196
 30
0.0
  0
POINT
  5
8206
  8
DEFPOINTS
  6
CONTINUOUS
 62
     0
 10
2793.685931
 20
6047.5333598835196
 30
0.0
  0
POINT
  5
8207
  8
DEFPOINTS
  6
CONTINUOUS
 62
     0
 10
2793.685931
 20
6214.9957618835206
 30
0.0
  0
ENDBLK
  5
7C58
  8
0
  0
BLOCK
  8
0
  2
*D15
 70
     1
 10
0.0
 20
0.0
 30
0.0
  3
*D15
  1

  0
LINE
  5
8208
  8
3
  6
CONTINUOUS
 62
     0
 10
2808.685931
 20
6047.5333598835196
 30
0.0
 11
3105.6269260000008
 21
6047.5333598835196
 31
0.0
  0
LINE
  5
8209
  8
3
  6
CONTINUOUS
 62
     0
 10
2808.685931
 20
5117.5333598835214
 30
0.0
 11
3105.6269260000008
 21
5117.5333598835214
 31
0.0
  0
LINE
  5
820A
  8
3
  6
CONTINUOUS
 62
     0
 10
3075.6269260000008
 20
5987.5333598835214
 30
0.0
 11
3075.6269260000008
 21
5177.5333598835196
 31
0.0
  0
INSERT
  5
820B
  8
3
  6
CONTINUOUS
 62
     0
  2
_OPEN
 10
3075.6269260000008
 20
6047.5333598835196
 30
0.0
 41
60.0
 42
60.0
 43
60.0
 50
90.0
  0
INSERT
  5
820C
  8
3
  6
CONTINUOUS
 62
     0
  2
_OPEN
 10
3075.6269260000008
 20
5117.5333598835214
 30
0.0
 41
60.0
 42
60.0
 43
60.0
 50
270.0
  0
TEXT
  8
3
  40
90
  5
8239
  62
0
  72
0
  71
0
 10
2820.63
 20
5483.79
 30
0.000000
  1
930
  0
POINT
  5
820E
  8
DEFPOINTS
  6
CONTINUOUS
 62
     0
 10
2793.685931
 20
6047.5333598835196
 30
0.0
  0
POINT
  5
820F
  8
DEFPOINTS
  6
CONTINUOUS
 62
     0
 10
2793.685931
 20
5117.5333598835214
 30
0.0
  0
POINT
  5
8210
  8
DEFPOINTS
  6
CONTINUOUS
 62
     0
 10
3075.6269260000008
 20
5117.5333598835214
 30
0.0
  0
ENDBLK
  5
7C01
  8
0
  0
BLOCK
  8
0
  2
*D16
 70
     1
 10
0.0
 20
0.0
 30
0.0
  3
*D16
  1

  0
LINE
  5
8211
  8
3
  6
CONTINUOUS
 62
     0
 10
1791.6859309999991
 20
3647.0396707679588
 30
0.0
 11
1791.6859309999991
 21
4246.7875777679583
 31
0.0
  0
LINE
  5
8212
  8
3
  6
CONTINUOUS
 62
     0
 10
2253.685931
 20
4216.7875777679583
 30
0.0
 11
1851.6859309999991
 21
4216.7875777679583
 31
0.0
  0
INSERT
  5
8213
  8
3
  6
CONTINUOUS
 62
     0
  2
_OPEN
 10
2313.685931
 20
4216.7875777679583
 30
0.0
 41
60.0
 42
60.0
 43
60.0
  0
INSERT
  5
8214
  8
3
  6
CONTINUOUS
 62
     0
  2
_OPEN
 10
1791.6859309999991
 20
4216.7875777679583
 30
0.0
 41
60.0
 42
60.0
 43
60.0
 50
180.0
  0
TEXT
  8
3
  40
90
  5
823A
  62
0
  72
0
  71
0
 10
1872.69
 20
4132.49
 30
0.000000
  1
522
  0
POINT
  5
8216
  8
DEFPOINTS
  6
CONTINUOUS
 62
     0
 10
2313.685931
 20
4179.8361727679576
 30
0.0
  0
POINT
  5
8217
  8
DEFPOINTS
  6
CONTINUOUS
 62
     0
 10
1791.6859309999991
 20
3632.0396707679588
 30
0.0
  0
POINT
  5
8218
  8
DEFPOINTS
  6
CONTINUOUS
 62
     0
 10
1791.6859309999991
 20
4216.7875777679583
 30
0.0
  0
ENDBLK
  5
7C4C
  8
0
  0
BLOCK
  8
0
  2
*D17
 70
     1
 10
0.0
 20
0.0
 30
0.0
  3
*D17
  1

  0
LINE
  5
8219
  8
3
 62
     0
 10
2798.685931
 20
3717.0396707679579
 30
0.0
 11
2798.685931
 21
4421.2238206483671
 31
0.0
  0
LINE
  5
821A
  8
3
 62
     0
 10
1283.6859309999991
 20
2821.0396707679588
 30
0.0
 11
1283.6859309999991
 21
4421.2238206483671
 31
0.0
  0
LINE
  5
821B
  8
3
 62
     0
 10
2738.685931
 20
4391.2238206483671
 30
0.0
 11
1343.685931
 21
4391.2238206483671
 31
0.0
  0
INSERT
  5
821C
  8
3
 62
     0
  2
_OPEN
 10
2798.685931
 20
4391.2238206483671
 30
0.0
 41
60.0
 42
60.0
 43
60.0
  0
INSERT
  5
821D
  8
3
 62
     0
  2
_OPEN
 10
1283.6859309999991
 20
4391.2238206483671
 30
0.0
 41
60.0
 42
60.0
 43
60.0
 50
180.0
  0
TEXT
  8
3
  40
90
  5
823B
  62
0
  72
0
  71
0
 10
1924.28
 20
4306.92
 30
0.000000
  1
1515
  0
POINT
  5
821F
  8
DEFPOINTS
 62
     0
 10
2798.685931
 20
3702.0396707679588
 30
0.0
  0
POINT
  5
8220
  8
DEFPOINTS
 62
     0
 10
1283.6859309999991
 20
2806.0396707679579
 30
0.0
  0
POINT
  5
8221
  8
DEFPOINTS
 62
     0
 10
1283.6859309999991
 20
4391.2238206483671
 30
0.0
  0
ENDBLK
  5
7D0F
  8
0
  0
BLOCK
  8
0
  2
*D18
 70
     1
 10
0.0
 20
0.0
 30
0.0
  3
*D18
  1

  0
LINE
  5
8222
  8
3
 62
     0
 10
2934.5872719999988
 20
3632.0396707679588
 30
0.0
 11
3429.3171149999998
 21
3632.0396707679579
 31
0.0
  0
LINE
  5
8223
  8
3
 62
     0
 10
2293.685931
 20
4085.2941177679591
 30
0.0
 11
3429.3171149999998
 21
4085.2941177679581
 31
0.0
  0
LINE
  5
8224
  8
3
 62
     0
 10
3399.3171149999998
 20
3692.0396707679579
 30
0.0
 11
3399.3171149999998
 21
4025.2941177679581
 31
0.0
  0
INSERT
  5
8225
  8
3
 62
     0
  2
_OPEN
 10
3399.3171149999998
 20
3632.0396707679579
 30
0.0
 41
60.0
 42
60.0
 43
60.0
 50
270.0
  0
INSERT
  5
8226
  8
3
 62
     0
  2
_OPEN
 10
3399.3171149999998
 20
4085.2941177679581
 30
0.0
 41
60.0
 42
60.0
 43
60.0
 50
90.0
  0
TEXT
  8
3
  40
90
  5
823C
  62
0
  72
0
  71
0
 10
3144.32
 20
3699.37
 30
0.000000
  1
452
  0
POINT
  5
8228
  8
DEFPOINTS
 62
     0
 10
2919.5872719999988
 20
3632.0396707679588
 30
0.0
  0
POINT
  5
8229
  8
DEFPOINTS
 62
     0
 10
2278.685931
 20
4085.2941177679591
 30
0.0
  0
POINT
  5
822A
  8
DEFPOINTS
 62
     0
 10
3399.3171149999998
 20
4085.2941177679581
 30
0.0
  0
ENDBLK
  5
7E26
  8
0
  0
ENDSEC
  0
SECTION
  2
ENTITIES
  0
LINE
  5
7A7A
  8
1
  6
CONTINUOUS
 10
1333.6859309999991
 20
2832.0396707679579
 30
0.0
 11
2743.6859309999991
 21
2832.0396707679579
 31
0.0
  0
LINE
  5
7A7B
  8
1
  6
CONTINUOUS
 10
2743.6859309999991
 20
2932.0396707679588
 30
0.0
 11
1333.6859309999991
 21
2932.0396707679588
 31
0.0
  0
LINE
  5
7A7C
  8
1
  6
CONTINUOUS
 10
1746.837039999999
 20
2972.0396707679588
 30
0.0
 11
1438.8370399999999
 21
2972.0396707679588
 31
0.0
  0
LINE
  5
7A7D
  8
1
  6
CONTINUOUS
 10
1746.837039999999
 20
2990.0396707679588
 30
0.0
 11
1725.4947050000001
 21
3039.0561037679581
 31
0.0
  0
ARC
  5
7A7E
  8
1
  6
CONTINUOUS
 10
1592.8370399999999
 20
3132.0396707679588
 30
0.0
 40
162.0
 50
324.972283
 51
215.02771699999991
  0
LINE
  5
7A7F
  8
1
  6
CONTINUOUS
 10
1383.685931
 20
3232.0396707679588
 30
0.0
 11
2213.685931
 21
3932.0396707679588
 31
0.0
  0
ARC
  5
7A80
  8
1
  6
CONTINUOUS
 10
2354.685931
 20
3591.0396707679579
 30
0.0
 40
564.49092099999984
 50
175.48601199999999
 51
265.834836
  0
ARC
  5
7A81
  8
1
  6
CONTINUOUS
 10
2278.685931
 20
3597.0396707679588
 30
0.0
 40
488.25444700000003
 50
82.647621000000001
 51
175.48601199999999
  0
LINE
  5
7A82
  8
1
  6
CONTINUOUS
 10
1542.141924
 20
3193.9267067679589
 30
0.0
 11
2218.6325889999998
 21
3748.0778627679588
 31
0.0
  0
LINE
  5
7A83
  8
1
  6
CONTINUOUS
 10
1633.0419460000001
 20
3062.8763457679588
 30
0.0
 11
2389.070130999999
 21
3502.3584367679591
 31
0.0
  0
LINE
  5
7A84
  8
1
  6
CONTINUOUS
 10
1283.6859309999991
 20
2706.0396707679588
 30
0.0
 11
2793.685931
 21
2706.0396707679588
 31
0.0
  0
LINE
  5
7A85
  8
1
  6
CONTINUOUS
 10
1283.6859309999991
 20
2806.0396707679579
 30
0.0
 11
2793.685931
 21
2806.0396707679579
 31
0.0
  0
LINE
  5
7A86
  8
1
  6
CONTINUOUS
 10
1383.685931
 20
2932.0396707679588
 30
0.0
 11
1383.685931
 21
3232.0396707679588
 31
0.0
  0
LINE
  5
7A87
  8
2
  6
CENTER
 10
1592.8370399999999
 20
3212.0396707679588
 30
0.0
 11
1592.8370399999999
 21
3052.0396707679588
 31
0.0
  0
CIRCLE
  5
7A88
  8
1
  6
CONTINUOUS
 10
1592.8370399999999
 20
3132.0396707679588
 30
0.0
 40
80.0
  0
LINE
  5
7A89
  8
1
  6
CONTINUOUS
 10
1333.6859309999991
 20
2932.0396707679588
 30
0.0
 11
1333.6859309999991
 21
2832.0396707679579
 31
0.0
  0
LINE
  5
7A8A
  8
1
  6
CONTINUOUS
 10
1438.8370399999999
 20
2932.0396707679588
 30
0.0
 11
1438.8370399999999
 21
2990.0396707679588
 31
0.0
  0
LINE
  5
7A8B
  8
1
  6
CONTINUOUS
 10
1438.8370399999999
 20
2972.0396707679588
 30
0.0
 11
1438.8370399999999
 21
2990.0396707679588
 31
0.0
  0
LINE
  5
7A8C
  8
1
  6
CONTINUOUS
 10
1438.8370399999999
 20
2990.0396707679588
 30
0.0
 11
1460.1793740000001
 21
3039.0561037679581
 31
0.0
  0
LINE
  5
7A8D
  8
2
  6
CENTER
 10
1672.8370399999999
 20
3132.0396707679588
 30
0.0
 11
1512.8370399999999
 21
3132.0396707679588
 31
0.0
  0
LINE
  5
7A8E
  8
1
  6
CONTINUOUS
 10
1283.6859309999991
 20
2806.0396707679579
 30
0.0
 11
1283.6859309999991
 21
2706.0396707679588
 31
0.0
  0
LINE
  5
7A91
  8
1
  6
CONTINUOUS
 10
2798.685931
 20
3702.0396707679588
 30
0.0
 11
2798.685931
 21
2972.0396707679588
 31
0.0
  0
LINE
  5
7A92
  8
1
  6
CONTINUOUS
 10
2653.685931
 20
2932.0396707679588
 30
0.0
 11
2653.685931
 21
3932.0396707679588
 31
0.0
  0
LINE
  5
7A93
  8
1
  6
CONTINUOUS
 10
2768.685931
 20
3662.0396707679579
 30
0.0
 11
2768.685931
 21
3013.0293607679591
 31
0.0
  0
LINE
  5
7A95
  8
1
  6
CONTINUOUS
 10
2798.685931
 20
3012.0396707679588
 30
0.0
 11
2313.685931
 21
3028.0396707679588
 31
0.0
  0
LINE
  5
7A96
  8
1
  6
CONTINUOUS
 10
1746.837039999999
 20
2932.0396707679588
 30
0.0
 11
1746.837039999999
 21
2990.0396707679588
 31
0.0
  0
LINE
  5
7A99
  8
1
  6
CONTINUOUS
 10
2743.6859309999991
 20
2832.0396707679579
 30
0.0
 11
2743.6859309999991
 21
2932.0396707679588
 31
0.0
  0
LINE
  5
7A9A
  8
1
  6
CONTINUOUS
 10
2793.685931
 20
2806.0396707679579
 30
0.0
 11
2793.685931
 21
2706.0396707679588
 31
0.0
  0
LINE
  5
7A9C
  8
1
  6
CONTINUOUS
 10
2712.4158099999991
 20
3662.0396707679579
 30
0.0
 11
2798.685931
 21
3662.0396707679579
 31
0.0
  0
ARC
  5
7A9D
  8
1
  6
CONTINUOUS
 10
2286.685931
 20
3659.0396707679579
 30
0.0
 40
425.74044800000001
 50
0.403741
 51
82.647621000000001
  0
LINE
  5
7AA0
  8
2
  6
CENTER
 10
5019.8769499999999
 20
3632.0396707679588
 30
0.0
 11
4084.4894800000002
 21
3632.0396707679588
 31
0.0
  0
CIRCLE
  5
7AA1
  8
1
  6
CONTINUOUS
 10
2313.685931
 20
3632.0396707679588
 30
0.0
 40
150.0
  0
LINE
  5
7AA2
  8
2
  6
CENTER
 10
2313.685931
 20
6020.2806608835208
 30
0.0
 11
2313.685931
 21
5084.1194818835211
 31
0.0
  0
LINE
  5
7AA3
  8
1
  6
CONTINUOUS
 10
2653.685931
 20
3932.0396707679588
 30
0.0
 11
2213.685931
 21
3932.0396707679588
 31
0.0
  0
LINE
  5
7AA4
  8
1
  6
CONTINUOUS
 10
4416.8884449999996
 20
2932.0396707679588
 30
0.0
 11
4416.8884449999996
 21
4085.2941177679591
 31
0.0
  0
LINE
  5
7AA5
  8
1
  6
CONTINUOUS
 10
4891.8884450000014
 20
2932.0396707679588
 30
0.0
 11
4891.8884450000014
 21
4085.2941177679591
 31
0.0
  0
LINE
  5
7AA6
  8
1
  6
CONTINUOUS
 10
4174.3884449999996
 20
3932.0396707679588
 30
0.0
 11
4174.3884449999996
 21
2932.0396707679588
 31
0.0
  0
LINE
  5
7AA7
  8
1
  6
CONTINUOUS
 10
4891.8884450000014
 20
3012.0396707679588
 30
0.0
 11
4416.8884449999996
 21
3662.0396707679579
 31
0.0
  0
LINE
  5
7AA8
  8
1
  6
CONTINUOUS
 10
4416.8884449999996
 20
3012.0396707679588
 30
0.0
 11
4891.8884450000014
 21
3662.0396707679579
 31
0.0
  0
LINE
  5
7AA9
  8
1
  6
CONTINUOUS
 10
4314.3884450000014
 20
3932.0396707679588
 30
0.0
 11
4314.3884450000014
 21
2932.0396707679588
 31
0.0
  0
LINE
  5
7AAA
  8
1
  6
CONTINUOUS
 10
4279.3884450000014
 20
3212.0396707679588
 30
0.0
 11
4279.3884450000014
 21
3052.0396707679588
 31
0.0
  0
LINE
  5
7AAB
  8
1
  6
CONTINUOUS
 10
4209.3884449999996
 20
3212.0396707679588
 30
0.0
 11
4209.3884449999996
 21
3052.0396707679588
 31
0.0
  0
LINE
  5
7AAC
  8
1
  6
CONTINUOUS
 10
4128.3884450000014
 20
2806.0396707679579
 30
0.0
 11
5058.3884450000014
 21
2806.0396707679579
 31
0.0
  0
LINE
  5
7AAD
  8
1
  6
CONTINUOUS
 10
4128.3884450000014
 20
2706.0396707679588
 30
0.0
 11
5058.3884450000014
 21
2706.0396707679588
 31
0.0
  0
LINE
  5
7AAE
  8
1
  6
CONTINUOUS
 10
4243.3884449999996
 20
2832.0396707679579
 30
0.0
 11
4943.3884449999996
 21
2832.0396707679579
 31
0.0
  0
LINE
  5
7AAF
  8
1
  6
CONTINUOUS
 10
4416.8884449999996
 20
3012.0396707679588
 30
0.0
 11
4891.8884450000014
 21
3012.0396707679588
 31
0.0
  0
LINE
  5
7AB0
  8
1
  6
CONTINUOUS
 10
4943.3884449999996
 20
2932.0396707679588
 30
0.0
 11
4243.3884449999996
 21
2932.0396707679588
 31
0.0
  0
LINE
  5
7AB1
  8
1
  6
CONTINUOUS
 10
4243.3884449999996
 20
2932.0396707679588
 30
0.0
 11
4243.3884449999996
 21
2832.0396707679579
 31
0.0
  0
LINE
  5
7AB2
  8
1
  6
CONTINUOUS
 10
4174.3884449999996
 20
2932.0396707679588
 30
0.0
 11
4243.3884449999996
 21
2932.0396707679588
 31
0.0
  0
LINE
  5
7AB3
  8
1
  6
CONTINUOUS
 10
4209.3884449999996
 20
3052.0396707679588
 30
0.0
 11
4279.3884450000014
 21
3052.0396707679588
 31
0.0
  0
LINE
  5
7AB4
  8
1
  6
CONTINUOUS
 10
4279.3884450000014
 20
3111.0396707679579
 30
0.0
 11
4416.8884449999996
 21
3111.0396707679579
 31
0.0
  0
LINE
  5
7AB5
  8
1
  6
CONTINUOUS
 10
4128.3884450000014
 20
2806.0396707679579
 30
0.0
 11
4128.3884450000014
 21
2706.0396707679588
 31
0.0
  0
LINE
  5
7AB6
  8
1
  6
CONTINUOUS
 10
4943.3884449999996
 20
2932.0396707679588
 30
0.0
 11
4943.3884449999996
 21
2832.0396707679579
 31
0.0
  0
LINE
  5
7AB7
  8
1
  6
CONTINUOUS
 10
5058.3884450000014
 20
2806.0396707679579
 30
0.0
 11
5058.3884450000014
 21
2706.0396707679588
 31
0.0
  0
LINE
  5
7AB8
  8
1
  6
CONTINUOUS
 10
4416.8884449999996
 20
3662.0396707679579
 30
0.0
 11
4891.8884450000014
 21
3662.0396707679579
 31
0.0
  0
LINE
  5
7AB9
  8
1
  6
CONTINUOUS
 10
4209.3884449999996
 20
3782.0396707679588
 30
0.0
 11
4279.3884450000014
 21
3782.0396707679588
 31
0.0
  0
LINE
  5
7ABA
  8
1
  6
CONTINUOUS
 10
4209.3884449999996
 20
3482.0396707679588
 30
0.0
 11
4279.3884450000014
 21
3482.0396707679588
 31
0.0
  0
LINE
  5
7ABB
  8
1
  6
CONTINUOUS
 10
4279.3884450000014
 20
3782.0396707679588
 30
0.0
 11
4279.3884450000014
 21
3482.0396707679588
 31
0.0
  0
LINE
  5
7ABC
  8
1
  6
CONTINUOUS
 10
4209.3884449999996
 20
3782.0396707679588
 30
0.0
 11
4209.3884449999996
 21
3482.0396707679588
 31
0.0
  0
LINE
  5
7ABD
  8
1
  6
CONTINUOUS
 10
4279.3884450000014
 20
3653.0396707679579
 30
0.0
 11
4416.8884449999996
 21
3653.0396707679579
 31
0.0
  0
LINE
  5
7ABE
  8
1
  6
CONTINUOUS
 10
4279.3884450000014
 20
3611.0396707679588
 30
0.0
 11
4416.8884449999996
 21
3611.0396707679588
 31
0.0
  0
LINE
  5
7ABF
  8
1
  6
CONTINUOUS
 10
4209.3884449999996
 20
3212.0396707679588
 30
0.0
 11
4279.3884450000014
 21
3212.0396707679588
 31
0.0
  0
LINE
  5
7AC0
  8
1
  6
CONTINUOUS
 10
4279.3884450000014
 20
3153.0396707679588
 30
0.0
 11
4416.8884449999996
 21
3153.0396707679588
 31
0.0
  0
LINE
  5
7AC1
  8
1
  6
CONTINUOUS
 10
4416.8884449999996
 20
4085.2941177679591
 30
0.0
 11
4891.8884450000014
 21
4085.2941177679591
 31
0.0
  0
LINE
  5
7AC2
  8
1
  6
CONTINUOUS
 10
4314.3884450000014
 20
3932.0396707679588
 30
0.0
 11
4174.3884449999996
 21
3932.0396707679588
 31
0.0
  0
LINE
  5
7AC3
  8
1
  6
CONTINUOUS
 10
1430.8370399999999
 20
5820.2652768835214
 30
0.0
 11
1754.837039999999
 21
5820.2652768835214
 31
0.0
  0
LINE
  5
7AC4
  8
1
  6
CONTINUOUS
 10
1430.8370399999999
 20
5335.2652768835214
 30
0.0
 11
1754.837039999999
 21
5335.2652768835214
 31
0.0
  0
LINE
  5
7AC5
  8
1
  6
CONTINUOUS
 10
2653.685931
 20
5163.5333598835196
 30
0.0
 11
1383.685931
 21
5163.5333598835196
 31
0.0
  0
LINE
  5
7AC6
  8
1
  6
CONTINUOUS
 10
2653.685931
 20
5303.5333598835214
 30
0.0
 11
1383.685931
 21
5303.5333598835214
 31
0.0
  0
LINE
  5
7AC7
  8
1
  6
CONTINUOUS
 10
2743.6859309999991
 20
5932.5333598835214
 30
0.0
 11
1333.6859309999991
 21
5932.5333598835214
 31
0.0
  0
LINE
  5
7AC8
  8
1
  6
CONTINUOUS
 10
1672.8370399999999
 20
5232.5333598835214
 30
0.0
 11
2163.685931
 21
5232.5333598835214
 31
0.0
  0
LINE
  5
7AC9
  8
1
  6
CONTINUOUS
 10
1333.6859309999991
 20
6047.5333598835196
 30
0.0
 11
1333.6859309999991
 21
5117.5333598835214
 31
0.0
  0
LINE
  5
7ACA
  8
1
  6
CONTINUOUS
 10
1430.8370399999999
 20
5335.2652768835214
 30
0.0
 11
1430.8370399999999
 21
5820.2652768835214
 31
0.0
  0
LINE
  5
7ACB
  8
1
  6
CONTINUOUS
 10
1283.6859309999991
 20
6047.5333598835196
 30
0.0
 11
1283.6859309999991
 21
5117.5333598835214
 31
0.0
  0
LINE
  5
7ACC
  8
1
  6
CONTINUOUS
 10
1333.6859309999991
 20
5232.5333598835214
 30
0.0
 11
1512.8370399999999
 21
5232.5333598835214
 31
0.0
  0
LINE
  5
7ACD
  8
1
  6
CONTINUOUS
 10
1383.685931
 20
5163.5333598835196
 30
0.0
 11
1383.685931
 21
5303.5333598835214
 31
0.0
  0
LINE
  5
7ACE
  8
1
  6
CONTINUOUS
 10
1512.8370399999999
 20
5268.5333598835196
 30
0.0
 11
1672.8370399999999
 21
5268.5333598835196
 31
0.0
  0
LINE
  5
7ACF
  8
1
  6
CONTINUOUS
 10
1512.8370399999999
 20
5198.5333598835196
 30
0.0
 11
1672.8370399999999
 21
5198.5333598835196
 31
0.0
  0
LINE
  5
7AD0
  8
1
  6
CONTINUOUS
 10
1672.8370399999999
 20
5198.5333598835196
 30
0.0
 11
1672.8370399999999
 21
5268.5333598835196
 31
0.0
  0
LINE
  5
7AD1
  8
1
  6
CONTINUOUS
 10
1512.8370399999999
 20
5198.5333598835196
 30
0.0
 11
1512.8370399999999
 21
5268.5333598835196
 31
0.0
  0
LINE
  5
7AD2
  8
1
  6
CONTINUOUS
 10
1571.8370399999999
 20
5268.5333598835196
 30
0.0
 11
1571.8370399999999
 21
5335.2652768835214
 31
0.0
  0
LINE
  5
7AD3
  8
1
  6
CONTINUOUS
 10
1613.8370399999999
 20
5268.5333598835196
 30
0.0
 11
1613.8370399999999
 21
5335.2652768835214
 31
0.0
  0
LINE
  5
7AD4
  8
1
  6
CONTINUOUS
 10
1283.6859309999991
 20
5117.5333598835214
 30
0.0
 11
1333.6859309999991
 21
5117.5333598835214
 31
0.0
  0
LINE
  5
7AD5
  8
1
  6
CONTINUOUS
 10
1283.6859309999991
 20
6047.5333598835196
 30
0.0
 11
1333.6859309999991
 21
6047.5333598835196
 31
0.0
  0
LINE
  5
7AD6
  8
1
  6
CONTINUOUS
 10
2798.685931
 20
5881.0333598835196
 30
0.0
 11
1790.1950099999999
 21
5881.0333598835196
 31
0.0
  0
LINE
  5
7AD7
  8
1
  6
CONTINUOUS
 10
2798.685931
 20
5406.0333598835214
 30
0.0
 11
1790.1950099999999
 21
5406.0333598835214
 31
0.0
  0
LINE
  5
7AD8
  8
1
  6
CONTINUOUS
 10
2463.685931
 20
5232.5333598835214
 30
0.0
 11
2743.6859309999991
 21
5232.5333598835214
 31
0.0
  0
LINE
  5
7AD9
  8
1
  6
CONTINUOUS
 10
1754.837039999999
 20
5656.9817248835207
 30
0.0
 11
1754.837039999999
 21
5414.7346848835195
 31
0.0
  0
LINE
  5
7ADA
  8
1
  6
CONTINUOUS
 10
1754.837039999999
 20
5335.2652768835214
 30
0.0
 11
1754.837039999999
 21
5820.2652768835214
 31
0.0
  0
LINE
  5
7ADB
  8
1
  6
CONTINUOUS
 10
1790.1950099999999
 20
5406.0333598835214
 30
0.0
 11
1790.1950099999999
 21
5881.0333598835196
 31
0.0
  0
LINE
  5
7ADC
  8
1
  6
CONTINUOUS
 10
2163.685931
 20
5268.5333598835196
 30
0.0
 11
2463.685931
 21
5268.5333598835196
 31
0.0
  0
LINE
  5
7ADD
  8
1
  6
CONTINUOUS
 10
2163.685931
 20
5198.5333598835196
 30
0.0
 11
2463.685931
 21
5198.5333598835196
 31
0.0
  0
LINE
  5
7ADE
  8
1
  6
CONTINUOUS
 10
2163.685931
 20
5198.5333598835196
 30
0.0
 11
2163.685931
 21
5268.5333598835196
 31
0.0
  0
LINE
  5
7ADF
  8
1
  6
CONTINUOUS
 10
2463.685931
 20
5198.5333598835196
 30
0.0
 11
2463.685931
 21
5268.5333598835196
 31
0.0
  0
LINE
  5
7AE0
  8
1
  6
CONTINUOUS
 10
2653.685931
 20
5163.5333598835196
 30
0.0
 11
2653.685931
 21
5303.5333598835214
 31
0.0
  0
LINE
  5
7AE1
  8
1
  6
CONTINUOUS
 10
2334.685931
 20
5268.5333598835196
 30
0.0
 11
2334.685931
 21
5406.0333598835214
 31
0.0
  0
LINE
  5
7AE2
  8
1
  6
CONTINUOUS
 10
2292.685931
 20
5268.5333598835196
 30
0.0
 11
2292.685931
 21
5406.0333598835214
 31
0.0
  0
LINE
  5
7AE3
  8
1
  6
CONTINUOUS
 10
2798.685931
 20
5363.5333598835196
 30
0.0
 11
2798.685931
 21
5923.5333598835214
 31
0.0
  0
LINE
  5
7AE4
  8
1
  6
CONTINUOUS
 10
2758.685931
 20
5406.0333598835214
 30
0.0
 11
2758.685931
 21
5881.0333598835196
 31
0.0
  0
LINE
  5
7AE5
  8
1
  6
CONTINUOUS
 10
2743.6859309999991
 20
5117.5333598835214
 30
0.0
 11
2743.6859309999991
 21
5406.0333598835214
 31
0.0
  0
LINE
  5
7AE6
  8
1
  6
CONTINUOUS
 10
2743.6859309999991
 20
5117.5333598835214
 30
0.0
 11
2793.685931
 21
5117.5333598835214
 31
0.0
  0
LINE
  5
7AE7
  8
1
  6
CONTINUOUS
 10
2793.685931
 20
5406.0333598835214
 30
0.0
 11
2793.685931
 21
5117.5333598835214
 31
0.0
  0
LINE
  5
7AE8
  8
1
  6
CONTINUOUS
 10
2743.6859309999991
 20
5881.0333598835196
 30
0.0
 11
2743.6859309999991
 21
6047.5333598835196
 31
0.0
  0
LINE
  5
7AE9
  8
1
  6
CONTINUOUS
 10
2793.685931
 20
6047.5333598835196
 30
0.0
 11
2793.685931
 21
5881.0333598835196
 31
0.0
  0
LINE
  5
7AEA
  8
1
  6
CONTINUOUS
 10
2743.6859309999991
 20
6047.5333598835196
 30
0.0
 11
2793.685931
 21
6047.5333598835196
 31
0.0
  0
LINE
  5
7AEB
  8
2
  6
CENTER
 10
4654.3884450000014
 20
4115.6711787679587
 30
0.0
 11
4654.3884450000014
 21
2598.849296767959
 31
0.0
  0
LINE
  5
7AEC
  8
2
  6
CENTER
 10
1147.3192550000001
 20
5643.5333598835196
 30
0.0
 11
2886.6192809999989
 21
5643.5333598835196
 31
0.0
  0
LINE
  5
7AED
  8
2
  6
CENTER
 10
2313.685931
 20
4149.6918127679592
 30
0.0
 11
2313.685931
 21
2513.1843527679589
 31
0.0
  0
LINE
  5
7AEE
  8
2
  6
CENTER
 10
2919.5872719999988
 20
3632.0396707679588
 30
0.0
 11
1633.8357450000001
 21
3632.0396707679588
 31
0.0
  0
LINE
  5
7AEF
  8
4
  6
CONTINUOUS
 10
5550.0
 20
1500.0
 30
0.0
 11
5550.0
 21
900.0
 31
0.0
  0
LINE
  5
7AF0
  8
4
  6
CONTINUOUS
 10
3450.0
 20
1500.0
 30
0.0
 11
3450.0
 21
900.0
 31
0.0
  0
LINE
  5
7AF1
  8
4
  6
CONTINUOUS
 10
1950.0
 20
1500.0
 30
0.0
 11
1950.0
 21
900.0
 31
0.0
  0
LINE
  5
7AF4
  8
4
  6
CONTINUOUS
 10
1950.0
 20
900.0
 30
0.0
 11
5550.0
 21
900.0
 31
0.0
  0
LINE
  5
7AF5
  8
4
  6
CONTINUOUS
 10
1950.0
 20
1200.0
 30
0.0
 11
5550.0
 21
1200.0
 31
0.0
  0
TEXT
  5
7AF6
  8
4
  6
CONTINUOUS
 10
2065.5062429999989
 20
1294.6290779999999
 30
0.0
 40
150.0
  1
機器名称
  0
TEXT
  5
7AF7
  8
4
  6
CONTINUOUS
 10
2058.7743179999989
 20
964.9354699999999
 30
0.0
 40
150.0
  1
機器型番
  0
TEXT
  5
7AF8
  8
4
  6
CONTINUOUS
 10
3533.0362359999999
 20
1267.7153069999999
 30
0.0
 40
150.0
  1
ミツヤ多翼送風機
  0
TEXT
  5
7AF9
  8
4
  6
CONTINUOUS
 10
3559.9634869999991
 20
951.47875299999987
 30
0.0
 40
150.0
  1
MF#4-4
  0
TEXT
  5
7AFB
  8
4
  6
CONTINUOUS
 10
2237.9512639999998
 20
7150.2865239999992
 30
0.0
 40
162.0
  1
天井吊防振ベット
  0
TEXT
  5
7AFC
  8
4
  6
CONTINUOUS
 10
948.50278000000014
 20
7601.6429289999996
 30
0.0
 40
216.0
  1
ベルト駆動式片吸込両持多翼ファン
  0
LINE
  5
7AFD
  8
4
  6
CONTINUOUS
 10
750.0
 20
7408.2262629999996
 30
0.0
 11
5550.0
 21
7408.2262629999996
 31
0.0
  0
LINE
  5
7AFE
  8
4
  6
CONTINUOUS
 10
750.0
 20
8008.2262629999996
 30
0.0
 11
5550.0
 21
8008.2262629999996
 31
0.0
  0
LINE
  5
7AFF
  8
4
  6
CONTINUOUS
 10
1950.0
 20
1500.0
 30
0.0
 11
5550.0
 21
1500.0
 31
0.0
  0
LINE
  5
7B00
  8
4
  6
CONTINUOUS
 10
750.0
 20
8008.2262629999996
 30
0.0
 11
750.0
 21
7408.2262629999996
 31
0.0
  0
TEXT
  5
7B01
  8
4
  6
CONTINUOUS
 10
930.37476800000002
 20
7146.9584329999998
 30
0.0
 40
162.0
  1
左回転右横向
  0
TEXT
  5
7B02
  8
4
  6
CONTINUOUS
 10
4406.9086779999989
 20
8118.1832439999989
 30
0.0
 40
168.0
  1
No.
  0
TEXT
  5
7B03
  8
4
  6
CONTINUOUS
 10
3933.8881879999999
 20
7150.2865239999992
 30
0.0
 40
162.0
  1
縮尺：1/30
  0
LINE
  5
7B04
  8
4
  6
CONTINUOUS
 10
5550.0
 20
8008.2262629999996
 30
0.0
 11
5550.0
 21
7408.2262629999996
 31
0.0
  0
LINE
  5
7B06
  8
4
  6
CONTINUOUS
 10
4321.8522670000002
 20
8043.7907490000007
 30
0.0
 11
4321.8522670000002
 21
8359.9567849999985
 31
0.0
  0
LINE
  5
7B07
  8
4
  6
CONTINUOUS
 10
4321.8522670000002
 20
8359.9567849999985
 30
0.0
 11
5550.0
 21
8359.9567849999985
 31
0.0
  0
LINE
  5
7B08
  8
4
  6
CONTINUOUS
 10
5550.0
 20
8359.9567849999985
 30
0.0
 11
5550.0
 21
8043.7907490000007
 31
0.0
  0
LINE
  5
7B09
  8
4
  6
CONTINUOUS
 10
5550.0
 20
8043.7907490000007
 30
0.0
 11
4321.8522670000002
 21
8043.7907490000007
 31
0.0
  0
DIMENSION
  5
7B21
  8
3
  6
CONTINUOUS
  2
*D1
 10
2999.8696350000009
 20
3012.0396707679588
 30
0.0
 11
2999.8696349999991
 21
3329.1902517679591
 31
0.0
 70
   128
 13
2798.685931
 23
3662.0396707679579
 33
0.0
 14
2798.685931
 24
3012.0396707679588
 34
0.0
 50
90.0
1001
ACAD
1000
DSTYLE
1002
{
1070
   287
1070
     3
1070
   287
1070
     3
1070
   287
1070
     3
1070
    40
1040
30.0
1070
   143
1040
0.039
1070
   172
1070
     1
1070
   271
1070
     0
1070
   279
1070
     0
1070
   288
1070
     1
1002
}
  0
DIMENSION
  5
7B2E
  8
3
  6
CONTINUOUS
  2
*D2
 10
3192.7063420000009
 20
3012.0396707679579
 30
0.0
 11
3192.7063419999999
 21
3329.1902517679591
 31
0.0
 70
   128
 13
2919.5872719999988
 23
3632.0396707679588
 33
0.0
 14
2798.685931
 24
3012.0396707679588
 34
0.0
 50
90.0
1001
ACAD
1000
DSTYLE
1002
{
1070
   287
1070
     3
1070
   287
1070
     3
1070
   287
1070
     3
1070
    40
1040
30.0
1070
   143
1040
0.039
1070
   172
1070
     1
1070
   271
1070
     0
1070
   279
1070
     0
1070
   288
1070
     1
1002
}
  0
DIMENSION
  5
7B47
  8
3
  6
CONTINUOUS
  2
*D3
 10
3399.3171149999998
 20
2832.0396707679579
 30
0.0
 11
3324.3171149999989
 21
3232.0396707679588
 31
0.0
 70
     0
 13
2919.5872719999988
 23
3632.0396707679588
 33
0.0
 14
2743.6859309999991
 24
2832.0396707679579
 34
0.0
 50
90.0
1001
ACAD
1000
DSTYLE
1002
{
1070
   287
1070
     3
1070
   287
1070
     3
1070
   287
1070
     3
1070
    40
1040
30.0
1070
   143
1040
0.039
1070
   172
1070
     1
1070
   271
1070
     0
1070
   279
1070
     0
1070
   288
1070
     1
1002
}
  0
DIMENSION
  5
7B57
  8
3
  6
CONTINUOUS
  2
*D4
 10
3398.2740829999998
 20
2706.0396707679579
 30
0.0
 11
3398.2740829999998
 21
2451.0396707679588
 31
0.0
 70
   128
 13
2743.6859309999991
 23
2832.0396707679579
 33
0.0
 14
2793.685931
 24
2706.0396707679588
 34
0.0
 50
90.0
1001
ACAD
1000
DSTYLE
1002
{
1070
   287
1070
     3
1070
   287
1070
     3
1070
   287
1070
     3
1070
    40
1040
30.0
1070
   143
1040
0.039
1070
   172
1070
     1
1070
   271
1070
     0
1070
   279
1070
     0
1070
   288
1070
     1
1002
}
  0
DIMENSION
  5
7B71
  8
3
  6
CONTINUOUS
  2
*D5
 10
2313.685931
 20
2409.9726957679591
 30
0.0
 11
1794.6401980000001
 21
2409.9726957679591
 31
0.0
 70
   128
 13
1283.6859309999991
 23
2706.0396707679588
 33
0.0
 14
2313.685931
 24
2543.3287127679591
 34
0.0
1001
ACAD
1000
DSTYLE
1002
{
1070
   287
1070
     3
1070
   287
1070
     3
1070
   287
1070
     3
1070
    40
1040
30.0
1070
   143
1040
0.039
1070
   172
1070
     1
1070
   271
1070
     0
1070
   279
1070
     0
1070
   288
1070
     1
1002
}
  0
DIMENSION
  5
7B7D
  8
3
  6
CONTINUOUS
  2
*D6
 10
2793.685931
 20
2409.9726957679591
 30
0.0
 11
2553.685931
 21
2484.9726957679591
 31
0.0
 70
     0
 13
2313.685931
 23
2543.3287127679591
 33
0.0
 14
2793.685931
 24
2706.0396707679588
 34
0.0
1001
ACAD
1000
DSTYLE
1002
{
1070
   287
1070
     4
1070
   287
1070
     4
1070
   287
1070
     4
1070
    40
1040
30.0
1070
    75
1070
     1
1070
   143
1040
0.039
1070
   172
1070
     1
1070
   271
1070
     0
1070
   279
1070
     1
1070
   288
1070
     1
1002
}
  0
DIMENSION
  5
7B8A
  8
3
  6
CONTINUOUS
  2
*D7
 10
2313.685931
 20
4216.7875777679583
 30
0.0
 11
2552.2129970000001
 21
4216.7875777679583
 31
0.0
 70
   128
 13
2798.685931
 23
3702.0396707679588
 33
0.0
 14
2313.685931
 24
4179.8361727679576
 34
0.0
1001
ACAD
1000
DSTYLE
1002
{
1070
   287
1070
     3
1070
   287
1070
     3
1070
   287
1070
     3
1070
    40
1040
30.0
1070
   143
1040
0.039
1070
   172
1070
     1
1070
   271
1070
     0
1070
   279
1070
     0
1070
   288
1070
     1
1002
}
  0
DIMENSION
  5
7BA3
  8
3
  6
CONTINUOUS
  2
*D8
 10
4416.8884449999996
 20
4182.3845947679592
 30
0.0
 11
4622.602730999999
 21
4182.3845947679592
 31
0.0
 70
   128
 13
4891.8884450000014
 23
4085.2941177679591
 33
0.0
 14
4416.8884449999996
 24
4085.2941177679591
 34
0.0
1001
ACAD
1000
DSTYLE
1002
{
1070
   287
1070
     3
1070
   287
1070
     3
1070
   287
1070
     3
1070
    40
1040
30.0
1070
   143
1040
0.039
1070
   172
1070
     1
1070
   271
1070
     0
1070
   279
1070
     0
1070
   288
1070
     1
1002
}
  0
LINE
  5
7BA4
  8
1
  6
CONTINUOUS
 10
4895.3884449999996
 20
3297.0396707679588
 30
0.0
 11
4895.3884449999996
 21
3967.0396707679579
 31
0.0
  0
DIMENSION
  5
7BB3
  8
3
  6
CONTINUOUS
  2
*D9
 10
5179.4079340000017
 20
3297.0396707679579
 30
0.0
 11
5179.4079340000008
 21
3631.9366327679581
 31
0.0
 70
   128
 13
4895.3884449999996
 23
3967.0396707679579
 33
0.0
 14
4895.3884449999996
 24
3297.0396707679588
 34
0.0
 50
90.0
1001
ACAD
1000
DSTYLE
1002
{
1070
   287
1070
     3
1070
   287
1070
     3
1070
   287
1070
     3
1070
     3
1000
φ<>
1070
    40
1040
30.0
1070
   143
1040
0.039
1070
   172
1070
     1
1070
   271
1070
     0
1070
   279
1070
     0
1070
   288
1070
     1
1002
}
  0
DIMENSION
  5
7BC1
  8
3
  6
CONTINUOUS
  2
*D10
 10
4654.3884450000014
 20
4390.1135617679593
 30
0.0
 11
4776.364999260004
 21
4497.4877978312716
 31
0.0
 70
   128
 13
4895.3884449999996
 23
3967.0396707679579
 33
0.0
 14
4654.3884450000014
 24
4339.9920687679578
 34
0.0
1001
ACAD
1000
DSTYLE
1002
{
1070
   288
1070
     1
1070
   172
1070
     1
1070
    40
1040
30.0
1070
   271
1070
     0
1070
   143
1040
0.039
1002
}
  0
DIMENSION
  5
7BCD
  8
3
  6
CONTINUOUS
  2
*D11
 10
4174.3884449999996
 20
4390.1135617679593
 30
0.0
 11
4414.3884450000014
 21
4540.1135617679593
 31
0.0
 70
     0
  1
MAX\P530
 13
4654.3884450000014
 23
4339.9920687679578
 33
0.0
 14
4174.3884449999996
 24
3932.0396707679588
 34
0.0
1001
ACAD
1000
DSTYLE
1002
{
1070
   287
1070
     4
1070
   287
1070
     4
1070
   287
1070
     4
1070
    40
1040
30.0
1070
    75
1070
     1
1070
   143
1040
0.039
1070
   172
1070
     1
1070
   271
1070
     0
1070
   279
1070
     1
1070
   288
1070
     1
1002
}
  0
DIMENSION
  5
7BDA
  8
3
  6
CONTINUOUS
  2
*D12
 10
4654.3884450000014
 20
2462.7253207679591
 30
0.0
 11
4387.4000070000002
 21
2462.7253207679591
 31
0.0
 70
   128
 13
4128.3884450000014
 23
2706.0396707679588
 33
0.0
 14
4654.3884450000014
 24
2598.849296767959
 34
0.0
1001
ACAD
1000
DSTYLE
1002
{
1070
   287
1070
     3
1070
   287
1070
     3
1070
   287
1070
     3
1070
    40
1040
30.0
1070
   143
1040
0.039
1070
   172
1070
     1
1070
   271
1070
     0
1070
   279
1070
     0
1070
   288
1070
     1
1002
}
  0
DIMENSION
  5
7BE8
  8
3
  6
CONTINUOUS
  2
*D13
 10
5058.3884450000014
 20
2462.7253207679591
 30
0.0
 11
4852.985146
 21
2464.5182877679581
 31
0.0
 70
   128
 13
4654.3884450000014
 23
2598.849296767959
 33
0.0
 14
5058.3884450000014
 24
2706.0396707679588
 34
0.0
1001
ACAD
1000
DSTYLE
1002
{
1070
   287
1070
     4
1070
   287
1070
     4
1070
   287
1070
     4
1070
    40
1040
30.0
1070
    75
1070
     1
1070
   143
1040
0.039
1070
   172
1070
     1
1070
   271
1070
     0
1070
   279
1070
     1
1070
   288
1070
     1
1002
}
  0
DIMENSION
  5
7BF5
  8
3
  6
CONTINUOUS
  2
*D14
 10
2793.685931
 20
6214.9957618835206
 30
0.0
 11
2021.9120339999999
 21
6214.9957618835206
 31
0.0
 70
   128
 13
1283.6859309999991
 23
6047.5333598835196
 33
0.0
 14
2793.685931
 24
6047.5333598835196
 34
0.0
1001
ACAD
1000
DSTYLE
1002
{
1070
   287
1070
     3
1070
   287
1070
     3
1070
   287
1070
     3
1070
    40
1040
30.0
1070
   143
1040
0.039
1070
   172
1070
     1
1070
   271
1070
     0
1070
   279
1070
     0
1070
   288
1070
     1
1002
}
  0
DIMENSION
  5
7C02
  8
3
  6
CONTINUOUS
  2
*D15
 10
3075.6269260000008
 20
5117.5333598835214
 30
0.0
 11
3075.6269259999999
 21
5643.0856138835206
 31
0.0
 70
   128
 13
2793.685931
 23
6047.5333598835196
 33
0.0
 14
2793.685931
 24
5117.5333598835214
 34
0.0
 50
90.0
1001
ACAD
1000
DSTYLE
1002
{
1070
   287
1070
     3
1070
   287
1070
     3
1070
   287
1070
     3
1070
    40
1040
30.0
1070
   143
1040
0.039
1070
   172
1070
     1
1070
   271
1070
     0
1070
   279
1070
     0
1070
   288
1070
     1
1002
}
  0
DIMENSION
  5
7C4D
  8
3
  6
CONTINUOUS
  2
*D16
 10
1791.6859309999991
 20
4216.7875777679583
 30
0.0
 11
2052.685931
 21
4291.7875777679583
 31
0.0
 70
     0
 13
2313.685931
 23
4179.8361727679576
 33
0.0
 14
1791.6859309999991
 24
3632.0396707679588
 34
0.0
1001
ACAD
1000
DSTYLE
1002
{
1070
   287
1070
     4
1070
   287
1070
     4
1070
   287
1070
     4
1070
    40
1040
30.0
1070
    75
1070
     1
1070
   143
1040
0.039
1070
   172
1070
     1
1070
   271
1070
     0
1070
   279
1070
     1
1070
   288
1070
     1
1002
}
  0
DIMENSION
  5
7D10
  8
3
  2
*D17
 10
1283.6859309999991
 20
4391.2238206483671
 30
0.0
 11
2104.2775832033071
 21
4391.2238206483671
 31
0.0
 70
   128
 13
2798.685931
 23
3702.0396707679588
 33
0.0
 14
1283.6859309999991
 24
2806.0396707679579
 34
0.0
1001
ACAD
1000
DSTYLE
1002
{
1070
   287
1070
     3
1070
   287
1070
     3
1070
   287
1070
     3
1070
    40
1040
30.0
1070
   143
1040
0.039
1070
   172
1070
     1
1070
   271
1070
     0
1070
   279
1070
     0
1070
   288
1070
     1
1002
}
  0
LINE
  5
7D54
  8
1
  6
CONTINUOUS
 10
1903.685931
 20
3909.71746821331
 30
0.0
 11
1903.685931
 21
2932.0396707679579
 31
0.0
  0
LINE
  5
7D55
  8
1
  6
CONTINUOUS
 10
2723.685931
 20
3752.0396707679579
 30
0.0
 11
2723.6859309999991
 21
2932.0396707679579
 31
0.0
  0
LINE
  5
7D56
  8
1
  6
CONTINUOUS
 10
2723.685931
 20
3752.0396707679579
 30
0.0
 11
1903.685931
 21
3752.0396707679579
 31
0.0
  0
DIMENSION
  5
7E1A
  8
3
  2
*D18
 10
3399.3171149999998
 20
4085.2941177679581
 30
0.0
 11
3324.3171149999998
 21
3858.666894267958
 31
0.0
 70
     0
  1
452
 13
2919.5872719999988
 23
3632.0396707679588
 33
0.0
 14
2278.685931
 24
4085.2941177679591
 34
0.0
 50
90.0
1001
ACAD
1000
DSTYLE
1002
{
1070
   287
1070
     4
1070
   287
1070
     4
1070
    40
1040
30.0
1070
   143
1040
0.039
1070
   172
1070
     1
1070
   271
1070
     0
1070
   279
1070
     1
1070
   288
1070
     1
1002
}
  0
ENDSEC
  0
EOF
