  0
SECTION
  2
HEADER
  9
$ACADVER
  1
AC1009
  9
$INSBASE
 10
0.0
 20
0.0
 30
0.0
  9
$EXTMIN
 10
750.0
 20
900.0
 30
0.0
  9
$EXTMAX
 10
5550.0
 20
8359.9567849999985
 30
0.0
  9
$LIMMIN
 10
0.0
 20
0.0
  9
$LIMMAX
 10
297.0
 20
210.0
  9
$ORTHOMODE
 70
     0
  9
$REGENMODE
 70
     1
  9
$FILLMODE
 70
     0
  9
$QTEXTMODE
 70
     0
  9
$MIRRTEXT
 70
     1
  9
$DRAGMODE
 70
     2
  9
$LTSCALE
 40
100.0
  9
$OSMODE
 70
    37
  9
$ATTMODE
 70
     1
  9
$TEXTSIZE
 40
180.0
  9
$TRACEWID
 40
0.05
  9
$TEXTSTYLE
  7
STANDARD
  9
$CLAYER
  8
3
  9
$CELTYPE
  6
BYLAYER
  9
$CECOLOR
 62
   256
  9
$DIMSCALE
 40
30.0
  9
$DIMASZ
 40
2.0
  9
$DIMEXO
 40
0.5
  9
$DIMDLI
 40
10.0
  9
$DIMRND
 40
0.0
  9
$DIMDLE
 40
0.0
  9
$DIMEXE
 40
1.0
  9
$DIMTP
 40
1.0
  9
$DIMTM
 40
1.0
  9
$DIMTXT
 40
3.0
  9
$DIMCEN
 40
0.0
  9
$DIMTSZ
 40
0.0
  9
$DIMTOL
 70
     0
  9
$DIMLIM
 70
     0
  9
$DIMTIH
 70
     0
  9
$DIMTOH
 70
     0
  9
$DIMSE1
 70
     0
  9
$DIMSE2
 70
     0
  9
$DIMTAD
 70
     1
  9
$DIMZIN
 70
     8
  9
$DIMBLK
  1

  9
$DIMASO
 70
     1
  9
$DIMSHO
 70
     1
  9
$DIMPOST
  1

  9
$DIMAPOST
  1

  9
$DIMALT
 70
     0
  9
$DIMALTD
 70
     2
  9
$DIMALTF
 40
0.039
  9
$DIMLFAC
 40
1.0
  9
$DIMTOFL
 70
     1
  9
$DIMTVP
 40
0.0
  9
$DIMTIX
 70
     0
  9
$DIMSOXD
 70
     0
  9
$DIMSAH
 70
     1
  9
$DIMBLK1
  1
OPEN
  9
$DIMBLK2
  1
OPEN
  9
$DIMSTYLE
  2
IGA
  9
$DIMCLRD
 70
     0
  9
$DIMCLRE
 70
     0
  9
$DIMCLRT
 70
     0
  9
$DIMTFAC
 40
10.0
  9
$DIMGAP
 40
1.0
  9
$LUNITS
 70
     2
  9
$LUPREC
 70
     3
  9
$SKETCHINC
 40
0.1
  9
$FILLETRAD
 40
50.0
  9
$AUNITS
 70
     0
  9
$AUPREC
 70
     0
  9
$MENU
  1
acad
  9
$ELEVATION
 40
0.0
  9
$PELEVATION
 40
0.0
  9
$THICKNESS
 40
0.0
  9
$LIMCHECK
 70
     0
  9
$BLIPMODE
 70
     0
  9
$CHAMFERA
 40
0.5
  9
$CHAMFERB
 40
0.5
  9
$SKPOLY
 70
     0
  9
$TDCREATE
 40
2450742.4478219901
  9
$TDUPDATE
 40
2454953.7707289811
  9
$TDINDWG
 40
0.0083272801
  9
$TDUSRTIMER
 40
0.0083272801
  9
$USRTIMER
 70
     1
  9
$ANGBASE
 50
0.0
  9
$ANGDIR
 70
     0
  9
$PDMODE
 70
     0
  9
$PDSIZE
 40
0.0
  9
$PLINEWID
 40
0.0
  9
$COORDS
 70
     1
  9
$SPLFRAME
 70
     0
  9
$SPLINETYPE
 70
     6
  9
$SPLINESEGS
 70
     8
  9
$ATTDIA
 70
     0
  9
$ATTREQ
 70
     1
  9
$HANDLING
 70
 10241
  9
$HANDSEED
  5
8043
  9
$SURFTAB1
 70
     6
  9
$SURFTAB2
 70
     6
  9
$SURFTYPE
 70
     6
  9
$SURFU
 70
     6
  9
$SURFV
 70
     6
  9
$UCSNAME
  2

  9
$UCSORG
 10
0.0
 20
0.0
 30
0.0
  9
$UCSXDIR
 10
1.0
 20
0.0
 30
0.0
  9
$UCSYDIR
 10
0.0
 20
1.0
 30
0.0
  9
$PUCSNAME
  2

  9
$PUCSORG
 10
0.0
 20
0.0
 30
0.0
  9
$PUCSXDIR
 10
1.0
 20
0.0
 30
0.0
  9
$PUCSYDIR
 10
0.0
 20
1.0
 30
0.0
  9
$USERI1
 70
     0
  9
$USERI2
 70
     0
  9
$USERI3
 70
     0
  9
$USERI4
 70
     0
  9
$USERI5
 70
     0
  9
$USERR1
 40
0.0
  9
$USERR2
 40
0.0
  9
$USERR3
 40
0.0
  9
$USERR4
 40
0.0
  9
$USERR5
 40
0.0
  9
$WORLDVIEW
 70
     1
  9
$SHADEDGE
 70
     3
  9
$SHADEDIF
 70
    70
  9
$TILEMODE
 70
     1
  9
$MAXACTVP
 70
    16
  9
$PLIMCHECK
 70
     0
  9
$PEXTMIN
 10
1.0000000000000000E+020
 20
1.0000000000000000E+020
 30
1.0000000000000000E+020
  9
$PEXTMAX
 10
-1.0000000000000000E+020
 20
-1.0000000000000000E+020
 30
-1.0000000000000000E+020
  9
$PLIMMIN
 10
0.0
 20
0.0
  9
$PLIMMAX
 10
12.0
 20
9.0
  9
$UNITMODE
 70
     0
  9
$VISRETAIN
 70
     0
  9
$PLINEGEN
 70
     0
  9
$PSLTSCALE
 70
     1
  0
ENDSEC
  0
SECTION
  2
TABLES
  0
TABLE
  2
VPORT
 70
     2
  0
VPORT
  2
*ACTIVE
 70
     0
 10
0.0
 20
0.0
 11
1.0
 21
1.0
 12
9438.4567678319436
 22
4630.0975558305709
 13
0.0
 23
0.0
 14
10.0
 24
10.0
 15
10.0
 25
10.0
 16
0.0
 26
0.0
 36
1.0
 17
0.0
 27
0.0
 37
0.0
 40
7517.4747125171307
 41
3.1666666666666661
 42
50.0
 43
0.0
 44
0.0
 50
0.0
 51
0.0
 71
     0
 72
   100
 73
     1
 74
     0
 75
     0
 76
     0
 77
     0
 78
     0
  0
ENDTAB
  0
TABLE
  2
LTYPE
 70
     2
  0
LTYPE
  2
CONTINUOUS
 70
     0
  3
Solid line
 72
    65
 73
     0
 40
0.0
  0
LTYPE
  2
CENTER
 70
     0
  3
____ _ ____ _ ____ _ ____ _ ____ _ ____ _ ____ 
 72
    65
 73
     4
 40
2.0
 49
1.25
 49
-0.25
 49
0.25
 49
-0.25
  0
ENDTAB
  0
TABLE
  2
LAYER
 70
     6
  0
LAYER
  2
0
 70
     0
 62
     7
  6
CONTINUOUS
  0
LAYER
  2
3
 70
     0
 62
     2
  6
CONTINUOUS
  0
LAYER
  2
2
 70
     0
 62
     3
  6
CENTER
  0
LAYER
  2
1
 70
     0
 62
     4
  6
CONTINUOUS
  0
LAYER
  2
4
 70
     0
 62
     7
  6
CONTINUOUS
  0
LAYER
  2
DEFPOINTS
 70
     0
 62
     7
  6
CONTINUOUS
  0
ENDTAB
  0
TABLE
  2
STYLE
 70
     1
  0
STYLE
  2
STANDARD
 70
     0
 40
0.0
 41
1.0
 50
0.0
 71
     0
 42
180.0
  3
simplex.shx
  4
extfont.shx
  0
ENDTAB
  0
TABLE
  2
VIEW
 70
     0
  0
ENDTAB
  0
TABLE
  2
UCS
 70
     0
  0
ENDTAB
  0
TABLE
  2
APPID
 70
     1
  0
APPID
  2
ACAD
 70
     0
  0
ENDTAB
  0
TABLE
  2
DIMSTYLE
 70
     1
  0
DIMSTYLE
  2
IGA
 70
     0
  3

  4

  5

  6
OPEN
  7
OPEN
 40
2.0
 41
2.0
 42
0.5
 43
10.0
 44
1.0
 45
0.0
 46
0.0
 47
1.0
 48
1.0
140
3.0
141
0.0
142
0.0
143
0.03937
144
1.0
145
0.0
146
10.0
147
1.0
 71
     0
 72
     0
 73
     0
 74
     0
 75
     0
 76
     0
 77
     1
 78
     8
170
     0
171
     2
172
     0
173
     1
174
     0
175
     0
176
     0
177
     0
178
     0
  0
ENDTAB
  0
ENDSEC
  0
SECTION
  2
BLOCKS
  0
BLOCK
  8
0
  2
$MODEL_SPACE
 70
     0
 10
0.0
 20
0.0
 30
0.0
  3
$MODEL_SPACE
  1

  0
ENDBLK
  5
1B
  8
0
  0
BLOCK
 67
     1
  8
0
  2
$PAPER_SPACE
 70
     0
 10
0.0
 20
0.0
 30
0.0
  3
$PAPER_SPACE
  1

  0
ENDBLK
  5
18
 67
     1
  8
0
  0
BLOCK
  8
0
  2
_OPEN
 70
     0
 10
0.0
 20
0.0
 30
0.0
  3
_OPEN
  1

  0
LINE
  5
7B8B
  8
0
  6
BYBLOCK
 62
     0
 10
-1.0
 20
0.166667
 30
0.0
 11
0.0
 21
0.0
 31
0.0
  0
LINE
  5
7B8C
  8
0
  6
BYBLOCK
 62
     0
 10
0.0
 20
0.0
 30
0.0
 11
-1.0
 21
-0.166667
 31
0.0
  0
LINE
  5
7B8D
  8
0
  6
BYBLOCK
 62
     0
 10
0.0
 20
0.0
 30
0.0
 11
-1.0
 21
0.0
 31
0.0
  0
ENDBLK
  5
7B8E
  8
0
  0
BLOCK
  8
0
  2
*D1
 70
     1
 10
0.0
 20
0.0
 30
0.0
  3
*D1
  1

  0
LINE
  5
7FA2
  8
3
  6
CONTINUOUS
 62
     0
 10
2772.0291842950378
 20
3895.5077809999998
 30
0.0
 11
2772.0291842950378
 21
4085.4191549999991
 31
0.0
  0
LINE
  5
7FA3
  8
3
  6
CONTINUOUS
 62
     0
 10
2122.0291842950378
 20
3895.5077809999998
 30
0.0
 11
2122.0291842950378
 21
4085.4191549999991
 31
0.0
  0
LINE
  5
7FA4
  8
3
  6
CONTINUOUS
 62
     0
 10
2712.0291842950378
 20
4055.419155
 30
0.0
 11
2182.0291842950378
 21
4055.419155
 31
0.0
  0
INSERT
  5
7FA5
  8
3
  6
CONTINUOUS
 62
     0
  2
_OPEN
 10
2772.0291842950378
 20
4055.419155
 30
0.0
 41
60.0
 42
60.0
 43
60.0
  0
INSERT
  5
7FA6
  8
3
  6
CONTINUOUS
 62
     0
  2
_OPEN
 10
2122.0291842950378
 20
4055.419155
 30
0.0
 41
60.0
 42
60.0
 43
60.0
 50
180.0
  0
TEXT
  8
3
  40
90
  5
8032
  62
0
  72
0
  71
0
 10
2278.28
 20
3971.12
 30
0.000000
  1
650
  0
POINT
  5
7FA8
  8
DEFPOINTS
  6
CONTINUOUS
 62
     0
 10
2772.0291842950378
 20
3880.5077809999998
 30
0.0
  0
POINT
  5
7FA9
  8
DEFPOINTS
  6
CONTINUOUS
 62
     0
 10
2122.0291842950378
 20
3880.5077809999998
 30
0.0
  0
POINT
  5
7FAA
  8
DEFPOINTS
  6
CONTINUOUS
 62
     0
 10
2122.0291842950378
 20
4055.419155
 30
0.0
  0
ENDBLK
  5
7CCC
  8
0
  0
BLOCK
  8
0
  2
*D2
 70
     1
 10
0.0
 20
0.0
 30
0.0
  3
*D2
  1

  0
LINE
  5
7FAB
  8
3
  6
CONTINUOUS
 62
     0
 10
2772.0291842950378
 20
3895.5077809999998
 30
0.0
 11
2772.0291842950378
 21
4260.1225969999987
 31
0.0
  0
LINE
  5
7FAC
  8
3
  6
CONTINUOUS
 62
     0
 10
2152.0291842950378
 20
4072.8342040000002
 30
0.0
 11
2152.0291842950378
 21
4260.1225969999987
 31
0.0
  0
LINE
  5
7FAD
  8
3
  6
CONTINUOUS
 62
     0
 10
2712.0291842950378
 20
4230.1225969999996
 30
0.0
 11
2212.0291842950378
 21
4230.1225969999996
 31
0.0
  0
INSERT
  5
7FAE
  8
3
  6
CONTINUOUS
 62
     0
  2
_OPEN
 10
2772.0291842950378
 20
4230.1225969999996
 30
0.0
 41
60.0
 42
60.0
 43
60.0
  0
INSERT
  5
7FAF
  8
3
  6
CONTINUOUS
 62
     0
  2
_OPEN
 10
2152.0291842950378
 20
4230.1225969999996
 30
0.0
 41
60.0
 42
60.0
 43
60.0
 50
180.0
  0
TEXT
  8
3
  40
90
  5
8033
  62
0
  72
0
  71
0
 10
2271.80
 20
4145.82
 30
0.000000
  1
620
  0
POINT
  5
7FB1
  8
DEFPOINTS
  6
CONTINUOUS
 62
     0
 10
2772.0291842950378
 20
3880.5077809999998
 30
0.0
  0
POINT
  5
7FB2
  8
DEFPOINTS
  6
CONTINUOUS
 62
     0
 10
2152.0291842950378
 20
4057.8342039999989
 30
0.0
  0
POINT
  5
7FB3
  8
DEFPOINTS
  6
CONTINUOUS
 62
     0
 10
2152.0291842950378
 20
4230.1225969999996
 30
0.0
  0
ENDBLK
  5
7CC1
  8
0
  0
BLOCK
  8
0
  2
*D3
 70
     1
 10
0.0
 20
0.0
 30
0.0
  3
*D3
  1

  0
LINE
  5
7FB4
  8
3
  6
CONTINUOUS
 62
     0
 10
2067.0291842950378
 20
3880.5077809999998
 30
0.0
 11
1463.2760322950389
 21
3880.5077809999998
 31
0.0
  0
LINE
  5
7FB5
  8
3
  6
CONTINUOUS
 62
     0
 10
1570.6150292950381
 20
3395.5077809999998
 30
0.0
 11
1463.276032295038
 21
3395.5077809999998
 31
0.0
  0
LINE
  5
7FB6
  8
3
  6
CONTINUOUS
 62
     0
 10
1493.2760322950389
 20
3820.5077809999998
 30
0.0
 11
1493.276032295038
 21
3455.5077809999998
 31
0.0
  0
INSERT
  5
7FB7
  8
3
  6
CONTINUOUS
 62
     0
  2
_OPEN
 10
1493.2760322950389
 20
3880.5077809999998
 30
0.0
 41
60.0
 42
60.0
 43
60.0
 50
90.0
  0
INSERT
  5
7FB8
  8
3
  6
CONTINUOUS
 62
     0
  2
_OPEN
 10
1493.276032295038
 20
3395.5077809999998
 30
0.0
 41
60.0
 42
60.0
 43
60.0
 50
270.0
  0
TEXT
  8
3
  40
90
  5
8034
  62
0
  72
0
  71
0
 10
1238.28
 20
3475.46
 30
0.000000
  1
485
  0
POINT
  5
7FBA
  8
DEFPOINTS
  6
CONTINUOUS
 62
     0
 10
2082.0291842950378
 20
3880.5077809999998
 30
0.0
  0
POINT
  5
7FBB
  8
DEFPOINTS
  6
CONTINUOUS
 62
     0
 10
1585.6150292950381
 20
3395.5077809999998
 30
0.0
  0
POINT
  5
7FBC
  8
DEFPOINTS
  6
CONTINUOUS
 62
     0
 10
1493.276032295038
 20
3395.5077809999998
 30
0.0
  0
ENDBLK
  5
7BC1
  8
0
  0
BLOCK
  8
0
  2
*D4
 70
     1
 10
0.0
 20
0.0
 30
0.0
  3
*D4
  1

  0
LINE
  5
7FBD
  8
3
  6
CONTINUOUS
 62
     0
 10
1707.029184295038
 20
2825.5077809999998
 30
0.0
 11
1463.276032295038
 21
2825.5077809999998
 31
0.0
  0
LINE
  5
7FBE
  8
3
  6
CONTINUOUS
 62
     0
 10
1493.276032295038
 20
3335.5077809999998
 30
0.0
 11
1493.276032295038
 21
2885.5077809999989
 31
0.0
  0
INSERT
  5
7FBF
  8
3
  6
CONTINUOUS
 62
     0
  2
_OPEN
 10
1493.276032295038
 20
3395.5077809999998
 30
0.0
 41
60.0
 42
60.0
 43
60.0
 50
90.0
  0
INSERT
  5
7FC0
  8
3
  6
CONTINUOUS
 62
     0
  2
_OPEN
 10
1493.276032295038
 20
2825.5077809999998
 30
0.0
 41
60.0
 42
60.0
 43
60.0
 50
270.0
  0
TEXT
  8
3
  40
90
  5
8035
  62
0
  72
0
  71
0
 10
1238.28
 20
2951.21
 30
0.000000
  1
570
  0
POINT
  5
7FC2
  8
DEFPOINTS
  6
CONTINUOUS
 62
     0
 10
1585.6150292950381
 20
3395.5077809999998
 30
0.0
  0
POINT
  5
7FC3
  8
DEFPOINTS
  6
CONTINUOUS
 62
     0
 10
1722.029184295038
 20
2825.5077809999998
 30
0.0
  0
POINT
  5
7FC4
  8
DEFPOINTS
  6
CONTINUOUS
 62
     0
 10
1493.276032295038
 20
2825.5077809999998
 30
0.0
  0
ENDBLK
  5
7BD9
  8
0
  0
BLOCK
  8
0
  2
*D5
 70
     1
 10
0.0
 20
0.0
 30
0.0
  3
*D5
  1

  0
LINE
  5
7FC5
  8
3
  6
CONTINUOUS
 62
     0
 10
1707.029184295038
 20
2825.5077809999998
 30
0.0
 11
1462.323766295038
 21
2825.5077809999998
 31
0.0
  0
LINE
  5
7FC6
  8
3
  6
CONTINUOUS
 62
     0
 10
1657.029184295038
 20
2699.5077809999989
 30
0.0
 11
1462.323766295038
 21
2699.5077809999989
 31
0.0
  0
LINE
  5
7FC7
  8
3
  6
CONTINUOUS
 62
     0
 10
1492.323766295038
 20
2885.5077809999989
 30
0.0
 11
1492.323766295038
 21
2945.5077809999989
 31
0.0
  0
LINE
  5
7FC8
  8
3
  6
CONTINUOUS
 62
     0
 10
1492.323766295038
 20
2639.5077809999998
 30
0.0
 11
1492.323766295038
 21
2309.5077809999998
 31
0.0
  0
LINE
  5
7FC9
  8
3
  6
CONTINUOUS
 62
     0
 10
1492.323766295038
 20
2825.5077809999998
 30
0.0
 11
1492.323766295038
 21
2699.5077809999989
 31
0.0
  0
INSERT
  5
7FCA
  8
3
  6
CONTINUOUS
 62
     0
  2
_OPEN
 10
1492.323766295038
 20
2825.5077809999998
 30
0.0
 41
60.0
 42
60.0
 43
60.0
 50
270.0
  0
INSERT
  5
7FCB
  8
3
  6
CONTINUOUS
 62
     0
  2
_OPEN
 10
1492.323766295038
 20
2699.5077809999989
 30
0.0
 41
60.0
 42
60.0
 43
60.0
 50
90.0
  0
TEXT
  8
3
  40
90
  5
8036
  62
0
  72
0
  71
0
 10
1237.32
 20
2285.21
 30
0.000000
  1
126
  0
POINT
  5
7FCD
  8
DEFPOINTS
  6
CONTINUOUS
 62
     0
 10
1722.029184295038
 20
2825.5077809999998
 30
0.0
  0
POINT
  5
7FCE
  8
DEFPOINTS
  6
CONTINUOUS
 62
     0
 10
1672.029184295038
 20
2699.5077809999989
 30
0.0
  0
POINT
  5
7FCF
  8
DEFPOINTS
  6
CONTINUOUS
 62
     0
 10
1492.323766295038
 20
2699.5077809999989
 30
0.0
  0
ENDBLK
  5
7DC7
  8
0
  0
BLOCK
  8
0
  2
*D6
 70
     1
 10
0.0
 20
0.0
 30
0.0
  3
*D6
  1

  0
LINE
  5
7FD0
  8
3
  6
CONTINUOUS
 62
     0
 10
2052.0291842950378
 20
3880.5077809999998
 30
0.0
 11
1279.479247295038
 21
3880.5077809999998
 31
0.0
  0
LINE
  5
7FD1
  8
3
  6
CONTINUOUS
 62
     0
 10
1657.029184295038
 20
2699.5077809999989
 30
0.0
 11
1279.479247295038
 21
2699.5077809999989
 31
0.0
  0
LINE
  5
7FD2
  8
3
  6
CONTINUOUS
 62
     0
 10
1309.4792472950389
 20
3820.5077809999998
 30
0.0
 11
1309.479247295038
 21
2759.5077809999989
 31
0.0
  0
INSERT
  5
7FD3
  8
3
  6
CONTINUOUS
 62
     0
  2
_OPEN
 10
1309.4792472950389
 20
3880.5077809999998
 30
0.0
 41
60.0
 42
60.0
 43
60.0
 50
90.0
  0
INSERT
  5
7FD4
  8
3
  6
CONTINUOUS
 62
     0
  2
_OPEN
 10
1309.479247295038
 20
2699.5077809999989
 30
0.0
 41
60.0
 42
60.0
 43
60.0
 50
270.0
  0
TEXT
  8
3
  40
90
  5
8037
  62
0
  72
0
  71
0
 10
1054.48
 20
3093.70
 30
0.000000
  1
1181
  0
POINT
  5
7FD6
  8
DEFPOINTS
  6
CONTINUOUS
 62
     0
 10
2067.0291842950378
 20
3880.5077809999998
 30
0.0
  0
POINT
  5
7FD7
  8
DEFPOINTS
  6
CONTINUOUS
 62
     0
 10
1672.029184295038
 20
2699.5077809999989
 30
0.0
  0
POINT
  5
7FD8
  8
DEFPOINTS
  6
CONTINUOUS
 62
     0
 10
1309.479247295038
 20
2699.5077809999989
 30
0.0
  0
ENDBLK
  5
7D13
  8
0
  0
BLOCK
  8
0
  2
*D7
 70
     1
 10
0.0
 20
0.0
 30
0.0
  3
*D7
  1

  0
LINE
  5
7FD9
  8
3
  6
CONTINUOUS
 62
     0
 10
1672.029184295038
 20
2684.5077809999998
 30
0.0
 11
1672.029184295038
 21
2366.1743149999988
 31
0.0
  0
LINE
  5
7FDA
  8
3
  6
CONTINUOUS
 62
     0
 10
2152.0291842950378
 20
2549.7385490000001
 30
0.0
 11
2152.0291842950378
 21
2366.1743149999988
 31
0.0
  0
LINE
  5
7FDB
  8
3
  6
CONTINUOUS
 62
     0
 10
1732.029184295038
 20
2396.1743149999988
 30
0.0
 11
2092.0291842950378
 21
2396.1743149999988
 31
0.0
  0
INSERT
  5
7FDC
  8
3
  6
CONTINUOUS
 62
     0
  2
_OPEN
 10
1672.029184295038
 20
2396.1743149999988
 30
0.0
 41
60.0
 42
60.0
 43
60.0
 50
180.0
  0
INSERT
  5
7FDD
  8
3
  6
CONTINUOUS
 62
     0
  2
_OPEN
 10
2152.0291842950378
 20
2396.1743149999988
 30
0.0
 41
60.0
 42
60.0
 43
60.0
  0
TEXT
  8
3
  40
90
  5
8038
  62
0
  72
0
  71
0
 10
1727.77
 20
2311.87
 30
0.000000
  1
480
  0
POINT
  5
7FDF
  8
DEFPOINTS
  6
CONTINUOUS
 62
     0
 10
1672.029184295038
 20
2699.5077809999989
 30
0.0
  0
POINT
  5
7FE0
  8
DEFPOINTS
  6
CONTINUOUS
 62
     0
 10
2152.0291842950378
 20
2564.7385489999988
 30
0.0
  0
POINT
  5
7FE1
  8
DEFPOINTS
  6
CONTINUOUS
 62
     0
 10
2152.0291842950378
 20
2396.1743149999988
 30
0.0
  0
ENDBLK
  5
7CB6
  8
0
  0
BLOCK
  8
0
  2
*D8
 70
     1
 10
0.0
 20
0.0
 30
0.0
  3
*D8
  1

  0
LINE
  5
7FE2
  8
3
  6
CONTINUOUS
 62
     0
 10
3182.0291842950378
 20
2684.5077809999998
 30
0.0
 11
3182.0291842950378
 21
2366.1743149999988
 31
0.0
  0
LINE
  5
7FE3
  8
3
  6
CONTINUOUS
 62
     0
 10
2212.0291842950378
 20
2396.1743149999988
 30
0.0
 11
3122.0291842950378
 21
2396.1743149999988
 31
0.0
  0
INSERT
  5
7FE4
  8
3
  6
CONTINUOUS
 62
     0
  2
_OPEN
 10
2152.0291842950378
 20
2396.1743149999988
 30
0.0
 41
60.0
 42
60.0
 43
60.0
 50
180.0
  0
INSERT
  5
7FE5
  8
3
  6
CONTINUOUS
 62
     0
  2
_OPEN
 10
3182.0291842950378
 20
2396.1743149999988
 30
0.0
 41
60.0
 42
60.0
 43
60.0
  0
TEXT
  8
3
  40
90
  5
8039
  62
0
  72
0
  71
0
 10
2487.03
 20
2311.87
 30
0.000000
  1
1030
  0
POINT
  5
7FE7
  8
DEFPOINTS
  6
CONTINUOUS
 62
     0
 10
2152.0291842950378
 20
2564.7385489999988
 30
0.0
  0
POINT
  5
7FE8
  8
DEFPOINTS
  6
CONTINUOUS
 62
     0
 10
3182.0291842950378
 20
2699.5077809999989
 30
0.0
  0
POINT
  5
7FE9
  8
DEFPOINTS
  6
CONTINUOUS
 62
     0
 10
3182.0291842950378
 20
2396.1743149999988
 30
0.0
  0
ENDBLK
  5
7CAB
  8
0
  0
BLOCK
  8
0
  2
*D9
 70
     1
 10
0.0
 20
0.0
 30
0.0
  3
*D9
  1

  0
LINE
  5
7FEA
  8
3
  6
CONTINUOUS
 62
     0
 10
4877.6826772915892
 20
3895.5077809999998
 30
0.0
 11
4877.6826772915892
 21
4040.0451799999992
 31
0.0
  0
LINE
  5
7FEB
  8
3
  6
CONTINUOUS
 62
     0
 10
4402.6826772915892
 20
3895.5077809999998
 30
0.0
 11
4402.6826772915892
 21
4040.0451799999992
 31
0.0
  0
LINE
  5
7FEC
  8
3
  6
CONTINUOUS
 62
     0
 10
4937.6826772915892
 20
4010.0451799999992
 30
0.0
 11
4997.6826772915892
 21
4010.0451799999992
 31
0.0
  0
LINE
  5
7FED
  8
3
  6
CONTINUOUS
 62
     0
 10
4342.6826772915892
 20
4010.0451799999992
 30
0.0
 11
4282.6826772915892
 21
4010.0451799999992
 31
0.0
  0
LINE
  5
7FEE
  8
3
  6
CONTINUOUS
 62
     0
 10
4877.6826772915892
 20
4010.0451799999992
 30
0.0
 11
4402.6826772915892
 21
4010.0451799999992
 31
0.0
  0
INSERT
  5
7FEF
  8
3
  6
CONTINUOUS
 62
     0
  2
_OPEN
 10
4877.6826772915892
 20
4010.0451799999992
 30
0.0
 41
60.0
 42
60.0
 43
60.0
 50
180.0
  0
INSERT
  5
7FF0
  8
3
  6
CONTINUOUS
 62
     0
  2
_OPEN
 10
4402.6826772915892
 20
4010.0451799999992
 30
0.0
 41
60.0
 42
60.0
 43
60.0
  0
TEXT
  8
3
  40
90
  5
803A
  62
0
  72
0
  71
0
 10
4428.40
 20
3925.75
 30
0.000000
  1
475
  0
POINT
  5
7FF2
  8
DEFPOINTS
  6
CONTINUOUS
 62
     0
 10
4877.6826772915892
 20
3880.5077809999998
 30
0.0
  0
POINT
  5
7FF3
  8
DEFPOINTS
  6
CONTINUOUS
 62
     0
 10
4402.6826772915892
 20
3880.5077809999998
 30
0.0
  0
POINT
  5
7FF4
  8
DEFPOINTS
  6
CONTINUOUS
 62
     0
 10
4402.6826772915892
 20
4010.0451799999992
 30
0.0
  0
ENDBLK
  5
7C1C
  8
0
  0
BLOCK
  8
0
  2
*D10
 70
     1
 10
0.0
 20
0.0
 30
0.0
  3
*D10
  1

  0
LINE
  5
7FF5
  8
3
  6
CONTINUOUS
 62
     0
 10
4896.1826772915892
 20
3730.5077809999998
 30
0.0
 11
5135.4575322915898
 21
3730.5077809999998
 31
0.0
  0
LINE
  5
7FF6
  8
3
  6
CONTINUOUS
 62
     0
 10
4896.1826772915892
 20
3060.5077809999998
 30
0.0
 11
5135.4575322915898
 21
3060.5077809999989
 31
0.0
  0
LINE
  5
7FF7
  8
3
  6
CONTINUOUS
 62
     0
 10
5105.4575322915898
 20
3670.5077809999998
 30
0.0
 11
5105.4575322915898
 21
3120.5077809999998
 31
0.0
  0
INSERT
  5
7FF8
  8
3
  6
CONTINUOUS
 62
     0
  2
_OPEN
 10
5105.4575322915898
 20
3730.5077809999998
 30
0.0
 41
60.0
 42
60.0
 43
60.0
 50
90.0
  0
INSERT
  5
7FF9
  8
3
  6
CONTINUOUS
 62
     0
  2
_OPEN
 10
5105.4575322915898
 20
3060.5077809999998
 30
0.0
 41
60.0
 42
60.0
 43
60.0
 50
270.0
  0
TEXT
  8
3
  40
90
  5
803B
  62
0
  72
0
  71
0
 10
4850.46
 20
3229.58
 30
0.000000
  1
φ670
  0
POINT
  5
7FFB
  8
DEFPOINTS
  6
CONTINUOUS
 62
     0
 10
4881.1826772915892
 20
3730.5077809999998
 30
0.0
  0
POINT
  5
7FFC
  8
DEFPOINTS
  6
CONTINUOUS
 62
     0
 10
4881.1826772915892
 20
3060.5077809999998
 30
0.0
  0
POINT
  5
7FFD
  8
DEFPOINTS
  6
CONTINUOUS
 62
     0
 10
5105.4575322915898
 20
3060.5077809999998
 30
0.0
  0
ENDBLK
  5
7DBA
  8
0
  0
BLOCK
  8
0
  2
*D11
 70
     1
 10
0.0
 20
0.0
 30
0.0
  3
*D11
  1

  0
LINE
  5
7DA6
  8
0
  6
BYBLOCK
 62
     0
 10
4881.1826772915892
 20
3745.5077809999998
 30
0.0
 11
4881.1826772915892
 21
4238.0868979999987
 31
0.0
  0
LINE
  5
7DA7
  8
0
  6
BYBLOCK
 62
     0
 10
4640.1826772915902
 20
4175.6108270000004
 30
0.0
 11
4640.1826772915902
 21
4238.0868979999987
 31
0.0
  0
LINE
  5
7DA8
  8
0
  6
BYBLOCK
 62
     0
 10
4821.1826772915892
 20
4208.0868979999996
 30
0.0
 11
4700.1826772915883
 21
4208.0868979999996
 31
0.0
  0
TEXT
  5
7DA9
  8
3
 62
     0
 10
4656.8999419324209
 20
4253.48098908671
 30
0.0
 40
90.0
  1
241
  0
INSERT
  5
7DAA
  8
0
  6
BYBLOCK
 62
     0
  2
_OPEN
 10
4881.1826772915892
 20
4208.0868979999996
 30
0.0
 41
60.0
 42
60.0
 43
60.0
  0
INSERT
  5
7DAB
  8
0
  6
BYBLOCK
 62
     0
  2
_OPEN
 10
4640.1826772915902
 20
4208.0868979999996
 30
0.0
 41
60.0
 42
60.0
 43
60.0
 50
180.0
  0
POINT
  5
7DAC
  8
DEFPOINTS
  6
BYBLOCK
 62
     0
 10
4881.1826772915892
 20
3730.5077809999998
 30
0.0
  0
POINT
  5
7DAD
  8
DEFPOINTS
  6
BYBLOCK
 62
     0
 10
4640.1826772915902
 20
4160.6108270000013
 30
0.0
  0
POINT
  5
7DAE
  8
DEFPOINTS
  6
BYBLOCK
 62
     0
 10
4640.1826772915902
 20
4208.0868979999996
 30
0.0
  0
ENDBLK
  5
7DAF
  8
0
  0
BLOCK
  8
0
  2
*D12
 70
     1
 10
0.0
 20
0.0
 30
0.0
  3
*D12
  1

  0
LINE
  5
7FFE
  8
3
  6
CONTINUOUS
 62
     0
 10
4160.1826772915892
 20
4088.2390399999999
 30
0.0
 11
4160.1826772915892
 21
4238.0868979999987
 31
0.0
  0
LINE
  5
7FFF
  8
3
  6
CONTINUOUS
 62
     0
 10
4580.1826772915892
 20
4208.0868979999996
 30
0.0
 11
4220.1826772915892
 21
4208.0868979999996
 31
0.0
  0
INSERT
  5
8000
  8
3
  6
CONTINUOUS
 62
     0
  2
_OPEN
 10
4640.1826772915902
 20
4208.0868979999996
 30
0.0
 41
60.0
 42
60.0
 43
60.0
  0
INSERT
  5
8001
  8
3
  6
CONTINUOUS
 62
     0
  2
_OPEN
 10
4160.1826772915892
 20
4208.0868979999996
 30
0.0
 41
60.0
 42
60.0
 43
60.0
 50
180.0
  0
TEXT
  8
3
  40
90
  5
803C
  62
0
  72
0
  71
0
 10
4220.18
 20
4198.79
 30
0.000000
  1
MAX
  0
TEXT
  8
3
  40
90
  5
803D
  62
0
  72
0
  71
0
 10
4220.18
 20
4081.79
 30
0.000000
  1
530
  0
POINT
  5
8003
  8
DEFPOINTS
  6
CONTINUOUS
 62
     0
 10
4640.1826772915902
 20
4160.6108270000013
 30
0.0
  0
POINT
  5
8004
  8
DEFPOINTS
  6
CONTINUOUS
 62
     0
 10
4160.1826772915892
 20
4073.239039999999
 30
0.0
  0
POINT
  5
8005
  8
DEFPOINTS
  6
CONTINUOUS
 62
     0
 10
4160.1826772915892
 20
4208.0868979999996
 30
0.0
  0
ENDBLK
  5
7DEA
  8
0
  0
BLOCK
  8
0
  2
*D13
 70
     1
 10
0.0
 20
0.0
 30
0.0
  3
*D13
  1

  0
LINE
  5
8006
  8
3
  6
CONTINUOUS
 62
     0
 10
4114.1826772915892
 20
2684.5077809999998
 30
0.0
 11
4114.1826772915892
 21
2421.7171329999992
 31
0.0
  0
LINE
  5
8007
  8
3
  6
CONTINUOUS
 62
     0
 10
4640.1826772915902
 20
2566.2499950000001
 30
0.0
 11
4640.1826772915902
 21
2421.7171329999992
 31
0.0
  0
LINE
  5
8008
  8
3
  6
CONTINUOUS
 62
     0
 10
4174.1826772915892
 20
2451.7171329999992
 30
0.0
 11
4580.1826772915892
 21
2451.7171329999992
 31
0.0
  0
INSERT
  5
8009
  8
3
  6
CONTINUOUS
 62
     0
  2
_OPEN
 10
4114.1826772915892
 20
2451.7171329999992
 30
0.0
 41
60.0
 42
60.0
 43
60.0
 50
180.0
  0
INSERT
  5
800A
  8
3
  6
CONTINUOUS
 62
     0
  2
_OPEN
 10
4640.1826772915902
 20
2451.7171329999992
 30
0.0
 41
60.0
 42
60.0
 43
60.0
  0
TEXT
  8
3
  40
90
  5
803E
  62
0
  72
0
  71
0
 10
4213.14
 20
2367.42
 30
0.000000
  1
526
  0
POINT
  5
800C
  8
DEFPOINTS
  6
CONTINUOUS
 62
     0
 10
4114.1826772915892
 20
2699.5077809999989
 30
0.0
  0
POINT
  5
800D
  8
DEFPOINTS
  6
CONTINUOUS
 62
     0
 10
4640.1826772915902
 20
2581.2499950000001
 30
0.0
  0
POINT
  5
800E
  8
DEFPOINTS
  6
CONTINUOUS
 62
     0
 10
4640.1826772915902
 20
2451.7171329999992
 30
0.0
  0
ENDBLK
  5
7D34
  8
0
  0
BLOCK
  8
0
  2
*D14
 70
     1
 10
0.0
 20
0.0
 30
0.0
  3
*D14
  1

  0
LINE
  5
800F
  8
3
  6
CONTINUOUS
 62
     0
 10
5044.1826772915902
 20
2684.5077809999998
 30
0.0
 11
5044.1826772915902
 21
2421.7171329999992
 31
0.0
  0
LINE
  5
8010
  8
3
  6
CONTINUOUS
 62
     0
 10
4700.1826772915883
 20
2451.7171329999992
 30
0.0
 11
4984.1826772915892
 21
2451.7171329999992
 31
0.0
  0
TEXT
  8
3
  40
90
  5
803F
  62
0
  72
0
  71
0
 10
4665.52
 20
2365.93
 30
0.000000
  1
404
  0
INSERT
  5
8012
  8
3
  6
CONTINUOUS
 62
     0
  2
_OPEN
 10
4640.1826772915902
 20
2451.7171329999992
 30
0.0
 41
60.0
 42
60.0
 43
60.0
 50
180.0
  0
INSERT
  5
8013
  8
3
  6
CONTINUOUS
 62
     0
  2
_OPEN
 10
5044.1826772915902
 20
2451.7171329999992
 30
0.0
 41
60.0
 42
60.0
 43
60.0
  0
POINT
  5
8014
  8
DEFPOINTS
  6
CONTINUOUS
 62
     0
 10
4640.1826772915902
 20
2581.2499950000001
 30
0.0
  0
POINT
  5
8015
  8
DEFPOINTS
  6
CONTINUOUS
 62
     0
 10
5044.1826772915902
 20
2699.5077809999989
 30
0.0
  0
POINT
  5
8016
  8
DEFPOINTS
  6
CONTINUOUS
 62
     0
 10
5044.1826772915902
 20
2451.7171329999992
 30
0.0
  0
ENDBLK
  5
7D56
  8
0
  0
BLOCK
  8
0
  2
*D15
 70
     1
 10
0.0
 20
0.0
 30
0.0
  3
*D15
  1

  0
LINE
  5
8017
  8
3
  6
CONTINUOUS
 62
     0
 10
1672.029184295038
 20
6040.815668789086
 30
0.0
 11
1672.029184295038
 21
6199.6857297890874
 31
0.0
  0
LINE
  5
8018
  8
3
  6
CONTINUOUS
 62
     0
 10
3182.0291842950378
 20
6040.815668789086
 30
0.0
 11
3182.0291842950378
 21
6199.6857297890874
 31
0.0
  0
LINE
  5
8019
  8
3
  6
CONTINUOUS
 62
     0
 10
1732.029184295038
 20
6169.6857297890874
 30
0.0
 11
3122.0291842950378
 21
6169.6857297890874
 31
0.0
  0
INSERT
  5
801A
  8
3
  6
CONTINUOUS
 62
     0
  2
_OPEN
 10
1672.029184295038
 20
6169.6857297890874
 30
0.0
 41
60.0
 42
60.0
 43
60.0
 50
180.0
  0
INSERT
  5
801B
  8
3
  6
CONTINUOUS
 62
     0
  2
_OPEN
 10
3182.0291842950378
 20
6169.6857297890874
 30
0.0
 41
60.0
 42
60.0
 43
60.0
  0
TEXT
  8
3
  40
90
  5
8040
  62
0
  72
0
  71
0
 10
2232.77
 20
6085.39
 30
0.000000
  1
1510
  0
POINT
  5
801D
  8
DEFPOINTS
  6
CONTINUOUS
 62
     0
 10
1672.029184295038
 20
6025.815668789086
 30
0.0
  0
POINT
  5
801E
  8
DEFPOINTS
  6
CONTINUOUS
 62
     0
 10
3182.0291842950378
 20
6025.815668789086
 30
0.0
  0
POINT
  5
801F
  8
DEFPOINTS
  6
CONTINUOUS
 62
     0
 10
3182.0291842950378
 20
6169.6857297890874
 30
0.0
  0
ENDBLK
  5
7D1E
  8
0
  0
BLOCK
  8
0
  2
*D16
 70
     1
 10
0.0
 20
0.0
 30
0.0
  3
*D16
  1

  0
LINE
  5
8020
  8
3
  6
CONTINUOUS
 62
     0
 10
3197.0291842950378
 20
6025.815668789086
 30
0.0
 11
3474.011968295039
 21
6025.815668789086
 31
0.0
  0
LINE
  5
8021
  8
3
  6
CONTINUOUS
 62
     0
 10
3197.0291842950378
 20
5095.815668789086
 30
0.0
 11
3474.011968295039
 21
5095.815668789086
 31
0.0
  0
LINE
  5
8022
  8
3
  6
CONTINUOUS
 62
     0
 10
3444.011968295039
 20
5965.815668789086
 30
0.0
 11
3444.011968295039
 21
5155.8156687890851
 31
0.0
  0
INSERT
  5
8023
  8
3
  6
CONTINUOUS
 62
     0
  2
_OPEN
 10
3444.011968295039
 20
6025.815668789086
 30
0.0
 41
60.0
 42
60.0
 43
60.0
 50
90.0
  0
INSERT
  5
8024
  8
3
  6
CONTINUOUS
 62
     0
  2
_OPEN
 10
3444.0119682950381
 20
5095.815668789086
 30
0.0
 41
60.0
 42
60.0
 43
60.0
 50
270.0
  0
TEXT
  8
3
  40
90
  5
8041
  62
0
  72
0
  71
0
 10
3189.01
 20
5403.28
 30
0.000000
  1
930
  0
POINT
  5
8026
  8
DEFPOINTS
  6
CONTINUOUS
 62
     0
 10
3182.0291842950378
 20
6025.815668789086
 30
0.0
  0
POINT
  5
8027
  8
DEFPOINTS
  6
CONTINUOUS
 62
     0
 10
3182.0291842950378
 20
5095.815668789086
 30
0.0
  0
POINT
  5
8028
  8
DEFPOINTS
  6
CONTINUOUS
 62
     0
 10
3444.0119682950381
 20
5095.815668789086
 30
0.0
  0
ENDBLK
  5
7D29
  8
0
  0
BLOCK
  8
0
  2
*D17
 70
     1
 10
0.0
 20
0.0
 30
0.0
  3
*D17
  1

  0
LINE
  5
8029
  8
3
 62
     0
 10
2152.0291842950378
 20
4072.8342040000002
 30
0.0
 11
2152.0291842950378
 21
4260.1225969999987
 31
0.0
  0
LINE
  5
802A
  8
3
 62
     0
 10
1698.840281292034
 20
3383.5077809999998
 30
0.0
 11
1698.840281292034
 21
4260.1225969999987
 31
0.0
  0
LINE
  5
802B
  8
3
 62
     0
 10
2092.0291842950378
 20
4230.1225969999996
 30
0.0
 11
1758.8402812920349
 21
4230.1225969999996
 31
0.0
  0
INSERT
  5
802C
  8
3
 62
     0
  2
_OPEN
 10
2152.0291842950378
 20
4230.1225969999996
 30
0.0
 41
60.0
 42
60.0
 43
60.0
  0
INSERT
  5
802D
  8
3
 62
     0
  2
_OPEN
 10
1698.840281292034
 20
4230.1225969999996
 30
0.0
 41
60.0
 42
60.0
 43
60.0
 50
180.0
  0
TEXT
  8
3
  40
90
  5
8042
  62
0
  72
0
  71
0
 10
1745.43
 20
4145.82
 30
0.000000
  1
452
  0
POINT
  5
802F
  8
DEFPOINTS
 62
     0
 10
2152.0291842950378
 20
4057.8342039999989
 30
0.0
  0
POINT
  5
8030
  8
DEFPOINTS
 62
     0
 10
1698.840281292034
 20
3368.5077809999998
 30
0.0
  0
POINT
  5
8031
  8
DEFPOINTS
 62
     0
 10
1698.840281292034
 20
4230.1225969999996
 30
0.0
  0
ENDBLK
  5
7E10
  8
0
  0
ENDSEC
  0
SECTION
  2
ENTITIES
  0
LINE
  5
7AD0
  8
1
  6
CONTINUOUS
 10
2851.7462972950379
 20
3048.3491909999989
 30
0.0
 11
2112.4070992950378
 21
3250.8354250000002
 31
0.0
  0
ARC
  5
7AD1
  8
1
  6
CONTINUOUS
 10
2187.0291842950378
 20
3360.5077809999998
 30
0.0
 40
488.25444700000003
 50
172.6476209999999
 51
265.48601200000002
  0
ARC
  5
7AD2
  8
1
  6
CONTINUOUS
 10
2193.0291842950378
 20
3436.5077809999998
 30
0.0
 40
564.49092099999984
 50
265.48601200000002
 51
355.834836
  0
CIRCLE
  5
7AD3
  8
1
  6
CONTINUOUS
 10
2872.8780752950379
 20
3125.5077809999998
 30
0.0
 40
80.0
  0
LINE
  5
7AD4
  8
2
  6
CENTER
 10
2872.8780752950379
 20
3205.5077809999998
 30
0.0
 11
2872.8780752950379
 21
3045.5077809999989
 31
0.0
  0
LINE
  5
7AD5
  8
1
  6
CONTINUOUS
 10
1812.029184295038
 20
2925.5077809999998
 30
0.0
 11
1812.029184295038
 21
3925.5077809999998
 31
0.0
  0
ARC
  5
7AD6
  8
1
  6
CONTINUOUS
 10
2872.8780752950379
 20
3125.5077809999998
 30
0.0
 40
162.0
 50
324.972283
 51
215.02771699999991
  0
LINE
  5
7AD7
  8
1
  6
CONTINUOUS
 10
3082.0291842950378
 20
2925.5077809999998
 30
0.0
 11
3082.0291842950378
 21
3225.5077809999989
 31
0.0
  0
LINE
  5
7ADC
  8
1
  6
CONTINUOUS
 10
3182.0291842950378
 20
2799.5077809999989
 30
0.0
 11
1672.029184295038
 21
2799.5077809999989
 31
0.0
  0
LINE
  5
7ADD
  8
1
  6
CONTINUOUS
 10
3182.0291842950378
 20
2699.5077809999989
 30
0.0
 11
1672.029184295038
 21
2699.5077809999989
 31
0.0
  0
LINE
  5
7ADE
  8
1
  6
CONTINUOUS
 10
1682.029184295038
 20
2925.5077809999998
 30
0.0
 11
3132.0291842950378
 21
2925.5077809999998
 31
0.0
  0
LINE
  5
7ADF
  8
1
  6
CONTINUOUS
 10
3132.0291842950378
 20
2825.5077809999998
 30
0.0
 11
1722.029184295038
 21
2825.5077809999998
 31
0.0
  0
LINE
  5
7AE0
  8
1
  6
CONTINUOUS
 10
1710.029184295038
 20
2925.5077809999998
 30
0.0
 11
2594.0291842950378
 21
2925.5077809999998
 31
0.0
  0
LINE
  5
7AE1
  8
1
  6
CONTINUOUS
 10
1672.029184295038
 20
2799.5077809999989
 30
0.0
 11
1672.029184295038
 21
2699.5077809999989
 31
0.0
  0
LINE
  5
7AE2
  8
1
  6
CONTINUOUS
 10
1722.029184295038
 20
2825.5077809999998
 30
0.0
 11
1722.029184295038
 21
2925.5077809999998
 31
0.0
  0
LINE
  5
7AE3
  8
2
  6
CENTER
 10
2792.8780752950379
 20
3125.5077809999998
 30
0.0
 11
2952.8780752950379
 21
3125.5077809999998
 31
0.0
  0
LINE
  5
7AE4
  8
1
  6
CONTINUOUS
 10
2718.8780752950379
 20
2965.5077809999989
 30
0.0
 11
3026.8780752950379
 21
2965.5077809999989
 31
0.0
  0
LINE
  5
7AE5
  8
1
  6
CONTINUOUS
 10
2718.8780752950379
 20
2983.5077809999998
 30
0.0
 11
2740.2204102950382
 21
3032.524214
 31
0.0
  0
LINE
  5
7AE6
  8
1
  6
CONTINUOUS
 10
2718.8780752950379
 20
2925.5077809999998
 30
0.0
 11
2718.8780752950379
 21
2983.5077809999998
 31
0.0
  0
LINE
  5
7AE7
  8
1
  6
CONTINUOUS
 10
3182.0291842950378
 20
2799.5077809999989
 30
0.0
 11
3182.0291842950378
 21
2699.5077809999989
 31
0.0
  0
LINE
  5
7AE8
  8
1
  6
CONTINUOUS
 10
3026.8780752950379
 20
2983.5077809999998
 30
0.0
 11
3005.535741295038
 21
3032.524214
 31
0.0
  0
LINE
  5
7AE9
  8
1
  6
CONTINUOUS
 10
3026.8780752950379
 20
2965.5077809999989
 30
0.0
 11
3026.8780752950379
 21
2983.5077809999998
 31
0.0
  0
LINE
  5
7AEA
  8
1
  6
CONTINUOUS
 10
3026.8780752950379
 20
2925.5077809999998
 30
0.0
 11
3026.8780752950379
 21
2983.5077809999998
 31
0.0
  0
LINE
  5
7AEB
  8
1
  6
CONTINUOUS
 10
3132.0291842950378
 20
2925.5077809999998
 30
0.0
 11
3132.0291842950378
 21
2825.5077809999998
 31
0.0
  0
LINE
  5
7AEC
  8
1
  6
CONTINUOUS
 10
2907.6354952950378
 20
3197.5627719999989
 30
0.0
 11
2217.1993462950381
 21
3530.610889
 31
0.0
  0
LINE
  5
7AED
  8
1
  6
CONTINUOUS
 10
2122.0291842950378
 20
3850.5077809999998
 30
0.0
 11
2771.039493295038
 21
3850.5077809999998
 31
0.0
  0
LINE
  5
7AEE
  8
1
  6
CONTINUOUS
 10
3082.0291842950378
 20
3225.5077809999989
 30
0.0
 11
2252.0291842950378
 21
3925.5077809999998
 31
0.0
  0
LINE
  5
7AEF
  8
1
  6
CONTINUOUS
 10
2082.0291842950378
 20
3880.5077809999998
 30
0.0
 11
2812.0291842950378
 21
3880.5077809999998
 31
0.0
  0
ARC
  5
7AF1
  8
1
  6
CONTINUOUS
 10
2125.0291842950378
 20
3368.5077809999998
 30
0.0
 40
425.74044800000001
 50
90.403740999999997
 51
172.6476209999999
  0
LINE
  5
7AF2
  8
1
  6
CONTINUOUS
 10
2122.0291842950378
 20
3794.2376589999999
 30
0.0
 11
2122.0291842950378
 21
3880.5077809999998
 31
0.0
  0
LINE
  5
7AF3
  8
2
  6
CENTER
 10
1601.9987842950379
 20
3395.5077809999998
 30
0.0
 11
3081.817206295038
 21
3395.5077809999998
 31
0.0
  0
LINE
  5
7AF4
  8
2
  6
CENTER
 10
2152.0291842950378
 20
6021.6094127890856
 30
0.0
 11
2152.0291842950378
 21
5010.0760087890858
 31
0.0
  0
CIRCLE
  5
7AF5
  8
1
  6
CONTINUOUS
 10
2152.0291842950378
 20
3395.5077809999998
 30
0.0
 40
150.0
  0
LINE
  5
7AF6
  8
1
  6
CONTINUOUS
 10
1812.029184295038
 20
3925.5077809999998
 30
0.0
 11
2252.0291842950378
 21
3925.5077809999998
 31
0.0
  0
LINE
  5
7AF7
  8
1
  6
CONTINUOUS
 10
2772.0291842950378
 20
3880.5077809999998
 30
0.0
 11
2756.0291842950378
 21
3395.5077809999998
 31
0.0
  0
LINE
  5
7B11
  8
1
  6
CONTINUOUS
 10
4229.1826772915883
 20
2925.5077809999998
 30
0.0
 11
4929.1826772915892
 21
2925.5077809999998
 31
0.0
  0
LINE
  5
7B12
  8
1
  6
CONTINUOUS
 10
4229.1826772915883
 20
2825.5077809999998
 30
0.0
 11
4929.1826772915892
 21
2825.5077809999998
 31
0.0
  0
LINE
  5
7B13
  8
1
  6
CONTINUOUS
 10
4360.1826772915892
 20
3880.5077809999998
 30
0.0
 11
4920.1826772915892
 21
3880.5077809999998
 31
0.0
  0
LINE
  5
7B14
  8
1
  6
CONTINUOUS
 10
4402.6826772915892
 20
3840.5077809999998
 30
0.0
 11
4877.6826772915892
 21
3840.5077809999998
 31
0.0
  0
LINE
  5
7B15
  8
1
  6
CONTINUOUS
 10
4114.1826772915892
 20
2799.5077809999989
 30
0.0
 11
5044.1826772915902
 21
2799.5077809999989
 31
0.0
  0
LINE
  5
7B16
  8
1
  6
CONTINUOUS
 10
4114.1826772915892
 20
2699.5077809999989
 30
0.0
 11
5044.1826772915902
 21
2699.5077809999989
 31
0.0
  0
LINE
  5
7B18
  8
1
  6
CONTINUOUS
 10
4300.1826772915892
 20
4073.239039999999
 30
0.0
 11
4300.1826772915892
 21
2925.5077809999998
 31
0.0
  0
LINE
  5
7B19
  8
1
  6
CONTINUOUS
 10
4160.1826772915892
 20
4073.239039999999
 30
0.0
 11
4160.1826772915892
 21
2925.5077809999998
 31
0.0
  0
LINE
  5
7B1A
  8
1
  6
CONTINUOUS
 10
4402.6826772915892
 20
3880.5077809999998
 30
0.0
 11
4402.6826772915892
 21
2925.5077809999998
 31
0.0
  0
LINE
  5
7B1C
  8
1
  6
CONTINUOUS
 10
4265.1826772915902
 20
3205.5077809999998
 30
0.0
 11
4265.1826772915902
 21
3045.5077809999989
 31
0.0
  0
LINE
  5
7B1D
  8
1
  6
CONTINUOUS
 10
4195.1826772915892
 20
3205.5077809999998
 30
0.0
 11
4195.1826772915892
 21
3045.5077809999989
 31
0.0
  0
LINE
  5
7B22
  8
1
  6
CONTINUOUS
 10
4265.1826772915902
 20
3104.5077809999998
 30
0.0
 11
4402.6826772915892
 21
3104.5077809999998
 31
0.0
  0
LINE
  5
7B23
  8
1
  6
CONTINUOUS
 10
4160.1826772915892
 20
2925.5077809999998
 30
0.0
 11
4229.1826772915883
 21
2925.5077809999998
 31
0.0
  0
LINE
  5
7B24
  8
1
  6
CONTINUOUS
 10
4229.1826772915883
 20
2925.5077809999998
 30
0.0
 11
4229.1826772915883
 21
2825.5077809999998
 31
0.0
  0
LINE
  5
7B25
  8
1
  6
CONTINUOUS
 10
4195.1826772915892
 20
3045.5077809999989
 30
0.0
 11
4265.1826772915902
 21
3045.5077809999989
 31
0.0
  0
LINE
  5
7B26
  8
1
  6
CONTINUOUS
 10
4114.1826772915892
 20
2799.5077809999989
 30
0.0
 11
4114.1826772915892
 21
2699.5077809999989
 31
0.0
  0
LINE
  5
7B29
  8
1
  6
CONTINUOUS
 10
4265.1826772915902
 20
3416.5077809999998
 30
0.0
 11
4402.6826772915892
 21
3416.5077809999998
 31
0.0
  0
LINE
  5
7B2A
  8
1
  6
CONTINUOUS
 10
4265.1826772915902
 20
3374.5077809999998
 30
0.0
 11
4402.6826772915892
 21
3374.5077809999998
 31
0.0
  0
LINE
  5
7B2B
  8
1
  6
CONTINUOUS
 10
4265.1826772915902
 20
3146.5077809999998
 30
0.0
 11
4402.6826772915892
 21
3146.5077809999998
 31
0.0
  0
LINE
  5
7B2C
  8
1
  6
CONTINUOUS
 10
4195.1826772915892
 20
3545.5077809999998
 30
0.0
 11
4265.1826772915902
 21
3545.5077809999998
 31
0.0
  0
LINE
  5
7B2D
  8
1
  6
CONTINUOUS
 10
4195.1826772915892
 20
3245.5077809999998
 30
0.0
 11
4265.1826772915902
 21
3245.5077809999998
 31
0.0
  0
LINE
  5
7B2E
  8
1
  6
CONTINUOUS
 10
4265.1826772915902
 20
3545.5077809999998
 30
0.0
 11
4265.1826772915902
 21
3245.5077809999998
 31
0.0
  0
LINE
  5
7B2F
  8
1
  6
CONTINUOUS
 10
4195.1826772915892
 20
3545.5077809999998
 30
0.0
 11
4195.1826772915892
 21
3245.5077809999998
 31
0.0
  0
LINE
  5
7B30
  8
1
  6
CONTINUOUS
 10
4195.1826772915892
 20
3205.5077809999998
 30
0.0
 11
4265.1826772915902
 21
3205.5077809999998
 31
0.0
  0
LINE
  5
7B31
  8
1
  6
CONTINUOUS
 10
4300.1826772915892
 20
4073.239039999999
 30
0.0
 11
4160.1826772915892
 21
4073.239039999999
 31
0.0
  0
LINE
  5
7B32
  8
1
  6
CONTINUOUS
 10
4877.6826772915892
 20
3880.5077809999998
 30
0.0
 11
4877.6826772915892
 21
2925.5077809999998
 31
0.0
  0
LINE
  5
7B33
  8
1
  6
CONTINUOUS
 10
4929.1826772915892
 20
2925.5077809999998
 30
0.0
 11
4929.1826772915892
 21
2825.5077809999998
 31
0.0
  0
LINE
  5
7B34
  8
1
  6
CONTINUOUS
 10
5044.1826772915902
 20
2799.5077809999989
 30
0.0
 11
5044.1826772915902
 21
2699.5077809999989
 31
0.0
  0
LINE
  5
7B3B
  8
1
  6
CONTINUOUS
 10
2772.0291842950378
 20
5384.315668789086
 30
0.0
 11
1698.774737295038
 21
5384.315668789086
 31
0.0
  0
LINE
  5
7B3C
  8
1
  6
CONTINUOUS
 10
2772.0291842950378
 20
5859.315668789086
 30
0.0
 11
1698.774737295038
 21
5859.315668789086
 31
0.0
  0
LINE
  5
7B3D
  8
1
  6
CONTINUOUS
 10
2772.0291842950378
 20
5859.315668789086
 30
0.0
 11
2122.0291842950378
 21
5384.315668789086
 31
0.0
  0
LINE
  5
7B3E
  8
1
  6
CONTINUOUS
 10
2772.0291842950378
 20
5384.315668789086
 30
0.0
 11
2122.0291842950378
 21
5859.315668789086
 31
0.0
  0
LINE
  5
7B3F
  8
1
  6
CONTINUOUS
 10
1812.029184295038
 20
5141.815668789086
 30
0.0
 11
3082.0291842950378
 21
5141.815668789086
 31
0.0
  0
LINE
  5
7B40
  8
1
  6
CONTINUOUS
 10
1812.029184295038
 20
5281.815668789086
 30
0.0
 11
3082.0291842950378
 21
5281.815668789086
 31
0.0
  0
LINE
  5
7B41
  8
1
  6
CONTINUOUS
 10
1722.029184295038
 20
5910.815668789086
 30
0.0
 11
3132.0291842950378
 21
5910.815668789086
 31
0.0
  0
LINE
  5
7B42
  8
1
  6
CONTINUOUS
 10
2792.8780752950379
 20
5210.815668789086
 30
0.0
 11
2302.0291842950378
 21
5210.815668789086
 31
0.0
  0
LINE
  5
7B43
  8
1
  6
CONTINUOUS
 10
1672.029184295038
 20
6025.815668789086
 30
0.0
 11
1672.029184295038
 21
5095.815668789086
 31
0.0
  0
LINE
  5
7B44
  8
1
  6
CONTINUOUS
 10
1698.774737295038
 20
5384.315668789086
 30
0.0
 11
1698.774737295038
 21
5859.315668789086
 31
0.0
  0
LINE
  5
7B45
  8
1
  6
CONTINUOUS
 10
2122.0291842950378
 20
5384.315668789086
 30
0.0
 11
2122.0291842950378
 21
5859.315668789086
 31
0.0
  0
LINE
  5
7B46
  8
1
  6
CONTINUOUS
 10
2002.029184295038
 20
5210.815668789086
 30
0.0
 11
1722.029184295038
 21
5210.815668789086
 31
0.0
  0
LINE
  5
7B47
  8
1
  6
CONTINUOUS
 10
1722.029184295038
 20
5095.815668789086
 30
0.0
 11
1672.029184295038
 21
5095.815668789086
 31
0.0
  0
LINE
  5
7B48
  8
1
  6
CONTINUOUS
 10
1722.029184295038
 20
5095.815668789086
 30
0.0
 11
1722.029184295038
 21
5384.315668789086
 31
0.0
  0
LINE
  5
7B49
  8
1
  6
CONTINUOUS
 10
1812.029184295038
 20
5141.815668789086
 30
0.0
 11
1812.029184295038
 21
5281.815668789086
 31
0.0
  0
LINE
  5
7B4A
  8
1
  6
CONTINUOUS
 10
2173.0291842950378
 20
5246.815668789086
 30
0.0
 11
2173.0291842950378
 21
5384.315668789086
 31
0.0
  0
LINE
  5
7B4B
  8
1
  6
CONTINUOUS
 10
2131.0291842950378
 20
5246.815668789086
 30
0.0
 11
2131.0291842950378
 21
5384.315668789086
 31
0.0
  0
LINE
  5
7B4C
  8
1
  6
CONTINUOUS
 10
2302.0291842950378
 20
5176.8156687890851
 30
0.0
 11
2302.0291842950378
 21
5246.815668789086
 31
0.0
  0
LINE
  5
7B4D
  8
1
  6
CONTINUOUS
 10
2002.029184295038
 20
5176.8156687890851
 30
0.0
 11
2002.029184295038
 21
5246.815668789086
 31
0.0
  0
LINE
  5
7B4E
  8
1
  6
CONTINUOUS
 10
2302.0291842950378
 20
5246.815668789086
 30
0.0
 11
2002.029184295038
 21
5246.815668789086
 31
0.0
  0
LINE
  5
7B4F
  8
1
  6
CONTINUOUS
 10
2302.0291842950378
 20
5176.8156687890851
 30
0.0
 11
2002.029184295038
 21
5176.8156687890851
 31
0.0
  0
LINE
  5
7B50
  8
1
  6
CONTINUOUS
 10
1722.029184295038
 20
5859.315668789086
 30
0.0
 11
1722.029184295038
 21
6025.815668789086
 31
0.0
  0
LINE
  5
7B51
  8
1
  6
CONTINUOUS
 10
1722.029184295038
 20
6025.815668789086
 30
0.0
 11
1672.029184295038
 21
6025.815668789086
 31
0.0
  0
LINE
  5
7B52
  8
1
  6
CONTINUOUS
 10
3182.0291842950378
 20
6025.815668789086
 30
0.0
 11
3182.0291842950378
 21
5095.815668789086
 31
0.0
  0
LINE
  5
7B53
  8
1
  6
CONTINUOUS
 10
2772.0291842950378
 20
5384.315668789086
 30
0.0
 11
2772.0291842950378
 21
5859.315668789086
 31
0.0
  0
LINE
  5
7B54
  8
1
  6
CONTINUOUS
 10
3132.0291842950378
 20
6025.815668789086
 30
0.0
 11
3132.0291842950378
 21
5095.815668789086
 31
0.0
  0
LINE
  5
7B55
  8
1
  6
CONTINUOUS
 10
3034.8780752950379
 20
5313.547585789086
 30
0.0
 11
3034.8780752950379
 21
5798.547585789086
 31
0.0
  0
LINE
  5
7B56
  8
1
  6
CONTINUOUS
 10
2952.8780752950379
 20
5176.8156687890851
 30
0.0
 11
2792.8780752950379
 21
5176.8156687890851
 31
0.0
  0
LINE
  5
7B57
  8
1
  6
CONTINUOUS
 10
2952.8780752950379
 20
5246.815668789086
 30
0.0
 11
2792.8780752950379
 21
5246.815668789086
 31
0.0
  0
LINE
  5
7B58
  8
1
  6
CONTINUOUS
 10
3034.8780752950379
 20
5313.547585789086
 30
0.0
 11
2710.8780752950379
 21
5313.547585789086
 31
0.0
  0
LINE
  5
7B59
  8
1
  6
CONTINUOUS
 10
2851.8780752950379
 20
5246.815668789086
 30
0.0
 11
2851.8780752950379
 21
5313.547585789086
 31
0.0
  0
LINE
  5
7B5A
  8
1
  6
CONTINUOUS
 10
2893.8780752950379
 20
5246.815668789086
 30
0.0
 11
2893.8780752950379
 21
5313.547585789086
 31
0.0
  0
LINE
  5
7B5B
  8
1
  6
CONTINUOUS
 10
2792.8780752950379
 20
5176.8156687890851
 30
0.0
 11
2792.8780752950379
 21
5246.815668789086
 31
0.0
  0
LINE
  5
7B5C
  8
1
  6
CONTINUOUS
 10
2710.8780752950379
 20
5313.547585789086
 30
0.0
 11
2710.8780752950379
 21
5384.315668789086
 31
0.0
  0
LINE
  5
7B5D
  8
1
  6
CONTINUOUS
 10
3182.0291842950378
 20
5095.815668789086
 30
0.0
 11
3132.0291842950378
 21
5095.815668789086
 31
0.0
  0
LINE
  5
7B5E
  8
1
  6
CONTINUOUS
 10
2952.8780752950379
 20
5176.8156687890851
 30
0.0
 11
2952.8780752950379
 21
5246.815668789086
 31
0.0
  0
LINE
  5
7B5F
  8
1
  6
CONTINUOUS
 10
3132.0291842950378
 20
5210.815668789086
 30
0.0
 11
2952.8780752950379
 21
5210.815668789086
 31
0.0
  0
LINE
  5
7B60
  8
1
  6
CONTINUOUS
 10
3082.0291842950378
 20
5141.815668789086
 30
0.0
 11
3082.0291842950378
 21
5281.815668789086
 31
0.0
  0
LINE
  5
7B61
  8
1
  6
CONTINUOUS
 10
3034.8780752950379
 20
5798.547585789086
 30
0.0
 11
2772.0291842950378
 21
5798.547585789086
 31
0.0
  0
LINE
  5
7B62
  8
1
  6
CONTINUOUS
 10
3182.0291842950378
 20
6025.815668789086
 30
0.0
 11
3132.0291842950378
 21
6025.815668789086
 31
0.0
  0
LINE
  5
7B85
  8
2
  6
CENTER
 10
4640.1826772915902
 20
3962.918334
 30
0.0
 11
4640.1826772915902
 21
2581.2499950000001
 31
0.0
  0
LINE
  5
7B86
  8
2
  6
CENTER
 10
3264.1550182950382
 20
5621.815668789086
 30
0.0
 11
1589.0558782950379
 21
5621.815668789086
 31
0.0
  0
LINE
  5
7B87
  8
2
  6
CENTER
 10
2152.0291842950378
 20
4057.8342039999989
 30
0.0
 11
2152.0291842950378
 21
2564.7385489999988
 31
0.0
  0
LINE
  5
7B88
  8
2
  6
CENTER
 10
4068.8918412915891
 20
3395.5077809999998
 30
0.0
 11
4958.5039462915893
 21
3395.5077809999998
 31
0.0
  0
DIMENSION
  5
7B9C
  8
3
  6
CONTINUOUS
  2
*D1
 10
2122.0291842950378
 20
4055.419155
 30
0.0
 11
2458.2805622950382
 21
4055.419155
 31
0.0
 70
   128
 13
2772.0291842950378
 23
3880.5077809999998
 33
0.0
 14
2122.0291842950378
 24
3880.5077809999998
 34
0.0
1001
ACAD
1000
DSTYLE
1002
{
1070
   287
1070
     3
1070
   287
1070
     3
1070
    40
1040
30.0
1070
   143
1040
0.039
1070
   172
1070
     1
1070
   271
1070
     0
1070
   279
1070
     0
1070
   288
1070
     1
1002
}
  0
DIMENSION
  5
7BA9
  8
3
  6
CONTINUOUS
  2
*D2
 10
2152.0291842950378
 20
4230.1225969999996
 30
0.0
 11
2451.8040082950379
 21
4230.1225969999996
 31
0.0
 70
   128
 13
2772.0291842950378
 23
3880.5077809999998
 33
0.0
 14
2152.0291842950378
 24
4057.8342039999989
 34
0.0
1001
ACAD
1000
DSTYLE
1002
{
1070
   287
1070
     3
1070
   287
1070
     3
1070
    40
1040
30.0
1070
   143
1040
0.039
1070
   172
1070
     1
1070
   271
1070
     0
1070
   279
1070
     0
1070
   288
1070
     1
1002
}
  0
DIMENSION
  5
7BC2
  8
3
  6
CONTINUOUS
  2
*D3
 10
1493.276032295038
 20
3395.5077809999998
 30
0.0
 11
1493.276032295038
 21
3634.756331
 31
0.0
 70
   128
 13
2082.0291842950378
 23
3880.5077809999998
 33
0.0
 14
1585.6150292950381
 24
3395.5077809999998
 34
0.0
 50
90.0
1001
ACAD
1000
DSTYLE
1002
{
1070
   287
1070
     3
1070
   287
1070
     3
1070
    40
1040
30.0
1070
   143
1040
0.039
1070
   172
1070
     1
1070
   271
1070
     0
1070
   279
1070
     0
1070
   288
1070
     1
1002
}
  0
DIMENSION
  5
7BDA
  8
3
  6
CONTINUOUS
  2
*D4
 10
1493.276032295038
 20
2825.5077809999998
 30
0.0
 11
1418.2760322950371
 21
3110.5077809999998
 31
0.0
 70
     0
 13
1585.6150292950381
 23
3395.5077809999998
 33
0.0
 14
1722.029184295038
 24
2825.5077809999998
 34
0.0
 50
90.0
1001
ACAD
1000
DSTYLE
1002
{
1070
   287
1070
     4
1070
   287
1070
     4
1070
    40
1040
30.0
1070
    75
1070
     1
1070
   143
1040
0.039
1070
   172
1070
     1
1070
   271
1070
     0
1070
   279
1070
     1
1070
   288
1070
     1
1002
}
  0
DIMENSION
  5
7BEA
  8
3
  6
CONTINUOUS
  2
*D5
 10
1492.323766295038
 20
2699.5077809999989
 30
0.0
 11
1492.323766295038
 21
2444.5077809999998
 31
0.0
 70
   128
 13
1722.029184295038
 23
2825.5077809999998
 33
0.0
 14
1672.029184295038
 24
2699.5077809999989
 34
0.0
 50
90.0
1001
ACAD
1000
DSTYLE
1002
{
1070
   287
1070
     3
1070
   287
1070
     3
1070
    40
1040
30.0
1070
   143
1040
0.039
1070
   172
1070
     1
1070
   271
1070
     0
1070
   279
1070
     0
1070
   288
1070
     1
1002
}
  0
DIMENSION
  5
7BF7
  8
3
  6
CONTINUOUS
  2
*D6
 10
1309.479247295038
 20
2699.5077809999989
 30
0.0
 11
1309.479247295038
 21
3252.996979999999
 31
0.0
 70
   128
 13
2067.0291842950378
 23
3880.5077809999998
 33
0.0
 14
1672.029184295038
 24
2699.5077809999989
 34
0.0
 50
90.0
1001
ACAD
1000
DSTYLE
1002
{
1070
   287
1070
     3
1070
   287
1070
     3
1070
    40
1040
30.0
1070
   143
1040
0.039
1070
   172
1070
     1
1070
   271
1070
     0
1070
   279
1070
     0
1070
   288
1070
     1
1002
}
  0
DIMENSION
  5
7C04
  8
3
  6
CONTINUOUS
  2
*D7
 10
2152.0291842950378
 20
2396.1743149999988
 30
0.0
 11
1907.774629295038
 21
2396.1743149999988
 31
0.0
 70
   128
 13
1672.029184295038
 23
2699.5077809999989
 33
0.0
 14
2152.0291842950378
 24
2564.7385489999988
 34
0.0
1001
ACAD
1000
DSTYLE
1002
{
1070
   287
1070
     3
1070
   287
1070
     3
1070
    40
1040
30.0
1070
   143
1040
0.039
1070
   172
1070
     1
1070
   271
1070
     0
1070
   279
1070
     0
1070
   288
1070
     1
1002
}
  0
DIMENSION
  5
7C10
  8
3
  6
CONTINUOUS
  2
*D8
 10
3182.0291842950378
 20
2396.1743149999988
 30
0.0
 11
2667.0291842950378
 21
2471.1743149999988
 31
0.0
 70
     0
 13
2152.0291842950378
 23
2564.7385489999988
 33
0.0
 14
3182.0291842950378
 24
2699.5077809999989
 34
0.0
1001
ACAD
1000
DSTYLE
1002
{
1070
   287
1070
     4
1070
   287
1070
     4
1070
    40
1040
30.0
1070
    75
1070
     1
1070
   143
1040
0.039
1070
   172
1070
     1
1070
   271
1070
     0
1070
   279
1070
     1
1070
   288
1070
     1
1002
}
  0
DIMENSION
  5
7C1D
  8
3
  6
CONTINUOUS
  2
*D9
 10
4402.6826772915892
 20
4010.0451799999992
 30
0.0
 11
4608.3969622915893
 21
4010.0451799999992
 31
0.0
 70
   128
 13
4877.6826772915892
 23
3880.5077809999998
 33
0.0
 14
4402.6826772915892
 24
3880.5077809999998
 34
0.0
1001
ACAD
1000
DSTYLE
1002
{
1070
   287
1070
     3
1070
   287
1070
     3
1070
    40
1040
30.0
1070
   143
1040
0.039
1070
   172
1070
     1
1070
   271
1070
     0
1070
   279
1070
     0
1070
   288
1070
     1
1002
}
  0
LINE
  5
7C1E
  8
1
  6
CONTINUOUS
 10
4881.1826772915892
 20
3730.5077809999998
 30
0.0
 11
4881.1826772915892
 21
3060.5077809999998
 31
0.0
  0
DIMENSION
  5
7C2D
  8
3
  6
CONTINUOUS
  2
*D10
 10
5105.4575322915898
 20
3060.5077809999998
 30
0.0
 11
5105.457532291588
 21
3388.8774320000002
 31
0.0
 70
   128
 13
4881.1826772915892
 23
3730.5077809999998
 33
0.0
 14
4881.1826772915892
 24
3060.5077809999998
 34
0.0
 50
90.0
1001
ACAD
1000
DSTYLE
1002
{
1070
   287
1070
     3
1070
   287
1070
     3
1070
     3
1000
φ<>
1070
    40
1040
30.0
1070
   143
1040
0.039
1070
   172
1070
     1
1070
   271
1070
     0
1070
   279
1070
     0
1070
   288
1070
     1
1002
}
  0
DIMENSION
  5
7C3B
  8
3
  6
CONTINUOUS
  2
*D11
 10
4640.1826772915902
 20
4208.0868979999996
 30
0.0
 11
4753.3285133609934
 21
4298.4809890867109
 31
0.0
 70
   128
 13
4881.1826772915892
 23
3730.5077809999998
 33
0.0
 14
4640.1826772915902
 24
4160.6108270000013
 34
0.0
1001
ACAD
1000
DSTYLE
1002
{
1070
   288
1070
     1
1070
   172
1070
     1
1070
    40
1040
30.0
1070
   271
1070
     0
1070
   143
1040
0.039
1002
}
  0
DIMENSION
  5
7C47
  8
3
  6
CONTINUOUS
  2
*D12
 10
4160.1826772915892
 20
4208.0868979999996
 30
0.0
 11
4400.1826772915892
 21
4358.0868979999987
 31
0.0
 70
     0
  1
MAX\P530
 13
4640.1826772915902
 23
4160.6108270000013
 33
0.0
 14
4160.1826772915892
 24
4073.239039999999
 34
0.0
1001
ACAD
1000
DSTYLE
1002
{
1070
   287
1070
     4
1070
   287
1070
     4
1070
    40
1040
30.0
1070
    75
1070
     1
1070
   143
1040
0.039
1070
   172
1070
     1
1070
   271
1070
     0
1070
   279
1070
     1
1070
   288
1070
     1
1002
}
  0
DIMENSION
  5
7C54
  8
3
  6
CONTINUOUS
  2
*D13
 10
4640.1826772915902
 20
2451.7171329999992
 30
0.0
 11
4393.1411992915891
 21
2451.7171329999992
 31
0.0
 70
   128
 13
4114.1826772915892
 23
2699.5077809999989
 33
0.0
 14
4640.1826772915902
 24
2581.2499950000001
 34
0.0
1001
ACAD
1000
DSTYLE
1002
{
1070
   287
1070
     3
1070
   287
1070
     3
1070
    40
1040
30.0
1070
   143
1040
0.039
1070
   172
1070
     1
1070
   271
1070
     0
1070
   279
1070
     0
1070
   288
1070
     1
1002
}
  0
DIMENSION
  5
7C62
  8
3
  6
CONTINUOUS
  2
*D14
 10
5044.1826772915902
 20
2451.7171329999992
 30
0.0
 11
4845.5244262915894
 21
2450.2300319999999
 31
0.0
 70
   128
 13
4640.1826772915902
 23
2581.2499950000001
 33
0.0
 14
5044.1826772915902
 24
2699.5077809999989
 34
0.0
1001
ACAD
1000
DSTYLE
1002
{
1070
   287
1070
     4
1070
   287
1070
     4
1070
    40
1040
30.0
1070
    75
1070
     1
1070
   143
1040
0.039
1070
   172
1070
     1
1070
   271
1070
     0
1070
   279
1070
     1
1070
   288
1070
     1
1002
}
  0
DIMENSION
  5
7C6F
  8
3
  6
CONTINUOUS
  2
*D15
 10
3182.0291842950378
 20
6169.6857297890874
 30
0.0
 11
2412.7685262950381
 21
6169.6857297890874
 31
0.0
 70
   128
 13
1672.029184295038
 23
6025.815668789086
 33
0.0
 14
3182.0291842950378
 24
6025.815668789086
 34
0.0
1001
ACAD
1000
DSTYLE
1002
{
1070
   287
1070
     3
1070
   287
1070
     3
1070
    40
1040
30.0
1070
   143
1040
0.039
1070
   172
1070
     1
1070
   271
1070
     0
1070
   279
1070
     0
1070
   288
1070
     1
1002
}
  0
DIMENSION
  5
7C7C
  8
3
  6
CONTINUOUS
  2
*D16
 10
3444.0119682950381
 20
5095.815668789086
 30
0.0
 11
3444.0119682950381
 21
5562.5776797890858
 31
0.0
 70
   128
 13
3182.0291842950378
 23
6025.815668789086
 33
0.0
 14
3182.0291842950378
 24
5095.815668789086
 34
0.0
 50
90.0
1001
ACAD
1000
DSTYLE
1002
{
1070
   287
1070
     3
1070
   287
1070
     3
1070
    40
1040
30.0
1070
   143
1040
0.039
1070
   172
1070
     1
1070
   271
1070
     0
1070
   279
1070
     0
1070
   288
1070
     1
1002
}
  0
LINE
  5
7C7D
  8
4
  6
CONTINUOUS
 10
5550.0
 20
1500.0
 30
0.0
 11
5550.0
 21
900.0
 31
0.0
  0
LINE
  5
7C7E
  8
4
  6
CONTINUOUS
 10
3450.0
 20
1500.0
 30
0.0
 11
3450.0
 21
900.0
 31
0.0
  0
LINE
  5
7C7F
  8
4
  6
CONTINUOUS
 10
1950.0
 20
1500.0
 30
0.0
 11
1950.0
 21
900.0
 31
0.0
  0
LINE
  5
7C82
  8
4
  6
CONTINUOUS
 10
1950.0
 20
900.0
 30
0.0
 11
5550.0
 21
900.0
 31
0.0
  0
LINE
  5
7C83
  8
4
  6
CONTINUOUS
 10
1950.0
 20
1200.0
 30
0.0
 11
5550.0
 21
1200.0
 31
0.0
  0
TEXT
  5
7C84
  8
4
  6
CONTINUOUS
 10
2065.5062429999989
 20
1294.6290779999999
 30
0.0
 40
150.0
  1
機器名称
  0
TEXT
  5
7C85
  8
4
  6
CONTINUOUS
 10
2058.7743179999989
 20
964.9354699999999
 30
0.0
 40
150.0
  1
機器型番
  0
TEXT
  5
7C86
  8
4
  6
CONTINUOUS
 10
3533.0362359999999
 20
1267.7153069999999
 30
0.0
 40
150.0
  1
ミツヤ多翼送風機
  0
TEXT
  5
7C87
  8
4
  6
CONTINUOUS
 10
3559.9634869999991
 20
951.47875299999987
 30
0.0
 40
150.0
  1
MF#4-4
  0
TEXT
  5
7C89
  8
4
  6
CONTINUOUS
 10
2279.0152219999991
 20
7150.2865239999992
 30
0.0
 40
162.0
  1
天井吊防振ベット
  0
TEXT
  5
7C8A
  8
4
  6
CONTINUOUS
 10
948.50278000000014
 20
7601.6429289999996
 30
0.0
 40
216.0
  1
ベルト駆動式片吸込両持多翼ファン
  0
LINE
  5
7C8B
  8
4
  6
CONTINUOUS
 10
750.0
 20
7408.2262629999996
 30
0.0
 11
5550.0
 21
7408.2262629999996
 31
0.0
  0
LINE
  5
7C8C
  8
4
  6
CONTINUOUS
 10
750.0
 20
8008.2262629999996
 30
0.0
 11
5550.0
 21
8008.2262629999996
 31
0.0
  0
LINE
  5
7C8D
  8
4
  6
CONTINUOUS
 10
1950.0
 20
1500.0
 30
0.0
 11
5550.0
 21
1500.0
 31
0.0
  0
LINE
  5
7C8E
  8
4
  6
CONTINUOUS
 10
750.0
 20
8008.2262629999996
 30
0.0
 11
750.0
 21
7408.2262629999996
 31
0.0
  0
TEXT
  5
7C8F
  8
4
  6
CONTINUOUS
 10
971.43872499999986
 20
7146.9584329999998
 30
0.0
 40
162.0
  1
左回転上向
  0
TEXT
  5
7C90
  8
4
  6
CONTINUOUS
 10
4406.9086779999989
 20
8118.1832439999989
 30
0.0
 40
168.0
  1
No.
  0
TEXT
  5
7C91
  8
4
  6
CONTINUOUS
 10
3933.8881879999999
 20
7150.2865239999992
 30
0.0
 40
162.0
  1
縮尺：1/30
  0
LINE
  5
7C92
  8
4
  6
CONTINUOUS
 10
5550.0
 20
8008.2262629999996
 30
0.0
 11
5550.0
 21
7408.2262629999996
 31
0.0
  0
LINE
  5
7C94
  8
4
  6
CONTINUOUS
 10
4321.8522670000002
 20
8043.7907490000007
 30
0.0
 11
4321.8522670000002
 21
8359.9567849999985
 31
0.0
  0
LINE
  5
7C95
  8
4
  6
CONTINUOUS
 10
4321.8522670000002
 20
8359.9567849999985
 30
0.0
 11
5550.0
 21
8359.9567849999985
 31
0.0
  0
LINE
  5
7C96
  8
4
  6
CONTINUOUS
 10
5550.0
 20
8359.9567849999985
 30
0.0
 11
5550.0
 21
8043.7907490000007
 31
0.0
  0
LINE
  5
7C97
  8
4
  6
CONTINUOUS
 10
5550.0
 20
8043.7907490000007
 30
0.0
 11
4321.8522670000002
 21
8043.7907490000007
 31
0.0
  0
DIMENSION
  5
7E04
  8
3
  2
*D17
 10
1698.840281292034
 20
4230.1225969999996
 30
0.0
 11
1925.4347327935361
 21
4305.1225969999987
 31
0.0
 70
     0
  1
452
 13
2152.0291842950378
 23
4057.8342039999989
 33
0.0
 14
1698.840281292034
 24
3368.5077809999998
 34
0.0
1001
ACAD
1000
DSTYLE
1002
{
1070
   287
1070
     4
1070
   287
1070
     4
1070
    40
1040
30.0
1070
   143
1040
0.039
1070
   172
1070
     1
1070
   271
1070
     0
1070
   279
1070
     1
1070
   288
1070
     1
1002
}
  0
ENDSEC
  0
EOF
