  0
SECTION
  2
HEADER
  9
$ACADVER
  1
AC1009
  9
$INSBASE
 10
0.0
 20
0.0
 30
0.0
  9
$EXTMIN
 10
750.0
 20
900.0
 30
0.0
  9
$EXTMAX
 10
5550.0
 20
8359.9567849999985
 30
0.0
  9
$LIMMIN
 10
0.0
 20
0.0
  9
$LIMMAX
 10
297.0
 20
210.0
  9
$ORTHOMODE
 70
     0
  9
$REGENMODE
 70
     1
  9
$FILLMODE
 70
     0
  9
$QTEXTMODE
 70
     0
  9
$MIRRTEXT
 70
     1
  9
$DRAGMODE
 70
     2
  9
$LTSCALE
 40
100.0
  9
$OSMODE
 70
    37
  9
$ATTMODE
 70
     1
  9
$TEXTSIZE
 40
180.0
  9
$TRACEWID
 40
0.05
  9
$TEXTSTYLE
  7
STANDARD
  9
$CLAYER
  8
3
  9
$CELTYPE
  6
BYLAYER
  9
$CECOLOR
 62
   256
  9
$DIMSCALE
 40
30.0
  9
$DIMASZ
 40
2.0
  9
$DIMEXO
 40
0.5
  9
$DIMDLI
 40
10.0
  9
$DIMRND
 40
0.0
  9
$DIMDLE
 40
0.0
  9
$DIMEXE
 40
1.0
  9
$DIMTP
 40
1.0
  9
$DIMTM
 40
1.0
  9
$DIMTXT
 40
3.0
  9
$DIMCEN
 40
0.0
  9
$DIMTSZ
 40
0.0
  9
$DIMTOL
 70
     0
  9
$DIMLIM
 70
     0
  9
$DIMTIH
 70
     0
  9
$DIMTOH
 70
     0
  9
$DIMSE1
 70
     0
  9
$DIMSE2
 70
     0
  9
$DIMTAD
 70
     1
  9
$DIMZIN
 70
     8
  9
$DIMBLK
  1

  9
$DIMASO
 70
     1
  9
$DIMSHO
 70
     1
  9
$DIMPOST
  1

  9
$DIMAPOST
  1

  9
$DIMALT
 70
     0
  9
$DIMALTD
 70
     2
  9
$DIMALTF
 40
0.039
  9
$DIMLFAC
 40
1.0
  9
$DIMTOFL
 70
     1
  9
$DIMTVP
 40
0.0
  9
$DIMTIX
 70
     0
  9
$DIMSOXD
 70
     0
  9
$DIMSAH
 70
     1
  9
$DIMBLK1
  1
OPEN
  9
$DIMBLK2
  1
OPEN
  9
$DIMSTYLE
  2
IGA
  9
$DIMCLRD
 70
     0
  9
$DIMCLRE
 70
     0
  9
$DIMCLRT
 70
     0
  9
$DIMTFAC
 40
10.0
  9
$DIMGAP
 40
1.0
  9
$LUNITS
 70
     2
  9
$LUPREC
 70
     3
  9
$SKETCHINC
 40
0.1
  9
$FILLETRAD
 40
50.0
  9
$AUNITS
 70
     0
  9
$AUPREC
 70
     0
  9
$MENU
  1
acad
  9
$ELEVATION
 40
0.0
  9
$PELEVATION
 40
0.0
  9
$THICKNESS
 40
0.0
  9
$LIMCHECK
 70
     0
  9
$BLIPMODE
 70
     0
  9
$CHAMFERA
 40
0.5
  9
$CHAMFERB
 40
0.5
  9
$SKPOLY
 70
     0
  9
$TDCREATE
 40
2450742.4144871528
  9
$TDUPDATE
 40
2454953.7706792471
  9
$TDINDWG
 40
0.0044136227
  9
$TDUSRTIMER
 40
0.0044136227
  9
$USRTIMER
 70
     1
  9
$ANGBASE
 50
0.0
  9
$ANGDIR
 70
     0
  9
$PDMODE
 70
     0
  9
$PDSIZE
 40
0.0
  9
$PLINEWID
 40
0.0
  9
$COORDS
 70
     1
  9
$SPLFRAME
 70
     0
  9
$SPLINETYPE
 70
     6
  9
$SPLINESEGS
 70
     8
  9
$ATTDIA
 70
     0
  9
$ATTREQ
 70
     1
  9
$HANDLING
 70
 10241
  9
$HANDSEED
  5
7F52
  9
$SURFTAB1
 70
     6
  9
$SURFTAB2
 70
     6
  9
$SURFTYPE
 70
     6
  9
$SURFU
 70
     6
  9
$SURFV
 70
     6
  9
$UCSNAME
  2

  9
$UCSORG
 10
0.0
 20
0.0
 30
0.0
  9
$UCSXDIR
 10
1.0
 20
0.0
 30
0.0
  9
$UCSYDIR
 10
0.0
 20
1.0
 30
0.0
  9
$PUCSNAME
  2

  9
$PUCSORG
 10
0.0
 20
0.0
 30
0.0
  9
$PUCSXDIR
 10
1.0
 20
0.0
 30
0.0
  9
$PUCSYDIR
 10
0.0
 20
1.0
 30
0.0
  9
$USERI1
 70
     0
  9
$USERI2
 70
     0
  9
$USERI3
 70
     0
  9
$USERI4
 70
     0
  9
$USERI5
 70
     0
  9
$USERR1
 40
0.0
  9
$USERR2
 40
0.0
  9
$USERR3
 40
0.0
  9
$USERR4
 40
0.0
  9
$USERR5
 40
0.0
  9
$WORLDVIEW
 70
     1
  9
$SHADEDGE
 70
     3
  9
$SHADEDIF
 70
    70
  9
$TILEMODE
 70
     1
  9
$MAXACTVP
 70
    16
  9
$PLIMCHECK
 70
     0
  9
$PEXTMIN
 10
1.0000000000000000E+020
 20
1.0000000000000000E+020
 30
1.0000000000000000E+020
  9
$PEXTMAX
 10
-1.0000000000000000E+020
 20
-1.0000000000000000E+020
 30
-1.0000000000000000E+020
  9
$PLIMMIN
 10
0.0
 20
0.0
  9
$PLIMMAX
 10
12.0
 20
9.0
  9
$UNITMODE
 70
     0
  9
$VISRETAIN
 70
     0
  9
$PLINEGEN
 70
     0
  9
$PSLTSCALE
 70
     1
  0
ENDSEC
  0
SECTION
  2
TABLES
  0
TABLE
  2
VPORT
 70
     2
  0
VPORT
  2
*ACTIVE
 70
     0
 10
0.0
 20
0.0
 11
1.0
 21
1.0
 12
9438.4567678319436
 22
4630.0975558305709
 13
0.0
 23
0.0
 14
10.0
 24
10.0
 15
10.0
 25
10.0
 16
0.0
 26
0.0
 36
1.0
 17
0.0
 27
0.0
 37
0.0
 40
7517.4747125171307
 41
3.1666666666666661
 42
50.0
 43
0.0
 44
0.0
 50
0.0
 51
0.0
 71
     0
 72
   100
 73
     1
 74
     0
 75
     0
 76
     0
 77
     0
 78
     0
  0
ENDTAB
  0
TABLE
  2
LTYPE
 70
     2
  0
LTYPE
  2
CONTINUOUS
 70
     0
  3
Solid line
 72
    65
 73
     0
 40
0.0
  0
LTYPE
  2
CENTER
 70
     0
  3
____ _ ____ _ ____ _ ____ _ ____ _ ____ _ ____ 
 72
    65
 73
     4
 40
2.0
 49
1.25
 49
-0.25
 49
0.25
 49
-0.25
  0
ENDTAB
  0
TABLE
  2
LAYER
 70
     6
  0
LAYER
  2
0
 70
     0
 62
     7
  6
CONTINUOUS
  0
LAYER
  2
3
 70
     0
 62
     2
  6
CONTINUOUS
  0
LAYER
  2
2
 70
     0
 62
     3
  6
CENTER
  0
LAYER
  2
1
 70
     0
 62
     4
  6
CONTINUOUS
  0
LAYER
  2
4
 70
     0
 62
     7
  6
CONTINUOUS
  0
LAYER
  2
DEFPOINTS
 70
     0
 62
     7
  6
CONTINUOUS
  0
ENDTAB
  0
TABLE
  2
STYLE
 70
     1
  0
STYLE
  2
STANDARD
 70
     0
 40
0.0
 41
1.0
 50
0.0
 71
     0
 42
180.0
  3
simplex.shx
  4
extfont.shx
  0
ENDTAB
  0
TABLE
  2
VIEW
 70
     0
  0
ENDTAB
  0
TABLE
  2
UCS
 70
     0
  0
ENDTAB
  0
TABLE
  2
APPID
 70
     1
  0
APPID
  2
ACAD
 70
     0
  0
ENDTAB
  0
TABLE
  2
DIMSTYLE
 70
     1
  0
DIMSTYLE
  2
IGA
 70
     0
  3

  4

  5

  6
OPEN
  7
OPEN
 40
2.0
 41
2.0
 42
0.5
 43
10.0
 44
1.0
 45
0.0
 46
0.0
 47
1.0
 48
1.0
140
3.0
141
0.0
142
0.0
143
0.03937
144
1.0
145
0.0
146
10.0
147
1.0
 71
     0
 72
     0
 73
     0
 74
     0
 75
     0
 76
     0
 77
     1
 78
     8
170
     0
171
     2
172
     0
173
     1
174
     0
175
     0
176
     0
177
     0
178
     0
  0
ENDTAB
  0
ENDSEC
  0
SECTION
  2
BLOCKS
  0
BLOCK
  8
0
  2
$MODEL_SPACE
 70
     0
 10
0.0
 20
0.0
 30
0.0
  3
$MODEL_SPACE
  1

  0
ENDBLK
  5
1B
  8
0
  0
BLOCK
 67
     1
  8
0
  2
$PAPER_SPACE
 70
     0
 10
0.0
 20
0.0
 30
0.0
  3
$PAPER_SPACE
  1

  0
ENDBLK
  5
18
 67
     1
  8
0
  0
BLOCK
  8
0
  2
_OPEN
 70
     0
 10
0.0
 20
0.0
 30
0.0
  3
_OPEN
  1

  0
LINE
  5
7B8F
  8
0
  6
BYBLOCK
 62
     0
 10
-1.0
 20
0.166667
 30
0.0
 11
0.0
 21
0.0
 31
0.0
  0
LINE
  5
7B90
  8
0
  6
BYBLOCK
 62
     0
 10
0.0
 20
0.0
 30
0.0
 11
-1.0
 21
-0.166667
 31
0.0
  0
LINE
  5
7B91
  8
0
  6
BYBLOCK
 62
     0
 10
0.0
 20
0.0
 30
0.0
 11
-1.0
 21
0.0
 31
0.0
  0
ENDBLK
  5
7B92
  8
0
  0
BLOCK
  8
0
  2
*D1
 70
     1
 10
0.0
 20
0.0
 30
0.0
  3
*D1
  1

  0
LINE
  5
7EAA
  8
3
  6
CONTINUOUS
 62
     0
 10
1467.183544
 20
3786.6954839999999
 30
0.0
 11
1339.5870970000001
 21
3786.6954839999999
 31
0.0
  0
LINE
  5
7EAB
  8
3
  6
CONTINUOUS
 62
     0
 10
1467.183544
 20
3136.6954839999999
 30
0.0
 11
1339.5870970000001
 21
3136.6954839999999
 31
0.0
  0
LINE
  5
7EAC
  8
3
  6
CONTINUOUS
 62
     0
 10
1369.587097000001
 20
3726.6954839999999
 30
0.0
 11
1369.5870970000001
 21
3196.6954839999999
 31
0.0
  0
INSERT
  5
7EAD
  8
3
  6
CONTINUOUS
 62
     0
  2
_OPEN
 10
1369.587097000001
 20
3786.6954839999999
 30
0.0
 41
60.0
 42
60.0
 43
60.0
 50
90.0
  0
INSERT
  5
7EAE
  8
3
  6
CONTINUOUS
 62
     0
  2
_OPEN
 10
1369.5870970000001
 20
3136.6954839999999
 30
0.0
 41
60.0
 42
60.0
 43
60.0
 50
270.0
  0
TEXT
  8
3
  40
90
  5
7F40
  62
0
  72
0
  71
0
 10
1114.59
 20
3270.24
 30
0.000000
  1
650
  0
POINT
  5
7EB0
  8
DEFPOINTS
  6
CONTINUOUS
 62
     0
 10
1482.183544
 20
3786.6954839999999
 30
0.0
  0
POINT
  5
7EB1
  8
DEFPOINTS
  6
CONTINUOUS
 62
     0
 10
1482.183544
 20
3136.6954839999999
 30
0.0
  0
POINT
  5
7EB2
  8
DEFPOINTS
  6
CONTINUOUS
 62
     0
 10
1369.5870970000001
 20
3136.6954839999999
 30
0.0
  0
ENDBLK
  5
7B9F
  8
0
  0
BLOCK
  8
0
  2
*D2
 70
     1
 10
0.0
 20
0.0
 30
0.0
  3
*D2
  1

  0
LINE
  5
7EB3
  8
3
  6
CONTINUOUS
 62
     0
 10
1467.183544
 20
3786.6954839999999
 30
0.0
 11
1157.8548350000001
 21
3786.6954839999999
 31
0.0
  0
LINE
  5
7EB4
  8
3
  6
CONTINUOUS
 62
     0
 10
1368.823893
 20
3166.6954839999989
 30
0.0
 11
1157.8548350000001
 21
3166.6954839999989
 31
0.0
  0
LINE
  5
7EB5
  8
3
  6
CONTINUOUS
 62
     0
 10
1187.8548350000001
 20
3726.6954839999999
 30
0.0
 11
1187.8548350000001
 21
3226.6954839999989
 31
0.0
  0
INSERT
  5
7EB6
  8
3
  6
CONTINUOUS
 62
     0
  2
_OPEN
 10
1187.8548350000001
 20
3786.6954839999999
 30
0.0
 41
60.0
 42
60.0
 43
60.0
 50
90.0
  0
INSERT
  5
7EB7
  8
3
  6
CONTINUOUS
 62
     0
  2
_OPEN
 10
1187.8548350000001
 20
3166.6954839999989
 30
0.0
 41
60.0
 42
60.0
 43
60.0
 50
270.0
  0
TEXT
  8
3
  40
90
  5
7F41
  62
0
  72
0
  71
0
 10
932.855
 20
3270.24
 30
0.000000
  1
620
  0
POINT
  5
7EB9
  8
DEFPOINTS
  6
CONTINUOUS
 62
     0
 10
1482.183544
 20
3786.6954839999999
 30
0.0
  0
POINT
  5
7EBA
  8
DEFPOINTS
  6
CONTINUOUS
 62
     0
 10
1383.823893
 20
3166.6954839999989
 30
0.0
  0
POINT
  5
7EBB
  8
DEFPOINTS
  6
CONTINUOUS
 62
     0
 10
1187.8548350000001
 20
3166.6954839999989
 30
0.0
  0
ENDBLK
  5
7BAC
  8
0
  0
BLOCK
  8
0
  2
*D3
 70
     1
 10
0.0
 20
0.0
 30
0.0
  3
*D3
  1

  0
LINE
  5
7EBC
  8
3
  6
CONTINUOUS
 62
     0
 10
1522.1835439999991
 20
2596.6954839999999
 30
0.0
 11
1157.854834999999
 21
2596.6954839999999
 31
0.0
  0
LINE
  5
7EBD
  8
3
  6
CONTINUOUS
 62
     0
 10
1187.854834999999
 20
3106.6954839999989
 30
0.0
 11
1187.854834999999
 21
2656.6954839999999
 31
0.0
  0
INSERT
  5
7EBE
  8
3
  6
CONTINUOUS
 62
     0
  2
_OPEN
 10
1187.854834999999
 20
3166.6954839999989
 30
0.0
 41
60.0
 42
60.0
 43
60.0
 50
90.0
  0
INSERT
  5
7EBF
  8
3
  6
CONTINUOUS
 62
     0
  2
_OPEN
 10
1187.854834999999
 20
2596.6954839999999
 30
0.0
 41
60.0
 42
60.0
 43
60.0
 50
270.0
  0
TEXT
  8
3
  40
90
  5
7F42
  62
0
  72
0
  71
0
 10
932.855
 20
2722.40
 30
0.000000
  1
570
  0
POINT
  5
7EC1
  8
DEFPOINTS
  6
CONTINUOUS
 62
     0
 10
1383.823893
 20
3166.6954839999989
 30
0.0
  0
POINT
  5
7EC2
  8
DEFPOINTS
  6
CONTINUOUS
 62
     0
 10
1537.183544
 20
2596.6954839999999
 30
0.0
  0
POINT
  5
7EC3
  8
DEFPOINTS
  6
CONTINUOUS
 62
     0
 10
1187.854834999999
 20
2596.6954839999999
 30
0.0
  0
ENDBLK
  5
7BB8
  8
0
  0
BLOCK
  8
0
  2
*D4
 70
     1
 10
0.0
 20
0.0
 30
0.0
  3
*D4
  1

  0
LINE
  5
7EC4
  8
3
  6
CONTINUOUS
 62
     0
 10
1522.1835439999991
 20
2596.6954839999999
 30
0.0
 11
1161.177981
 21
2596.6954839999999
 31
0.0
  0
LINE
  5
7EC5
  8
3
  6
CONTINUOUS
 62
     0
 10
1472.1835439999991
 20
2470.6954839999999
 30
0.0
 11
1161.177981
 21
2470.6954839999999
 31
0.0
  0
LINE
  5
7EC6
  8
3
  6
CONTINUOUS
 62
     0
 10
1191.177981
 20
2656.6954839999999
 30
0.0
 11
1191.177981
 21
2716.6954839999999
 31
0.0
  0
LINE
  5
7EC7
  8
3
  6
CONTINUOUS
 62
     0
 10
1191.177981
 20
2410.6954839999999
 30
0.0
 11
1191.177981
 21
2080.6954839999999
 31
0.0
  0
LINE
  5
7EC8
  8
3
  6
CONTINUOUS
 62
     0
 10
1191.177981
 20
2596.6954839999999
 30
0.0
 11
1191.177981
 21
2470.6954839999999
 31
0.0
  0
INSERT
  5
7EC9
  8
3
  6
CONTINUOUS
 62
     0
  2
_OPEN
 10
1191.177981
 20
2596.6954839999999
 30
0.0
 41
60.0
 42
60.0
 43
60.0
 50
270.0
  0
INSERT
  5
7ECA
  8
3
  6
CONTINUOUS
 62
     0
  2
_OPEN
 10
1191.177981
 20
2470.6954839999999
 30
0.0
 41
60.0
 42
60.0
 43
60.0
 50
90.0
  0
TEXT
  8
3
  40
90
  5
7F43
  62
0
  72
0
  71
0
 10
936.178
 20
2056.40
 30
0.000000
  1
126
  0
POINT
  5
7ECC
  8
DEFPOINTS
  6
CONTINUOUS
 62
     0
 10
1537.183544
 20
2596.6954839999999
 30
0.0
  0
POINT
  5
7ECD
  8
DEFPOINTS
  6
CONTINUOUS
 62
     0
 10
1487.183544
 20
2470.6954839999999
 30
0.0
  0
POINT
  5
7ECE
  8
DEFPOINTS
  6
CONTINUOUS
 62
     0
 10
1191.177981
 20
2470.6954839999999
 30
0.0
  0
ENDBLK
  5
7D5D
  8
0
  0
BLOCK
  8
0
  2
*D5
 70
     1
 10
0.0
 20
0.0
 30
0.0
  3
*D5
  1

  0
LINE
  5
7ECF
  8
3
  6
CONTINUOUS
 62
     0
 10
1487.183544
 20
2455.6954839999999
 30
0.0
 11
1487.183544
 21
2178.0854449999988
 31
0.0
  0
LINE
  5
7ED0
  8
3
  6
CONTINUOUS
 62
     0
 10
1967.183544
 20
2323.2620350000002
 30
0.0
 11
1967.183544
 21
2178.0854449999988
 31
0.0
  0
LINE
  5
7ED1
  8
3
  6
CONTINUOUS
 62
     0
 10
1547.183544
 20
2208.0854449999988
 30
0.0
 11
1907.183544
 21
2208.0854449999988
 31
0.0
  0
INSERT
  5
7ED2
  8
3
  6
CONTINUOUS
 62
     0
  2
_OPEN
 10
1487.183544
 20
2208.0854449999988
 30
0.0
 41
60.0
 42
60.0
 43
60.0
 50
180.0
  0
INSERT
  5
7ED3
  8
3
  6
CONTINUOUS
 62
     0
  2
_OPEN
 10
1967.183544
 20
2208.0854449999988
 30
0.0
 41
60.0
 42
60.0
 43
60.0
  0
TEXT
  8
3
  40
90
  5
7F44
  62
0
  72
0
  71
0
 10
1547.19
 20
2123.79
 30
0.000000
  1
480
  0
POINT
  5
7ED5
  8
DEFPOINTS
  6
CONTINUOUS
 62
     0
 10
1487.183544
 20
2470.6954839999999
 30
0.0
  0
POINT
  5
7ED6
  8
DEFPOINTS
  6
CONTINUOUS
 62
     0
 10
1967.183544
 20
2338.2620350000002
 30
0.0
  0
POINT
  5
7ED7
  8
DEFPOINTS
  6
CONTINUOUS
 62
     0
 10
1967.183544
 20
2208.0854449999988
 30
0.0
  0
ENDBLK
  5
7CC4
  8
0
  0
BLOCK
  8
0
  2
*D6
 70
     1
 10
0.0
 20
0.0
 30
0.0
  3
*D6
  1

  0
LINE
  5
7ED8
  8
3
  6
CONTINUOUS
 62
     0
 10
2997.183544
 20
2455.6954839999999
 30
0.0
 11
2997.183544
 21
2178.0854449999988
 31
0.0
  0
LINE
  5
7ED9
  8
3
  6
CONTINUOUS
 62
     0
 10
2027.183544
 20
2208.0854449999988
 30
0.0
 11
2937.183544
 21
2208.0854449999988
 31
0.0
  0
INSERT
  5
7EDA
  8
3
  6
CONTINUOUS
 62
     0
  2
_OPEN
 10
1967.183544
 20
2208.0854449999988
 30
0.0
 41
60.0
 42
60.0
 43
60.0
 50
180.0
  0
INSERT
  5
7EDB
  8
3
  6
CONTINUOUS
 62
     0
  2
_OPEN
 10
2997.183544
 20
2208.0854449999988
 30
0.0
 41
60.0
 42
60.0
 43
60.0
  0
TEXT
  8
3
  40
90
  5
7F45
  62
0
  72
0
  71
0
 10
2302.18
 20
2123.79
 30
0.000000
  1
1030
  0
POINT
  5
7EDD
  8
DEFPOINTS
  6
CONTINUOUS
 62
     0
 10
1967.183544
 20
2338.2620350000002
 30
0.0
  0
POINT
  5
7EDE
  8
DEFPOINTS
  6
CONTINUOUS
 62
     0
 10
2997.183544
 20
2470.6954839999999
 30
0.0
  0
POINT
  5
7EDF
  8
DEFPOINTS
  6
CONTINUOUS
 62
     0
 10
2997.183544
 20
2208.0854449999988
 30
0.0
  0
ENDBLK
  5
7CB9
  8
0
  0
BLOCK
  8
0
  2
*D7
 70
     1
 10
0.0
 20
0.0
 30
0.0
  3
*D7
  1

  0
LINE
  5
7EE0
  8
3
  6
CONTINUOUS
 62
     0
 10
1482.183544
 20
3841.6954839999999
 30
0.0
 11
1482.183544
 21
4057.0631759999992
 31
0.0
  0
LINE
  5
7EE1
  8
3
  6
CONTINUOUS
 62
     0
 10
1967.183544
 20
3878.8084389999999
 30
0.0
 11
1967.183544
 21
4057.0631759999992
 31
0.0
  0
LINE
  5
7EE2
  8
3
  6
CONTINUOUS
 62
     0
 10
1542.183544
 20
4027.0631760000001
 30
0.0
 11
1907.183544
 21
4027.0631760000001
 31
0.0
  0
INSERT
  5
7EE3
  8
3
  6
CONTINUOUS
 62
     0
  2
_OPEN
 10
1482.183544
 20
4027.0631760000001
 30
0.0
 41
60.0
 42
60.0
 43
60.0
 50
180.0
  0
INSERT
  5
7EE4
  8
3
  6
CONTINUOUS
 62
     0
  2
_OPEN
 10
1967.183544
 20
4027.0631760000001
 30
0.0
 41
60.0
 42
60.0
 43
60.0
  0
TEXT
  8
3
  40
90
  5
7F46
  62
0
  72
0
  71
0
 10
1507.90
 20
3942.76
 30
0.000000
  1
485
  0
POINT
  5
7EE6
  8
DEFPOINTS
  6
CONTINUOUS
 62
     0
 10
1482.183544
 20
3826.6954839999999
 30
0.0
  0
POINT
  5
7EE7
  8
DEFPOINTS
  6
CONTINUOUS
 62
     0
 10
1967.183544
 20
3863.8084389999999
 30
0.0
  0
POINT
  5
7EE8
  8
DEFPOINTS
  6
CONTINUOUS
 62
     0
 10
1967.183544
 20
4027.0631760000001
 30
0.0
  0
ENDBLK
  5
7BEE
  8
0
  0
BLOCK
  8
0
  2
*D8
 70
     1
 10
0.0
 20
0.0
 30
0.0
  3
*D8
  1

  0
LINE
  5
7EE9
  8
3
  6
CONTINUOUS
 62
     0
 10
4665.642918999999
 20
3801.6954839999999
 30
0.0
 11
4665.642918999999
 21
3908.0565580000002
 31
0.0
  0
LINE
  5
7EEA
  8
3
  6
CONTINUOUS
 62
     0
 10
4190.6429189999999
 20
3801.6954839999999
 30
0.0
 11
4190.6429189999999
 21
3908.0565580000002
 31
0.0
  0
LINE
  5
7EEB
  8
3
  6
CONTINUOUS
 62
     0
 10
4605.6429189999999
 20
3878.0565580000002
 30
0.0
 11
4250.642918999999
 21
3878.0565580000002
 31
0.0
  0
INSERT
  5
7EEC
  8
3
  6
CONTINUOUS
 62
     0
  2
_OPEN
 10
4665.642918999999
 20
3878.0565580000002
 30
0.0
 41
60.0
 42
60.0
 43
60.0
  0
INSERT
  5
7EED
  8
3
  6
CONTINUOUS
 62
     0
  2
_OPEN
 10
4190.6429189999999
 20
3878.0565580000002
 30
0.0
 41
60.0
 42
60.0
 43
60.0
 50
180.0
  0
TEXT
  8
3
  40
90
  5
7F47
  62
0
  72
0
  71
0
 10
4216.36
 20
3793.76
 30
0.000000
  1
475
  0
POINT
  5
7EEF
  8
DEFPOINTS
  6
CONTINUOUS
 62
     0
 10
4665.642918999999
 20
3786.6954839999999
 30
0.0
  0
POINT
  5
7EF0
  8
DEFPOINTS
  6
CONTINUOUS
 62
     0
 10
4190.6429189999999
 20
3786.6954839999999
 30
0.0
  0
POINT
  5
7EF1
  8
DEFPOINTS
  6
CONTINUOUS
 62
     0
 10
4190.6429189999999
 20
3878.0565580000002
 30
0.0
  0
ENDBLK
  5
7D45
  8
0
  0
BLOCK
  8
0
  2
*D9
 70
     1
 10
0.0
 20
0.0
 30
0.0
  3
*D9
  1

  0
LINE
  5
7EF2
  8
3
  6
CONTINUOUS
 62
     0
 10
4684.1429189999999
 20
3501.6954839999999
 30
0.0
 11
4957.2450430000008
 21
3501.6954839999999
 31
0.0
  0
LINE
  5
7EF3
  8
3
  6
CONTINUOUS
 62
     0
 10
4684.1429189999999
 20
2831.6954839999989
 30
0.0
 11
4957.2450430000008
 21
2831.6954839999989
 31
0.0
  0
LINE
  5
7EF4
  8
3
  6
CONTINUOUS
 62
     0
 10
4927.2450429999999
 20
3441.6954839999999
 30
0.0
 11
4927.2450429999999
 21
2891.6954839999989
 31
0.0
  0
INSERT
  5
7EF5
  8
3
  6
CONTINUOUS
 62
     0
  2
_OPEN
 10
4927.2450429999999
 20
3501.6954839999999
 30
0.0
 41
60.0
 42
60.0
 43
60.0
 50
90.0
  0
INSERT
  5
7EF6
  8
3
  6
CONTINUOUS
 62
     0
  2
_OPEN
 10
4927.2450429999999
 20
2831.6954839999989
 30
0.0
 41
60.0
 42
60.0
 43
60.0
 50
270.0
  0
TEXT
  8
3
  40
90
  5
7F48
  62
0
  72
0
  71
0
 10
4672.25
 20
2996.70
 30
0.000000
  1
φ670
  0
POINT
  5
7EF8
  8
DEFPOINTS
  6
CONTINUOUS
 62
     0
 10
4669.1429189999999
 20
3501.6954839999999
 30
0.0
  0
POINT
  5
7EF9
  8
DEFPOINTS
  6
CONTINUOUS
 62
     0
 10
4669.1429189999999
 20
2831.6954839999989
 30
0.0
  0
POINT
  5
7EFA
  8
DEFPOINTS
  6
CONTINUOUS
 62
     0
 10
4927.2450429999999
 20
2831.6954839999989
 30
0.0
  0
ENDBLK
  5
7D95
  8
0
  0
BLOCK
  8
0
  2
*D10
 70
     1
 10
0.0
 20
0.0
 30
0.0
  3
*D10
  1

  0
LINE
  5
7DAC
  8
0
  6
BYBLOCK
 62
     0
 10
4669.1429189999999
 20
3516.6954839999999
 30
0.0
 11
4669.1429189999999
 21
4118.3001608869063
 31
0.0
  0
LINE
  5
7DAD
  8
0
  6
BYBLOCK
 62
     0
 10
4428.142918999999
 20
4034.7770646977151
 30
0.0
 11
4428.142918999999
 21
4118.3001608869063
 31
0.0
  0
LINE
  5
7DAE
  8
0
  6
BYBLOCK
 62
     0
 10
4609.142918999999
 20
4088.3001608869058
 30
0.0
 11
4488.1429189999999
 21
4088.3001608869058
 31
0.0
  0
TEXT
  5
7DAF
  8
3
 62
     0
 10
4450.7099684948344
 20
4133.8650870246602
 30
0.0
 40
90.0
  1
241
  0
INSERT
  5
7DB0
  8
0
  6
BYBLOCK
 62
     0
  2
_OPEN
 10
4669.1429189999999
 20
4088.3001608869058
 30
0.0
 41
60.0
 42
60.0
 43
60.0
  0
INSERT
  5
7DB1
  8
0
  6
BYBLOCK
 62
     0
  2
_OPEN
 10
4428.142918999999
 20
4088.3001608869058
 30
0.0
 41
60.0
 42
60.0
 43
60.0
 50
180.0
  0
POINT
  5
7DB2
  8
DEFPOINTS
  6
BYBLOCK
 62
     0
 10
4669.1429189999999
 20
3501.6954839999999
 30
0.0
  0
POINT
  5
7DB3
  8
DEFPOINTS
  6
BYBLOCK
 62
     0
 10
4428.142918999999
 20
4019.777064697716
 30
0.0
  0
POINT
  5
7DB4
  8
DEFPOINTS
  6
BYBLOCK
 62
     0
 10
4428.142918999999
 20
4088.3001608869058
 30
0.0
  0
ENDBLK
  5
7DB5
  8
0
  0
BLOCK
  8
0
  2
*D11
 70
     1
 10
0.0
 20
0.0
 30
0.0
  3
*D11
  1

  0
LINE
  5
7EFB
  8
3
  6
CONTINUOUS
 62
     0
 10
3948.1429189999999
 20
3711.6954839999999
 30
0.0
 11
3948.1429189999999
 21
4118.3001608869063
 31
0.0
  0
LINE
  5
7EFC
  8
3
  6
CONTINUOUS
 62
     0
 10
4368.1429189999999
 20
4088.3001608869058
 30
0.0
 11
4008.142918999999
 21
4088.3001608869058
 31
0.0
  0
INSERT
  5
7EFD
  8
3
  6
CONTINUOUS
 62
     0
  2
_OPEN
 10
4428.142918999999
 20
4088.3001608869058
 30
0.0
 41
60.0
 42
60.0
 43
60.0
  0
INSERT
  5
7EFE
  8
3
  6
CONTINUOUS
 62
     0
  2
_OPEN
 10
3948.1429189999999
 20
4088.3001608869058
 30
0.0
 41
60.0
 42
60.0
 43
60.0
 50
180.0
  0
TEXT
  8
3
  40
90
  5
7F49
  62
0
  72
0
  71
0
 10
4008.14
 20
4079.00
 30
0.000000
  1
MAX
  0
TEXT
  8
3
  40
90
  5
7F4A
  62
0
  72
0
  71
0
 10
4008.14
 20
3962.00
 30
0.000000
  1
530
  0
POINT
  5
7F00
  8
DEFPOINTS
  6
CONTINUOUS
 62
     0
 10
4428.142918999999
 20
4019.777064697716
 30
0.0
  0
POINT
  5
7F01
  8
DEFPOINTS
  6
CONTINUOUS
 62
     0
 10
3948.1429189999999
 20
3696.6954840000012
 30
0.0
  0
POINT
  5
7F02
  8
DEFPOINTS
  6
CONTINUOUS
 62
     0
 10
3948.1429189999999
 20
4088.3001608869058
 30
0.0
  0
ENDBLK
  5
7DBF
  8
0
  0
BLOCK
  8
0
  2
*D12
 70
     1
 10
0.0
 20
0.0
 30
0.0
  3
*D12
  1

  0
LINE
  5
7F03
  8
3
  6
CONTINUOUS
 62
     0
 10
3902.1429189999999
 20
2455.6954839999999
 30
0.0
 11
3902.1429189999999
 21
2209.3547870000002
 31
0.0
  0
LINE
  5
7F04
  8
3
  6
CONTINUOUS
 62
     0
 10
4428.142918999999
 20
2318.7244890000002
 30
0.0
 11
4428.142918999999
 21
2209.3547870000002
 31
0.0
  0
LINE
  5
7F05
  8
3
  6
CONTINUOUS
 62
     0
 10
3962.1429189999999
 20
2239.3547870000002
 30
0.0
 11
4368.1429189999999
 21
2239.3547870000002
 31
0.0
  0
INSERT
  5
7F06
  8
3
  6
CONTINUOUS
 62
     0
  2
_OPEN
 10
3902.1429189999999
 20
2239.3547870000002
 30
0.0
 41
60.0
 42
60.0
 43
60.0
 50
180.0
  0
INSERT
  5
7F07
  8
3
  6
CONTINUOUS
 62
     0
  2
_OPEN
 10
4428.142918999999
 20
2239.3547870000002
 30
0.0
 41
60.0
 42
60.0
 43
60.0
  0
TEXT
  8
3
  40
90
  5
7F4B
  62
0
  72
0
  71
0
 10
3985.92
 20
2155.05
 30
0.000000
  1
526
  0
POINT
  5
7F09
  8
DEFPOINTS
  6
CONTINUOUS
 62
     0
 10
3902.1429189999999
 20
2470.6954839999999
 30
0.0
  0
POINT
  5
7F0A
  8
DEFPOINTS
  6
CONTINUOUS
 62
     0
 10
4428.142918999999
 20
2333.7244890000002
 30
0.0
  0
POINT
  5
7F0B
  8
DEFPOINTS
  6
CONTINUOUS
 62
     0
 10
4428.142918999999
 20
2239.3547870000002
 30
0.0
  0
ENDBLK
  5
7D0D
  8
0
  0
BLOCK
  8
0
  2
*D13
 70
     1
 10
0.0
 20
0.0
 30
0.0
  3
*D13
  1

  0
LINE
  5
7F0C
  8
3
  6
CONTINUOUS
 62
     0
 10
4832.1429189999999
 20
2455.6954839999999
 30
0.0
 11
4832.1429189999999
 21
2209.3547870000002
 31
0.0
  0
LINE
  5
7F0D
  8
3
  6
CONTINUOUS
 62
     0
 10
4488.1429189999999
 20
2239.3547870000002
 30
0.0
 11
4772.1429189999999
 21
2239.3547870000002
 31
0.0
  0
TEXT
  8
3
  40
90
  5
7F4C
  62
0
  72
0
  71
0
 10
4447.82
 20
2155.50
 30
0.000000
  1
404
  0
INSERT
  5
7F0F
  8
3
  6
CONTINUOUS
 62
     0
  2
_OPEN
 10
4428.142918999999
 20
2239.3547870000002
 30
0.0
 41
60.0
 42
60.0
 43
60.0
 50
180.0
  0
INSERT
  5
7F10
  8
3
  6
CONTINUOUS
 62
     0
  2
_OPEN
 10
4832.1429189999999
 20
2239.3547870000002
 30
0.0
 41
60.0
 42
60.0
 43
60.0
  0
POINT
  5
7F11
  8
DEFPOINTS
  6
CONTINUOUS
 62
     0
 10
4428.142918999999
 20
2333.7244890000002
 30
0.0
  0
POINT
  5
7F12
  8
DEFPOINTS
  6
CONTINUOUS
 62
     0
 10
4832.1429189999999
 20
2470.6954839999999
 30
0.0
  0
POINT
  5
7F13
  8
DEFPOINTS
  6
CONTINUOUS
 62
     0
 10
4832.1429189999999
 20
2239.3547870000002
 30
0.0
  0
ENDBLK
  5
7D2F
  8
0
  0
BLOCK
  8
0
  2
*D14
 70
     1
 10
0.0
 20
0.0
 30
0.0
  3
*D14
  1

  0
LINE
  5
7F14
  8
3
  6
CONTINUOUS
 62
     0
 10
1487.183544
 20
6024.0545350000011
 30
0.0
 11
1487.183544
 21
6176.5990039999988
 31
0.0
  0
LINE
  5
7F15
  8
3
  6
CONTINUOUS
 62
     0
 10
2997.183544
 20
6024.0545350000011
 30
0.0
 11
2997.183544
 21
6176.5990039999988
 31
0.0
  0
LINE
  5
7F16
  8
3
  6
CONTINUOUS
 62
     0
 10
1547.183544
 20
6146.5990039999997
 30
0.0
 11
2937.183544
 21
6146.5990039999997
 31
0.0
  0
INSERT
  5
7F17
  8
3
  6
CONTINUOUS
 62
     0
  2
_OPEN
 10
1487.183544
 20
6146.5990039999997
 30
0.0
 41
60.0
 42
60.0
 43
60.0
 50
180.0
  0
INSERT
  5
7F18
  8
3
  6
CONTINUOUS
 62
     0
  2
_OPEN
 10
2997.183544
 20
6146.5990039999997
 30
0.0
 41
60.0
 42
60.0
 43
60.0
  0
TEXT
  8
3
  40
90
  5
7F4D
  62
0
  72
0
  71
0
 10
2027.90
 20
6062.30
 30
0.000000
  1
1510
  0
POINT
  5
7F1A
  8
DEFPOINTS
  6
CONTINUOUS
 62
     0
 10
1487.183544
 20
6009.0545350000002
 30
0.0
  0
POINT
  5
7F1B
  8
DEFPOINTS
  6
CONTINUOUS
 62
     0
 10
2997.183544
 20
6009.0545350000002
 30
0.0
  0
POINT
  5
7F1C
  8
DEFPOINTS
  6
CONTINUOUS
 62
     0
 10
2997.183544
 20
6146.5990039999997
 30
0.0
  0
ENDBLK
  5
7D02
  8
0
  0
BLOCK
  8
0
  2
*D15
 70
     1
 10
0.0
 20
0.0
 30
0.0
  3
*D15
  1

  0
LINE
  5
7F1D
  8
3
  6
CONTINUOUS
 62
     0
 10
3012.183544
 20
6009.0545350000002
 30
0.0
 11
3298.9824380000009
 21
6009.0545350000002
 31
0.0
  0
LINE
  5
7F1E
  8
3
  6
CONTINUOUS
 62
     0
 10
3012.183544
 20
5079.0545350000002
 30
0.0
 11
3298.982438
 21
5079.0545350000002
 31
0.0
  0
LINE
  5
7F1F
  8
3
  6
CONTINUOUS
 62
     0
 10
3268.9824380000009
 20
5949.0545350000011
 30
0.0
 11
3268.9824380000009
 21
5139.0545350000002
 31
0.0
  0
INSERT
  5
7F20
  8
3
  6
CONTINUOUS
 62
     0
  2
_OPEN
 10
3268.9824380000009
 20
6009.0545350000002
 30
0.0
 41
60.0
 42
60.0
 43
60.0
 50
90.0
  0
INSERT
  5
7F21
  8
3
  6
CONTINUOUS
 62
     0
  2
_OPEN
 10
3268.982438
 20
5079.0545350000002
 30
0.0
 41
60.0
 42
60.0
 43
60.0
 50
270.0
  0
TEXT
  8
3
  40
90
  5
7F4E
  62
0
  72
0
  71
0
 10
3013.98
 20
5380.88
 30
0.000000
  1
930
  0
POINT
  5
7F23
  8
DEFPOINTS
  6
CONTINUOUS
 62
     0
 10
2997.183544
 20
6009.0545350000002
 30
0.0
  0
POINT
  5
7F24
  8
DEFPOINTS
  6
CONTINUOUS
 62
     0
 10
2997.183544
 20
5079.0545350000002
 30
0.0
  0
POINT
  5
7F25
  8
DEFPOINTS
  6
CONTINUOUS
 62
     0
 10
3268.982438
 20
5079.0545350000002
 30
0.0
  0
ENDBLK
  5
7C89
  8
0
  0
BLOCK
  8
0
  2
*D16
 70
     1
 10
0.0
 20
0.0
 30
0.0
  3
*D16
  1

  0
LINE
  5
7F26
  8
3
  6
CONTINUOUS
 62
     0
 10
2489.183544
 20
3181.6954839999999
 30
0.0
 11
2489.183544
 21
4057.0631759999992
 31
0.0
  0
LINE
  5
7F27
  8
3
  6
CONTINUOUS
 62
     0
 10
2027.183544
 20
4027.0631760000001
 30
0.0
 11
2429.183544
 21
4027.0631760000001
 31
0.0
  0
INSERT
  5
7F28
  8
3
  6
CONTINUOUS
 62
     0
  2
_OPEN
 10
1967.183544
 20
4027.0631760000001
 30
0.0
 41
60.0
 42
60.0
 43
60.0
 50
180.0
  0
INSERT
  5
7F29
  8
3
  6
CONTINUOUS
 62
     0
  2
_OPEN
 10
2489.183544
 20
4027.0631760000001
 30
0.0
 41
60.0
 42
60.0
 43
60.0
  0
TEXT
  8
3
  40
90
  5
7F4F
  62
0
  72
0
  71
0
 10
2048.18
 20
3942.76
 30
0.000000
  1
522
  0
POINT
  5
7F2B
  8
DEFPOINTS
  6
CONTINUOUS
 62
     0
 10
1967.183544
 20
3863.8084389999999
 30
0.0
  0
POINT
  5
7F2C
  8
DEFPOINTS
  6
CONTINUOUS
 62
     0
 10
2489.183544
 20
3166.6954839999989
 30
0.0
  0
POINT
  5
7F2D
  8
DEFPOINTS
  6
CONTINUOUS
 62
     0
 10
2489.183544
 20
4027.0631760000001
 30
0.0
  0
ENDBLK
  5
7CE9
  8
0
  0
BLOCK
  8
0
  2
*D17
 70
     1
 10
0.0
 20
0.0
 30
0.0
  3
*D17
  1

  0
LINE
  5
7F2E
  8
3
  6
CONTINUOUS
 62
     0
 10
1467.183544
 20
3826.6954839999999
 30
0.0
 11
942.21786800000052
 21
3826.6954840000012
 31
0.0
  0
LINE
  5
7F2F
  8
3
  6
CONTINUOUS
 62
     0
 10
1472.1835439999991
 20
2470.6954839999999
 30
0.0
 11
942.21786800000029
 21
2470.6954839999999
 31
0.0
  0
LINE
  5
7F30
  8
3
  6
CONTINUOUS
 62
     0
 10
972.21786800000064
 20
3766.6954840000012
 30
0.0
 11
972.21786800000018
 21
2530.6954839999999
 31
0.0
  0
INSERT
  5
7F31
  8
3
  6
CONTINUOUS
 62
     0
  2
_OPEN
 10
972.21786800000064
 20
3826.6954840000012
 30
0.0
 41
60.0
 42
60.0
 43
60.0
 50
90.0
  0
INSERT
  5
7F32
  8
3
  6
CONTINUOUS
 62
     0
  2
_OPEN
 10
972.21786800000018
 20
2470.6954839999999
 30
0.0
 41
60.0
 42
60.0
 43
60.0
 50
270.0
  0
TEXT
  8
3
  40
90
  5
7F50
  62
0
  72
0
  71
0
 10
717.218
 20
2978.39
 30
0.000000
  1
1356
  0
POINT
  5
7F34
  8
DEFPOINTS
  6
CONTINUOUS
 62
     0
 10
1482.183544
 20
3826.6954839999999
 30
0.0
  0
POINT
  5
7F35
  8
DEFPOINTS
  6
CONTINUOUS
 62
     0
 10
1487.183544
 20
2470.6954839999999
 30
0.0
  0
POINT
  5
7F36
  8
DEFPOINTS
  6
CONTINUOUS
 62
     0
 10
972.21786800000018
 20
2470.6954839999999
 30
0.0
  0
ENDBLK
  5
7CF6
  8
0
  0
BLOCK
  8
0
  2
*D18
 70
     1
 10
0.0
 20
0.0
 30
0.0
  3
*D18
  1

  0
LINE
  5
7F37
  8
3
 62
     0
 10
1482.183544
 20
3841.6954839999999
 30
0.0
 11
1482.183544
 21
4256.7852538212419
 31
0.0
  0
LINE
  5
7F38
  8
3
 62
     0
 10
2997.183544
 20
2585.6954839999999
 30
0.0
 11
2997.183544
 21
4256.7852538212419
 31
0.0
  0
LINE
  5
7F39
  8
3
 62
     0
 10
1542.183544
 20
4226.7852538212428
 30
0.0
 11
2937.183544
 21
4226.7852538212428
 31
0.0
  0
INSERT
  5
7F3A
  8
3
 62
     0
  2
_OPEN
 10
1482.183544
 20
4226.7852538212428
 30
0.0
 41
60.0
 42
60.0
 43
60.0
 50
180.0
  0
INSERT
  5
7F3B
  8
3
 62
     0
  2
_OPEN
 10
2997.183544
 20
4226.7852538212428
 30
0.0
 41
60.0
 42
60.0
 43
60.0
  0
TEXT
  8
3
  40
90
  5
7F51
  62
0
  72
0
  71
0
 10
2022.44
 20
4142.49
 30
0.000000
  1
1515
  0
POINT
  5
7F3D
  8
DEFPOINTS
 62
     0
 10
1482.183544
 20
3826.6954839999999
 30
0.0
  0
POINT
  5
7F3E
  8
DEFPOINTS
 62
     0
 10
2997.183544
 20
2570.6954839999989
 30
0.0
  0
POINT
  5
7F3F
  8
DEFPOINTS
 62
     0
 10
2997.183544
 20
4226.7852538212428
 30
0.0
  0
ENDBLK
  5
7D69
  8
0
  0
ENDSEC
  0
SECTION
  2
ENTITIES
  0
LINE
  5
7ACF
  8
1
  6
CONTINUOUS
 10
2997.183544
 20
2470.6954839999999
 30
0.0
 11
1487.183544
 21
2470.6954839999999
 31
0.0
  0
LINE
  5
7AD0
  8
1
  6
CONTINUOUS
 10
2997.183544
 20
2570.6954839999989
 30
0.0
 11
1487.183544
 21
2570.6954839999989
 31
0.0
  0
LINE
  5
7AD1
  8
1
  6
CONTINUOUS
 10
2666.9006570000001
 20
2819.5368939999998
 30
0.0
 11
1927.5614589999991
 21
3022.0231279999998
 31
0.0
  0
LINE
  5
7AD2
  8
1
  6
CONTINUOUS
 10
2722.789855
 20
2968.7504749999998
 30
0.0
 11
2032.353705999999
 21
3301.7985920000001
 31
0.0
  0
CIRCLE
  5
7AD3
  8
1
  6
CONTINUOUS
 10
1967.183544
 20
3166.6954839999989
 30
0.0
 40
150.0
  0
LINE
  5
7AD4
  8
2
  6
CENTER
 10
1386.73506
 20
3166.6954839999989
 30
0.0
 11
2869.8682949999989
 21
3166.6954839999989
 31
0.0
  0
ARC
  5
7AD5
  8
1
  6
CONTINUOUS
 10
2002.183544
 20
3201.6954839999999
 30
0.0
 40
488.25444700000003
 50
262.64762100000002
 51
355.48601200000002
  0
ARC
  5
7AD6
  8
1
  6
CONTINUOUS
 10
1926.183544
 20
3207.6954839999999
 30
0.0
 40
564.49092099999984
 50
355.48601200000002
 51
85.834835999999996
  0
LINE
  5
7AD7
  8
1
  6
CONTINUOUS
 10
2897.183544
 20
2996.6954839999989
 30
0.0
 11
2067.183544
 21
3696.6954840000012
 31
0.0
  0
LINE
  5
7AD8
  8
1
  6
CONTINUOUS
 10
2947.1835439999991
 20
2596.6954839999999
 30
0.0
 11
1537.183544
 21
2596.6954839999999
 31
0.0
  0
LINE
  5
7AD9
  8
1
  6
CONTINUOUS
 10
1525.183544
 20
2696.6954839999999
 30
0.0
 11
2947.1835439999991
 21
2696.6954839999999
 31
0.0
  0
LINE
  5
7ADA
  8
1
  6
CONTINUOUS
 10
1525.183544
 20
3608.6954839999999
 30
0.0
 11
2409.183544
 21
3608.6954839999999
 31
0.0
  0
ARC
  5
7ADD
  8
1
  6
CONTINUOUS
 10
1994.183544
 20
3139.6954839999999
 30
0.0
 40
425.74044800000001
 50
180.403741
 51
262.64762100000002
  0
LINE
  5
7ADE
  8
1
  6
CONTINUOUS
 10
1627.183544
 20
2696.6954839999999
 30
0.0
 11
1627.183544
 21
3696.6954840000012
 31
0.0
  0
LINE
  5
7ADF
  8
1
  6
CONTINUOUS
 10
1525.183544
 20
3608.6954839999999
 30
0.0
 11
1525.183544
 21
2696.6954839999999
 31
0.0
  0
LINE
  5
7AE0
  8
1
  6
CONTINUOUS
 10
1487.183544
 20
2570.6954839999989
 30
0.0
 11
1487.183544
 21
2470.6954839999999
 31
0.0
  0
LINE
  5
7AE1
  8
1
  6
CONTINUOUS
 10
1537.183544
 20
2596.6954839999999
 30
0.0
 11
1537.183544
 21
2696.6954839999999
 31
0.0
  0
LINE
  5
7AE2
  8
1
  6
CONTINUOUS
 10
1512.1835439999991
 20
3136.6954839999999
 30
0.0
 11
1512.1835439999991
 21
3785.375896
 31
0.0
  0
LINE
  5
7AE3
  8
1
  6
CONTINUOUS
 10
1482.183544
 20
3096.6954839999999
 30
0.0
 11
1482.183544
 21
3826.6954839999999
 31
0.0
  0
LINE
  5
7AE4
  8
1
  6
CONTINUOUS
 10
1568.453665
 20
3136.6954839999999
 30
0.0
 11
1482.183544
 21
3136.6954839999999
 31
0.0
  0
LINE
  5
7AE5
  8
2
  6
CENTER
 10
1967.183544
 20
6019.8806090000007
 30
0.0
 11
1967.183544
 21
4980.5783039999988
 31
0.0
  0
LINE
  5
7AE6
  8
1
  6
CONTINUOUS
 10
1482.183544
 20
3786.6954839999999
 30
0.0
 11
1967.183544
 21
3770.6954839999999
 31
0.0
  0
LINE
  5
7AE7
  8
1
  6
CONTINUOUS
 10
1627.183544
 20
3696.6954840000012
 30
0.0
 11
2067.183544
 21
3696.6954840000012
 31
0.0
  0
LINE
  5
7AE9
  8
2
  6
CENTER
 10
2688.0324350000001
 20
2976.6954839999999
 30
0.0
 11
2688.0324350000001
 21
2816.6954839999999
 31
0.0
  0
LINE
  5
7AEA
  8
1
  6
CONTINUOUS
 10
2897.183544
 20
2696.6954839999999
 30
0.0
 11
2897.183544
 21
2996.6954839999989
 31
0.0
  0
ARC
  5
7AEB
  8
1
  6
CONTINUOUS
 10
2688.0324350000001
 20
2896.6954839999999
 30
0.0
 40
162.0
 50
324.972283
 51
215.02771699999991
  0
CIRCLE
  5
7AEC
  8
1
  6
CONTINUOUS
 10
2688.0324350000001
 20
2896.6954839999999
 30
0.0
 40
80.0
  0
LINE
  5
7AED
  8
1
  6
CONTINUOUS
 10
2409.183544
 20
3608.6954839999999
 30
0.0
 11
2409.183544
 21
2696.6954839999999
 31
0.0
  0
LINE
  5
7AEE
  8
1
  6
CONTINUOUS
 10
2534.0324350000001
 20
2736.6954839999999
 30
0.0
 11
2842.0324350000001
 21
2736.6954839999999
 31
0.0
  0
LINE
  5
7AEF
  8
1
  6
CONTINUOUS
 10
2534.0324350000001
 20
2696.6954839999999
 30
0.0
 11
2534.0324350000001
 21
2754.6954839999989
 31
0.0
  0
LINE
  5
7AF0
  8
1
  6
CONTINUOUS
 10
2534.0324350000001
 20
2754.6954839999989
 30
0.0
 11
2555.3747699999999
 21
2803.7119170000001
 31
0.0
  0
LINE
  5
7AF1
  8
1
  6
CONTINUOUS
 10
2997.183544
 20
2570.6954839999989
 30
0.0
 11
2997.183544
 21
2470.6954839999999
 31
0.0
  0
LINE
  5
7AF2
  8
2
  6
CENTER
 10
2608.0324350000001
 20
2896.6954839999999
 30
0.0
 11
2768.0324350000001
 21
2896.6954839999999
 31
0.0
  0
LINE
  5
7AF3
  8
1
  6
CONTINUOUS
 10
2842.0324350000001
 20
2696.6954839999999
 30
0.0
 11
2842.0324350000001
 21
2754.6954839999989
 31
0.0
  0
LINE
  5
7AF4
  8
1
  6
CONTINUOUS
 10
2842.0324350000001
 20
2736.6954839999999
 30
0.0
 11
2842.0324350000001
 21
2754.6954839999989
 31
0.0
  0
LINE
  5
7AF5
  8
1
  6
CONTINUOUS
 10
2842.0324350000001
 20
2754.6954839999989
 30
0.0
 11
2820.6901010000001
 21
2803.7119170000001
 31
0.0
  0
LINE
  5
7AF6
  8
1
  6
CONTINUOUS
 10
2947.1835439999991
 20
2696.6954839999999
 30
0.0
 11
2947.1835439999991
 21
2596.6954839999999
 31
0.0
  0
LINE
  5
7B16
  8
1
  6
CONTINUOUS
 10
4190.6429189999999
 20
3786.6954839999999
 30
0.0
 11
4190.6429189999999
 21
2696.6954839999999
 31
0.0
  0
LINE
  5
7B17
  8
1
  6
CONTINUOUS
 10
4665.642918999999
 20
3786.6954839999999
 30
0.0
 11
4665.642918999999
 21
2696.6954839999999
 31
0.0
  0
LINE
  5
7B18
  8
1
  6
CONTINUOUS
 10
3948.1429189999999
 20
3696.6954840000012
 30
0.0
 11
3948.1429189999999
 21
2696.6954839999999
 31
0.0
  0
LINE
  5
7B19
  8
1
  6
CONTINUOUS
 10
4088.1429189999999
 20
3696.6954840000012
 30
0.0
 11
4088.1429189999999
 21
2696.6954839999999
 31
0.0
  0
LINE
  5
7B1A
  8
1
  6
CONTINUOUS
 10
3983.1429189999999
 20
2976.6954839999999
 30
0.0
 11
3983.1429189999999
 21
2816.6954839999999
 31
0.0
  0
LINE
  5
7B1B
  8
1
  6
CONTINUOUS
 10
4053.142918999999
 20
2976.6954839999999
 30
0.0
 11
4053.142918999999
 21
2816.6954839999999
 31
0.0
  0
LINE
  5
7B1C
  8
1
  6
CONTINUOUS
 10
4017.1429189999999
 20
2596.6954839999999
 30
0.0
 11
4717.142918999999
 21
2596.6954839999999
 31
0.0
  0
LINE
  5
7B1D
  8
1
  6
CONTINUOUS
 10
4017.1429189999999
 20
2696.6954839999999
 30
0.0
 11
4717.142918999999
 21
2696.6954839999999
 31
0.0
  0
LINE
  5
7B1E
  8
1
  6
CONTINUOUS
 10
3902.1429189999999
 20
2470.6954839999999
 30
0.0
 11
4832.1429189999999
 21
2470.6954839999999
 31
0.0
  0
LINE
  5
7B1F
  8
1
  6
CONTINUOUS
 10
3902.1429189999999
 20
2570.6954839999989
 30
0.0
 11
4832.1429189999999
 21
2570.6954839999989
 31
0.0
  0
LINE
  5
7B21
  8
1
  6
CONTINUOUS
 10
3983.1429189999999
 20
2816.6954839999999
 30
0.0
 11
4053.142918999999
 21
2816.6954839999999
 31
0.0
  0
LINE
  5
7B22
  8
1
  6
CONTINUOUS
 10
4017.1429189999999
 20
2696.6954839999999
 30
0.0
 11
4017.1429189999999
 21
2596.6954839999999
 31
0.0
  0
LINE
  5
7B23
  8
1
  6
CONTINUOUS
 10
3948.1429189999999
 20
2696.6954839999999
 30
0.0
 11
4017.1429189999999
 21
2696.6954839999999
 31
0.0
  0
LINE
  5
7B24
  8
1
  6
CONTINUOUS
 10
3902.1429189999999
 20
2570.6954839999989
 30
0.0
 11
3902.1429189999999
 21
2470.6954839999999
 31
0.0
  0
LINE
  5
7B27
  8
1
  6
CONTINUOUS
 10
4053.142918999999
 20
2875.6954839999989
 30
0.0
 11
4190.6429189999999
 21
2875.6954839999989
 31
0.0
  0
LINE
  5
7B28
  8
1
  6
CONTINUOUS
 10
4717.142918999999
 20
2696.6954839999999
 30
0.0
 11
4717.142918999999
 21
2596.6954839999999
 31
0.0
  0
LINE
  5
7B29
  8
1
  6
CONTINUOUS
 10
4832.1429189999999
 20
2570.6954839999989
 30
0.0
 11
4832.1429189999999
 21
2470.6954839999999
 31
0.0
  0
LINE
  5
7B2A
  8
1
  6
CONTINUOUS
 10
4190.6429189999999
 20
3786.6954839999999
 30
0.0
 11
4665.642918999999
 21
3786.6954839999999
 31
0.0
  0
LINE
  5
7B2B
  8
1
  6
CONTINUOUS
 10
4190.6429189999999
 20
3136.6954839999999
 30
0.0
 11
4665.642918999999
 21
3136.6954839999999
 31
0.0
  0
LINE
  5
7B2C
  8
1
  6
CONTINUOUS
 10
4665.642918999999
 20
3786.6954839999999
 30
0.0
 11
4190.6429189999999
 21
3136.6954839999999
 31
0.0
  0
LINE
  5
7B2D
  8
1
  6
CONTINUOUS
 10
4190.6429189999999
 20
3786.6954839999999
 30
0.0
 11
4665.642918999999
 21
3136.6954839999999
 31
0.0
  0
LINE
  5
7B2E
  8
1
  6
CONTINUOUS
 10
3983.1429189999999
 20
3016.6954839999989
 30
0.0
 11
4053.142918999999
 21
3016.6954839999989
 31
0.0
  0
LINE
  5
7B2F
  8
1
  6
CONTINUOUS
 10
3983.1429189999999
 20
3316.6954839999999
 30
0.0
 11
4053.142918999999
 21
3316.6954839999999
 31
0.0
  0
LINE
  5
7B30
  8
1
  6
CONTINUOUS
 10
3983.1429189999999
 20
2976.6954839999999
 30
0.0
 11
4053.142918999999
 21
2976.6954839999999
 31
0.0
  0
LINE
  5
7B31
  8
1
  6
CONTINUOUS
 10
3983.1429189999999
 20
3316.6954839999999
 30
0.0
 11
3983.1429189999999
 21
3016.6954839999989
 31
0.0
  0
LINE
  5
7B32
  8
1
  6
CONTINUOUS
 10
4053.142918999999
 20
3145.6954839999989
 30
0.0
 11
4190.6429189999999
 21
3145.6954839999989
 31
0.0
  0
LINE
  5
7B33
  8
1
  6
CONTINUOUS
 10
4053.142918999999
 20
3187.6954839999999
 30
0.0
 11
4190.6429189999999
 21
3187.6954839999999
 31
0.0
  0
LINE
  5
7B34
  8
1
  6
CONTINUOUS
 10
4053.142918999999
 20
3316.6954839999999
 30
0.0
 11
4053.142918999999
 21
3016.6954839999989
 31
0.0
  0
LINE
  5
7B35
  8
1
  6
CONTINUOUS
 10
4053.142918999999
 20
2917.6954839999999
 30
0.0
 11
4190.6429189999999
 21
2917.6954839999999
 31
0.0
  0
LINE
  5
7B36
  8
1
  6
CONTINUOUS
 10
4088.1429189999999
 20
3696.6954840000012
 30
0.0
 11
3948.1429189999999
 21
3696.6954840000012
 31
0.0
  0
LINE
  5
7B3D
  8
1
  6
CONTINUOUS
 10
1537.183544
 20
5894.0545350000002
 30
0.0
 11
2947.1835439999991
 21
5894.0545350000002
 31
0.0
  0
LINE
  5
7B3E
  8
1
  6
CONTINUOUS
 10
1482.183544
 20
5367.5545350000002
 30
0.0
 11
2490.6744650000001
 21
5367.5545350000002
 31
0.0
  0
LINE
  5
7B3F
  8
1
  6
CONTINUOUS
 10
1482.183544
 20
5842.5545350000002
 30
0.0
 11
2490.6744650000001
 21
5842.5545350000002
 31
0.0
  0
LINE
  5
7B40
  8
1
  6
CONTINUOUS
 10
2117.1835439999991
 20
5160.0545350000002
 30
0.0
 11
1817.183544
 21
5160.0545350000002
 31
0.0
  0
LINE
  5
7B41
  8
1
  6
CONTINUOUS
 10
2117.1835439999991
 20
5230.0545350000002
 30
0.0
 11
1817.183544
 21
5230.0545350000002
 31
0.0
  0
LINE
  5
7B42
  8
1
  6
CONTINUOUS
 10
1627.183544
 20
5265.0545350000002
 30
0.0
 11
2897.183544
 21
5265.0545350000002
 31
0.0
  0
LINE
  5
7B43
  8
1
  6
CONTINUOUS
 10
1627.183544
 20
5125.0545350000002
 30
0.0
 11
2897.183544
 21
5125.0545350000002
 31
0.0
  0
LINE
  5
7B44
  8
1
  6
CONTINUOUS
 10
1522.1835439999991
 20
5367.5545350000002
 30
0.0
 11
1522.1835439999991
 21
5842.5545350000002
 31
0.0
  0
LINE
  5
7B45
  8
1
  6
CONTINUOUS
 10
1482.183544
 20
5325.0545350000002
 30
0.0
 11
1482.183544
 21
5885.0545350000002
 31
0.0
  0
LINE
  5
7B46
  8
1
  6
CONTINUOUS
 10
1817.183544
 20
5194.0545350000002
 30
0.0
 11
1537.183544
 21
5194.0545350000002
 31
0.0
  0
LINE
  5
7B47
  8
1
  6
CONTINUOUS
 10
1537.183544
 20
5367.5545350000002
 30
0.0
 11
1537.183544
 21
5079.0545350000002
 31
0.0
  0
LINE
  5
7B48
  8
1
  6
CONTINUOUS
 10
1537.183544
 20
5079.0545350000002
 30
0.0
 11
1487.183544
 21
5079.0545350000002
 31
0.0
  0
LINE
  5
7B49
  8
1
  6
CONTINUOUS
 10
1487.183544
 20
5367.5545350000002
 30
0.0
 11
1487.183544
 21
5079.0545350000002
 31
0.0
  0
LINE
  5
7B4A
  8
1
  6
CONTINUOUS
 10
1946.183544
 20
5230.0545350000002
 30
0.0
 11
1946.183544
 21
5367.5545350000002
 31
0.0
  0
LINE
  5
7B4B
  8
1
  6
CONTINUOUS
 10
1988.183544
 20
5230.0545350000002
 30
0.0
 11
1988.183544
 21
5367.5545350000002
 31
0.0
  0
LINE
  5
7B4C
  8
1
  6
CONTINUOUS
 10
1627.183544
 20
5125.0545350000002
 30
0.0
 11
1627.183544
 21
5265.0545350000002
 31
0.0
  0
LINE
  5
7B4D
  8
1
  6
CONTINUOUS
 10
1817.183544
 20
5160.0545350000002
 30
0.0
 11
1817.183544
 21
5230.0545350000002
 31
0.0
  0
LINE
  5
7B4E
  8
1
  6
CONTINUOUS
 10
1537.183544
 20
6009.0545350000002
 30
0.0
 11
1537.183544
 21
5842.5545350000002
 31
0.0
  0
LINE
  5
7B4F
  8
1
  6
CONTINUOUS
 10
1487.183544
 20
6009.0545350000002
 30
0.0
 11
1487.183544
 21
5842.5545350000002
 31
0.0
  0
LINE
  5
7B50
  8
1
  6
CONTINUOUS
 10
1537.183544
 20
6009.0545350000002
 30
0.0
 11
1487.183544
 21
6009.0545350000002
 31
0.0
  0
LINE
  5
7B51
  8
1
  6
CONTINUOUS
 10
1537.183544
 20
5842.5545350000002
 30
0.0
 11
1537.183544
 21
5894.0545350000002
 31
0.0
  0
LINE
  5
7B52
  8
1
  6
CONTINUOUS
 10
2947.1835439999991
 20
6009.0545350000002
 30
0.0
 11
2947.1835439999991
 21
5079.0545350000002
 31
0.0
  0
LINE
  5
7B53
  8
1
  6
CONTINUOUS
 10
2997.183544
 20
6009.0545350000002
 30
0.0
 11
2997.183544
 21
5079.0545350000002
 31
0.0
  0
LINE
  5
7B54
  8
1
  6
CONTINUOUS
 10
2490.6744650000001
 20
5367.5545350000002
 30
0.0
 11
2490.6744650000001
 21
5842.5545350000002
 31
0.0
  0
LINE
  5
7B55
  8
1
  6
CONTINUOUS
 10
2850.0324350000001
 20
5296.7864520000003
 30
0.0
 11
2850.0324350000001
 21
5781.7864520000003
 31
0.0
  0
LINE
  5
7B56
  8
1
  6
CONTINUOUS
 10
2526.0324350000001
 20
5296.7864520000003
 30
0.0
 11
2526.0324350000001
 21
5781.7864520000003
 31
0.0
  0
LINE
  5
7B57
  8
1
  6
CONTINUOUS
 10
2526.0324350000001
 20
5618.5029000000013
 30
0.0
 11
2526.0324350000001
 21
5376.2558600000002
 31
0.0
  0
LINE
  5
7B58
  8
1
  6
CONTINUOUS
 10
2608.0324350000001
 20
5194.0545350000002
 30
0.0
 11
2117.1835439999991
 21
5194.0545350000002
 31
0.0
  0
LINE
  5
7B59
  8
1
  6
CONTINUOUS
 10
2850.0324350000001
 20
5296.7864520000003
 30
0.0
 11
2526.0324350000001
 21
5296.7864520000003
 31
0.0
  0
LINE
  5
7B5A
  8
1
  6
CONTINUOUS
 10
2117.1835439999991
 20
5160.0545350000002
 30
0.0
 11
2117.1835439999991
 21
5230.0545350000002
 31
0.0
  0
LINE
  5
7B5B
  8
1
  6
CONTINUOUS
 10
2997.183544
 20
5079.0545350000002
 30
0.0
 11
2947.1835439999991
 21
5079.0545350000002
 31
0.0
  0
LINE
  5
7B5C
  8
1
  6
CONTINUOUS
 10
2897.183544
 20
5125.0545350000002
 30
0.0
 11
2897.183544
 21
5265.0545350000002
 31
0.0
  0
LINE
  5
7B5D
  8
1
  6
CONTINUOUS
 10
2768.0324350000001
 20
5230.0545350000002
 30
0.0
 11
2608.0324350000001
 21
5230.0545350000002
 31
0.0
  0
LINE
  5
7B5E
  8
1
  6
CONTINUOUS
 10
2768.0324350000001
 20
5160.0545350000002
 30
0.0
 11
2608.0324350000001
 21
5160.0545350000002
 31
0.0
  0
LINE
  5
7B5F
  8
1
  6
CONTINUOUS
 10
2608.0324350000001
 20
5160.0545350000002
 30
0.0
 11
2608.0324350000001
 21
5230.0545350000002
 31
0.0
  0
LINE
  5
7B60
  8
1
  6
CONTINUOUS
 10
2768.0324350000001
 20
5160.0545350000002
 30
0.0
 11
2768.0324350000001
 21
5230.0545350000002
 31
0.0
  0
LINE
  5
7B61
  8
1
  6
CONTINUOUS
 10
2709.0324350000001
 20
5230.0545350000002
 30
0.0
 11
2709.0324350000001
 21
5296.7864520000003
 31
0.0
  0
LINE
  5
7B62
  8
1
  6
CONTINUOUS
 10
2667.0324350000001
 20
5230.0545350000002
 30
0.0
 11
2667.0324350000001
 21
5296.7864520000003
 31
0.0
  0
LINE
  5
7B63
  8
1
  6
CONTINUOUS
 10
2947.1835439999991
 20
5194.0545350000002
 30
0.0
 11
2768.0324350000001
 21
5194.0545350000002
 31
0.0
  0
LINE
  5
7B64
  8
1
  6
CONTINUOUS
 10
2850.0324350000001
 20
5781.7864520000003
 30
0.0
 11
2526.0324350000001
 21
5781.7864520000003
 31
0.0
  0
LINE
  5
7B65
  8
1
  6
CONTINUOUS
 10
2997.183544
 20
6009.0545350000002
 30
0.0
 11
2947.1835439999991
 21
6009.0545350000002
 31
0.0
  0
LINE
  5
7B89
  8
2
  6
CENTER
 10
3111.8232800000001
 20
5605.0545350000002
 30
0.0
 11
1379.0890119999999
 21
5605.0545350000002
 31
0.0
  0
LINE
  5
7B8A
  8
2
  6
CENTER
 10
4431.9647829999994
 20
3891.9696279999998
 30
0.0
 11
4428.142918999999
 21
2333.7244890000002
 31
0.0
  0
LINE
  5
7B8B
  8
2
  6
CENTER
 10
1967.183544
 20
3863.8084389999999
 30
0.0
 11
1967.183544
 21
2338.2620350000002
 31
0.0
  0
LINE
  5
7B8C
  8
2
  6
CENTER
 10
3878.129637
 20
3166.6954839999989
 30
0.0
 11
4759.2942479999983
 21
3166.6954839999989
 31
0.0
  0
DIMENSION
  5
7BA0
  8
3
  6
CONTINUOUS
  2
*D1
 10
1369.5870970000001
 20
3136.6954839999999
 30
0.0
 11
1369.5870970000001
 21
3429.542794
 31
0.0
 70
   128
 13
1482.183544
 23
3786.6954839999999
 33
0.0
 14
1482.183544
 24
3136.6954839999999
 34
0.0
 50
90.0
1001
ACAD
1000
DSTYLE
1002
{
1070
   287
1070
     3
1070
   287
1070
     3
1070
    40
1040
30.0
1070
   143
1040
0.039
1070
   172
1070
     1
1070
   271
1070
     0
1070
   279
1070
     0
1070
   288
1070
     1
1002
}
  0
DIMENSION
  5
7BAD
  8
3
  6
CONTINUOUS
  2
*D2
 10
1187.8548350000001
 20
3166.6954839999989
 30
0.0
 11
1187.854834999999
 21
3429.542794
 31
0.0
 70
   128
 13
1482.183544
 23
3786.6954839999999
 33
0.0
 14
1383.823893
 24
3166.6954839999989
 34
0.0
 50
90.0
1001
ACAD
1000
DSTYLE
1002
{
1070
   287
1070
     3
1070
   287
1070
     3
1070
    40
1040
30.0
1070
   143
1040
0.039
1070
   172
1070
     1
1070
   271
1070
     0
1070
   279
1070
     0
1070
   288
1070
     1
1002
}
  0
DIMENSION
  5
7BB9
  8
3
  6
CONTINUOUS
  2
*D3
 10
1187.854834999999
 20
2596.6954839999999
 30
0.0
 11
1112.854834999999
 21
2881.6954839999999
 31
0.0
 70
     0
 13
1383.823893
 23
3166.6954839999989
 33
0.0
 14
1537.183544
 24
2596.6954839999999
 34
0.0
 50
90.0
1001
ACAD
1000
DSTYLE
1002
{
1070
   287
1070
     4
1070
   287
1070
     4
1070
    40
1040
30.0
1070
    75
1070
     1
1070
   143
1040
0.039
1070
   172
1070
     1
1070
   271
1070
     0
1070
   279
1070
     1
1070
   288
1070
     1
1002
}
  0
DIMENSION
  5
7BC9
  8
3
  6
CONTINUOUS
  2
*D4
 10
1191.177981
 20
2470.6954839999999
 30
0.0
 11
1191.177981
 21
2215.6954839999999
 31
0.0
 70
   128
 13
1537.183544
 23
2596.6954839999999
 33
0.0
 14
1487.183544
 24
2470.6954839999999
 34
0.0
 50
90.0
1001
ACAD
1000
DSTYLE
1002
{
1070
   287
1070
     3
1070
   287
1070
     3
1070
    40
1040
30.0
1070
   143
1040
0.039
1070
   172
1070
     1
1070
   271
1070
     0
1070
   279
1070
     0
1070
   288
1070
     1
1002
}
  0
DIMENSION
  5
7BD6
  8
3
  6
CONTINUOUS
  2
*D5
 10
1967.183544
 20
2208.0854449999988
 30
0.0
 11
1727.1893090000001
 21
2208.0854449999988
 31
0.0
 70
   128
 13
1487.183544
 23
2470.6954839999999
 33
0.0
 14
1967.183544
 24
2338.2620350000002
 34
0.0
1001
ACAD
1000
DSTYLE
1002
{
1070
   287
1070
     3
1070
   287
1070
     3
1070
    40
1040
30.0
1070
   143
1040
0.039
1070
   172
1070
     1
1070
   271
1070
     0
1070
   279
1070
     0
1070
   288
1070
     1
1002
}
  0
DIMENSION
  5
7BE2
  8
3
  6
CONTINUOUS
  2
*D6
 10
2997.183544
 20
2208.0854449999988
 30
0.0
 11
2482.183544
 21
2283.0854449999988
 31
0.0
 70
     0
 13
1967.183544
 23
2338.2620350000002
 33
0.0
 14
2997.183544
 24
2470.6954839999999
 34
0.0
1001
ACAD
1000
DSTYLE
1002
{
1070
   287
1070
     4
1070
   287
1070
     4
1070
    40
1040
30.0
1070
    75
1070
     1
1070
   143
1040
0.039
1070
   172
1070
     1
1070
   271
1070
     0
1070
   279
1070
     1
1070
   288
1070
     1
1002
}
  0
DIMENSION
  5
7BEF
  8
3
  6
CONTINUOUS
  2
*D7
 10
1967.183544
 20
4027.0631760000001
 30
0.0
 11
1687.897829999999
 21
4027.0631760000001
 31
0.0
 70
   128
 13
1482.183544
 23
3826.6954839999999
 33
0.0
 14
1967.183544
 24
3863.8084389999999
 34
0.0
1001
ACAD
1000
DSTYLE
1002
{
1070
   287
1070
     3
1070
   287
1070
     3
1070
    40
1040
30.0
1070
   143
1040
0.039
1070
   172
1070
     1
1070
   271
1070
     0
1070
   279
1070
     0
1070
   288
1070
     1
1002
}
  0
DIMENSION
  5
7C08
  8
3
  6
CONTINUOUS
  2
*D8
 10
4190.6429189999999
 20
3878.0565580000002
 30
0.0
 11
4396.3572050000002
 21
3878.0565580000002
 31
0.0
 70
   128
 13
4665.642918999999
 23
3786.6954839999999
 33
0.0
 14
4190.6429189999999
 24
3786.6954839999999
 34
0.0
1001
ACAD
1000
DSTYLE
1002
{
1070
   287
1070
     3
1070
   287
1070
     3
1070
    40
1040
30.0
1070
   143
1040
0.039
1070
   172
1070
     1
1070
   271
1070
     0
1070
   279
1070
     0
1070
   288
1070
     1
1002
}
  0
LINE
  5
7C09
  8
1
  6
CONTINUOUS
 10
4669.1429189999999
 20
3501.6954839999999
 30
0.0
 11
4669.1429189999999
 21
2831.6954839999989
 31
0.0
  0
DIMENSION
  5
7C18
  8
3
  6
CONTINUOUS
  2
*D9
 10
4927.2450429999999
 20
2831.6954839999989
 30
0.0
 11
4927.2450429999999
 21
3155.9952229999999
 31
0.0
 70
   128
 13
4669.1429189999999
 23
3501.6954839999999
 33
0.0
 14
4669.1429189999999
 24
2831.6954839999989
 34
0.0
 50
90.0
1001
ACAD
1000
DSTYLE
1002
{
1070
   287
1070
     3
1070
   287
1070
     3
1070
     3
1000
φ<>
1070
    40
1040
30.0
1070
   143
1040
0.039
1070
   172
1070
     1
1070
   271
1070
     0
1070
   279
1070
     0
1070
   288
1070
     1
1002
}
  0
DIMENSION
  5
7C26
  8
3
  6
CONTINUOUS
  2
*D10
 10
4428.142918999999
 20
4088.3001608869058
 30
0.0
 11
4547.138539923405
 21
4178.8650870246602
 31
0.0
 70
   128
 13
4669.1429189999999
 23
3501.6954839999999
 33
0.0
 14
4428.142918999999
 24
4019.777064697716
 34
0.0
1001
ACAD
1000
DSTYLE
1002
{
1070
   288
1070
     1
1070
   172
1070
     1
1070
    40
1040
30.0
1070
   271
1070
     0
1070
   143
1040
0.039
1002
}
  0
DIMENSION
  5
7C32
  8
3
  6
CONTINUOUS
  2
*D11
 10
3948.1429189999999
 20
4088.3001608869058
 30
0.0
 11
4188.142918999999
 21
4238.3001608869072
 31
0.0
 70
     0
  1
MAX\P530
 13
4428.142918999999
 23
4019.777064697716
 33
0.0
 14
3948.1429189999999
 24
3696.6954840000012
 34
0.0
1001
ACAD
1000
DSTYLE
1002
{
1070
   287
1070
     4
1070
   287
1070
     4
1070
    40
1040
30.0
1070
    75
1070
     1
1070
   143
1040
0.039
1070
   172
1070
     1
1070
   271
1070
     0
1070
   279
1070
     1
1070
   288
1070
     1
1002
}
  0
DIMENSION
  5
7C3F
  8
3
  6
CONTINUOUS
  2
*D12
 10
4428.142918999999
 20
2239.3547870000002
 30
0.0
 11
4165.9191229999997
 21
2239.3547870000002
 31
0.0
 70
   128
 13
3902.1429189999999
 23
2470.6954839999999
 33
0.0
 14
4428.142918999999
 24
2333.7244890000002
 34
0.0
1001
ACAD
1000
DSTYLE
1002
{
1070
   287
1070
     3
1070
   287
1070
     3
1070
    40
1040
30.0
1070
   143
1040
0.039
1070
   172
1070
     1
1070
   271
1070
     0
1070
   279
1070
     0
1070
   288
1070
     1
1002
}
  0
DIMENSION
  5
7C4D
  8
3
  6
CONTINUOUS
  2
*D13
 10
4832.1429189999999
 20
2239.3547870000002
 30
0.0
 11
4627.8175849999989
 21
2239.801735999999
 31
0.0
 70
   128
 13
4428.142918999999
 23
2333.7244890000002
 33
0.0
 14
4832.1429189999999
 24
2470.6954839999999
 34
0.0
1001
ACAD
1000
DSTYLE
1002
{
1070
   287
1070
     4
1070
   287
1070
     4
1070
    40
1040
30.0
1070
    75
1070
     1
1070
   143
1040
0.039
1070
   172
1070
     1
1070
   271
1070
     0
1070
   279
1070
     1
1070
   288
1070
     1
1002
}
  0
DIMENSION
  5
7C7D
  8
3
  6
CONTINUOUS
  2
*D14
 10
2997.183544
 20
6146.5990039999997
 30
0.0
 11
2207.9004660000001
 21
6146.5990039999997
 31
0.0
 70
   128
 13
1487.183544
 23
6009.0545350000002
 33
0.0
 14
2997.183544
 24
6009.0545350000002
 34
0.0
1001
ACAD
1000
DSTYLE
1002
{
1070
   287
1070
     3
1070
   287
1070
     3
1070
    40
1040
30.0
1070
   143
1040
0.039
1070
   172
1070
     1
1070
   271
1070
     0
1070
   279
1070
     0
1070
   288
1070
     1
1002
}
  0
DIMENSION
  5
7C8A
  8
3
  6
CONTINUOUS
  2
*D15
 10
3268.982438
 20
5079.0545350000002
 30
0.0
 11
3268.982438
 21
5540.1764729999986
 31
0.0
 70
   128
 13
2997.183544
 23
6009.0545350000002
 33
0.0
 14
2997.183544
 24
5079.0545350000002
 34
0.0
 50
90.0
1001
ACAD
1000
DSTYLE
1002
{
1070
   287
1070
     3
1070
   287
1070
     3
1070
    40
1040
30.0
1070
   143
1040
0.039
1070
   172
1070
     1
1070
   271
1070
     0
1070
   279
1070
     0
1070
   288
1070
     1
1002
}
  0
LINE
  5
7C8B
  8
4
  6
CONTINUOUS
 10
5550.0
 20
1500.0
 30
0.0
 11
5550.0
 21
900.0
 31
0.0
  0
LINE
  5
7C8C
  8
4
  6
CONTINUOUS
 10
3450.0
 20
1500.0
 30
0.0
 11
3450.0
 21
900.0
 31
0.0
  0
LINE
  5
7C8D
  8
4
  6
CONTINUOUS
 10
1950.0
 20
1500.0
 30
0.0
 11
1950.0
 21
900.0
 31
0.0
  0
LINE
  5
7C90
  8
4
  6
CONTINUOUS
 10
1950.0
 20
900.0
 30
0.0
 11
5550.0
 21
900.0
 31
0.0
  0
LINE
  5
7C91
  8
4
  6
CONTINUOUS
 10
1950.0
 20
1200.0
 30
0.0
 11
5550.0
 21
1200.0
 31
0.0
  0
TEXT
  5
7C92
  8
4
  6
CONTINUOUS
 10
2065.5062429999989
 20
1294.6290779999999
 30
0.0
 40
150.0
  1
機器名称
  0
TEXT
  5
7C93
  8
4
  6
CONTINUOUS
 10
2058.7743179999989
 20
964.9354699999999
 30
0.0
 40
150.0
  1
機器型番
  0
TEXT
  5
7C94
  8
4
  6
CONTINUOUS
 10
3533.0362359999999
 20
1267.7153069999999
 30
0.0
 40
150.0
  1
ミツヤ多翼送風機
  0
TEXT
  5
7C95
  8
4
  6
CONTINUOUS
 10
3559.9634869999991
 20
951.47875299999987
 30
0.0
 40
150.0
  1
MF#4-4
  0
TEXT
  5
7C97
  8
4
  6
CONTINUOUS
 10
2249.101369999999
 20
7150.2865239999992
 30
0.0
 40
162.0
  1
天井吊防振ベット
  0
TEXT
  5
7C98
  8
4
  6
CONTINUOUS
 10
948.50278000000014
 20
7601.6429289999996
 30
0.0
 40
216.0
  1
ベルト駆動式片吸込両持多翼ファン
  0
LINE
  5
7C99
  8
4
  6
CONTINUOUS
 10
750.0
 20
7408.2262629999996
 30
0.0
 11
5550.0
 21
7408.2262629999996
 31
0.0
  0
LINE
  5
7C9A
  8
4
  6
CONTINUOUS
 10
750.0
 20
8008.2262629999996
 30
0.0
 11
5550.0
 21
8008.2262629999996
 31
0.0
  0
LINE
  5
7C9B
  8
4
  6
CONTINUOUS
 10
1950.0
 20
1500.0
 30
0.0
 11
5550.0
 21
1500.0
 31
0.0
  0
LINE
  5
7C9C
  8
4
  6
CONTINUOUS
 10
750.0
 20
8008.2262629999996
 30
0.0
 11
750.0
 21
7408.2262629999996
 31
0.0
  0
TEXT
  5
7C9D
  8
4
  6
CONTINUOUS
 10
941.52487399999995
 20
7146.9584329999998
 30
0.0
 40
162.0
  1
左回転左横向
  0
TEXT
  5
7C9E
  8
4
  6
CONTINUOUS
 10
4406.9086779999989
 20
8118.1832439999989
 30
0.0
 40
168.0
  1
No.
  0
TEXT
  5
7C9F
  8
4
  6
CONTINUOUS
 10
3933.8881879999999
 20
7150.2865239999992
 30
0.0
 40
162.0
  1
縮尺：1/30
  0
LINE
  5
7CA0
  8
4
  6
CONTINUOUS
 10
5550.0
 20
8008.2262629999996
 30
0.0
 11
5550.0
 21
7408.2262629999996
 31
0.0
  0
LINE
  5
7CA2
  8
4
  6
CONTINUOUS
 10
4321.8522670000002
 20
8043.7907490000007
 30
0.0
 11
4321.8522670000002
 21
8359.9567849999985
 31
0.0
  0
LINE
  5
7CA3
  8
4
  6
CONTINUOUS
 10
4321.8522670000002
 20
8359.9567849999985
 30
0.0
 11
5550.0
 21
8359.9567849999985
 31
0.0
  0
LINE
  5
7CA4
  8
4
  6
CONTINUOUS
 10
5550.0
 20
8359.9567849999985
 30
0.0
 11
5550.0
 21
8043.7907490000007
 31
0.0
  0
LINE
  5
7CA5
  8
4
  6
CONTINUOUS
 10
5550.0
 20
8043.7907490000007
 30
0.0
 11
4321.8522670000002
 21
8043.7907490000007
 31
0.0
  0
DIMENSION
  5
7CEA
  8
3
  6
CONTINUOUS
  2
*D16
 10
2489.183544
 20
4027.0631760000001
 30
0.0
 11
2228.183544
 21
4102.0631759999997
 31
0.0
 70
     0
 13
1967.183544
 23
3863.8084389999999
 33
0.0
 14
2489.183544
 24
3166.6954839999989
 34
0.0
1001
ACAD
1000
DSTYLE
1002
{
1070
   287
1070
     4
1070
   287
1070
     4
1070
    40
1040
30.0
1070
    75
1070
     1
1070
   143
1040
0.039
1070
   172
1070
     1
1070
   271
1070
     0
1070
   279
1070
     1
1070
   288
1070
     1
1002
}
  0
DIMENSION
  5
7CF7
  8
3
  6
CONTINUOUS
  2
*D17
 10
972.21786800000018
 20
2470.6954839999999
 30
0.0
 11
972.21786799999984
 21
3137.6884209999998
 31
0.0
 70
   128
 13
1482.183544
 23
3826.6954839999999
 33
0.0
 14
1487.183544
 24
2470.6954839999999
 34
0.0
 50
90.0
1001
ACAD
1000
DSTYLE
1002
{
1070
   287
1070
     3
1070
   287
1070
     3
1070
    40
1040
30.0
1070
   143
1040
0.039
1070
   172
1070
     1
1070
   271
1070
     0
1070
   279
1070
     0
1070
   288
1070
     1
1002
}
  0
DIMENSION
  5
7D6A
  8
3
  2
*D18
 10
2997.183544
 20
4226.7852538212428
 30
0.0
 11
2202.4398412919331
 21
4226.7852538212428
 31
0.0
 70
   128
 13
1482.183544
 23
3826.6954839999999
 33
0.0
 14
2997.183544
 24
2570.6954839999989
 34
0.0
1001
ACAD
1000
DSTYLE
1002
{
1070
   287
1070
     3
1070
   287
1070
     3
1070
    40
1040
30.0
1070
   143
1040
0.039
1070
   172
1070
     1
1070
   271
1070
     0
1070
   279
1070
     0
1070
   288
1070
     1
1002
}
  0
ENDSEC
  0
EOF
