  0
SECTION
  2
HEADER
  9
$ACADVER
  1
AC1009
  9
$INSBASE
 10
0.0
 20
0.0
 30
0.0
  9
$EXTMIN
 10
750.0
 20
900.0
 30
0.0
  9
$EXTMAX
 10
5550.0
 20
8359.9567849999985
 30
0.0
  9
$LIMMIN
 10
0.0
 20
0.0
  9
$LIMMAX
 10
297.0
 20
210.0
  9
$ORTHOMODE
 70
     0
  9
$REGENMODE
 70
     1
  9
$FILLMODE
 70
     0
  9
$QTEXTMODE
 70
     0
  9
$MIRRTEXT
 70
     1
  9
$DRAGMODE
 70
     2
  9
$LTSCALE
 40
100.0
  9
$OSMODE
 70
    37
  9
$ATTMODE
 70
     1
  9
$TEXTSIZE
 40
180.0
  9
$TRACEWID
 40
0.05
  9
$TEXTSTYLE
  7
STANDARD
  9
$CLAYER
  8
3
  9
$CELTYPE
  6
BYLAYER
  9
$CECOLOR
 62
   256
  9
$DIMSCALE
 40
30.0
  9
$DIMASZ
 40
2.0
  9
$DIMEXO
 40
0.5
  9
$DIMDLI
 40
10.0
  9
$DIMRND
 40
0.0
  9
$DIMDLE
 40
0.0
  9
$DIMEXE
 40
1.0
  9
$DIMTP
 40
1.0
  9
$DIMTM
 40
1.0
  9
$DIMTXT
 40
3.0
  9
$DIMCEN
 40
0.0
  9
$DIMTSZ
 40
0.0
  9
$DIMTOL
 70
     0
  9
$DIMLIM
 70
     0
  9
$DIMTIH
 70
     0
  9
$DIMTOH
 70
     0
  9
$DIMSE1
 70
     0
  9
$DIMSE2
 70
     0
  9
$DIMTAD
 70
     1
  9
$DIMZIN
 70
     8
  9
$DIMBLK
  1

  9
$DIMASO
 70
     1
  9
$DIMSHO
 70
     1
  9
$DIMPOST
  1

  9
$DIMAPOST
  1

  9
$DIMALT
 70
     0
  9
$DIMALTD
 70
     2
  9
$DIMALTF
 40
0.039
  9
$DIMLFAC
 40
1.0
  9
$DIMTOFL
 70
     1
  9
$DIMTVP
 40
0.0
  9
$DIMTIX
 70
     0
  9
$DIMSOXD
 70
     0
  9
$DIMSAH
 70
     1
  9
$DIMBLK1
  1
OPEN
  9
$DIMBLK2
  1
OPEN
  9
$DIMSTYLE
  2
IGA
  9
$DIMCLRD
 70
     0
  9
$DIMCLRE
 70
     0
  9
$DIMCLRT
 70
     0
  9
$DIMTFAC
 40
10.0
  9
$DIMGAP
 40
1.0
  9
$LUNITS
 70
     2
  9
$LUPREC
 70
     3
  9
$SKETCHINC
 40
0.1
  9
$FILLETRAD
 40
50.0
  9
$AUNITS
 70
     0
  9
$AUPREC
 70
     0
  9
$MENU
  1
acad
  9
$ELEVATION
 40
0.0
  9
$PELEVATION
 40
0.0
  9
$THICKNESS
 40
0.0
  9
$LIMCHECK
 70
     0
  9
$BLIPMODE
 70
     0
  9
$CHAMFERA
 40
0.5
  9
$CHAMFERB
 40
0.5
  9
$SKPOLY
 70
     0
  9
$TDCREATE
 40
2450742.3937935182
  9
$TDUPDATE
 40
2454953.7706253589
  9
$TDINDWG
 40
0.0084569676
  9
$TDUSRTIMER
 40
0.0084569676
  9
$USRTIMER
 70
     1
  9
$ANGBASE
 50
0.0
  9
$ANGDIR
 70
     0
  9
$PDMODE
 70
     0
  9
$PDSIZE
 40
0.0
  9
$PLINEWID
 40
0.0
  9
$COORDS
 70
     1
  9
$SPLFRAME
 70
     0
  9
$SPLINETYPE
 70
     6
  9
$SPLINESEGS
 70
     8
  9
$ATTDIA
 70
     0
  9
$ATTREQ
 70
     1
  9
$HANDLING
 70
 10241
  9
$HANDSEED
  5
80E1
  9
$SURFTAB1
 70
     6
  9
$SURFTAB2
 70
     6
  9
$SURFTYPE
 70
     6
  9
$SURFU
 70
     6
  9
$SURFV
 70
     6
  9
$UCSNAME
  2

  9
$UCSORG
 10
0.0
 20
0.0
 30
0.0
  9
$UCSXDIR
 10
1.0
 20
0.0
 30
0.0
  9
$UCSYDIR
 10
0.0
 20
1.0
 30
0.0
  9
$PUCSNAME
  2

  9
$PUCSORG
 10
0.0
 20
0.0
 30
0.0
  9
$PUCSXDIR
 10
1.0
 20
0.0
 30
0.0
  9
$PUCSYDIR
 10
0.0
 20
1.0
 30
0.0
  9
$USERI1
 70
     0
  9
$USERI2
 70
     0
  9
$USERI3
 70
     0
  9
$USERI4
 70
     0
  9
$USERI5
 70
     0
  9
$USERR1
 40
0.0
  9
$USERR2
 40
0.0
  9
$USERR3
 40
0.0
  9
$USERR4
 40
0.0
  9
$USERR5
 40
0.0
  9
$WORLDVIEW
 70
     1
  9
$SHADEDGE
 70
     3
  9
$SHADEDIF
 70
    70
  9
$TILEMODE
 70
     1
  9
$MAXACTVP
 70
    16
  9
$PLIMCHECK
 70
     0
  9
$PEXTMIN
 10
1.0000000000000000E+020
 20
1.0000000000000000E+020
 30
1.0000000000000000E+020
  9
$PEXTMAX
 10
-1.0000000000000000E+020
 20
-1.0000000000000000E+020
 30
-1.0000000000000000E+020
  9
$PLIMMIN
 10
0.0
 20
0.0
  9
$PLIMMAX
 10
12.0
 20
9.0
  9
$UNITMODE
 70
     0
  9
$VISRETAIN
 70
     0
  9
$PLINEGEN
 70
     0
  9
$PSLTSCALE
 70
     1
  0
ENDSEC
  0
SECTION
  2
TABLES
  0
TABLE
  2
VPORT
 70
     2
  0
VPORT
  2
*ACTIVE
 70
     0
 10
0.0
 20
0.0
 11
1.0
 21
1.0
 12
9438.4567678319436
 22
4630.0975558305709
 13
0.0
 23
0.0
 14
10.0
 24
10.0
 15
10.0
 25
10.0
 16
0.0
 26
0.0
 36
1.0
 17
0.0
 27
0.0
 37
0.0
 40
7517.4747125171307
 41
3.1666666666666661
 42
50.0
 43
0.0
 44
0.0
 50
0.0
 51
0.0
 71
     0
 72
   100
 73
     1
 74
     0
 75
     0
 76
     0
 77
     0
 78
     0
  0
ENDTAB
  0
TABLE
  2
LTYPE
 70
     2
  0
LTYPE
  2
CONTINUOUS
 70
     0
  3
Solid line
 72
    65
 73
     0
 40
0.0
  0
LTYPE
  2
CENTER
 70
     0
  3
____ _ ____ _ ____ _ ____ _ ____ _ ____ _ ____ 
 72
    65
 73
     4
 40
2.0
 49
1.25
 49
-0.25
 49
0.25
 49
-0.25
  0
ENDTAB
  0
TABLE
  2
LAYER
 70
     6
  0
LAYER
  2
0
 70
     0
 62
     7
  6
CONTINUOUS
  0
LAYER
  2
3
 70
     0
 62
     2
  6
CONTINUOUS
  0
LAYER
  2
2
 70
     0
 62
     3
  6
CENTER
  0
LAYER
  2
1
 70
     0
 62
     4
  6
CONTINUOUS
  0
LAYER
  2
4
 70
     0
 62
     7
  6
CONTINUOUS
  0
LAYER
  2
DEFPOINTS
 70
     0
 62
     7
  6
CONTINUOUS
  0
ENDTAB
  0
TABLE
  2
STYLE
 70
     1
  0
STYLE
  2
STANDARD
 70
     0
 40
0.0
 41
1.0
 50
0.0
 71
     0
 42
180.0
  3
simplex.shx
  4
extfont.shx
  0
ENDTAB
  0
TABLE
  2
VIEW
 70
     0
  0
ENDTAB
  0
TABLE
  2
UCS
 70
     0
  0
ENDTAB
  0
TABLE
  2
APPID
 70
     1
  0
APPID
  2
ACAD
 70
     0
  0
ENDTAB
  0
TABLE
  2
DIMSTYLE
 70
     1
  0
DIMSTYLE
  2
IGA
 70
     0
  3

  4

  5

  6
OPEN
  7
OPEN
 40
2.0
 41
2.0
 42
0.5
 43
10.0
 44
1.0
 45
0.0
 46
0.0
 47
1.0
 48
1.0
140
3.0
141
0.0
142
0.0
143
0.03937
144
1.0
145
0.0
146
10.0
147
1.0
 71
     0
 72
     0
 73
     0
 74
     0
 75
     0
 76
     0
 77
     1
 78
     8
170
     0
171
     2
172
     0
173
     1
174
     0
175
     0
176
     0
177
     0
178
     0
  0
ENDTAB
  0
ENDSEC
  0
SECTION
  2
BLOCKS
  0
BLOCK
  8
0
  2
$MODEL_SPACE
 70
     0
 10
0.0
 20
0.0
 30
0.0
  3
$MODEL_SPACE
  1

  0
ENDBLK
  5
1B
  8
0
  0
BLOCK
 67
     1
  8
0
  2
$PAPER_SPACE
 70
     0
 10
0.0
 20
0.0
 30
0.0
  3
$PAPER_SPACE
  1

  0
ENDBLK
  5
18
 67
     1
  8
0
  0
BLOCK
  8
0
  2
_OPEN
 70
     0
 10
0.0
 20
0.0
 30
0.0
  3
_OPEN
  1

  0
LINE
  5
7B51
  8
0
  6
BYBLOCK
 62
     0
 10
-1.0
 20
0.166667
 30
0.0
 11
0.0
 21
0.0
 31
0.0
  0
LINE
  5
7B52
  8
0
  6
BYBLOCK
 62
     0
 10
0.0
 20
0.0
 30
0.0
 11
-1.0
 21
-0.166667
 31
0.0
  0
LINE
  5
7B53
  8
0
  6
BYBLOCK
 62
     0
 10
0.0
 20
0.0
 30
0.0
 11
-1.0
 21
0.0
 31
0.0
  0
ENDBLK
  5
7B54
  8
0
  0
BLOCK
  8
0
  2
*D1
 70
     1
 10
0.0
 20
0.0
 30
0.0
  3
*D1
  1

  0
LINE
  5
8042
  8
3
  6
CONTINUOUS
 62
     0
 10
1885.703194142958
 20
3607.1555979999998
 30
0.0
 11
1744.3323741429581
 21
3607.1555979999998
 31
0.0
  0
LINE
  5
8043
  8
3
  6
CONTINUOUS
 62
     0
 10
1885.703194142958
 20
2957.1555979999989
 30
0.0
 11
1744.3323741429581
 21
2957.1555979999989
 31
0.0
  0
LINE
  5
8044
  8
3
  6
CONTINUOUS
 62
     0
 10
1774.3323741429581
 20
3547.1555979999989
 30
0.0
 11
1774.3323741429581
 21
3017.1555979999989
 31
0.0
  0
INSERT
  5
8045
  8
3
  6
CONTINUOUS
 62
     0
  2
_OPEN
 10
1774.3323741429581
 20
3607.1555979999998
 30
0.0
 41
60.0
 42
60.0
 43
60.0
 50
90.0
  0
INSERT
  5
8046
  8
3
  6
CONTINUOUS
 62
     0
  2
_OPEN
 10
1774.3323741429581
 20
2957.1555979999989
 30
0.0
 41
60.0
 42
60.0
 43
60.0
 50
270.0
  0
TEXT
  8
3
  40
90
  5
80D0
  62
0
  72
0
  71
0
 10
1519.33
 20
3125.03
 30
0.000000
  1
650
  0
POINT
  5
8048
  8
DEFPOINTS
  6
CONTINUOUS
 62
     0
 10
1900.703194142958
 20
3607.1555979999998
 30
0.0
  0
POINT
  5
8049
  8
DEFPOINTS
  6
CONTINUOUS
 62
     0
 10
1900.703194142958
 20
2957.1555979999989
 30
0.0
  0
POINT
  5
804A
  8
DEFPOINTS
  6
CONTINUOUS
 62
     0
 10
1774.3323741429581
 20
2957.1555979999989
 30
0.0
  0
ENDBLK
  5
7B80
  8
0
  0
BLOCK
  8
0
  2
*D2
 70
     1
 10
0.0
 20
0.0
 30
0.0
  3
*D2
  1

  0
LINE
  5
804B
  8
3
  6
CONTINUOUS
 62
     0
 10
1885.703194142958
 20
2957.1555979999989
 30
0.0
 11
1558.809391142958
 21
2957.1555979999989
 31
0.0
  0
LINE
  5
804C
  8
3
  6
CONTINUOUS
 62
     0
 10
1757.629860142958
 20
3577.1555979999998
 30
0.0
 11
1558.809391142958
 21
3577.1555979999998
 31
0.0
  0
LINE
  5
804D
  8
3
  6
CONTINUOUS
 62
     0
 10
1588.809391142958
 20
3017.1555979999989
 30
0.0
 11
1588.809391142958
 21
3517.1555979999998
 31
0.0
  0
INSERT
  5
804E
  8
3
  6
CONTINUOUS
 62
     0
  2
_OPEN
 10
1588.809391142958
 20
2957.1555979999989
 30
0.0
 41
60.0
 42
60.0
 43
60.0
 50
270.0
  0
INSERT
  5
804F
  8
3
  6
CONTINUOUS
 62
     0
  2
_OPEN
 10
1588.809391142958
 20
3577.1555979999998
 30
0.0
 41
60.0
 42
60.0
 43
60.0
 50
90.0
  0
TEXT
  8
3
  40
90
  5
80D1
  62
0
  72
0
  71
0
 10
1333.81
 20
3135.94
 30
0.000000
  1
620
  0
POINT
  5
8051
  8
DEFPOINTS
  6
CONTINUOUS
 62
     0
 10
1900.703194142958
 20
2957.1555979999989
 30
0.0
  0
POINT
  5
8052
  8
DEFPOINTS
  6
CONTINUOUS
 62
     0
 10
1772.6298601429571
 20
3577.1555979999998
 30
0.0
  0
POINT
  5
8053
  8
DEFPOINTS
  6
CONTINUOUS
 62
     0
 10
1588.809391142958
 20
3577.1555979999998
 30
0.0
  0
ENDBLK
  5
7B8D
  8
0
  0
BLOCK
  8
0
  2
*D3
 70
     1
 10
0.0
 20
0.0
 30
0.0
  3
*D3
  1

  0
LINE
  5
8054
  8
3
  6
CONTINUOUS
 62
     0
 10
1757.629860142958
 20
3577.1555979999998
 30
0.0
 11
1389.6560611429579
 21
3577.1555979999998
 31
0.0
  0
LINE
  5
8055
  8
3
  6
CONTINUOUS
 62
     0
 10
1870.703194142958
 20
2777.1555979999998
 30
0.0
 11
1389.6560611429579
 21
2777.1555979999998
 31
0.0
  0
LINE
  5
8056
  8
3
  6
CONTINUOUS
 62
     0
 10
1419.6560611429579
 20
3517.1555979999998
 30
0.0
 11
1419.6560611429579
 21
2837.1555979999998
 31
0.0
  0
INSERT
  5
8057
  8
3
  6
CONTINUOUS
 62
     0
  2
_OPEN
 10
1419.6560611429579
 20
3577.1555979999998
 30
0.0
 41
60.0
 42
60.0
 43
60.0
 50
90.0
  0
INSERT
  5
8058
  8
3
  6
CONTINUOUS
 62
     0
  2
_OPEN
 10
1419.6560611429579
 20
2777.1555979999998
 30
0.0
 41
60.0
 42
60.0
 43
60.0
 50
270.0
  0
TEXT
  8
3
  40
90
  5
80D2
  62
0
  72
0
  71
0
 10
1164.66
 20
3017.86
 30
0.000000
  1
800
  0
POINT
  5
805A
  8
DEFPOINTS
  6
CONTINUOUS
 62
     0
 10
1772.6298601429571
 20
3577.1555979999998
 30
0.0
  0
POINT
  5
805B
  8
DEFPOINTS
  6
CONTINUOUS
 62
     0
 10
1885.703194142958
 20
2777.1555979999998
 30
0.0
  0
POINT
  5
805C
  8
DEFPOINTS
  6
CONTINUOUS
 62
     0
 10
1419.6560611429579
 20
2777.1555979999998
 30
0.0
  0
ENDBLK
  5
7BA6
  8
0
  0
BLOCK
  8
0
  2
*D4
 70
     1
 10
0.0
 20
0.0
 30
0.0
  3
*D4
  1

  0
LINE
  5
805D
  8
3
  6
CONTINUOUS
 62
     0
 10
1885.703194142958
 20
2762.1555979999998
 30
0.0
 11
1885.703194142958
 21
2439.5225169999999
 31
0.0
  0
LINE
  5
805E
  8
3
  6
CONTINUOUS
 62
     0
 10
2385.7031941429582
 20
2626.9090350000001
 30
0.0
 11
2385.7031941429582
 21
2439.5225169999999
 31
0.0
  0
LINE
  5
805F
  8
3
  6
CONTINUOUS
 62
     0
 10
1945.703194142958
 20
2469.5225169999999
 30
0.0
 11
2325.7031941429582
 21
2469.5225169999999
 31
0.0
  0
INSERT
  5
8060
  8
3
  6
CONTINUOUS
 62
     0
  2
_OPEN
 10
1885.703194142958
 20
2469.5225169999999
 30
0.0
 41
60.0
 42
60.0
 43
60.0
 50
180.0
  0
INSERT
  5
8061
  8
3
  6
CONTINUOUS
 62
     0
  2
_OPEN
 10
2385.7031941429582
 20
2469.5225169999999
 30
0.0
 41
60.0
 42
60.0
 43
60.0
  0
TEXT
  8
3
  40
90
  5
80D3
  62
0
  72
0
  71
0
 10
1959.38
 20
2385.22
 30
0.000000
  1
500
  0
POINT
  5
8063
  8
DEFPOINTS
  6
CONTINUOUS
 62
     0
 10
1885.703194142958
 20
2777.1555979999998
 30
0.0
  0
POINT
  5
8064
  8
DEFPOINTS
  6
CONTINUOUS
 62
     0
 10
2385.7031941429582
 20
2641.9090350000001
 30
0.0
  0
POINT
  5
8065
  8
DEFPOINTS
  6
CONTINUOUS
 62
     0
 10
2385.7031941429582
 20
2469.5225169999999
 30
0.0
  0
ENDBLK
  5
7C85
  8
0
  0
BLOCK
  8
0
  2
*D5
 70
     1
 10
0.0
 20
0.0
 30
0.0
  3
*D5
  1

  0
LINE
  5
8066
  8
3
  6
CONTINUOUS
 62
     0
 10
3485.7031941429582
 20
2762.1555979999998
 30
0.0
 11
3485.7031941429582
 21
2439.5225169999999
 31
0.0
  0
LINE
  5
8067
  8
3
  6
CONTINUOUS
 62
     0
 10
2445.7031941429582
 20
2469.5225169999999
 30
0.0
 11
3425.7031941429582
 21
2469.5225169999999
 31
0.0
  0
INSERT
  5
8068
  8
3
  6
CONTINUOUS
 62
     0
  2
_OPEN
 10
2385.7031941429582
 20
2469.5225169999999
 30
0.0
 41
60.0
 42
60.0
 43
60.0
 50
180.0
  0
INSERT
  5
8069
  8
3
  6
CONTINUOUS
 62
     0
  2
_OPEN
 10
3485.7031941429582
 20
2469.5225169999999
 30
0.0
 41
60.0
 42
60.0
 43
60.0
  0
TEXT
  8
3
  40
90
  5
80D4
  62
0
  72
0
  71
0
 10
2755.70
 20
2385.22
 30
0.000000
  1
1100
  0
POINT
  5
806B
  8
DEFPOINTS
  6
CONTINUOUS
 62
     0
 10
2385.7031941429582
 20
2641.9090350000001
 30
0.0
  0
POINT
  5
806C
  8
DEFPOINTS
  6
CONTINUOUS
 62
     0
 10
3485.7031941429582
 20
2777.1555979999998
 30
0.0
  0
POINT
  5
806D
  8
DEFPOINTS
  6
CONTINUOUS
 62
     0
 10
3485.7031941429582
 20
2469.5225169999999
 30
0.0
  0
ENDBLK
  5
7C7A
  8
0
  0
BLOCK
  8
0
  2
*D6
 70
     1
 10
0.0
 20
0.0
 30
0.0
  3
*D6
  1

  0
LINE
  5
806E
  8
3
  6
CONTINUOUS
 62
     0
 10
1900.703194142958
 20
3662.1555979999998
 30
0.0
 11
1900.703194142958
 21
4226.8354559999989
 31
0.0
  0
LINE
  5
806F
  8
3
  6
CONTINUOUS
 62
     0
 10
2385.7031941429582
 20
4210.2831960000003
 30
0.0
 11
2385.7031941429582
 21
4226.8354559999989
 31
0.0
  0
LINE
  5
8070
  8
3
  6
CONTINUOUS
 62
     0
 10
1960.703194142958
 20
4196.8354559999998
 30
0.0
 11
2325.7031941429582
 21
4196.8354559999998
 31
0.0
  0
INSERT
  5
8071
  8
3
  6
CONTINUOUS
 62
     0
  2
_OPEN
 10
1900.703194142958
 20
4196.8354559999998
 30
0.0
 41
60.0
 42
60.0
 43
60.0
 50
180.0
  0
INSERT
  5
8072
  8
3
  6
CONTINUOUS
 62
     0
  2
_OPEN
 10
2385.7031941429582
 20
4196.8354559999998
 30
0.0
 41
60.0
 42
60.0
 43
60.0
  0
TEXT
  8
3
  40
90
  5
80D5
  62
0
  72
0
  71
0
 10
1999.99
 20
4112.54
 30
0.000000
  1
485
  0
POINT
  5
8074
  8
DEFPOINTS
  6
CONTINUOUS
 62
     0
 10
1900.703194142958
 20
3647.1555979999989
 30
0.0
  0
POINT
  5
8075
  8
DEFPOINTS
  6
CONTINUOUS
 62
     0
 10
2385.7031941429582
 20
4195.2831960000003
 30
0.0
  0
POINT
  5
8076
  8
DEFPOINTS
  6
CONTINUOUS
 62
     0
 10
2385.7031941429582
 20
4196.8354559999998
 30
0.0
  0
ENDBLK
  5
7CBF
  8
0
  0
BLOCK
  8
0
  2
*D7
 70
     1
 10
0.0
 20
0.0
 30
0.0
  3
*D7
  1

  0
LINE
  5
8077
  8
3
  6
CONTINUOUS
 62
     0
 10
4902.9908531429583
 20
4045.4100449999992
 30
0.0
 11
4902.9908531429583
 21
4132.2152369999994
 31
0.0
  0
LINE
  5
8078
  8
3
  6
CONTINUOUS
 62
     0
 10
4427.9908531429583
 20
4045.4100449999992
 30
0.0
 11
4427.9908531429583
 21
4132.2152369999994
 31
0.0
  0
LINE
  5
8079
  8
3
  6
CONTINUOUS
 62
     0
 10
4962.9908531429583
 20
4102.2152369999994
 30
0.0
 11
5022.9908531429592
 21
4102.2152369999994
 31
0.0
  0
LINE
  5
807A
  8
3
  6
CONTINUOUS
 62
     0
 10
4367.9908531429583
 20
4102.2152369999994
 30
0.0
 11
4307.9908531429583
 21
4102.2152369999994
 31
0.0
  0
LINE
  5
807B
  8
3
  6
CONTINUOUS
 62
     0
 10
4902.9908531429583
 20
4102.2152369999994
 30
0.0
 11
4427.9908531429583
 21
4102.2152369999994
 31
0.0
  0
INSERT
  5
807C
  8
3
  6
CONTINUOUS
 62
     0
  2
_OPEN
 10
4902.9908531429583
 20
4102.2152369999994
 30
0.0
 41
60.0
 42
60.0
 43
60.0
 50
180.0
  0
INSERT
  5
807D
  8
3
  6
CONTINUOUS
 62
     0
  2
_OPEN
 10
4427.9908531429583
 20
4102.2152369999994
 30
0.0
 41
60.0
 42
60.0
 43
60.0
  0
TEXT
  8
3
  40
90
  5
80D6
  62
0
  72
0
  71
0
 10
4453.71
 20
4017.92
 30
0.000000
  1
475
  0
POINT
  5
807F
  8
DEFPOINTS
  6
CONTINUOUS
 62
     0
 10
4902.9908531429583
 20
4030.4100449999992
 30
0.0
  0
POINT
  5
8080
  8
DEFPOINTS
  6
CONTINUOUS
 62
     0
 10
4427.9908531429583
 20
4030.4100449999992
 30
0.0
  0
POINT
  5
8081
  8
DEFPOINTS
  6
CONTINUOUS
 62
     0
 10
4427.9908531429583
 20
4102.2152369999994
 30
0.0
  0
ENDBLK
  5
7BF2
  8
0
  0
BLOCK
  8
0
  2
*D8
 70
     1
 10
0.0
 20
0.0
 30
0.0
  3
*D8
  1

  0
LINE
  5
8082
  8
3
  6
CONTINUOUS
 62
     0
 10
4921.4908531429592
 20
3912.1555979999998
 30
0.0
 11
5170.4848711429577
 21
3912.1555979999998
 31
0.0
  0
LINE
  5
8083
  8
3
  6
CONTINUOUS
 62
     0
 10
4921.4908531429592
 20
3242.1555979999998
 30
0.0
 11
5170.4848711429577
 21
3242.1555979999989
 31
0.0
  0
LINE
  5
8084
  8
3
  6
CONTINUOUS
 62
     0
 10
5140.4848711429586
 20
3852.1555979999989
 30
0.0
 11
5140.4848711429586
 21
3302.1555979999989
 31
0.0
  0
INSERT
  5
8085
  8
3
  6
CONTINUOUS
 62
     0
  2
_OPEN
 10
5140.4848711429586
 20
3912.1555979999998
 30
0.0
 41
60.0
 42
60.0
 43
60.0
 50
90.0
  0
INSERT
  5
8086
  8
3
  6
CONTINUOUS
 62
     0
  2
_OPEN
 10
5140.4848711429586
 20
3242.1555979999989
 30
0.0
 41
60.0
 42
60.0
 43
60.0
 50
270.0
  0
TEXT
  8
3
  40
90
  5
80D7
  62
0
  72
0
  71
0
 10
4885.48
 20
3419.47
 30
0.000000
  1
φ670
  0
POINT
  5
8088
  8
DEFPOINTS
  6
CONTINUOUS
 62
     0
 10
4906.4908531429583
 20
3912.1555979999998
 30
0.0
  0
POINT
  5
8089
  8
DEFPOINTS
  6
CONTINUOUS
 62
     0
 10
4906.4908531429583
 20
3242.1555979999998
 30
0.0
  0
POINT
  5
808A
  8
DEFPOINTS
  6
CONTINUOUS
 62
     0
 10
5140.4848711429586
 20
3242.1555979999989
 30
0.0
  0
ENDBLK
  5
7D8B
  8
0
  0
BLOCK
  8
0
  2
*D9
 70
     1
 10
0.0
 20
0.0
 30
0.0
  3
*D9
  1

  0
LINE
  5
808B
  8
3
  6
CONTINUOUS
 62
     0
 10
4665.4908531429583
 20
4260.8688030000003
 30
0.0
 11
4665.4908531429583
 21
4323.0550810000004
 31
0.0
  0
LINE
  5
808C
  8
3
  6
CONTINUOUS
 62
     0
 10
4185.4908531429583
 20
3892.1555979999998
 30
0.0
 11
4185.4908531429583
 21
4323.0550810000004
 31
0.0
  0
LINE
  5
808D
  8
3
  6
CONTINUOUS
 62
     0
 10
4605.4908531429583
 20
4293.0550810000013
 30
0.0
 11
4245.4908531429583
 21
4293.0550810000013
 31
0.0
  0
INSERT
  5
808E
  8
3
  6
CONTINUOUS
 62
     0
  2
_OPEN
 10
4665.4908531429583
 20
4293.0550810000013
 30
0.0
 41
60.0
 42
60.0
 43
60.0
  0
INSERT
  5
808F
  8
3
  6
CONTINUOUS
 62
     0
  2
_OPEN
 10
4185.4908531429583
 20
4293.0550810000013
 30
0.0
 41
60.0
 42
60.0
 43
60.0
 50
180.0
  0
TEXT
  8
3
  40
90
  5
80D8
  62
0
  72
0
  71
0
 10
4245.49
 20
4283.76
 30
0.000000
  1
MAX
  0
TEXT
  8
3
  40
90
  5
80D9
  62
0
  72
0
  71
0
 10
4245.49
 20
4166.76
 30
0.000000
  1
530
  0
POINT
  5
8091
  8
DEFPOINTS
  6
CONTINUOUS
 62
     0
 10
4665.4908531429583
 20
4245.8688030000003
 30
0.0
  0
POINT
  5
8092
  8
DEFPOINTS
  6
CONTINUOUS
 62
     0
 10
4185.4908531429583
 20
3877.1555979999998
 30
0.0
  0
POINT
  5
8093
  8
DEFPOINTS
  6
CONTINUOUS
 62
     0
 10
4185.4908531429583
 20
4293.0550810000013
 30
0.0
  0
ENDBLK
  5
7D80
  8
0
  0
BLOCK
  8
0
  2
*D10
 70
     1
 10
0.0
 20
0.0
 30
0.0
  3
*D10
  1

  0
LINE
  5
7D98
  8
0
  6
BYBLOCK
 62
     0
 10
4305.4908531429583
 20
2762.1555979999998
 30
0.0
 11
4305.4908531429583
 21
2482.978869
 31
0.0
  0
LINE
  5
7D99
  8
0
  6
BYBLOCK
 62
     0
 10
4665.4908531429583
 20
2679.5381590000002
 30
0.0
 11
4665.4908531429583
 21
2482.978869
 31
0.0
  0
LINE
  5
7D9A
  8
0
  6
BYBLOCK
 62
     0
 10
4365.4908531429583
 20
2512.978869
 30
0.0
 11
4605.4908531429583
 21
2512.978869
 31
0.0
  0
TEXT
  5
7D9B
  8
3
 62
     0
 10
4369.776567428672
 20
2549.2306015192439
 30
0.0
 40
90.0
  1
360
  0
INSERT
  5
7D9C
  8
0
  6
BYBLOCK
 62
     0
  2
_OPEN
 10
4305.4908531429583
 20
2512.978869
 30
0.0
 41
60.0
 42
60.0
 43
60.0
 50
180.0
  0
INSERT
  5
7D9D
  8
0
  6
BYBLOCK
 62
     0
  2
_OPEN
 10
4665.4908531429583
 20
2512.978869
 30
0.0
 41
60.0
 42
60.0
 43
60.0
  0
POINT
  5
7D9E
  8
DEFPOINTS
  6
BYBLOCK
 62
     0
 10
4305.4908531429583
 20
2777.1555979999998
 30
0.0
  0
POINT
  5
7D9F
  8
DEFPOINTS
  6
BYBLOCK
 62
     0
 10
4665.4908531429583
 20
2694.5381590000002
 30
0.0
  0
POINT
  5
7DA0
  8
DEFPOINTS
  6
BYBLOCK
 62
     0
 10
4665.4908531429583
 20
2512.978869
 30
0.0
  0
ENDBLK
  5
7DA1
  8
0
  0
BLOCK
  8
0
  2
*D11
 70
     1
 10
0.0
 20
0.0
 30
0.0
  3
*D11
  1

  0
LINE
  5
8094
  8
3
  6
CONTINUOUS
 62
     0
 10
5005.4908531429583
 20
2762.1555979999998
 30
0.0
 11
5005.4908531429583
 21
2482.978869
 31
0.0
  0
LINE
  5
8095
  8
3
  6
CONTINUOUS
 62
     0
 10
4725.4908531429583
 20
2512.978869
 30
0.0
 11
4945.4908531429583
 21
2512.978869
 31
0.0
  0
TEXT
  8
3
  40
90
  5
80DA
  62
0
  72
0
  71
0
 10
4644.04
 20
2429.53
 30
0.000000
  1
340
  0
INSERT
  5
8097
  8
3
  6
CONTINUOUS
 62
     0
  2
_OPEN
 10
4665.4908531429583
 20
2512.978869
 30
0.0
 41
60.0
 42
60.0
 43
60.0
 50
180.0
  0
INSERT
  5
8098
  8
3
  6
CONTINUOUS
 62
     0
  2
_OPEN
 10
5005.4908531429583
 20
2512.978869
 30
0.0
 41
60.0
 42
60.0
 43
60.0
  0
POINT
  5
8099
  8
DEFPOINTS
  6
CONTINUOUS
 62
     0
 10
4665.4908531429583
 20
2694.5381590000002
 30
0.0
  0
POINT
  5
809A
  8
DEFPOINTS
  6
CONTINUOUS
 62
     0
 10
5005.4908531429583
 20
2777.1555979999998
 30
0.0
  0
POINT
  5
809B
  8
DEFPOINTS
  6
CONTINUOUS
 62
     0
 10
5005.4908531429583
 20
2512.978869
 30
0.0
  0
ENDBLK
  5
7CEC
  8
0
  0
BLOCK
  8
0
  2
*D12
 70
     1
 10
0.0
 20
0.0
 30
0.0
  3
*D12
  1

  0
LINE
  5
809C
  8
3
  6
CONTINUOUS
 62
     0
 10
1885.703194142958
 20
5943.3639249999987
 30
0.0
 11
1885.703194142958
 21
6245.8993780000001
 31
0.0
  0
LINE
  5
809D
  8
3
  6
CONTINUOUS
 62
     0
 10
3485.7031941429582
 20
5943.3639249999987
 30
0.0
 11
3485.7031941429582
 21
6245.8993780000001
 31
0.0
  0
LINE
  5
809E
  8
3
  6
CONTINUOUS
 62
     0
 10
1945.703194142958
 20
6215.8993780000001
 30
0.0
 11
3425.7031941429582
 21
6215.8993780000001
 31
0.0
  0
INSERT
  5
809F
  8
3
  6
CONTINUOUS
 62
     0
  2
_OPEN
 10
1885.703194142958
 20
6215.8993780000001
 30
0.0
 41
60.0
 42
60.0
 43
60.0
 50
180.0
  0
INSERT
  5
80A0
  8
3
  6
CONTINUOUS
 62
     0
  2
_OPEN
 10
3485.7031941429582
 20
6215.8993780000001
 30
0.0
 41
60.0
 42
60.0
 43
60.0
  0
TEXT
  8
3
  40
90
  5
80DB
  62
0
  72
0
  71
0
 10
2483.21
 20
6131.60
 30
0.000000
  1
1600
  0
POINT
  5
80A2
  8
DEFPOINTS
  6
CONTINUOUS
 62
     0
 10
1885.703194142958
 20
5928.3639249999997
 30
0.0
  0
POINT
  5
80A3
  8
DEFPOINTS
  6
CONTINUOUS
 62
     0
 10
3485.7031941429582
 20
5928.3639249999997
 30
0.0
  0
POINT
  5
80A4
  8
DEFPOINTS
  6
CONTINUOUS
 62
     0
 10
3485.7031941429582
 20
6215.8993780000001
 30
0.0
  0
ENDBLK
  5
7D32
  8
0
  0
BLOCK
  8
0
  2
*D13
 70
     1
 10
0.0
 20
0.0
 30
0.0
  3
*D13
  1

  0
LINE
  5
80A5
  8
3
  6
CONTINUOUS
 62
     0
 10
3500.7031941429582
 20
5928.3639249999997
 30
0.0
 11
3835.1520641429579
 21
5928.3639249999997
 31
0.0
  0
LINE
  5
80A6
  8
3
  6
CONTINUOUS
 62
     0
 10
3500.7031941429582
 20
5228.3639249999997
 30
0.0
 11
3835.1520641429579
 21
5228.3639249999997
 31
0.0
  0
LINE
  5
80A7
  8
3
  6
CONTINUOUS
 62
     0
 10
3805.1520641429588
 20
5868.3639249999997
 30
0.0
 11
3805.1520641429588
 21
5288.3639249999987
 31
0.0
  0
INSERT
  5
80A8
  8
3
  6
CONTINUOUS
 62
     0
  2
_OPEN
 10
3805.1520641429588
 20
5928.3639249999997
 30
0.0
 41
60.0
 42
60.0
 43
60.0
 50
90.0
  0
INSERT
  5
80A9
  8
3
  6
CONTINUOUS
 62
     0
  2
_OPEN
 10
3805.1520641429588
 20
5228.3639249999997
 30
0.0
 41
60.0
 42
60.0
 43
60.0
 50
270.0
  0
TEXT
  8
3
  40
90
  5
80DC
  62
0
  72
0
  71
0
 10
3550.15
 20
5450.21
 30
0.000000
  1
700
  0
POINT
  5
80AB
  8
DEFPOINTS
  6
CONTINUOUS
 62
     0
 10
3485.7031941429582
 20
5928.3639249999997
 30
0.0
  0
POINT
  5
80AC
  8
DEFPOINTS
  6
CONTINUOUS
 62
     0
 10
3485.7031941429582
 20
5228.3639249999997
 30
0.0
  0
POINT
  5
80AD
  8
DEFPOINTS
  6
CONTINUOUS
 62
     0
 10
3805.1520641429588
 20
5228.3639249999997
 30
0.0
  0
ENDBLK
  5
7D3D
  8
0
  0
BLOCK
  8
0
  2
*D14
 70
     1
 10
0.0
 20
0.0
 30
0.0
  3
*D14
  1

  0
LINE
  5
80AE
  8
3
  6
CONTINUOUS
 62
     0
 10
2907.7031941429582
 20
3592.1555979999998
 30
0.0
 11
2907.7031941429582
 21
4226.8354559999989
 31
0.0
  0
LINE
  5
80AF
  8
3
  6
CONTINUOUS
 62
     0
 10
2445.7031941429582
 20
4196.8354559999998
 30
0.0
 11
2847.7031941429582
 21
4196.8354559999998
 31
0.0
  0
INSERT
  5
80B0
  8
3
  6
CONTINUOUS
 62
     0
  2
_OPEN
 10
2385.7031941429582
 20
4196.8354559999998
 30
0.0
 41
60.0
 42
60.0
 43
60.0
 50
180.0
  0
INSERT
  5
80B1
  8
3
  6
CONTINUOUS
 62
     0
  2
_OPEN
 10
2907.7031941429582
 20
4196.8354559999998
 30
0.0
 41
60.0
 42
60.0
 43
60.0
  0
TEXT
  8
3
  40
90
  5
80DD
  62
0
  72
0
  71
0
 10
2466.70
 20
4112.54
 30
0.000000
  1
522
  0
POINT
  5
80B3
  8
DEFPOINTS
  6
CONTINUOUS
 62
     0
 10
2385.7031941429582
 20
4195.2831960000003
 30
0.0
  0
POINT
  5
80B4
  8
DEFPOINTS
  6
CONTINUOUS
 62
     0
 10
2907.7031941429582
 20
3577.1555979999998
 30
0.0
  0
POINT
  5
80B5
  8
DEFPOINTS
  6
CONTINUOUS
 62
     0
 10
2907.7031941429582
 20
4196.8354559999998
 30
0.0
  0
ENDBLK
  5
7CB4
  8
0
  0
BLOCK
  8
0
  2
*D15
 70
     1
 10
0.0
 20
0.0
 30
0.0
  3
*D15
  1

  0
LINE
  5
80B6
  8
3
  6
CONTINUOUS
 62
     0
 10
4906.4908531429583
 20
3927.1555979999998
 30
0.0
 11
4906.4908531429583
 21
4323.0550810000004
 31
0.0
  0
LINE
  5
80B7
  8
3
  6
CONTINUOUS
 62
     0
 10
4725.4908531429583
 20
4293.0550810000013
 30
0.0
 11
4846.4908531429592
 21
4293.0550810000013
 31
0.0
  0
TEXT
  8
3
  40
90
  5
80DE
  62
0
  72
0
  71
0
 10
4610.01
 20
4209.28
 30
0.000000
  1
241
  0
INSERT
  5
80B9
  8
3
  6
CONTINUOUS
 62
     0
  2
_OPEN
 10
4665.4908531429583
 20
4293.0550810000013
 30
0.0
 41
60.0
 42
60.0
 43
60.0
 50
180.0
  0
INSERT
  5
80BA
  8
3
  6
CONTINUOUS
 62
     0
  2
_OPEN
 10
4906.4908531429583
 20
4293.0550810000013
 30
0.0
 41
60.0
 42
60.0
 43
60.0
  0
POINT
  5
80BB
  8
DEFPOINTS
  6
CONTINUOUS
 62
     0
 10
4665.4908531429583
 20
4245.8688030000003
 30
0.0
  0
POINT
  5
80BC
  8
DEFPOINTS
  6
CONTINUOUS
 62
     0
 10
4906.4908531429583
 20
3912.1555979999998
 30
0.0
  0
POINT
  5
80BD
  8
DEFPOINTS
  6
CONTINUOUS
 62
     0
 10
4906.4908531429583
 20
4293.0550810000013
 30
0.0
  0
ENDBLK
  5
7D1C
  8
0
  0
BLOCK
  8
0
  2
*D16
 70
     1
 10
0.0
 20
0.0
 30
0.0
  3
*D16
  1

  0
LINE
  5
80BE
  8
3
 62
     0
 10
1900.703194142958
 20
3662.1555979999998
 30
0.0
 11
1900.703194142958
 21
4449.8622335395303
 31
0.0
  0
LINE
  5
80BF
  8
3
 62
     0
 10
3485.7031941429582
 20
2892.1555979999998
 30
0.0
 11
3485.7031941429582
 21
4449.8622335395303
 31
0.0
  0
LINE
  5
80C0
  8
3
 62
     0
 10
1960.703194142958
 20
4419.8622335395312
 30
0.0
 11
3425.7031941429582
 21
4419.8622335395312
 31
0.0
  0
INSERT
  5
80C1
  8
3
 62
     0
  2
_OPEN
 10
1900.703194142958
 20
4419.8622335395312
 30
0.0
 41
60.0
 42
60.0
 43
60.0
 50
180.0
  0
INSERT
  5
80C2
  8
3
 62
     0
  2
_OPEN
 10
3485.7031941429582
 20
4419.8622335395312
 30
0.0
 41
60.0
 42
60.0
 43
60.0
  0
TEXT
  8
3
  40
90
  5
80DF
  62
0
  72
0
  71
0
 10
2487.08
 20
4335.56
 30
0.000000
  1
1585
  0
POINT
  5
80C4
  8
DEFPOINTS
 62
     0
 10
1900.703194142958
 20
3647.1555979999989
 30
0.0
  0
POINT
  5
80C5
  8
DEFPOINTS
 62
     0
 10
3485.7031941429582
 20
2877.1555979999989
 30
0.0
  0
POINT
  5
80C6
  8
DEFPOINTS
 62
     0
 10
3485.7031941429582
 20
4419.8622335395312
 30
0.0
  0
ENDBLK
  5
7D69
  8
0
  0
BLOCK
  8
0
  2
*D17
 70
     1
 10
0.0
 20
0.0
 30
0.0
  3
*D17
  1

  0
LINE
  5
80C7
  8
3
 62
     0
 10
1757.629860142958
 20
3577.1555979999998
 30
0.0
 11
1389.6560611429579
 21
3577.1555979999998
 31
0.0
  0
LINE
  5
80C8
  8
3
 62
     0
 10
2397.7031941429582
 20
4030.3445010030032
 30
0.0
 11
1389.6560611429579
 21
4030.3445010030032
 31
0.0
  0
LINE
  5
80C9
  8
3
 62
     0
 10
1419.6560611429579
 20
3637.1555979999989
 30
0.0
 11
1419.6560611429579
 21
3970.3445010030032
 31
0.0
  0
INSERT
  5
80CA
  8
3
 62
     0
  2
_OPEN
 10
1419.6560611429579
 20
3577.1555979999998
 30
0.0
 41
60.0
 42
60.0
 43
60.0
 50
270.0
  0
INSERT
  5
80CB
  8
3
 62
     0
  2
_OPEN
 10
1419.6560611429579
 20
4030.3445010030032
 30
0.0
 41
60.0
 42
60.0
 43
60.0
 50
90.0
  0
TEXT
  8
3
  40
90
  5
80E0
  62
0
  72
0
  71
0
 10
1164.66
 20
3644.45
 30
0.000000
  1
452
  0
POINT
  5
80CD
  8
DEFPOINTS
 62
     0
 10
1772.6298601429571
 20
3577.1555979999998
 30
0.0
  0
POINT
  5
80CE
  8
DEFPOINTS
 62
     0
 10
2412.7031941429582
 20
4030.3445010030032
 30
0.0
  0
POINT
  5
80CF
  8
DEFPOINTS
 62
     0
 10
1419.6560611429579
 20
4030.3445010030032
 30
0.0
  0
ENDBLK
  5
7DEF
  8
0
  0
ENDSEC
  0
SECTION
  2
ENTITIES
  0
LINE
  5
7AA8
  8
1
  6
CONTINUOUS
 10
3066.3471791429579
 20
3007.9922729999998
 30
0.0
 11
2310.3189941429582
 21
3447.4743640000002
 31
0.0
  0
LINE
  5
7AA9
  8
1
  6
CONTINUOUS
 10
3157.2472011429581
 20
3139.0426339999999
 30
0.0
 11
2480.7565361429579
 21
3693.1937899999998
 31
0.0
  0
ARC
  5
7AAA
  8
1
  6
CONTINUOUS
 10
2420.7031941429582
 20
3542.1555979999998
 30
0.0
 40
488.25444700000003
 50
4.5139879999999986
 51
97.352379000000013
  0
ARC
  5
7AAB
  8
1
  6
CONTINUOUS
 10
2344.7031941429582
 20
3536.1555979999998
 30
0.0
 40
564.49092099999984
 50
274.165164
 51
4.5139879999999986
  0
LINE
  5
7AAC
  8
1
  6
CONTINUOUS
 10
3315.7031941429582
 20
3177.1555979999998
 30
0.0
 11
2485.7031941429582
 21
3877.1555979999998
 31
0.0
  0
LINE
  5
7AAD
  8
1
  6
CONTINUOUS
 10
1885.703194142958
 20
2877.1555979999989
 30
0.0
 11
3485.7031941429582
 21
2877.1555979999989
 31
0.0
  0
LINE
  5
7AAE
  8
1
  6
CONTINUOUS
 10
3485.7031941429582
 20
2777.1555979999998
 30
0.0
 11
1885.703194142958
 21
2777.1555979999998
 31
0.0
  0
LINE
  5
7AB0
  8
1
  6
CONTINUOUS
 10
1943.703194142958
 20
2877.1555979999989
 30
0.0
 11
2827.7031941429582
 21
2877.1555979999989
 31
0.0
  0
LINE
  5
7AB1
  8
1
  6
CONTINUOUS
 10
1930.703194142958
 20
3607.1555979999998
 30
0.0
 11
1930.703194142958
 21
2958.1452879999988
 31
0.0
  0
LINE
  5
7AB2
  8
1
  6
CONTINUOUS
 10
2045.703194142958
 20
2877.1555979999989
 30
0.0
 11
2045.703194142958
 21
3877.1555979999998
 31
0.0
  0
LINE
  5
7AB3
  8
1
  6
CONTINUOUS
 10
1900.703194142958
 20
3647.1555979999989
 30
0.0
 11
1900.703194142958
 21
2917.1555979999989
 31
0.0
  0
LINE
  5
7AB7
  8
1
  6
CONTINUOUS
 10
1900.703194142958
 20
2957.1555979999989
 30
0.0
 11
2385.7031941429582
 21
2973.1555979999989
 31
0.0
  0
LINE
  5
7AB8
  8
1
  6
CONTINUOUS
 10
1885.703194142958
 20
2877.1555979999989
 30
0.0
 11
1885.703194142958
 21
2777.1555979999998
 31
0.0
  0
ARC
  5
7AB9
  8
1
  6
CONTINUOUS
 10
2412.7031941429582
 20
3604.1555979999998
 30
0.0
 40
425.74044800000001
 50
97.352379000000013
 51
179.596259
  0
LINE
  5
7ABA
  8
1
  6
CONTINUOUS
 10
2045.703194142958
 20
3877.1555979999998
 30
0.0
 11
2485.7031941429582
 21
3877.1555979999998
 31
0.0
  0
CIRCLE
  5
7ABB
  8
1
  6
CONTINUOUS
 10
2385.7031941429582
 20
3577.1555979999998
 30
0.0
 40
150.0
  0
LINE
  5
7ABC
  8
2
  6
CENTER
 10
1772.6298601429571
 20
3577.1555979999998
 30
0.0
 11
3121.6243281429579
 21
3577.1555979999998
 31
0.0
  0
LINE
  5
7ABD
  8
1
  6
CONTINUOUS
 10
1986.973315142958
 20
3607.1555979999998
 30
0.0
 11
1900.703194142958
 21
3607.1555979999998
 31
0.0
  0
LINE
  5
7ABE
  8
2
  6
CENTER
 10
2385.7031941429582
 20
5977.7292960000004
 30
0.0
 11
2385.7031941429582
 21
4996.1710909999993
 31
0.0
  0
CIRCLE
  5
7ACA
  8
1
  6
CONTINUOUS
 10
3106.5520851429578
 20
3077.1555979999998
 30
0.0
 40
80.0
  0
LINE
  5
7ACB
  8
2
  6
CENTER
 10
3106.5520851429578
 20
3157.1555979999998
 30
0.0
 11
3106.5520851429578
 21
2997.1555979999989
 31
0.0
  0
LINE
  5
7ACC
  8
2
  6
CENTER
 10
3026.5520851429578
 20
3077.1555979999998
 30
0.0
 11
3186.5520851429578
 21
3077.1555979999998
 31
0.0
  0
ARC
  5
7ACD
  8
1
  6
CONTINUOUS
 10
3106.5520851429578
 20
3077.1555979999998
 30
0.0
 40
162.0
 50
324.972283
 51
215.02771699999991
  0
LINE
  5
7ACE
  8
1
  6
CONTINUOUS
 10
3260.5520851429578
 20
2935.1555979999998
 30
0.0
 11
3239.2097511429579
 21
2984.1720309999992
 31
0.0
  0
LINE
  5
7ACF
  8
1
  6
CONTINUOUS
 10
2952.5520851429578
 20
2935.1555979999998
 30
0.0
 11
2973.8944201429581
 21
2984.1720309999992
 31
0.0
  0
LINE
  5
7AD0
  8
1
  6
CONTINUOUS
 10
3260.5520851429578
 20
2917.1555979999989
 30
0.0
 11
3260.5520851429578
 21
2935.1555979999998
 31
0.0
  0
LINE
  5
7AD1
  8
1
  6
CONTINUOUS
 10
2952.5520851429578
 20
2877.1555979999989
 30
0.0
 11
2952.5520851429578
 21
2935.1555979999998
 31
0.0
  0
LINE
  5
7AD2
  8
1
  6
CONTINUOUS
 10
3260.5520851429578
 20
2877.1555979999989
 30
0.0
 11
3260.5520851429578
 21
2935.1555979999998
 31
0.0
  0
LINE
  5
7AD3
  8
1
  6
CONTINUOUS
 10
2952.5520851429578
 20
2917.1555979999989
 30
0.0
 11
3260.5520851429578
 21
2917.1555979999989
 31
0.0
  0
LINE
  5
7AD4
  8
1
  6
CONTINUOUS
 10
3485.7031941429582
 20
2877.1555979999989
 30
0.0
 11
3485.7031941429582
 21
2777.1555979999998
 31
0.0
  0
LINE
  5
7AD5
  8
1
  6
CONTINUOUS
 10
3315.7031941429582
 20
2877.1555979999989
 30
0.0
 11
3315.7031941429582
 21
3177.1555979999998
 31
0.0
  0
LINE
  5
7AF0
  8
1
  6
CONTINUOUS
 10
4427.9908531429583
 20
2877.1555979999989
 30
0.0
 11
4427.9908531429583
 21
4030.4100449999992
 31
0.0
  0
LINE
  5
7AF1
  8
1
  6
CONTINUOUS
 10
4902.9908531429583
 20
2877.1555979999989
 30
0.0
 11
4902.9908531429583
 21
4030.4100449999992
 31
0.0
  0
LINE
  5
7AF2
  8
1
  6
CONTINUOUS
 10
4185.4908531429583
 20
3877.1555979999998
 30
0.0
 11
4185.4908531429583
 21
2877.1555979999989
 31
0.0
  0
LINE
  5
7AF3
  8
1
  6
CONTINUOUS
 10
4902.9908531429583
 20
2957.1555979999989
 30
0.0
 11
4427.9908531429583
 21
3607.1555979999998
 31
0.0
  0
LINE
  5
7AF4
  8
1
  6
CONTINUOUS
 10
4427.9908531429583
 20
2957.1555979999989
 30
0.0
 11
4902.9908531429583
 21
3607.1555979999998
 31
0.0
  0
LINE
  5
7AF5
  8
1
  6
CONTINUOUS
 10
4325.4908531429583
 20
3877.1555979999998
 30
0.0
 11
4325.4908531429583
 21
2877.1555979999989
 31
0.0
  0
LINE
  5
7AF6
  8
1
  6
CONTINUOUS
 10
4305.4908531429583
 20
2777.1555979999998
 30
0.0
 11
5005.4908531429583
 21
2777.1555979999998
 31
0.0
  0
LINE
  5
7AF7
  8
1
  6
CONTINUOUS
 10
4427.9908531429583
 20
2957.1555979999989
 30
0.0
 11
4902.9908531429583
 21
2957.1555979999989
 31
0.0
  0
LINE
  5
7AF8
  8
1
  6
CONTINUOUS
 10
5005.4908531429583
 20
2877.1555979999989
 30
0.0
 11
4305.4908531429583
 21
2877.1555979999989
 31
0.0
  0
LINE
  5
7AF9
  8
1
  6
CONTINUOUS
 10
4185.4908531429583
 20
2877.1555979999989
 30
0.0
 11
4254.4908531429583
 21
2877.1555979999989
 31
0.0
  0
LINE
  5
7AFA
  8
1
  6
CONTINUOUS
 10
4220.4908531429573
 20
3157.1555979999998
 30
0.0
 11
4290.4908531429583
 21
3157.1555979999998
 31
0.0
  0
LINE
  5
7AFB
  8
1
  6
CONTINUOUS
 10
4290.4908531429583
 20
3157.1555979999998
 30
0.0
 11
4290.4908531429583
 21
2997.1555979999989
 31
0.0
  0
LINE
  5
7AFC
  8
1
  6
CONTINUOUS
 10
4220.4908531429573
 20
3157.1555979999998
 30
0.0
 11
4220.4908531429573
 21
2997.1555979999989
 31
0.0
  0
LINE
  5
7AFD
  8
1
  6
CONTINUOUS
 10
4220.4908531429573
 20
2997.1555979999989
 30
0.0
 11
4290.4908531429583
 21
2997.1555979999989
 31
0.0
  0
LINE
  5
7AFE
  8
1
  6
CONTINUOUS
 10
4290.4908531429583
 20
3098.1555979999989
 30
0.0
 11
4427.9908531429583
 21
3098.1555979999989
 31
0.0
  0
LINE
  5
7AFF
  8
1
  6
CONTINUOUS
 10
4290.4908531429583
 20
3056.1555979999998
 30
0.0
 11
4427.9908531429583
 21
3056.1555979999998
 31
0.0
  0
LINE
  5
7B00
  8
1
  6
CONTINUOUS
 10
4305.4908531429583
 20
2877.1555979999989
 30
0.0
 11
4305.4908531429583
 21
2777.1555979999998
 31
0.0
  0
LINE
  5
7B01
  8
1
  6
CONTINUOUS
 10
5005.4908531429583
 20
2877.1555979999989
 30
0.0
 11
5005.4908531429583
 21
2777.1555979999998
 31
0.0
  0
LINE
  5
7B02
  8
1
  6
CONTINUOUS
 10
4427.9908531429583
 20
4030.4100449999992
 30
0.0
 11
4902.9908531429583
 21
4030.4100449999992
 31
0.0
  0
LINE
  5
7B03
  8
1
  6
CONTINUOUS
 10
4427.9908531429583
 20
3607.1555979999998
 30
0.0
 11
4902.9908531429583
 21
3607.1555979999998
 31
0.0
  0
LINE
  5
7B04
  8
1
  6
CONTINUOUS
 10
4325.4908531429583
 20
3877.1555979999998
 30
0.0
 11
4185.4908531429583
 21
3877.1555979999998
 31
0.0
  0
LINE
  5
7B05
  8
1
  6
CONTINUOUS
 10
4220.4908531429573
 20
3727.1555979999998
 30
0.0
 11
4290.4908531429583
 21
3727.1555979999998
 31
0.0
  0
LINE
  5
7B06
  8
1
  6
CONTINUOUS
 10
4220.4908531429573
 20
3427.1555979999998
 30
0.0
 11
4290.4908531429583
 21
3427.1555979999998
 31
0.0
  0
LINE
  5
7B07
  8
1
  6
CONTINUOUS
 10
4290.4908531429583
 20
3727.1555979999998
 30
0.0
 11
4290.4908531429583
 21
3427.1555979999998
 31
0.0
  0
LINE
  5
7B08
  8
1
  6
CONTINUOUS
 10
4220.4908531429573
 20
3727.1555979999998
 30
0.0
 11
4220.4908531429573
 21
3427.1555979999998
 31
0.0
  0
LINE
  5
7B09
  8
1
  6
CONTINUOUS
 10
4290.4908531429583
 20
3598.1555979999989
 30
0.0
 11
4427.9908531429583
 21
3598.1555979999989
 31
0.0
  0
LINE
  5
7B0A
  8
1
  6
CONTINUOUS
 10
4290.4908531429583
 20
3556.1555979999998
 30
0.0
 11
4427.9908531429583
 21
3556.1555979999998
 31
0.0
  0
LINE
  5
7B0B
  8
1
  6
CONTINUOUS
 10
2406.7031941429582
 20
5228.3639249999997
 30
0.0
 11
3085.5520851429578
 21
5228.3639249999997
 31
0.0
  0
LINE
  5
7B0C
  8
1
  6
CONTINUOUS
 10
1885.703194142958
 20
5928.3639249999997
 30
0.0
 11
3485.7031941429582
 21
5928.3639249999997
 31
0.0
  0
LINE
  5
7B0D
  8
1
  6
CONTINUOUS
 10
1900.703194142958
 20
5350.8639249999987
 30
0.0
 11
2909.1941151429578
 21
5350.8639249999987
 31
0.0
  0
LINE
  5
7B0E
  8
1
  6
CONTINUOUS
 10
1900.703194142958
 20
5825.8639249999997
 30
0.0
 11
2909.1941151429578
 21
5825.8639249999997
 31
0.0
  0
LINE
  5
7B0F
  8
1
  6
CONTINUOUS
 10
2045.703194142958
 20
5248.3639249999987
 30
0.0
 11
3315.7031941429582
 21
5248.3639249999987
 31
0.0
  0
LINE
  5
7B10
  8
1
  6
CONTINUOUS
 10
2045.703194142958
 20
5108.3639249999987
 30
0.0
 11
3315.7031941429582
 21
5108.3639249999987
 31
0.0
  0
LINE
  5
7B11
  8
1
  6
CONTINUOUS
 10
1885.703194142958
 20
5928.3639249999997
 30
0.0
 11
1885.703194142958
 21
5228.3639249999997
 31
0.0
  0
LINE
  5
7B12
  8
1
  6
CONTINUOUS
 10
1940.703194142958
 20
5350.8639249999987
 30
0.0
 11
1940.703194142958
 21
5825.8639249999997
 31
0.0
  0
LINE
  5
7B13
  8
1
  6
CONTINUOUS
 10
1900.703194142958
 20
5308.3639249999997
 30
0.0
 11
1900.703194142958
 21
5868.3639249999997
 31
0.0
  0
LINE
  5
7B14
  8
1
  6
CONTINUOUS
 10
1885.703194142958
 20
5228.3639249999997
 30
0.0
 11
2364.7031941429582
 21
5228.3639249999997
 31
0.0
  0
LINE
  5
7B15
  8
1
  6
CONTINUOUS
 10
2535.7031941429582
 20
5143.3639249999997
 30
0.0
 11
2235.7031941429582
 21
5143.3639249999997
 31
0.0
  0
LINE
  5
7B16
  8
1
  6
CONTINUOUS
 10
2535.7031941429582
 20
5213.3639249999987
 30
0.0
 11
2235.7031941429582
 21
5213.3639249999987
 31
0.0
  0
LINE
  5
7B17
  8
1
  6
CONTINUOUS
 10
2045.703194142958
 20
5108.3639249999987
 30
0.0
 11
2045.703194142958
 21
5248.3639249999987
 31
0.0
  0
LINE
  5
7B18
  8
1
  6
CONTINUOUS
 10
2235.7031941429582
 20
5143.3639249999997
 30
0.0
 11
2235.7031941429582
 21
5213.3639249999987
 31
0.0
  0
LINE
  5
7B19
  8
1
  6
CONTINUOUS
 10
2406.7031941429582
 20
5213.3639249999987
 30
0.0
 11
2406.7031941429582
 21
5350.8639249999987
 31
0.0
  0
LINE
  5
7B1A
  8
1
  6
CONTINUOUS
 10
2364.7031941429582
 20
5213.3639249999987
 30
0.0
 11
2364.7031941429582
 21
5350.8639249999987
 31
0.0
  0
LINE
  5
7B1B
  8
1
  6
CONTINUOUS
 10
2535.7031941429582
 20
5143.3639249999997
 30
0.0
 11
2535.7031941429582
 21
5213.3639249999987
 31
0.0
  0
LINE
  5
7B22
  8
1
  6
CONTINUOUS
 10
3485.7031941429582
 20
5928.3639249999997
 30
0.0
 11
3485.7031941429582
 21
5228.3639249999997
 31
0.0
  0
LINE
  5
7B23
  8
1
  6
CONTINUOUS
 10
2909.1941151429578
 20
5350.8639249999987
 30
0.0
 11
2909.1941151429578
 21
5825.8639249999997
 31
0.0
  0
LINE
  5
7B24
  8
1
  6
CONTINUOUS
 10
3268.5520851429592
 20
5280.0958420000006
 30
0.0
 11
3268.5520851429592
 21
5765.0958419999997
 31
0.0
  0
LINE
  5
7B25
  8
1
  6
CONTINUOUS
 10
2944.5520851429578
 20
5280.0958420000006
 30
0.0
 11
2944.5520851429578
 21
5765.0958419999997
 31
0.0
  0
LINE
  5
7B26
  8
1
  6
CONTINUOUS
 10
3127.5520851429578
 20
5228.3639249999997
 30
0.0
 11
3485.7031941429582
 21
5228.3639249999997
 31
0.0
  0
LINE
  5
7B27
  8
1
  6
CONTINUOUS
 10
3085.5520851429578
 20
5213.3639249999987
 30
0.0
 11
3085.5520851429578
 21
5280.0958420000006
 31
0.0
  0
LINE
  5
7B28
  8
1
  6
CONTINUOUS
 10
3127.5520851429578
 20
5213.3639249999987
 30
0.0
 11
3127.5520851429578
 21
5280.0958420000006
 31
0.0
  0
LINE
  5
7B29
  8
1
  6
CONTINUOUS
 10
3186.5520851429578
 20
5143.3639249999997
 30
0.0
 11
3186.5520851429578
 21
5213.3639249999987
 31
0.0
  0
LINE
  5
7B2A
  8
1
  6
CONTINUOUS
 10
3026.5520851429578
 20
5143.3639249999997
 30
0.0
 11
3026.5520851429578
 21
5213.3639249999987
 31
0.0
  0
LINE
  5
7B2B
  8
1
  6
CONTINUOUS
 10
3186.5520851429578
 20
5143.3639249999997
 30
0.0
 11
3026.5520851429578
 21
5143.3639249999997
 31
0.0
  0
LINE
  5
7B2C
  8
1
  6
CONTINUOUS
 10
3186.5520851429578
 20
5213.3639249999987
 30
0.0
 11
3026.5520851429578
 21
5213.3639249999987
 31
0.0
  0
LINE
  5
7B2D
  8
1
  6
CONTINUOUS
 10
3268.5520851429592
 20
5280.0958420000006
 30
0.0
 11
2944.5520851429578
 21
5280.0958420000006
 31
0.0
  0
LINE
  5
7B2E
  8
1
  6
CONTINUOUS
 10
2944.5520851429578
 20
5601.8122899999998
 30
0.0
 11
2944.5520851429578
 21
5359.5652499999997
 31
0.0
  0
LINE
  5
7B2F
  8
1
  6
CONTINUOUS
 10
3315.7031941429582
 20
5108.3639249999987
 30
0.0
 11
3315.7031941429582
 21
5248.3639249999987
 31
0.0
  0
LINE
  5
7B30
  8
1
  6
CONTINUOUS
 10
3268.5520851429592
 20
5765.0958419999997
 30
0.0
 11
2944.5520851429578
 21
5765.0958419999997
 31
0.0
  0
LINE
  5
7B4B
  8
2
  6
CENTER
 10
3558.0828151429582
 20
5588.3639249999987
 30
0.0
 11
1774.5018931429579
 21
5588.3639249999987
 31
0.0
  0
LINE
  5
7B4C
  8
2
  6
CENTER
 10
4665.4908531429583
 20
4245.8688030000003
 30
0.0
 11
4665.4908531429583
 21
4229.8851019999993
 31
0.0
  0
LINE
  5
7B4D
  8
2
  6
CENTER
 10
2385.7031941429582
 20
4195.2831960000003
 30
0.0
 11
2385.7031941429582
 21
2641.9090350000001
 31
0.0
  0
LINE
  5
7B4E
  8
2
  6
CENTER
 10
4061.8035231429581
 20
3577.1555979999998
 30
0.0
 11
5016.0152471429583
 21
3577.1555979999998
 31
0.0
  0
LINE
  5
7B55
  8
4
  6
CONTINUOUS
 10
5550.0
 20
1500.0
 30
0.0
 11
5550.0
 21
900.0
 31
0.0
  0
LINE
  5
7B56
  8
4
  6
CONTINUOUS
 10
3450.0
 20
1500.0
 30
0.0
 11
3450.0
 21
900.0
 31
0.0
  0
LINE
  5
7B57
  8
4
  6
CONTINUOUS
 10
1950.0
 20
1500.0
 30
0.0
 11
1950.0
 21
900.0
 31
0.0
  0
LINE
  5
7B5A
  8
4
  6
CONTINUOUS
 10
1950.0
 20
900.0
 30
0.0
 11
5550.0
 21
900.0
 31
0.0
  0
LINE
  5
7B5B
  8
4
  6
CONTINUOUS
 10
1950.0
 20
1200.0
 30
0.0
 11
5550.0
 21
1200.0
 31
0.0
  0
TEXT
  5
7B5C
  8
4
  6
CONTINUOUS
 10
2065.5062429999989
 20
1294.6290779999999
 30
0.0
 40
150.0
  1
機器名称
  0
TEXT
  5
7B5D
  8
4
  6
CONTINUOUS
 10
2058.7743179999989
 20
964.9354699999999
 30
0.0
 40
150.0
  1
機器型番
  0
TEXT
  5
7B5E
  8
4
  6
CONTINUOUS
 10
3533.0362359999999
 20
1267.7153069999999
 30
0.0
 40
150.0
  1
ミツヤ多翼送風機
  0
TEXT
  5
7B5F
  8
4
  6
CONTINUOUS
 10
3559.9634869999991
 20
951.47875299999987
 30
0.0
 40
150.0
  1
MF#4-4
  0
TEXT
  5
7B61
  8
4
  6
CONTINUOUS
 10
2398.6479059999988
 20
7150.2865239999992
 30
0.0
 40
162.0
  1
天井吊ベット
  0
TEXT
  5
7B62
  8
4
  6
CONTINUOUS
 10
948.50278000000014
 20
7601.6429289999996
 30
0.0
 40
216.0
  1
ベルト駆動式片吸込両持多翼ファン
  0
LINE
  5
7B63
  8
4
  6
CONTINUOUS
 10
750.0
 20
7408.2262629999996
 30
0.0
 11
5550.0
 21
7408.2262629999996
 31
0.0
  0
LINE
  5
7B64
  8
4
  6
CONTINUOUS
 10
750.0
 20
8008.2262629999996
 30
0.0
 11
5550.0
 21
8008.2262629999996
 31
0.0
  0
LINE
  5
7B65
  8
4
  6
CONTINUOUS
 10
1950.0
 20
1500.0
 30
0.0
 11
5550.0
 21
1500.0
 31
0.0
  0
LINE
  5
7B66
  8
4
  6
CONTINUOUS
 10
750.0
 20
8008.2262629999996
 30
0.0
 11
750.0
 21
7408.2262629999996
 31
0.0
  0
TEXT
  5
7B67
  8
4
  6
CONTINUOUS
 10
1091.071408999999
 20
7146.9584329999998
 30
0.0
 40
162.0
  1
右回転左横向
  0
TEXT
  5
7B68
  8
4
  6
CONTINUOUS
 10
4406.9086779999989
 20
8118.1832439999989
 30
0.0
 40
168.0
  1
No.
  0
TEXT
  5
7B69
  8
4
  6
CONTINUOUS
 10
3933.8881879999999
 20
7150.2865239999992
 30
0.0
 40
162.0
  1
縮尺：1/30
  0
LINE
  5
7B6A
  8
4
  6
CONTINUOUS
 10
5550.0
 20
8008.2262629999996
 30
0.0
 11
5550.0
 21
7408.2262629999996
 31
0.0
  0
LINE
  5
7B6C
  8
4
  6
CONTINUOUS
 10
4321.8522670000002
 20
8043.7907490000007
 30
0.0
 11
4321.8522670000002
 21
8359.9567849999985
 31
0.0
  0
LINE
  5
7B6D
  8
4
  6
CONTINUOUS
 10
4321.8522670000002
 20
8359.9567849999985
 30
0.0
 11
5550.0
 21
8359.9567849999985
 31
0.0
  0
LINE
  5
7B6E
  8
4
  6
CONTINUOUS
 10
5550.0
 20
8359.9567849999985
 30
0.0
 11
5550.0
 21
8043.7907490000007
 31
0.0
  0
LINE
  5
7B6F
  8
4
  6
CONTINUOUS
 10
5550.0
 20
8043.7907490000007
 30
0.0
 11
4321.8522670000002
 21
8043.7907490000007
 31
0.0
  0
DIMENSION
  5
7B81
  8
3
  6
CONTINUOUS
  2
*D1
 10
1774.3323741429581
 20
2957.1555979999989
 30
0.0
 11
1774.3323741429581
 21
3284.3301379999998
 31
0.0
 70
   128
 13
1900.703194142958
 23
3607.1555979999998
 33
0.0
 14
1900.703194142958
 24
2957.1555979999989
 34
0.0
 50
90.0
1001
ACAD
1000
DSTYLE
1002
{
1070
   287
1070
     3
1070
   287
1070
     3
1070
    40
1040
30.0
1070
   143
1040
0.039
1070
   172
1070
     1
1070
   271
1070
     0
1070
   279
1070
     0
1070
   288
1070
     1
1002
}
  0
DIMENSION
  5
7B8E
  8
3
  6
CONTINUOUS
  2
*D2
 10
1588.809391142958
 20
3577.1555979999998
 30
0.0
 11
1588.809391142958
 21
3295.2352660000001
 31
0.0
 70
   128
 13
1900.703194142958
 23
2957.1555979999989
 33
0.0
 14
1772.6298601429571
 24
3577.1555979999998
 34
0.0
 50
90.0
1001
ACAD
1000
DSTYLE
1002
{
1070
   287
1070
     3
1070
   287
1070
     3
1070
    40
1040
30.0
1070
   143
1040
0.039
1070
   172
1070
     1
1070
   271
1070
     0
1070
   279
1070
     0
1070
   288
1070
     1
1002
}
  0
DIMENSION
  5
7BA7
  8
3
  6
CONTINUOUS
  2
*D3
 10
1419.6560611429579
 20
2777.1555979999998
 30
0.0
 11
1344.656061142957
 21
3177.1555979999998
 31
0.0
 70
     0
 13
1772.6298601429571
 23
3577.1555979999998
 33
0.0
 14
1885.703194142958
 24
2777.1555979999998
 34
0.0
 50
90.0
1001
ACAD
1000
DSTYLE
1002
{
1070
   287
1070
     3
1070
   287
1070
     3
1070
    40
1040
30.0
1070
   143
1040
0.039
1070
   172
1070
     1
1070
   271
1070
     0
1070
   279
1070
     0
1070
   288
1070
     1
1002
}
  0
DIMENSION
  5
7BC1
  8
3
  6
CONTINUOUS
  2
*D4
 10
2385.7031941429582
 20
2469.5225169999999
 30
0.0
 11
2139.3774601429582
 21
2469.5225169999999
 31
0.0
 70
   128
 13
1885.703194142958
 23
2777.1555979999998
 33
0.0
 14
2385.7031941429582
 24
2641.9090350000001
 34
0.0
1001
ACAD
1000
DSTYLE
1002
{
1070
   287
1070
     3
1070
   287
1070
     3
1070
    40
1040
30.0
1070
   143
1040
0.039
1070
   172
1070
     1
1070
   271
1070
     0
1070
   279
1070
     0
1070
   288
1070
     1
1002
}
  0
DIMENSION
  5
7BCD
  8
3
  6
CONTINUOUS
  2
*D5
 10
3485.7031941429582
 20
2469.5225169999999
 30
0.0
 11
2935.7031941429582
 21
2544.5225169999999
 31
0.0
 70
     0
 13
2385.7031941429582
 23
2641.9090350000001
 33
0.0
 14
3485.7031941429582
 24
2777.1555979999998
 34
0.0
1001
ACAD
1000
DSTYLE
1002
{
1070
   287
1070
     4
1070
   287
1070
     4
1070
    40
1040
30.0
1070
    75
1070
     1
1070
   143
1040
0.039
1070
   172
1070
     1
1070
   271
1070
     0
1070
   279
1070
     1
1070
   288
1070
     1
1002
}
  0
DIMENSION
  5
7BDA
  8
3
  6
CONTINUOUS
  2
*D6
 10
2385.7031941429582
 20
4196.8354559999998
 30
0.0
 11
2179.9889081429578
 21
4196.8354559999998
 31
0.0
 70
   128
 13
1900.703194142958
 23
3647.1555979999989
 33
0.0
 14
2385.7031941429582
 24
4195.2831960000003
 34
0.0
1001
ACAD
1000
DSTYLE
1002
{
1070
   287
1070
     3
1070
   287
1070
     3
1070
    40
1040
30.0
1070
   143
1040
0.039
1070
   172
1070
     1
1070
   271
1070
     0
1070
   279
1070
     0
1070
   288
1070
     1
1002
}
  0
DIMENSION
  5
7BF3
  8
3
  6
CONTINUOUS
  2
*D7
 10
4427.9908531429583
 20
4102.2152369999994
 30
0.0
 11
4633.7051381429583
 21
4102.2152369999994
 31
0.0
 70
   128
 13
4902.9908531429583
 23
4030.4100449999992
 33
0.0
 14
4427.9908531429583
 24
4030.4100449999992
 34
0.0
1001
ACAD
1000
DSTYLE
1002
{
1070
   287
1070
     3
1070
   287
1070
     3
1070
    40
1040
30.0
1070
   143
1040
0.039
1070
   172
1070
     1
1070
   271
1070
     0
1070
   279
1070
     0
1070
   288
1070
     1
1002
}
  0
LINE
  5
7BF4
  8
1
  6
CONTINUOUS
 10
4906.4908531429583
 20
3242.1555979999998
 30
0.0
 11
4906.4908531429583
 21
3912.1555979999998
 31
0.0
  0
DIMENSION
  5
7C03
  8
3
  6
CONTINUOUS
  2
*D8
 10
5140.4848711429586
 20
3242.1555979999989
 30
0.0
 11
5140.4848711429577
 21
3578.768759999999
 31
0.0
 70
   128
 13
4906.4908531429583
 23
3912.1555979999998
 33
0.0
 14
4906.4908531429583
 24
3242.1555979999998
 34
0.0
 50
90.0
1001
ACAD
1000
DSTYLE
1002
{
1070
   287
1070
     3
1070
   287
1070
     3
1070
     3
1000
φ<>
1070
    40
1040
30.0
1070
   143
1040
0.039
1070
   172
1070
     1
1070
   271
1070
     0
1070
   279
1070
     0
1070
   288
1070
     1
1002
}
  0
DIMENSION
  5
7C1D
  8
3
  6
CONTINUOUS
  2
*D9
 10
4185.4908531429583
 20
4293.0550810000013
 30
0.0
 11
4425.4908531429583
 21
4443.0550810000004
 31
0.0
 70
     0
  1
MAX\P530
 13
4665.4908531429583
 23
4245.8688030000003
 33
0.0
 14
4185.4908531429583
 24
3877.1555979999998
 34
0.0
1001
ACAD
1000
DSTYLE
1002
{
1070
   287
1070
     3
1070
   287
1070
     3
1070
    40
1040
30.0
1070
   143
1040
0.039
1070
   172
1070
     1
1070
   271
1070
     0
1070
   279
1070
     0
1070
   288
1070
     1
1002
}
  0
LINE
  5
7C34
  8
2
  6
CENTER
 10
4665.4908531429583
 20
4118.8491430000013
 30
0.0
 11
4665.4908531429583
 21
2694.5381590000002
 31
0.0
  0
DIMENSION
  5
7C43
  8
3
  6
CONTINUOUS
  2
*D10
 10
4665.4908531429583
 20
2512.978869
 30
0.0
 11
4485.4908531429583
 21
2594.2306015192439
 31
0.0
 70
   128
 13
4305.4908531429583
 23
2777.1555979999998
 33
0.0
 14
4665.4908531429583
 24
2694.5381590000002
 34
0.0
1001
ACAD
1000
DSTYLE
1002
{
1070
   288
1070
     1
1070
   172
1070
     1
1070
    40
1040
30.0
1070
   271
1070
     0
1070
   143
1040
0.039
1002
}
  0
DIMENSION
  5
7C51
  8
3
  6
CONTINUOUS
  2
*D11
 10
5005.4908531429583
 20
2512.978869
 30
0.0
 11
4824.042082142958
 21
2513.828485999999
 31
0.0
 70
   128
 13
4665.4908531429583
 23
2694.5381590000002
 33
0.0
 14
5005.4908531429583
 24
2777.1555979999998
 34
0.0
1001
ACAD
1000
DSTYLE
1002
{
1070
   287
1070
     4
1070
   287
1070
     4
1070
    40
1040
30.0
1070
    75
1070
     1
1070
   143
1040
0.039
1070
   172
1070
     1
1070
   271
1070
     0
1070
   279
1070
     1
1070
   288
1070
     1
1002
}
  0
DIMENSION
  5
7C5E
  8
3
  6
CONTINUOUS
  2
*D12
 10
3485.7031941429582
 20
6215.8993780000001
 30
0.0
 11
2663.2071371429579
 21
6215.8993780000001
 31
0.0
 70
   128
 13
1885.703194142958
 23
5928.3639249999997
 33
0.0
 14
3485.7031941429582
 24
5928.3639249999997
 34
0.0
1001
ACAD
1000
DSTYLE
1002
{
1070
   287
1070
     3
1070
   287
1070
     3
1070
    40
1040
30.0
1070
   143
1040
0.039
1070
   172
1070
     1
1070
   271
1070
     0
1070
   279
1070
     0
1070
   288
1070
     1
1002
}
  0
DIMENSION
  5
7C6B
  8
3
  6
CONTINUOUS
  2
*D13
 10
3805.1520641429588
 20
5228.3639249999997
 30
0.0
 11
3805.1520641429579
 21
5609.5059149999988
 31
0.0
 70
   128
 13
3485.7031941429582
 23
5928.3639249999997
 33
0.0
 14
3485.7031941429582
 24
5228.3639249999997
 34
0.0
 50
90.0
1001
ACAD
1000
DSTYLE
1002
{
1070
   287
1070
     3
1070
   287
1070
     3
1070
    40
1040
30.0
1070
   143
1040
0.039
1070
   172
1070
     1
1070
   271
1070
     0
1070
   279
1070
     0
1070
   288
1070
     1
1002
}
  0
DIMENSION
  5
7CAA
  8
3
  6
CONTINUOUS
  2
*D14
 10
2907.7031941429582
 20
4196.8354559999998
 30
0.0
 11
2646.7031941429582
 21
4271.8354559999998
 31
0.0
 70
     0
 13
2385.7031941429582
 23
4195.2831960000003
 33
0.0
 14
2907.7031941429582
 24
3577.1555979999998
 34
0.0
1001
ACAD
1000
DSTYLE
1002
{
1070
   287
1070
     4
1070
   287
1070
     4
1070
    40
1040
30.0
1070
    75
1070
     1
1070
   143
1040
0.039
1070
   172
1070
     1
1070
   271
1070
     0
1070
   279
1070
     1
1070
   288
1070
     1
1002
}
  0
DIMENSION
  5
7D06
  8
3
  6
CONTINUOUS
  2
*D15
 10
4906.4908531429583
 20
4293.0550810000013
 30
0.0
 11
4790.0134361429591
 21
4293.5789839999998
 31
0.0
 70
   128
 13
4665.4908531429583
 23
4245.8688030000003
 33
0.0
 14
4906.4908531429583
 24
3912.1555979999998
 34
0.0
1001
ACAD
1000
DSTYLE
1002
{
1070
   287
1070
     4
1070
   287
1070
     4
1070
    40
1040
30.0
1070
    75
1070
     1
1070
   143
1040
0.039
1070
   172
1070
     1
1070
   271
1070
     0
1070
   279
1070
     1
1070
   288
1070
     1
1002
}
  0
DIMENSION
  5
7D6A
  8
3
  2
*D16
 10
3485.7031941429582
 20
4419.8622335395312
 30
0.0
 11
2667.08067626107
 21
4419.8622335395312
 31
0.0
 70
   128
 13
1900.703194142958
 23
3647.1555979999989
 33
0.0
 14
3485.7031941429582
 24
2877.1555979999989
 34
0.0
1001
ACAD
1000
DSTYLE
1002
{
1070
   287
1070
     3
1070
   287
1070
     3
1070
    40
1040
30.0
1070
   143
1040
0.039
1070
   172
1070
     1
1070
   271
1070
     0
1070
   279
1070
     0
1070
   288
1070
     1
1002
}
  0
LINE
  5
7DD2
  8
1
  6
CONTINUOUS
 10
1975.703194142957
 20
3697.1555979999998
 30
0.0
 11
1975.703194142958
 21
2877.1555979999989
 31
0.0
  0
LINE
  5
7DD3
  8
1
  6
CONTINUOUS
 10
2795.7031941429591
 20
3854.8333954453501
 30
0.0
 11
2795.7031941429591
 21
2877.1555979999989
 31
0.0
  0
LINE
  5
7DD4
  8
1
  6
CONTINUOUS
 10
1975.703194142957
 20
3697.1555979999998
 30
0.0
 11
2795.7031941429582
 21
3697.1555979999998
 31
0.0
  0
DIMENSION
  5
7DE3
  8
3
  2
*D17
 10
1419.6560611429579
 20
4030.3445010030032
 30
0.0
 11
1344.656061142957
 21
3803.750049501502
 31
0.0
 70
     0
  1
452
 13
1772.6298601429571
 23
3577.1555979999998
 33
0.0
 14
2412.7031941429582
 24
4030.3445010030032
 34
0.0
 50
90.0
1001
ACAD
1000
DSTYLE
1002
{
1070
   287
1070
     4
1070
   287
1070
     4
1070
    40
1040
30.0
1070
   143
1040
0.039
1070
   172
1070
     1
1070
   271
1070
     0
1070
   279
1070
     1
1070
   288
1070
     1
1002
}
  0
ENDSEC
  0
EOF
