  0
SECTION
  2
HEADER
  9
$ACADVER
  1
AC1009
  9
$INSBASE
 10
0.0
 20
0.0
 30
0.0
  9
$EXTMIN
 10
750.0
 20
900.0
 30
0.0
  9
$EXTMAX
 10
5550.0
 20
8359.9567849999985
 30
0.0
  9
$LIMMIN
 10
0.0
 20
0.0
  9
$LIMMAX
 10
297.0
 20
210.0
  9
$ORTHOMODE
 70
     0
  9
$REGENMODE
 70
     1
  9
$FILLMODE
 70
     0
  9
$QTEXTMODE
 70
     0
  9
$MIRRTEXT
 70
     1
  9
$DRAGMODE
 70
     2
  9
$LTSCALE
 40
100.0
  9
$OSMODE
 70
    37
  9
$ATTMODE
 70
     1
  9
$TEXTSIZE
 40
180.0
  9
$TRACEWID
 40
0.05
  9
$TEXTSTYLE
  7
STANDARD
  9
$CLAYER
  8
3
  9
$CELTYPE
  6
BYLAYER
  9
$CECOLOR
 62
   256
  9
$DIMSCALE
 40
30.0
  9
$DIMASZ
 40
2.0
  9
$DIMEXO
 40
0.5
  9
$DIMDLI
 40
10.0
  9
$DIMRND
 40
0.0
  9
$DIMDLE
 40
0.0
  9
$DIMEXE
 40
1.0
  9
$DIMTP
 40
1.0
  9
$DIMTM
 40
1.0
  9
$DIMTXT
 40
3.0
  9
$DIMCEN
 40
0.0
  9
$DIMTSZ
 40
0.0
  9
$DIMTOL
 70
     0
  9
$DIMLIM
 70
     0
  9
$DIMTIH
 70
     0
  9
$DIMTOH
 70
     0
  9
$DIMSE1
 70
     0
  9
$DIMSE2
 70
     0
  9
$DIMTAD
 70
     1
  9
$DIMZIN
 70
     8
  9
$DIMBLK
  1

  9
$DIMASO
 70
     1
  9
$DIMSHO
 70
     1
  9
$DIMPOST
  1

  9
$DIMAPOST
  1

  9
$DIMALT
 70
     0
  9
$DIMALTD
 70
     2
  9
$DIMALTF
 40
0.039
  9
$DIMLFAC
 40
1.0
  9
$DIMTOFL
 70
     1
  9
$DIMTVP
 40
0.0
  9
$DIMTIX
 70
     0
  9
$DIMSOXD
 70
     0
  9
$DIMSAH
 70
     1
  9
$DIMBLK1
  1
OPEN
  9
$DIMBLK2
  1
OPEN
  9
$DIMSTYLE
  2
IGA
  9
$DIMCLRD
 70
     0
  9
$DIMCLRE
 70
     0
  9
$DIMCLRT
 70
     0
  9
$DIMTFAC
 40
10.0
  9
$DIMGAP
 40
1.0
  9
$LUNITS
 70
     2
  9
$LUPREC
 70
     3
  9
$SKETCHINC
 40
0.1
  9
$FILLETRAD
 40
50.0
  9
$AUNITS
 70
     0
  9
$AUPREC
 70
     0
  9
$MENU
  1
acad
  9
$ELEVATION
 40
0.0
  9
$PELEVATION
 40
0.0
  9
$THICKNESS
 40
0.0
  9
$LIMCHECK
 70
     0
  9
$BLIPMODE
 70
     0
  9
$CHAMFERA
 40
0.5
  9
$CHAMFERB
 40
0.5
  9
$SKPOLY
 70
     0
  9
$TDCREATE
 40
2450742.3762332168
  9
$TDUPDATE
 40
2454953.77057544
  9
$TDINDWG
 40
0.0082006944
  9
$TDUSRTIMER
 40
0.0082006944
  9
$USRTIMER
 70
     1
  9
$ANGBASE
 50
0.0
  9
$ANGDIR
 70
     0
  9
$PDMODE
 70
     0
  9
$PDSIZE
 40
0.0
  9
$PLINEWID
 40
0.0
  9
$COORDS
 70
     1
  9
$SPLFRAME
 70
     0
  9
$SPLINETYPE
 70
     6
  9
$SPLINESEGS
 70
     8
  9
$ATTDIA
 70
     0
  9
$ATTREQ
 70
     1
  9
$HANDLING
 70
 10241
  9
$HANDSEED
  5
809F
  9
$SURFTAB1
 70
     6
  9
$SURFTAB2
 70
     6
  9
$SURFTYPE
 70
     6
  9
$SURFU
 70
     6
  9
$SURFV
 70
     6
  9
$UCSNAME
  2

  9
$UCSORG
 10
0.0
 20
0.0
 30
0.0
  9
$UCSXDIR
 10
1.0
 20
0.0
 30
0.0
  9
$UCSYDIR
 10
0.0
 20
1.0
 30
0.0
  9
$PUCSNAME
  2

  9
$PUCSORG
 10
0.0
 20
0.0
 30
0.0
  9
$PUCSXDIR
 10
1.0
 20
0.0
 30
0.0
  9
$PUCSYDIR
 10
0.0
 20
1.0
 30
0.0
  9
$USERI1
 70
     0
  9
$USERI2
 70
     0
  9
$USERI3
 70
     0
  9
$USERI4
 70
     0
  9
$USERI5
 70
     0
  9
$USERR1
 40
0.0
  9
$USERR2
 40
0.0
  9
$USERR3
 40
0.0
  9
$USERR4
 40
0.0
  9
$USERR5
 40
0.0
  9
$WORLDVIEW
 70
     1
  9
$SHADEDGE
 70
     3
  9
$SHADEDIF
 70
    70
  9
$TILEMODE
 70
     1
  9
$MAXACTVP
 70
    16
  9
$PLIMCHECK
 70
     0
  9
$PEXTMIN
 10
1.0000000000000000E+020
 20
1.0000000000000000E+020
 30
1.0000000000000000E+020
  9
$PEXTMAX
 10
-1.0000000000000000E+020
 20
-1.0000000000000000E+020
 30
-1.0000000000000000E+020
  9
$PLIMMIN
 10
0.0
 20
0.0
  9
$PLIMMAX
 10
12.0
 20
9.0
  9
$UNITMODE
 70
     0
  9
$VISRETAIN
 70
     0
  9
$PLINEGEN
 70
     0
  9
$PSLTSCALE
 70
     1
  0
ENDSEC
  0
SECTION
  2
TABLES
  0
TABLE
  2
VPORT
 70
     2
  0
VPORT
  2
*ACTIVE
 70
     0
 10
0.0
 20
0.0
 11
1.0
 21
1.0
 12
9438.4567678319436
 22
4630.0975558305709
 13
0.0
 23
0.0
 14
10.0
 24
10.0
 15
10.0
 25
10.0
 16
0.0
 26
0.0
 36
1.0
 17
0.0
 27
0.0
 37
0.0
 40
7517.4747125171307
 41
3.1666666666666661
 42
50.0
 43
0.0
 44
0.0
 50
0.0
 51
0.0
 71
     0
 72
   100
 73
     1
 74
     0
 75
     0
 76
     0
 77
     0
 78
     0
  0
ENDTAB
  0
TABLE
  2
LTYPE
 70
     2
  0
LTYPE
  2
CONTINUOUS
 70
     0
  3
Solid line
 72
    65
 73
     0
 40
0.0
  0
LTYPE
  2
CENTER
 70
     0
  3
____ _ ____ _ ____ _ ____ _ ____ _ ____ _ ____ 
 72
    65
 73
     4
 40
2.0
 49
1.25
 49
-0.25
 49
0.25
 49
-0.25
  0
ENDTAB
  0
TABLE
  2
LAYER
 70
     6
  0
LAYER
  2
0
 70
     0
 62
     7
  6
CONTINUOUS
  0
LAYER
  2
3
 70
     0
 62
     2
  6
CONTINUOUS
  0
LAYER
  2
2
 70
     0
 62
     3
  6
CENTER
  0
LAYER
  2
1
 70
     0
 62
     4
  6
CONTINUOUS
  0
LAYER
  2
4
 70
     0
 62
     7
  6
CONTINUOUS
  0
LAYER
  2
DEFPOINTS
 70
     0
 62
     7
  6
CONTINUOUS
  0
ENDTAB
  0
TABLE
  2
STYLE
 70
     1
  0
STYLE
  2
STANDARD
 70
     0
 40
0.0
 41
1.0
 50
0.0
 71
     0
 42
180.0
  3
simplex.shx
  4
extfont.shx
  0
ENDTAB
  0
TABLE
  2
VIEW
 70
     0
  0
ENDTAB
  0
TABLE
  2
UCS
 70
     0
  0
ENDTAB
  0
TABLE
  2
APPID
 70
     1
  0
APPID
  2
ACAD
 70
     0
  0
ENDTAB
  0
TABLE
  2
DIMSTYLE
 70
     1
  0
DIMSTYLE
  2
IGA
 70
     0
  3

  4

  5

  6
OPEN
  7
OPEN
 40
2.0
 41
2.0
 42
0.5
 43
10.0
 44
1.0
 45
0.0
 46
0.0
 47
1.0
 48
1.0
140
3.0
141
0.0
142
0.0
143
0.03937
144
1.0
145
0.0
146
10.0
147
1.0
 71
     0
 72
     0
 73
     0
 74
     0
 75
     0
 76
     0
 77
     1
 78
     8
170
     0
171
     2
172
     0
173
     1
174
     0
175
     0
176
     0
177
     0
178
     0
  0
ENDTAB
  0
ENDSEC
  0
SECTION
  2
BLOCKS
  0
BLOCK
  8
0
  2
$MODEL_SPACE
 70
     0
 10
0.0
 20
0.0
 30
0.0
  3
$MODEL_SPACE
  1

  0
ENDBLK
  5
1B
  8
0
  0
BLOCK
 67
     1
  8
0
  2
$PAPER_SPACE
 70
     0
 10
0.0
 20
0.0
 30
0.0
  3
$PAPER_SPACE
  1

  0
ENDBLK
  5
18
 67
     1
  8
0
  0
BLOCK
  8
0
  2
_OPEN
 70
     0
 10
0.0
 20
0.0
 30
0.0
  3
_OPEN
  1

  0
LINE
  5
7AE4
  8
0
  6
BYBLOCK
 62
     0
 10
-1.0
 20
0.166667
 30
0.0
 11
0.0
 21
0.0
 31
0.0
  0
LINE
  5
7AE5
  8
0
  6
BYBLOCK
 62
     0
 10
0.0
 20
0.0
 30
0.0
 11
-1.0
 21
-0.166667
 31
0.0
  0
LINE
  5
7AE6
  8
0
  6
BYBLOCK
 62
     0
 10
0.0
 20
0.0
 30
0.0
 11
-1.0
 21
0.0
 31
0.0
  0
ENDBLK
  5
7AE7
  8
0
  0
BLOCK
  8
0
  2
*D1
 70
     1
 10
0.0
 20
0.0
 30
0.0
  3
*D1
  1

  0
LINE
  5
8014
  8
3
  6
CONTINUOUS
 62
     0
 10
2506.658574
 20
3770.5294669999998
 30
0.0
 11
2506.658574
 21
3922.3348780000001
 31
0.0
  0
LINE
  5
8015
  8
3
  6
CONTINUOUS
 62
     0
 10
1856.6585739999989
 20
3770.5294669999998
 30
0.0
 11
1856.6585739999989
 21
3922.3348780000001
 31
0.0
  0
LINE
  5
8016
  8
3
  6
CONTINUOUS
 62
     0
 10
2446.658574
 20
3892.3348780000001
 30
0.0
 11
1916.6585739999989
 21
3892.3348780000001
 31
0.0
  0
INSERT
  5
8017
  8
3
  6
CONTINUOUS
 62
     0
  2
_OPEN
 10
2506.658574
 20
3892.3348780000001
 30
0.0
 41
60.0
 42
60.0
 43
60.0
  0
INSERT
  5
8018
  8
3
  6
CONTINUOUS
 62
     0
  2
_OPEN
 10
1856.6585739999989
 20
3892.3348780000001
 30
0.0
 41
60.0
 42
60.0
 43
60.0
 50
180.0
  0
TEXT
  8
3
  40
90
  5
8090
  62
0
  72
0
  71
0
 10
1973.76
 20
3808.03
 30
0.000000
  1
650
  0
POINT
  5
801A
  8
DEFPOINTS
  6
CONTINUOUS
 62
     0
 10
2506.658574
 20
3755.5294669999998
 30
0.0
  0
POINT
  5
801B
  8
DEFPOINTS
  6
CONTINUOUS
 62
     0
 10
1856.6585739999989
 20
3755.5294669999998
 30
0.0
  0
POINT
  5
801C
  8
DEFPOINTS
  6
CONTINUOUS
 62
     0
 10
1856.6585739999989
 20
3892.3348780000001
 30
0.0
  0
ENDBLK
  5
7CAD
  8
0
  0
BLOCK
  8
0
  2
*D2
 70
     1
 10
0.0
 20
0.0
 30
0.0
  3
*D2
  1

  0
LINE
  5
801D
  8
3
  6
CONTINUOUS
 62
     0
 10
1856.6585739999989
 20
3770.5294669999998
 30
0.0
 11
1856.6585739999989
 21
4099.7006139999994
 31
0.0
  0
LINE
  5
801E
  8
3
  6
CONTINUOUS
 62
     0
 10
2476.658574
 20
3977.4206810000001
 30
0.0
 11
2476.658574
 21
4099.7006139999994
 31
0.0
  0
LINE
  5
801F
  8
3
  6
CONTINUOUS
 62
     0
 10
1916.6585739999989
 20
4069.7006139999999
 30
0.0
 11
2416.658574
 21
4069.7006139999999
 31
0.0
  0
INSERT
  5
8020
  8
3
  6
CONTINUOUS
 62
     0
  2
_OPEN
 10
1856.6585739999989
 20
4069.7006139999999
 30
0.0
 41
60.0
 42
60.0
 43
60.0
 50
180.0
  0
INSERT
  5
8021
  8
3
  6
CONTINUOUS
 62
     0
  2
_OPEN
 10
2476.658574
 20
4069.7006139999999
 30
0.0
 41
60.0
 42
60.0
 43
60.0
  0
TEXT
  8
3
  40
90
  5
8091
  62
0
  72
0
  71
0
 10
1961.92
 20
3985.40
 30
0.000000
  1
620
  0
POINT
  5
8023
  8
DEFPOINTS
  6
CONTINUOUS
 62
     0
 10
1856.6585739999989
 20
3755.5294669999998
 30
0.0
  0
POINT
  5
8024
  8
DEFPOINTS
  6
CONTINUOUS
 62
     0
 10
2476.658574
 20
3962.4206810000001
 30
0.0
  0
POINT
  5
8025
  8
DEFPOINTS
  6
CONTINUOUS
 62
     0
 10
2476.658574
 20
4069.7006139999999
 30
0.0
  0
ENDBLK
  5
7CB8
  8
0
  0
BLOCK
  8
0
  2
*D3
 70
     1
 10
0.0
 20
0.0
 30
0.0
  3
*D3
  1

  0
LINE
  5
8026
  8
3
  6
CONTINUOUS
 62
     0
 10
2561.658574
 20
3755.5294669999998
 30
0.0
 11
3208.5291969999998
 21
3755.5294669999998
 31
0.0
  0
LINE
  5
8027
  8
3
  6
CONTINUOUS
 62
     0
 10
3051.3514300000002
 20
3270.5294669999998
 30
0.0
 11
3208.5291969999998
 21
3270.5294669999998
 31
0.0
  0
LINE
  5
8028
  8
3
  6
CONTINUOUS
 62
     0
 10
3178.5291969999998
 20
3695.5294669999998
 30
0.0
 11
3178.5291969999998
 21
3330.5294669999998
 31
0.0
  0
INSERT
  5
8029
  8
3
  6
CONTINUOUS
 62
     0
  2
_OPEN
 10
3178.5291969999998
 20
3755.5294669999998
 30
0.0
 41
60.0
 42
60.0
 43
60.0
 50
90.0
  0
INSERT
  5
802A
  8
3
  6
CONTINUOUS
 62
     0
  2
_OPEN
 10
3178.5291969999998
 20
3270.5294669999998
 30
0.0
 41
60.0
 42
60.0
 43
60.0
 50
270.0
  0
TEXT
  8
3
  40
90
  5
8092
  62
0
  72
0
  71
0
 10
2923.53
 20
3351.66
 30
0.000000
  1
485
  0
POINT
  5
802C
  8
DEFPOINTS
  6
CONTINUOUS
 62
     0
 10
2546.658574
 20
3755.5294669999998
 30
0.0
  0
POINT
  5
802D
  8
DEFPOINTS
  6
CONTINUOUS
 62
     0
 10
3036.3514300000002
 20
3270.5294669999998
 30
0.0
  0
POINT
  5
802E
  8
DEFPOINTS
  6
CONTINUOUS
 62
     0
 10
3178.5291969999998
 20
3270.5294669999998
 30
0.0
  0
ENDBLK
  5
7C8D
  8
0
  0
BLOCK
  8
0
  2
*D4
 70
     1
 10
0.0
 20
0.0
 30
0.0
  3
*D4
  1

  0
LINE
  5
802F
  8
3
  6
CONTINUOUS
 62
     0
 10
2991.658574
 20
2700.5294669999998
 30
0.0
 11
3208.5291969999998
 21
2700.5294669999989
 31
0.0
  0
LINE
  5
8030
  8
3
  6
CONTINUOUS
 62
     0
 10
3178.5291969999998
 20
3210.5294669999998
 30
0.0
 11
3178.5291969999998
 21
2760.5294669999998
 31
0.0
  0
INSERT
  5
8031
  8
3
  6
CONTINUOUS
 62
     0
  2
_OPEN
 10
3178.5291969999998
 20
3270.5294669999998
 30
0.0
 41
60.0
 42
60.0
 43
60.0
 50
90.0
  0
INSERT
  5
8032
  8
3
  6
CONTINUOUS
 62
     0
  2
_OPEN
 10
3178.5291969999998
 20
2700.5294669999989
 30
0.0
 41
60.0
 42
60.0
 43
60.0
 50
270.0
  0
TEXT
  8
3
  40
90
  5
8093
  62
0
  72
0
  71
0
 10
2923.53
 20
2826.23
 30
0.000000
  1
570
  0
POINT
  5
8034
  8
DEFPOINTS
  6
CONTINUOUS
 62
     0
 10
3036.3514300000002
 20
3270.5294669999998
 30
0.0
  0
POINT
  5
8035
  8
DEFPOINTS
  6
CONTINUOUS
 62
     0
 10
2976.658574
 20
2700.5294669999998
 30
0.0
  0
POINT
  5
8036
  8
DEFPOINTS
  6
CONTINUOUS
 62
     0
 10
3178.5291969999998
 20
2700.5294669999989
 30
0.0
  0
ENDBLK
  5
7C97
  8
0
  0
BLOCK
  8
0
  2
*D5
 70
     1
 10
0.0
 20
0.0
 30
0.0
  3
*D5
  1

  0
LINE
  5
8037
  8
3
  6
CONTINUOUS
 62
     0
 10
2576.658574
 20
3755.5294669999998
 30
0.0
 11
3421.523878
 21
3755.5294669999998
 31
0.0
  0
LINE
  5
8038
  8
3
  6
CONTINUOUS
 62
     0
 10
2991.658574
 20
2700.5294669999998
 30
0.0
 11
3421.523878
 21
2700.5294669999989
 31
0.0
  0
LINE
  5
8039
  8
3
  6
CONTINUOUS
 62
     0
 10
3391.523878
 20
3695.5294669999998
 30
0.0
 11
3391.523878
 21
2760.5294669999998
 31
0.0
  0
INSERT
  5
803A
  8
3
  6
CONTINUOUS
 62
     0
  2
_OPEN
 10
3391.523878
 20
3755.5294669999998
 30
0.0
 41
60.0
 42
60.0
 43
60.0
 50
90.0
  0
INSERT
  5
803B
  8
3
  6
CONTINUOUS
 62
     0
  2
_OPEN
 10
3391.523878
 20
2700.5294669999989
 30
0.0
 41
60.0
 42
60.0
 43
60.0
 50
270.0
  0
TEXT
  8
3
  40
90
  5
8094
  62
0
  72
0
  71
0
 10
3136.52
 20
3056.05
 30
0.000000
  1
1055
  0
POINT
  5
803D
  8
DEFPOINTS
  6
CONTINUOUS
 62
     0
 10
2561.658574
 20
3755.5294669999998
 30
0.0
  0
POINT
  5
803E
  8
DEFPOINTS
  6
CONTINUOUS
 62
     0
 10
2976.658574
 20
2700.5294669999998
 30
0.0
  0
POINT
  5
803F
  8
DEFPOINTS
  6
CONTINUOUS
 62
     0
 10
3391.523878
 20
2700.5294669999989
 30
0.0
  0
ENDBLK
  5
7CA2
  8
0
  0
BLOCK
  8
0
  2
*D6
 70
     1
 10
0.0
 20
0.0
 30
0.0
  3
*D6
  1

  0
LINE
  5
8040
  8
3
  6
CONTINUOUS
 62
     0
 10
1376.658574
 20
2685.5294669999998
 30
0.0
 11
1376.658574
 21
2419.6765350000001
 31
0.0
  0
LINE
  5
8041
  8
3
  6
CONTINUOUS
 62
     0
 10
2476.658574
 20
2557.4917959999998
 30
0.0
 11
2476.658574
 21
2419.6765350000001
 31
0.0
  0
LINE
  5
8042
  8
3
  6
CONTINUOUS
 62
     0
 10
1436.658574
 20
2449.6765350000001
 30
0.0
 11
2416.658574
 21
2449.6765350000001
 31
0.0
  0
INSERT
  5
8043
  8
3
  6
CONTINUOUS
 62
     0
  2
_OPEN
 10
1376.658574
 20
2449.6765350000001
 30
0.0
 41
60.0
 42
60.0
 43
60.0
 50
180.0
  0
INSERT
  5
8044
  8
3
  6
CONTINUOUS
 62
     0
  2
_OPEN
 10
2476.658574
 20
2449.6765350000001
 30
0.0
 41
60.0
 42
60.0
 43
60.0
  0
TEXT
  8
3
  40
90
  5
8095
  62
0
  72
0
  71
0
 10
1760.76
 20
2365.38
 30
0.000000
  1
1100
  0
POINT
  5
8046
  8
DEFPOINTS
  6
CONTINUOUS
 62
     0
 10
1376.658574
 20
2700.5294669999998
 30
0.0
  0
POINT
  5
8047
  8
DEFPOINTS
  6
CONTINUOUS
 62
     0
 10
2476.658574
 20
2572.4917959999998
 30
0.0
  0
POINT
  5
8048
  8
DEFPOINTS
  6
CONTINUOUS
 62
     0
 10
2476.658574
 20
2449.6765350000001
 30
0.0
  0
ENDBLK
  5
7C78
  8
0
  0
BLOCK
  8
0
  2
*D7
 70
     1
 10
0.0
 20
0.0
 30
0.0
  3
*D7
  1

  0
LINE
  5
8049
  8
3
  6
CONTINUOUS
 62
     0
 10
2976.658574
 20
2685.5294669999998
 30
0.0
 11
2976.658574
 21
2419.6765350000001
 31
0.0
  0
LINE
  5
804A
  8
3
  6
CONTINUOUS
 62
     0
 10
2536.658574
 20
2449.6765350000001
 30
0.0
 11
2916.658574
 21
2449.6765350000001
 31
0.0
  0
INSERT
  5
804B
  8
3
  6
CONTINUOUS
 62
     0
  2
_OPEN
 10
2476.658574
 20
2449.6765350000001
 30
0.0
 41
60.0
 42
60.0
 43
60.0
 50
180.0
  0
INSERT
  5
804C
  8
3
  6
CONTINUOUS
 62
     0
  2
_OPEN
 10
2976.658574
 20
2449.6765350000001
 30
0.0
 41
60.0
 42
60.0
 43
60.0
  0
TEXT
  8
3
  40
90
  5
8096
  62
0
  72
0
  71
0
 10
2546.66
 20
2365.38
 30
0.000000
  1
500
  0
POINT
  5
804E
  8
DEFPOINTS
  6
CONTINUOUS
 62
     0
 10
2476.658574
 20
2572.4917959999998
 30
0.0
  0
POINT
  5
804F
  8
DEFPOINTS
  6
CONTINUOUS
 62
     0
 10
2976.658574
 20
2700.5294669999998
 30
0.0
  0
POINT
  5
8050
  8
DEFPOINTS
  6
CONTINUOUS
 62
     0
 10
2976.658574
 20
2449.6765350000001
 30
0.0
  0
ENDBLK
  5
7C82
  8
0
  0
BLOCK
  8
0
  2
*D8
 70
     1
 10
0.0
 20
0.0
 30
0.0
  3
*D8
  1

  0
LINE
  5
7E78
  8
0
  6
BYBLOCK
 62
     0
 10
4420.176305
 20
2685.5294669999998
 30
0.0
 11
4420.176305
 21
2420.4398609999998
 31
0.0
  0
LINE
  5
7E79
  8
0
  6
BYBLOCK
 62
     0
 10
4780.176305
 20
2584.5251619999999
 30
0.0
 11
4780.176305
 21
2420.4398609999998
 31
0.0
  0
LINE
  5
7E7A
  8
0
  6
BYBLOCK
 62
     0
 10
4480.176304999999
 20
2450.4398609999989
 30
0.0
 11
4720.176305
 21
2450.4398609999989
 31
0.0
  0
TEXT
  5
7E7B
  8
3
 62
     0
 10
4491.7719860131956
 20
2495.192976615795
 30
0.0
 40
90.0
  1
360
  0
INSERT
  5
7E7C
  8
0
  6
BYBLOCK
 62
     0
  2
_OPEN
 10
4420.176305
 20
2450.4398609999989
 30
0.0
 41
60.0
 42
60.0
 43
60.0
 50
180.0
  0
INSERT
  5
7E7D
  8
0
  6
BYBLOCK
 62
     0
  2
_OPEN
 10
4780.176305
 20
2450.4398609999989
 30
0.0
 41
60.0
 42
60.0
 43
60.0
  0
POINT
  5
7E7E
  8
DEFPOINTS
  6
BYBLOCK
 62
     0
 10
4420.176305
 20
2700.5294669999998
 30
0.0
  0
POINT
  5
7E7F
  8
DEFPOINTS
  6
BYBLOCK
 62
     0
 10
4780.176305
 20
2599.5251619999999
 30
0.0
  0
POINT
  5
7E80
  8
DEFPOINTS
  6
BYBLOCK
 62
     0
 10
4780.176305
 20
2450.4398609999989
 30
0.0
  0
ENDBLK
  5
7E81
  8
0
  0
BLOCK
  8
0
  2
*D9
 70
     1
 10
0.0
 20
0.0
 30
0.0
  3
*D9
  1

  0
LINE
  5
8051
  8
3
  6
CONTINUOUS
 62
     0
 10
5120.1763050000009
 20
2685.5294669999998
 30
0.0
 11
5120.1763050000009
 21
2420.4398609999998
 31
0.0
  0
LINE
  5
8052
  8
3
  6
CONTINUOUS
 62
     0
 10
4840.176304999999
 20
2450.4398609999989
 30
0.0
 11
5060.176305
 21
2450.4398609999989
 31
0.0
  0
TEXT
  8
3
  40
90
  5
8097
  62
0
  72
0
  71
0
 10
4756.93
 20
2365.92
 30
0.000000
  1
340
  0
INSERT
  5
8054
  8
3
  6
CONTINUOUS
 62
     0
  2
_OPEN
 10
4780.176305
 20
2450.4398609999989
 30
0.0
 41
60.0
 42
60.0
 43
60.0
 50
180.0
  0
INSERT
  5
8055
  8
3
  6
CONTINUOUS
 62
     0
  2
_OPEN
 10
5120.1763050000009
 20
2450.4398609999989
 30
0.0
 41
60.0
 42
60.0
 43
60.0
  0
POINT
  5
8056
  8
DEFPOINTS
  6
CONTINUOUS
 62
     0
 10
4780.176305
 20
2599.5251619999999
 30
0.0
  0
POINT
  5
8057
  8
DEFPOINTS
  6
CONTINUOUS
 62
     0
 10
5120.1763050000009
 20
2700.5294669999998
 30
0.0
  0
POINT
  5
8058
  8
DEFPOINTS
  6
CONTINUOUS
 62
     0
 10
5120.1763050000009
 20
2450.4398609999989
 30
0.0
  0
ENDBLK
  5
7C1C
  8
0
  0
BLOCK
  8
0
  2
*D10
 70
     1
 10
0.0
 20
0.0
 30
0.0
  3
*D10
  1

  0
LINE
  5
8059
  8
3
  6
CONTINUOUS
 62
     0
 10
5017.676305
 20
3770.5294669999998
 30
0.0
 11
5017.676305
 21
3883.8637299999991
 31
0.0
  0
LINE
  5
805A
  8
3
  6
CONTINUOUS
 62
     0
 10
4542.676304999999
 20
3770.5294669999998
 30
0.0
 11
4542.676304999999
 21
3883.8637299999991
 31
0.0
  0
LINE
  5
805B
  8
3
  6
CONTINUOUS
 62
     0
 10
5077.676305
 20
3853.86373
 30
0.0
 11
5137.676305
 21
3853.86373
 31
0.0
  0
LINE
  5
805C
  8
3
  6
CONTINUOUS
 62
     0
 10
4482.676305
 20
3853.86373
 30
0.0
 11
4422.676305
 21
3853.86373
 31
0.0
  0
LINE
  5
805D
  8
3
  6
CONTINUOUS
 62
     0
 10
5017.676305
 20
3853.86373
 30
0.0
 11
4542.676304999999
 21
3853.86373
 31
0.0
  0
INSERT
  5
805E
  8
3
  6
CONTINUOUS
 62
     0
  2
_OPEN
 10
5017.676305
 20
3853.86373
 30
0.0
 41
60.0
 42
60.0
 43
60.0
 50
180.0
  0
INSERT
  5
805F
  8
3
  6
CONTINUOUS
 62
     0
  2
_OPEN
 10
4542.676304999999
 20
3853.86373
 30
0.0
 41
60.0
 42
60.0
 43
60.0
  0
TEXT
  8
3
  40
90
  5
8098
  62
0
  72
0
  71
0
 10
4568.39
 20
3769.56
 30
0.000000
  1
475
  0
POINT
  5
8061
  8
DEFPOINTS
  6
CONTINUOUS
 62
     0
 10
5017.676305
 20
3755.5294669999998
 30
0.0
  0
POINT
  5
8062
  8
DEFPOINTS
  6
CONTINUOUS
 62
     0
 10
4542.676304999999
 20
3755.5294669999998
 30
0.0
  0
POINT
  5
8063
  8
DEFPOINTS
  6
CONTINUOUS
 62
     0
 10
4542.676304999999
 20
3853.86373
 30
0.0
  0
ENDBLK
  5
7B76
  8
0
  0
BLOCK
  8
0
  2
*D11
 70
     1
 10
0.0
 20
0.0
 30
0.0
  3
*D11
  1

  0
LINE
  5
8064
  8
3
  6
CONTINUOUS
 62
     0
 10
5036.176305
 20
3605.5294669999998
 30
0.0
 11
5314.0952110000007
 21
3605.5294669999998
 31
0.0
  0
LINE
  5
8065
  8
3
  6
CONTINUOUS
 62
     0
 10
5036.176305
 20
2935.5294669999998
 30
0.0
 11
5314.0952110000007
 21
2935.5294669999998
 31
0.0
  0
LINE
  5
8066
  8
3
  6
CONTINUOUS
 62
     0
 10
5284.0952110000007
 20
3545.5294669999998
 30
0.0
 11
5284.0952110000007
 21
2995.5294669999998
 31
0.0
  0
INSERT
  5
8067
  8
3
  6
CONTINUOUS
 62
     0
  2
_OPEN
 10
5284.0952110000007
 20
3605.5294669999998
 30
0.0
 41
60.0
 42
60.0
 43
60.0
 50
90.0
  0
INSERT
  5
8068
  8
3
  6
CONTINUOUS
 62
     0
  2
_OPEN
 10
5284.0952110000007
 20
2935.5294669999998
 30
0.0
 41
60.0
 42
60.0
 43
60.0
 50
270.0
  0
TEXT
  8
3
  40
90
  5
8099
  62
0
  72
0
  71
0
 10
5029.10
 20
3132.91
 30
0.000000
  1
φ670
  0
POINT
  5
806A
  8
DEFPOINTS
  6
CONTINUOUS
 62
     0
 10
5021.176305
 20
3605.5294669999998
 30
0.0
  0
POINT
  5
806B
  8
DEFPOINTS
  6
CONTINUOUS
 62
     0
 10
5021.176305
 20
2935.5294669999998
 30
0.0
  0
POINT
  5
806C
  8
DEFPOINTS
  6
CONTINUOUS
 62
     0
 10
5284.0952110000007
 20
2935.5294669999998
 30
0.0
  0
ENDBLK
  5
7E6B
  8
0
  0
BLOCK
  8
0
  2
*D12
 70
     1
 10
0.0
 20
0.0
 30
0.0
  3
*D12
  1

  0
LINE
  5
806D
  8
3
  6
CONTINUOUS
 62
     0
 10
4300.176304999999
 20
3815.5294669999998
 30
0.0
 11
4300.176304999999
 21
4104.917981999999
 31
0.0
  0
LINE
  5
806E
  8
3
  6
CONTINUOUS
 62
     0
 10
4720.176305
 20
4074.9179819999999
 30
0.0
 11
4360.176305
 21
4074.9179819999999
 31
0.0
  0
INSERT
  5
806F
  8
3
  6
CONTINUOUS
 62
     0
  2
_OPEN
 10
4780.176305
 20
4074.9179819999999
 30
0.0
 41
60.0
 42
60.0
 43
60.0
  0
INSERT
  5
8070
  8
3
  6
CONTINUOUS
 62
     0
  2
_OPEN
 10
4300.176304999999
 20
4074.9179819999999
 30
0.0
 41
60.0
 42
60.0
 43
60.0
 50
180.0
  0
TEXT
  8
3
  40
90
  5
809A
  62
0
  72
0
  71
0
 10
4360.18
 20
4065.62
 30
0.000000
  1
MAX
  0
TEXT
  8
3
  40
90
  5
809B
  62
0
  72
0
  71
0
 10
4360.18
 20
3948.62
 30
0.000000
  1
530
  0
POINT
  5
8072
  8
DEFPOINTS
  6
CONTINUOUS
 62
     0
 10
4780.176305
 20
3978.0120189999989
 30
0.0
  0
POINT
  5
8073
  8
DEFPOINTS
  6
CONTINUOUS
 62
     0
 10
4300.176304999999
 20
3800.5294669999998
 30
0.0
  0
POINT
  5
8074
  8
DEFPOINTS
  6
CONTINUOUS
 62
     0
 10
4300.176304999999
 20
4074.9179819999999
 30
0.0
  0
ENDBLK
  5
7E60
  8
0
  0
BLOCK
  8
0
  2
*D13
 70
     1
 10
0.0
 20
0.0
 30
0.0
  3
*D13
  1

  0
LINE
  5
8075
  8
3
  6
CONTINUOUS
 62
     0
 10
1376.658574
 20
5988.0613359999998
 30
0.0
 11
1376.658574
 21
6236.9138890000004
 31
0.0
  0
LINE
  5
8076
  8
3
  6
CONTINUOUS
 62
     0
 10
2976.658574
 20
5988.0613359999998
 30
0.0
 11
2976.658574
 21
6236.9138890000004
 31
0.0
  0
LINE
  5
8077
  8
3
  6
CONTINUOUS
 62
     0
 10
1436.658574
 20
6206.9138890000004
 30
0.0
 11
2916.658574
 21
6206.9138890000004
 31
0.0
  0
INSERT
  5
8078
  8
3
  6
CONTINUOUS
 62
     0
  2
_OPEN
 10
1376.658574
 20
6206.9138890000004
 30
0.0
 41
60.0
 42
60.0
 43
60.0
 50
180.0
  0
INSERT
  5
8079
  8
3
  6
CONTINUOUS
 62
     0
  2
_OPEN
 10
2976.658574
 20
6206.9138890000004
 30
0.0
 41
60.0
 42
60.0
 43
60.0
  0
TEXT
  8
3
  40
90
  5
809C
  62
0
  72
0
  71
0
 10
2009.26
 20
6122.61
 30
0.000000
  1
1600
  0
POINT
  5
807B
  8
DEFPOINTS
  6
CONTINUOUS
 62
     0
 10
1376.658574
 20
5973.0613359999998
 30
0.0
  0
POINT
  5
807C
  8
DEFPOINTS
  6
CONTINUOUS
 62
     0
 10
2976.658574
 20
5973.0613359999998
 30
0.0
  0
POINT
  5
807D
  8
DEFPOINTS
  6
CONTINUOUS
 62
     0
 10
2976.658574
 20
6206.9138890000004
 30
0.0
  0
ENDBLK
  5
7BEF
  8
0
  0
BLOCK
  8
0
  2
*D14
 70
     1
 10
0.0
 20
0.0
 30
0.0
  3
*D14
  1

  0
LINE
  5
807E
  8
3
  6
CONTINUOUS
 62
     0
 10
2991.658574
 20
5973.0613359999998
 30
0.0
 11
3225.0632289999999
 21
5973.0613359999998
 31
0.0
  0
LINE
  5
807F
  8
3
  6
CONTINUOUS
 62
     0
 10
2991.658574
 20
5273.0613359999998
 30
0.0
 11
3225.0632289999999
 21
5273.0613359999998
 31
0.0
  0
LINE
  5
8080
  8
3
  6
CONTINUOUS
 62
     0
 10
3195.0632289999999
 20
5913.0613359999998
 30
0.0
 11
3195.0632289999999
 21
5333.0613359999998
 31
0.0
  0
INSERT
  5
8081
  8
3
  6
CONTINUOUS
 62
     0
  2
_OPEN
 10
3195.0632289999999
 20
5973.0613359999998
 30
0.0
 41
60.0
 42
60.0
 43
60.0
 50
90.0
  0
INSERT
  5
8082
  8
3
  6
CONTINUOUS
 62
     0
  2
_OPEN
 10
3195.0632289999999
 20
5273.0613359999998
 30
0.0
 41
60.0
 42
60.0
 43
60.0
 50
270.0
  0
TEXT
  8
3
  40
90
  5
809D
  62
0
  72
0
  71
0
 10
2940.06
 20
5479.05
 30
0.000000
  1
700
  0
POINT
  5
8084
  8
DEFPOINTS
  6
CONTINUOUS
 62
     0
 10
2976.658574
 20
5973.0613359999998
 30
0.0
  0
POINT
  5
8085
  8
DEFPOINTS
  6
CONTINUOUS
 62
     0
 10
2976.658574
 20
5273.0613359999998
 30
0.0
  0
POINT
  5
8086
  8
DEFPOINTS
  6
CONTINUOUS
 62
     0
 10
3195.0632289999999
 20
5273.0613359999998
 30
0.0
  0
ENDBLK
  5
7BD2
  8
0
  0
BLOCK
  8
0
  2
*D15
 70
     1
 10
0.0
 20
0.0
 30
0.0
  3
*D15
  1

  0
LINE
  5
7E4D
  8
0
  6
BYBLOCK
 62
     0
 10
4780.176305
 20
3993.0120189999998
 30
0.0
 11
4780.176305
 21
4104.917981999999
 31
0.0
  0
LINE
  5
7E4E
  8
0
  6
BYBLOCK
 62
     0
 10
5021.176305
 20
3620.5294669999998
 30
0.0
 11
5021.176305
 21
4104.917981999999
 31
0.0
  0
LINE
  5
7E4F
  8
0
  6
BYBLOCK
 62
     0
 10
4840.176304999999
 20
4074.9179819999999
 30
0.0
 11
4961.176305
 21
4074.9179819999999
 31
0.0
  0
TEXT
  5
7E50
  8
3
 62
     0
 10
4808.2668048391788
 20
4103.2483644393833
 30
0.0
 40
90.0
  1
241
  0
INSERT
  5
7E51
  8
0
  6
BYBLOCK
 62
     0
  2
_OPEN
 10
4780.176305
 20
4074.9179819999999
 30
0.0
 41
60.0
 42
60.0
 43
60.0
 50
180.0
  0
INSERT
  5
7E52
  8
0
  6
BYBLOCK
 62
     0
  2
_OPEN
 10
5021.176305
 20
4074.9179819999999
 30
0.0
 41
60.0
 42
60.0
 43
60.0
  0
POINT
  5
7E53
  8
DEFPOINTS
  6
BYBLOCK
 62
     0
 10
4780.176305
 20
3978.0120189999989
 30
0.0
  0
POINT
  5
7E54
  8
DEFPOINTS
  6
BYBLOCK
 62
     0
 10
5021.176305
 20
3605.5294669999998
 30
0.0
  0
POINT
  5
7E55
  8
DEFPOINTS
  6
BYBLOCK
 62
     0
 10
5021.176305
 20
4074.9179819999999
 30
0.0
  0
ENDBLK
  5
7E56
  8
0
  0
BLOCK
  8
0
  2
*D16
 70
     1
 10
0.0
 20
0.0
 30
0.0
  3
*D16
  1

  0
LINE
  5
8087
  8
3
 62
     0
 10
2476.658574
 20
3977.4206810000001
 30
0.0
 11
2476.658574
 21
4099.7006139999994
 31
0.0
  0
LINE
  5
8088
  8
3
 62
     0
 10
2929.9130209999989
 20
3250.5294669999998
 30
0.0
 11
2929.9130209999989
 21
4099.7006139999994
 31
0.0
  0
LINE
  5
8089
  8
3
 62
     0
 10
2536.658574
 20
4069.7006139999999
 30
0.0
 11
2869.9130209999998
 21
4069.7006139999999
 31
0.0
  0
INSERT
  5
808A
  8
3
 62
     0
  2
_OPEN
 10
2476.658574
 20
4069.7006139999999
 30
0.0
 41
60.0
 42
60.0
 43
60.0
 50
180.0
  0
INSERT
  5
808B
  8
3
 62
     0
  2
_OPEN
 10
2929.9130209999989
 20
4069.7006139999999
 30
0.0
 41
60.0
 42
60.0
 43
60.0
  0
TEXT
  8
3
  40
90
  5
809E
  62
0
  72
0
  71
0
 10
2523.29
 20
3985.40
 30
0.000000
  1
452
  0
POINT
  5
808D
  8
DEFPOINTS
 62
     0
 10
2476.658574
 20
3962.4206810000001
 30
0.0
  0
POINT
  5
808E
  8
DEFPOINTS
 62
     0
 10
2929.9130209999989
 20
3235.5294669999998
 30
0.0
  0
POINT
  5
808F
  8
DEFPOINTS
 62
     0
 10
2929.9130209999989
 20
4069.7006139999999
 30
0.0
  0
ENDBLK
  5
7EAA
  8
0
  0
ENDSEC
  0
SECTION
  2
ENTITIES
  0
LINE
  5
7A63
  8
1
  6
CONTINUOUS
 10
2918.658574
 20
2800.5294669999998
 30
0.0
 11
2034.6585739999989
 21
2800.5294669999998
 31
0.0
  0
LINE
  5
7A65
  8
1
  6
CONTINUOUS
 10
1376.658574
 20
2700.5294669999998
 30
0.0
 11
2976.658574
 21
2700.5294669999998
 31
0.0
  0
LINE
  5
7A66
  8
1
  6
CONTINUOUS
 10
2976.658574
 20
2800.5294669999998
 30
0.0
 11
1376.658574
 21
2800.5294669999998
 31
0.0
  0
LINE
  5
7A67
  8
1
  6
CONTINUOUS
 10
2816.658574
 20
3800.5294669999998
 30
0.0
 11
2376.6585739999991
 21
3800.5294669999998
 31
0.0
  0
ARC
  5
7A68
  8
1
  6
CONTINUOUS
 10
2441.658574
 20
3235.5294669999998
 30
0.0
 40
488.25444700000003
 50
274.51398799999993
 51
7.3523789999999991
  0
ARC
  5
7A69
  8
1
  6
CONTINUOUS
 10
2503.658574
 20
3243.5294669999998
 30
0.0
 40
425.74044800000001
 50
7.3523789999999991
 51
89.596259000000003
  0
LINE
  5
7A6C
  8
1
  6
CONTINUOUS
 10
1546.658574
 20
3100.5294669999998
 30
0.0
 11
2376.6585739999991
 21
3800.5294669999998
 31
0.0
  0
CIRCLE
  5
7A6D
  8
1
  6
CONTINUOUS
 10
2476.658574
 20
3270.5294669999998
 30
0.0
 40
150.0
  0
LINE
  5
7A6E
  8
2
  6
CENTER
 10
2476.658574
 20
6141.5688170000003
 30
0.0
 11
2476.658574
 21
4973.7881100000004
 31
0.0
  0
LINE
  5
7A6F
  8
1
  6
CONTINUOUS
 10
1856.6585739999989
 20
3755.5294669999998
 30
0.0
 11
1872.6585739999989
 21
3270.5294669999998
 31
0.0
  0
LINE
  5
7A70
  8
1
  6
CONTINUOUS
 10
1721.0522629999989
 20
3072.5844579999998
 30
0.0
 11
2411.4884120000002
 21
3405.6325750000001
 31
0.0
  0
LINE
  5
7A71
  8
1
  6
CONTINUOUS
 10
1909.809682999999
 20
2840.5294669999998
 30
0.0
 11
1601.8096829999999
 21
2840.5294669999998
 31
0.0
  0
ARC
  5
7A72
  8
1
  6
CONTINUOUS
 10
1755.809682999999
 20
3000.5294669999998
 30
0.0
 40
162.0
 50
324.972283
 51
215.02771699999991
  0
LINE
  5
7A73
  8
2
  6
CENTER
 10
1835.809682999999
 20
3000.5294669999998
 30
0.0
 11
1675.809682999999
 21
3000.5294669999998
 31
0.0
  0
CIRCLE
  5
7A74
  8
1
  6
CONTINUOUS
 10
1755.809682999999
 20
3000.5294669999998
 30
0.0
 40
80.0
  0
LINE
  5
7A75
  8
1
  6
CONTINUOUS
 10
1601.8096829999999
 20
2800.5294669999998
 30
0.0
 11
1601.8096829999999
 21
2858.5294669999998
 31
0.0
  0
LINE
  5
7A76
  8
1
  6
CONTINUOUS
 10
1601.8096829999999
 20
2840.5294669999998
 30
0.0
 11
1601.8096829999999
 21
2858.5294669999998
 31
0.0
  0
LINE
  5
7A77
  8
1
  6
CONTINUOUS
 10
1546.658574
 20
2800.5294669999998
 30
0.0
 11
1546.658574
 21
3100.5294669999998
 31
0.0
  0
LINE
  5
7A78
  8
1
  6
CONTINUOUS
 10
1601.8096829999999
 20
2858.5294669999998
 30
0.0
 11
1623.152016999999
 21
2907.5459000000001
 31
0.0
  0
LINE
  5
7A79
  8
1
  6
CONTINUOUS
 10
1376.658574
 20
2800.5294669999998
 30
0.0
 11
1376.658574
 21
2700.5294669999998
 31
0.0
  0
ARC
  5
7A7A
  8
1
  6
CONTINUOUS
 10
2435.658574
 20
3311.5294669999998
 30
0.0
 40
564.49092099999984
 50
184.16516399999989
 51
274.51398799999993
  0
LINE
  5
7A7B
  8
1
  6
CONTINUOUS
 10
1776.941460999999
 20
2923.3708769999989
 30
0.0
 11
2516.280659
 21
3125.8571109999998
 31
0.0
  0
LINE
  5
7A7C
  8
1
  6
CONTINUOUS
 10
1909.809682999999
 20
2800.5294669999998
 30
0.0
 11
1909.809682999999
 21
2858.5294669999998
 31
0.0
  0
LINE
  5
7A7D
  8
1
  6
CONTINUOUS
 10
1909.809682999999
 20
2858.5294669999998
 30
0.0
 11
1888.4673479999999
 21
2907.5459000000001
 31
0.0
  0
LINE
  5
7A7E
  8
2
  6
CENTER
 10
1755.809682999999
 20
3080.5294669999998
 30
0.0
 11
1755.809682999999
 21
2920.5294669999998
 31
0.0
  0
LINE
  5
7A7F
  8
2
  6
CENTER
 10
5072.3749580000003
 20
3270.5294669999998
 30
0.0
 11
4219.6565229999997
 21
3270.5294669999998
 31
0.0
  0
LINE
  5
7A80
  8
1
  6
CONTINUOUS
 10
2546.658574
 20
3755.5294669999998
 30
0.0
 11
1816.6585739999989
 21
3755.5294669999998
 31
0.0
  0
LINE
  5
7A81
  8
1
  6
CONTINUOUS
 10
2506.658574
 20
3725.5294669999998
 30
0.0
 11
1857.6482649999989
 21
3725.5294669999998
 31
0.0
  0
LINE
  5
7A82
  8
1
  6
CONTINUOUS
 10
2506.658574
 20
3669.2593449999999
 30
0.0
 11
2506.658574
 21
3755.5294669999998
 31
0.0
  0
LINE
  5
7A83
  8
1
  6
CONTINUOUS
 10
4420.176305
 20
2800.5294669999998
 30
0.0
 11
5120.1763050000009
 21
2800.5294669999998
 31
0.0
  0
LINE
  5
7A84
  8
1
  6
CONTINUOUS
 10
4420.176305
 20
2700.5294669999998
 30
0.0
 11
5120.1763050000009
 21
2700.5294669999998
 31
0.0
  0
LINE
  5
7A85
  8
1
  6
CONTINUOUS
 10
4500.176305
 20
3755.5294669999998
 30
0.0
 11
5060.176305
 21
3755.5294669999998
 31
0.0
  0
LINE
  5
7A86
  8
1
  6
CONTINUOUS
 10
4542.676304999999
 20
3715.5294669999998
 30
0.0
 11
5017.676305
 21
3715.5294669999998
 31
0.0
  0
LINE
  5
7A88
  8
1
  6
CONTINUOUS
 10
4440.176305
 20
3800.5294669999998
 30
0.0
 11
4440.176305
 21
2800.5294669999998
 31
0.0
  0
LINE
  5
7A89
  8
1
  6
CONTINUOUS
 10
4300.176304999999
 20
3800.5294669999998
 30
0.0
 11
4300.176304999999
 21
2800.5294669999998
 31
0.0
  0
LINE
  5
7A8A
  8
1
  6
CONTINUOUS
 10
4542.676304999999
 20
3755.5294669999998
 30
0.0
 11
4542.676304999999
 21
2800.5294669999998
 31
0.0
  0
LINE
  5
7A8B
  8
1
  6
CONTINUOUS
 10
2816.658574
 20
2800.5294669999998
 30
0.0
 11
2816.658574
 21
3800.5294669999998
 31
0.0
  0
LINE
  5
7A8C
  8
1
  6
CONTINUOUS
 10
4405.176305
 20
3420.5294669999998
 30
0.0
 11
4405.176305
 21
3120.5294669999998
 31
0.0
  0
LINE
  5
7A8D
  8
1
  6
CONTINUOUS
 10
4335.176305
 20
3420.5294669999998
 30
0.0
 11
4335.176305
 21
3120.5294669999998
 31
0.0
  0
LINE
  5
7A8E
  8
1
  6
CONTINUOUS
 10
2976.658574
 20
2800.5294669999998
 30
0.0
 11
2976.658574
 21
2700.5294669999998
 31
0.0
  0
LINE
  5
7A8F
  8
1
  6
CONTINUOUS
 10
4405.176305
 20
3291.5294669999998
 30
0.0
 11
4542.676304999999
 21
3291.5294669999998
 31
0.0
  0
LINE
  5
7A90
  8
1
  6
CONTINUOUS
 10
4405.176305
 20
3249.5294669999998
 30
0.0
 11
4542.676304999999
 21
3249.5294669999998
 31
0.0
  0
LINE
  5
7A91
  8
1
  6
CONTINUOUS
 10
4405.176305
 20
3021.5294669999998
 30
0.0
 11
4542.676304999999
 21
3021.5294669999998
 31
0.0
  0
LINE
  5
7A92
  8
1
  6
CONTINUOUS
 10
4405.176305
 20
2979.5294669999998
 30
0.0
 11
4542.676304999999
 21
2979.5294669999998
 31
0.0
  0
LINE
  5
7A93
  8
1
  6
CONTINUOUS
 10
4300.176304999999
 20
2800.5294669999998
 30
0.0
 11
4420.176305
 21
2800.5294669999998
 31
0.0
  0
LINE
  5
7A94
  8
1
  6
CONTINUOUS
 10
4420.176305
 20
2800.5294669999998
 30
0.0
 11
4420.176305
 21
2700.5294669999998
 31
0.0
  0
LINE
  5
7A95
  8
1
  6
CONTINUOUS
 10
4335.176305
 20
3120.5294669999998
 30
0.0
 11
4405.176305
 21
3120.5294669999998
 31
0.0
  0
LINE
  5
7A96
  8
1
  6
CONTINUOUS
 10
4335.176305
 20
3080.5294669999998
 30
0.0
 11
4405.176305
 21
3080.5294669999998
 31
0.0
  0
LINE
  5
7A97
  8
1
  6
CONTINUOUS
 10
4405.176305
 20
3080.5294669999998
 30
0.0
 11
4405.176305
 21
2920.5294669999998
 31
0.0
  0
LINE
  5
7A98
  8
1
  6
CONTINUOUS
 10
4335.176305
 20
3080.5294669999998
 30
0.0
 11
4335.176305
 21
2920.5294669999998
 31
0.0
  0
LINE
  5
7A99
  8
1
  6
CONTINUOUS
 10
4335.176305
 20
2920.5294669999998
 30
0.0
 11
4405.176305
 21
2920.5294669999998
 31
0.0
  0
LINE
  5
7A9A
  8
1
  6
CONTINUOUS
 10
4440.176305
 20
3800.5294669999998
 30
0.0
 11
4300.176304999999
 21
3800.5294669999998
 31
0.0
  0
LINE
  5
7A9B
  8
1
  6
CONTINUOUS
 10
4335.176305
 20
3420.5294669999998
 30
0.0
 11
4405.176305
 21
3420.5294669999998
 31
0.0
  0
LINE
  5
7A9C
  8
1
  6
CONTINUOUS
 10
5017.676305
 20
3755.5294669999998
 30
0.0
 11
5017.676305
 21
2800.5294669999998
 31
0.0
  0
LINE
  5
7A9D
  8
1
  6
CONTINUOUS
 10
5120.1763050000009
 20
2800.5294669999998
 30
0.0
 11
5120.1763050000009
 21
2700.5294669999998
 31
0.0
  0
LINE
  5
7A9E
  8
1
  6
CONTINUOUS
 10
2816.658574
 20
5293.0613359999998
 30
0.0
 11
1546.658574
 21
5293.0613359999998
 31
0.0
  0
LINE
  5
7A9F
  8
1
  6
CONTINUOUS
 10
2816.658574
 20
5153.0613359999998
 30
0.0
 11
1546.658574
 21
5153.0613359999998
 31
0.0
  0
LINE
  5
7AA0
  8
1
  6
CONTINUOUS
 10
1856.6585739999989
 20
5870.5613359999998
 30
0.0
 11
2929.9130209999998
 21
5870.5613359999998
 31
0.0
  0
LINE
  5
7AA1
  8
1
  6
CONTINUOUS
 10
1856.6585739999989
 20
5395.5613359999998
 30
0.0
 11
2929.9130209999998
 21
5395.5613359999998
 31
0.0
  0
LINE
  5
7AA2
  8
1
  6
CONTINUOUS
 10
2976.658574
 20
5973.0613359999998
 30
0.0
 11
1376.658574
 21
5973.0613359999998
 31
0.0
  0
LINE
  5
7AA3
  8
1
  6
CONTINUOUS
 10
2976.658574
 20
5273.0613359999998
 30
0.0
 11
2497.658574
 21
5273.0613359999998
 31
0.0
  0
LINE
  5
7AA4
  8
1
  6
CONTINUOUS
 10
1593.809682999999
 20
5324.7932529999998
 30
0.0
 11
1917.809682999999
 21
5324.7932529999998
 31
0.0
  0
LINE
  5
7AA5
  8
1
  6
CONTINUOUS
 10
1593.809682999999
 20
5809.7932529999998
 30
0.0
 11
1856.6585739999989
 21
5809.7932529999998
 31
0.0
  0
LINE
  5
7AA6
  8
1
  6
CONTINUOUS
 10
1675.809682999999
 20
5258.0613359999998
 30
0.0
 11
1835.809682999999
 21
5258.0613359999998
 31
0.0
  0
LINE
  5
7AA7
  8
1
  6
CONTINUOUS
 10
1675.809682999999
 20
5188.0613359999998
 30
0.0
 11
1835.809682999999
 21
5188.0613359999998
 31
0.0
  0
LINE
  5
7AA8
  8
1
  6
CONTINUOUS
 10
1593.809682999999
 20
5324.7932529999998
 30
0.0
 11
1593.809682999999
 21
5809.7932529999998
 31
0.0
  0
LINE
  5
7AA9
  8
1
  6
CONTINUOUS
 10
1376.658574
 20
5973.0613359999998
 30
0.0
 11
1376.658574
 21
5273.0613359999998
 31
0.0
  0
LINE
  5
7AAA
  8
1
  6
CONTINUOUS
 10
1546.658574
 20
5153.0613359999998
 30
0.0
 11
1546.658574
 21
5293.0613359999998
 31
0.0
  0
LINE
  5
7AAB
  8
1
  6
CONTINUOUS
 10
1675.809682999999
 20
5188.0613359999998
 30
0.0
 11
1675.809682999999
 21
5258.0613359999998
 31
0.0
  0
LINE
  5
7AAC
  8
1
  6
CONTINUOUS
 10
1734.809682999999
 20
5258.0613359999998
 30
0.0
 11
1734.809682999999
 21
5324.7932529999998
 31
0.0
  0
LINE
  5
7AAD
  8
1
  6
CONTINUOUS
 10
1734.809682999999
 20
5273.0613359999998
 30
0.0
 11
1376.658574
 21
5273.0613359999998
 31
0.0
  0
LINE
  5
7AAE
  8
1
  6
CONTINUOUS
 10
1856.6585739999989
 20
5395.5613359999998
 30
0.0
 11
2506.658574
 21
5870.5613359999998
 31
0.0
  0
LINE
  5
7AAF
  8
1
  6
CONTINUOUS
 10
1856.6585739999989
 20
5870.5613359999998
 30
0.0
 11
2506.658574
 21
5395.5613359999998
 31
0.0
  0
LINE
  5
7AB0
  8
1
  6
CONTINUOUS
 10
2506.658574
 20
5395.5613359999998
 30
0.0
 11
2506.658574
 21
5870.5613359999998
 31
0.0
  0
LINE
  5
7AB1
  8
1
  6
CONTINUOUS
 10
1856.6585739999989
 20
5395.5613359999998
 30
0.0
 11
1856.6585739999989
 21
5870.5613359999998
 31
0.0
  0
LINE
  5
7AB2
  8
1
  6
CONTINUOUS
 10
2455.658574
 20
5273.0613359999998
 30
0.0
 11
1776.809682999999
 21
5273.0613359999998
 31
0.0
  0
LINE
  5
7AB3
  8
1
  6
CONTINUOUS
 10
1917.809682999999
 20
5324.7932529999998
 30
0.0
 11
1917.809682999999
 21
5395.5613359999998
 31
0.0
  0
LINE
  5
7AB4
  8
1
  6
CONTINUOUS
 10
1835.809682999999
 20
5188.0613359999998
 30
0.0
 11
1835.809682999999
 21
5258.0613359999998
 31
0.0
  0
LINE
  5
7AB5
  8
1
  6
CONTINUOUS
 10
1776.809682999999
 20
5258.0613359999998
 30
0.0
 11
1776.809682999999
 21
5324.7932529999998
 31
0.0
  0
LINE
  5
7AB6
  8
1
  6
CONTINUOUS
 10
2326.658574
 20
5188.0613359999998
 30
0.0
 11
2626.658574
 21
5188.0613359999998
 31
0.0
  0
LINE
  5
7AB7
  8
1
  6
CONTINUOUS
 10
2326.658574
 20
5258.0613359999998
 30
0.0
 11
2626.658574
 21
5258.0613359999998
 31
0.0
  0
LINE
  5
7AB8
  8
1
  6
CONTINUOUS
 10
2626.658574
 20
5188.0613359999998
 30
0.0
 11
2626.658574
 21
5258.0613359999998
 31
0.0
  0
LINE
  5
7AB9
  8
1
  6
CONTINUOUS
 10
2326.658574
 20
5188.0613359999998
 30
0.0
 11
2326.658574
 21
5258.0613359999998
 31
0.0
  0
LINE
  5
7ABA
  8
1
  6
CONTINUOUS
 10
2497.658574
 20
5258.0613359999998
 30
0.0
 11
2497.658574
 21
5395.5613359999998
 31
0.0
  0
LINE
  5
7ABB
  8
1
  6
CONTINUOUS
 10
2455.658574
 20
5258.0613359999998
 30
0.0
 11
2455.658574
 21
5395.5613359999998
 31
0.0
  0
LINE
  5
7ABC
  8
1
  6
CONTINUOUS
 10
2929.9130209999998
 20
5395.5613359999998
 30
0.0
 11
2929.9130209999998
 21
5870.5613359999998
 31
0.0
  0
LINE
  5
7ABD
  8
1
  6
CONTINUOUS
 10
2976.658574
 20
5973.0613359999998
 30
0.0
 11
2976.658574
 21
5273.0613359999998
 31
0.0
  0
LINE
  5
7ABE
  8
1
  6
CONTINUOUS
 10
2816.658574
 20
5153.0613359999998
 30
0.0
 11
2816.658574
 21
5293.0613359999998
 31
0.0
  0
LINE
  5
7ABF
  8
2
  6
CENTER
 10
4780.176305
 20
3867.390789
 30
0.0
 11
4780.176305
 21
2599.5251619999999
 31
0.0
  0
LINE
  5
7AC0
  8
2
  6
CENTER
 10
1251.0906539999989
 20
5633.0613359999998
 30
0.0
 11
2999.7816251098629
 21
5633.0613359999998
 31
0.0
  0
LINE
  5
7AC1
  8
2
  6
CENTER
 10
2476.658574
 20
3962.4206810000001
 30
0.0
 11
2476.658574
 21
2572.4917959999998
 31
0.0
  0
LINE
  5
7AC2
  8
2
  6
CENTER
 10
3036.3514300000002
 20
3270.5294669999998
 30
0.0
 11
1539.5703470000001
 21
3270.5294669999998
 31
0.0
  0
LINE
  5
7AC3
  8
4
  6
CONTINUOUS
 10
5550.0
 20
1500.0
 30
0.0
 11
5550.0
 21
900.0
 31
0.0
  0
LINE
  5
7AC4
  8
4
  6
CONTINUOUS
 10
3450.0
 20
1500.0
 30
0.0
 11
3450.0
 21
900.0
 31
0.0
  0
LINE
  5
7AC5
  8
4
  6
CONTINUOUS
 10
1950.0
 20
1500.0
 30
0.0
 11
1950.0
 21
900.0
 31
0.0
  0
LINE
  5
7AC8
  8
4
  6
CONTINUOUS
 10
1950.0
 20
900.0
 30
0.0
 11
5550.0
 21
900.0
 31
0.0
  0
LINE
  5
7AC9
  8
4
  6
CONTINUOUS
 10
1950.0
 20
1200.0
 30
0.0
 11
5550.0
 21
1200.0
 31
0.0
  0
TEXT
  5
7ACA
  8
4
  6
CONTINUOUS
 10
2065.5062429999989
 20
1294.6290779999999
 30
0.0
 40
150.0
  1
機器名称
  0
TEXT
  5
7ACB
  8
4
  6
CONTINUOUS
 10
2058.7743179999989
 20
964.9354699999999
 30
0.0
 40
150.0
  1
機器型番
  0
TEXT
  5
7ACC
  8
4
  6
CONTINUOUS
 10
3533.0362359999999
 20
1267.7153069999999
 30
0.0
 40
150.0
  1
ミツヤ多翼送風機
  0
TEXT
  5
7ACD
  8
4
  6
CONTINUOUS
 10
3559.9634869999991
 20
951.47875299999987
 30
0.0
 40
150.0
  1
MF#4-4
  0
TEXT
  5
7ACF
  8
4
  6
CONTINUOUS
 10
2497.5007169999999
 20
7150.2865239999992
 30
0.0
 40
162.0
  1
天井吊ベット
  0
TEXT
  5
7AD0
  8
4
  6
CONTINUOUS
 10
948.50278000000014
 20
7601.6429289999996
 30
0.0
 40
216.0
  1
ベルト駆動式片吸込両持多翼ファン
  0
LINE
  5
7AD1
  8
4
  6
CONTINUOUS
 10
750.0
 20
7408.2262629999996
 30
0.0
 11
5550.0
 21
7408.2262629999996
 31
0.0
  0
LINE
  5
7AD2
  8
4
  6
CONTINUOUS
 10
750.0
 20
8008.2262629999996
 30
0.0
 11
5550.0
 21
8008.2262629999996
 31
0.0
  0
LINE
  5
7AD3
  8
4
  6
CONTINUOUS
 10
1950.0
 20
1500.0
 30
0.0
 11
5550.0
 21
1500.0
 31
0.0
  0
LINE
  5
7AD4
  8
4
  6
CONTINUOUS
 10
750.0
 20
8008.2262629999996
 30
0.0
 11
750.0
 21
7408.2262629999996
 31
0.0
  0
TEXT
  5
7AD5
  8
4
  6
CONTINUOUS
 10
1189.924221
 20
7146.9584329999998
 30
0.0
 40
162.0
  1
右回転上向
  0
TEXT
  5
7AD6
  8
4
  6
CONTINUOUS
 10
4406.9086779999989
 20
8118.1832439999989
 30
0.0
 40
168.0
  1
No.
  0
TEXT
  5
7AD7
  8
4
  6
CONTINUOUS
 10
3933.8881879999999
 20
7150.2865239999992
 30
0.0
 40
162.0
  1
縮尺：1/30
  0
LINE
  5
7AD8
  8
4
  6
CONTINUOUS
 10
5550.0
 20
8008.2262629999996
 30
0.0
 11
5550.0
 21
7408.2262629999996
 31
0.0
  0
LINE
  5
7ADA
  8
4
  6
CONTINUOUS
 10
4321.8522670000002
 20
8043.7907490000007
 30
0.0
 11
4321.8522670000002
 21
8359.9567849999985
 31
0.0
  0
LINE
  5
7ADB
  8
4
  6
CONTINUOUS
 10
4321.8522670000002
 20
8359.9567849999985
 30
0.0
 11
5550.0
 21
8359.9567849999985
 31
0.0
  0
LINE
  5
7ADC
  8
4
  6
CONTINUOUS
 10
5550.0
 20
8359.9567849999985
 30
0.0
 11
5550.0
 21
8043.7907490000007
 31
0.0
  0
LINE
  5
7ADD
  8
4
  6
CONTINUOUS
 10
5550.0
 20
8043.7907490000007
 30
0.0
 11
4321.8522670000002
 21
8043.7907490000007
 31
0.0
  0
DIMENSION
  5
7AF5
  8
3
  6
CONTINUOUS
  2
*D1
 10
1856.6585739999989
 20
3892.3348780000001
 30
0.0
 11
2153.7559529999999
 21
3892.3348780000001
 31
0.0
 70
   128
 13
2506.658574
 23
3755.5294669999998
 33
0.0
 14
1856.6585739999989
 24
3755.5294669999998
 34
0.0
1001
ACAD
1000
DSTYLE
1002
{
1070
   287
1070
     3
1070
   287
1070
     3
1070
    40
1040
30.0
1070
   143
1040
0.039
1070
   172
1070
     1
1070
   271
1070
     0
1070
   279
1070
     0
1070
   288
1070
     1
1002
}
  0
DIMENSION
  5
7B02
  8
3
  6
CONTINUOUS
  2
*D2
 10
2476.658574
 20
4069.7006139999999
 30
0.0
 11
2141.922908999999
 21
4069.7006139999999
 31
0.0
 70
   128
 13
1856.6585739999989
 23
3755.5294669999998
 33
0.0
 14
2476.658574
 24
3962.4206810000001
 34
0.0
1001
ACAD
1000
DSTYLE
1002
{
1070
   287
1070
     3
1070
   287
1070
     3
1070
    40
1040
30.0
1070
   143
1040
0.039
1070
   172
1070
     1
1070
   271
1070
     0
1070
   279
1070
     0
1070
   288
1070
     1
1002
}
  0
DIMENSION
  5
7B1B
  8
3
  6
CONTINUOUS
  2
*D3
 10
3178.5291969999998
 20
3270.5294669999998
 30
0.0
 11
3178.5291969999998
 21
3510.9566789999999
 31
0.0
 70
   128
 13
2546.658574
 23
3755.5294669999998
 33
0.0
 14
3036.3514300000002
 24
3270.5294669999998
 34
0.0
 50
90.0
1001
ACAD
1000
DSTYLE
1002
{
1070
   287
1070
     3
1070
   287
1070
     3
1070
    40
1040
30.0
1070
   143
1040
0.039
1070
   172
1070
     1
1070
   271
1070
     0
1070
   279
1070
     0
1070
   288
1070
     1
1002
}
  0
DIMENSION
  5
7B27
  8
3
  6
CONTINUOUS
  2
*D4
 10
3178.5291969999998
 20
2700.5294669999989
 30
0.0
 11
3103.5291969999989
 21
2985.5294669999998
 31
0.0
 70
     0
 13
3036.3514300000002
 23
3270.5294669999998
 33
0.0
 14
2976.658574
 24
2700.5294669999998
 34
0.0
 50
90.0
1001
ACAD
1000
DSTYLE
1002
{
1070
   287
1070
     4
1070
   287
1070
     4
1070
    40
1040
30.0
1070
    75
1070
     1
1070
   143
1040
0.039
1070
   172
1070
     1
1070
   271
1070
     0
1070
   279
1070
     1
1070
   288
1070
     1
1002
}
  0
DIMENSION
  5
7B34
  8
3
  6
CONTINUOUS
  2
*D5
 10
3391.523878
 20
2700.5294669999989
 30
0.0
 11
3391.523878
 21
3215.3471439999998
 31
0.0
 70
   128
 13
2561.658574
 23
3755.5294669999998
 33
0.0
 14
2976.658574
 24
2700.5294669999998
 34
0.0
 50
90.0
1001
ACAD
1000
DSTYLE
1002
{
1070
   287
1070
     3
1070
   287
1070
     3
1070
    40
1040
30.0
1070
   143
1040
0.039
1070
   172
1070
     1
1070
   271
1070
     0
1070
   279
1070
     0
1070
   288
1070
     1
1002
}
  0
DIMENSION
  5
7B41
  8
3
  6
CONTINUOUS
  2
*D6
 10
2476.658574
 20
2449.6765350000001
 30
0.0
 11
1940.7612719999991
 21
2449.6765350000001
 31
0.0
 70
   128
 13
1376.658574
 23
2700.5294669999998
 33
0.0
 14
2476.658574
 24
2572.4917959999998
 34
0.0
1001
ACAD
1000
DSTYLE
1002
{
1070
   287
1070
     3
1070
   287
1070
     3
1070
    40
1040
30.0
1070
   143
1040
0.039
1070
   172
1070
     1
1070
   271
1070
     0
1070
   279
1070
     0
1070
   288
1070
     1
1002
}
  0
DIMENSION
  5
7B4D
  8
3
  6
CONTINUOUS
  2
*D7
 10
2976.658574
 20
2449.6765350000001
 30
0.0
 11
2726.658574
 21
2524.6765350000001
 31
0.0
 70
     0
 13
2476.658574
 23
2572.4917959999998
 33
0.0
 14
2976.658574
 24
2700.5294669999998
 34
0.0
1001
ACAD
1000
DSTYLE
1002
{
1070
   287
1070
     4
1070
   287
1070
     4
1070
    40
1040
30.0
1070
    75
1070
     1
1070
   143
1040
0.039
1070
   172
1070
     1
1070
   271
1070
     0
1070
   279
1070
     1
1070
   288
1070
     1
1002
}
  0
DIMENSION
  5
7B5C
  8
3
  6
CONTINUOUS
  2
*D8
 10
4780.176305
 20
2450.4398609999989
 30
0.0
 11
4607.4862717274809
 21
2540.192976615795
 31
0.0
 70
   128
 13
4420.176305
 23
2700.5294669999998
 33
0.0
 14
4780.176305
 24
2599.5251619999999
 34
0.0
1001
ACAD
1000
DSTYLE
1002
{
1070
   288
1070
     1
1070
   172
1070
     1
1070
    40
1040
30.0
1070
   271
1070
     0
1070
   143
1040
0.039
1002
}
  0
DIMENSION
  5
7B6A
  8
3
  6
CONTINUOUS
  2
*D9
 10
5120.1763050000009
 20
2450.4398609999989
 30
0.0
 11
4936.927807
 21
2450.2184069999989
 31
0.0
 70
   128
 13
4780.176305
 23
2599.5251619999999
 33
0.0
 14
5120.1763050000009
 24
2700.5294669999998
 34
0.0
1001
ACAD
1000
DSTYLE
1002
{
1070
   287
1070
     4
1070
   287
1070
     4
1070
    40
1040
30.0
1070
    75
1070
     1
1070
   143
1040
0.039
1070
   172
1070
     1
1070
   271
1070
     0
1070
   279
1070
     1
1070
   288
1070
     1
1002
}
  0
DIMENSION
  5
7B77
  8
3
  6
CONTINUOUS
  2
*D10
 10
4542.676304999999
 20
3853.86373
 30
0.0
 11
4748.39059
 21
3853.86373
 31
0.0
 70
   128
 13
5017.676305
 23
3755.5294669999998
 33
0.0
 14
4542.676304999999
 24
3755.5294669999998
 34
0.0
1001
ACAD
1000
DSTYLE
1002
{
1070
   287
1070
     3
1070
   287
1070
     3
1070
    40
1040
30.0
1070
   143
1040
0.039
1070
   172
1070
     1
1070
   271
1070
     0
1070
   279
1070
     0
1070
   288
1070
     1
1002
}
  0
LINE
  5
7B78
  8
1
  6
CONTINUOUS
 10
5021.176305
 20
3605.5294669999998
 30
0.0
 11
5021.176305
 21
2935.5294669999998
 31
0.0
  0
LINE
  5
7B79
  8
1
  6
CONTINUOUS
 10
5021.176305
 20
3605.5294669999998
 30
0.0
 11
5021.176305
 21
2935.5294669999998
 31
0.0
  0
DIMENSION
  5
7B89
  8
3
  6
CONTINUOUS
  2
*D11
 10
5284.0952110000007
 20
2935.5294669999998
 30
0.0
 11
5284.0952109999998
 21
3292.2056269999989
 31
0.0
 70
   128
 13
5021.176305
 23
3605.5294669999998
 33
0.0
 14
5021.176305
 24
2935.5294669999998
 34
0.0
 50
90.0
1001
ACAD
1000
DSTYLE
1002
{
1070
   287
1070
     3
1070
   287
1070
     3
1070
     3
1000
φ<>
1070
    40
1040
30.0
1070
   143
1040
0.039
1070
   172
1070
     1
1070
   271
1070
     0
1070
   279
1070
     0
1070
   288
1070
     1
1002
}
  0
DIMENSION
  5
7BA3
  8
3
  6
CONTINUOUS
  2
*D12
 10
4300.176304999999
 20
4074.9179819999999
 30
0.0
 11
4540.176305
 21
4224.9179819999999
 31
0.0
 70
     0
  1
MAX\P530
 13
4780.176305
 23
3978.0120189999989
 33
0.0
 14
4300.176304999999
 24
3800.5294669999998
 34
0.0
1001
ACAD
1000
DSTYLE
1002
{
1070
   287
1070
     4
1070
   287
1070
     4
1070
    40
1040
30.0
1070
    75
1070
     1
1070
   143
1040
0.039
1070
   172
1070
     1
1070
   271
1070
     0
1070
   279
1070
     1
1070
   288
1070
     1
1002
}
  0
DIMENSION
  5
7BC6
  8
3
  6
CONTINUOUS
  2
*D13
 10
2976.658574
 20
6206.9138890000004
 30
0.0
 11
2189.2550470000001
 21
6206.9138890000004
 31
0.0
 70
   128
 13
1376.658574
 23
5973.0613359999998
 33
0.0
 14
2976.658574
 24
5973.0613359999998
 34
0.0
1001
ACAD
1000
DSTYLE
1002
{
1070
   287
1070
     3
1070
   287
1070
     3
1070
    40
1040
30.0
1070
   143
1040
0.039
1070
   172
1070
     1
1070
   271
1070
     0
1070
   279
1070
     0
1070
   288
1070
     1
1002
}
  0
DIMENSION
  5
7BD3
  8
3
  6
CONTINUOUS
  2
*D14
 10
3195.0632289999999
 20
5273.0613359999998
 30
0.0
 11
3195.0632289999999
 21
5638.346171000001
 31
0.0
 70
   128
 13
2976.658574
 23
5973.0613359999998
 33
0.0
 14
2976.658574
 24
5273.0613359999998
 34
0.0
 50
90.0
1001
ACAD
1000
DSTYLE
1002
{
1070
   287
1070
     3
1070
   287
1070
     3
1070
    40
1040
30.0
1070
   143
1040
0.039
1070
   172
1070
     1
1070
   271
1070
     0
1070
   279
1070
     0
1070
   288
1070
     1
1002
}
  0
DIMENSION
  5
7C57
  8
3
  6
CONTINUOUS
  2
*D15
 10
5021.176305
 20
4074.9179819999999
 30
0.0
 11
4904.6953762677513
 21
4148.2483644393833
 31
0.0
 70
   128
 13
4780.176305
 23
3978.0120189999989
 33
0.0
 14
5021.176305
 24
3605.5294669999998
 34
0.0
1001
ACAD
1000
DSTYLE
1002
{
1070
   288
1070
     1
1070
   172
1070
     1
1070
    40
1040
30.0
1070
   271
1070
     0
1070
   143
1040
0.039
1002
}
  0
LINE
  5
7E9A
  8
1
  6
CONTINUOUS
 10
2066.658574
 20
3620.5294669999998
 30
0.0
 11
2066.658574
 21
2800.5294669999998
 31
0.0
  0
LINE
  5
7E9B
  8
1
  6
CONTINUOUS
 10
2886.658574
 20
3620.5294669999998
 30
0.0
 11
2886.658574
 21
2800.5294669999998
 31
0.0
  0
LINE
  5
7E9C
  8
1
  6
CONTINUOUS
 10
2886.658574
 20
3620.5294669999998
 30
0.0
 11
2066.658574
 21
3620.5294669999998
 31
0.0
  0
DIMENSION
  5
7E9E
  8
3
  2
*D16
 10
2929.9130209999989
 20
4069.7006139999999
 30
0.0
 11
2703.2857974999988
 21
4144.7006139999994
 31
0.0
 70
     0
  1
452
 13
2476.658574
 23
3962.4206810000001
 33
0.0
 14
2929.9130209999989
 24
3235.5294669999998
 34
0.0
1001
ACAD
1000
DSTYLE
1002
{
1070
   287
1070
     4
1070
   287
1070
     4
1070
    40
1040
30.0
1070
   143
1040
0.039
1070
   172
1070
     1
1070
   271
1070
     0
1070
   279
1070
     1
1070
   288
1070
     1
1002
}
  0
ENDSEC
  0
EOF
