  0
SECTION
  2
HEADER
  9
$ACADVER
  1
AC1009
  9
$INSBASE
 10
0.0
 20
0.0
 30
0.0
  9
$EXTMIN
 10
750.0
 20
900.0
 30
0.0
  9
$EXTMAX
 10
5550.0
 20
8359.9567849999985
 30
0.0
  9
$LIMMIN
 10
0.0
 20
0.0
  9
$LIMMAX
 10
297.0
 20
210.0
  9
$ORTHOMODE
 70
     0
  9
$REGENMODE
 70
     1
  9
$FILLMODE
 70
     0
  9
$QTEXTMODE
 70
     0
  9
$MIRRTEXT
 70
     1
  9
$DRAGMODE
 70
     2
  9
$LTSCALE
 40
100.0
  9
$OSMODE
 70
    37
  9
$ATTMODE
 70
     1
  9
$TEXTSIZE
 40
180.0
  9
$TRACEWID
 40
0.05
  9
$TEXTSTYLE
  7
STANDARD
  9
$CLAYER
  8
3
  9
$CELTYPE
  6
BYLAYER
  9
$CECOLOR
 62
   256
  9
$DIMSCALE
 40
30.0
  9
$DIMASZ
 40
2.0
  9
$DIMEXO
 40
0.5
  9
$DIMDLI
 40
10.0
  9
$DIMRND
 40
0.0
  9
$DIMDLE
 40
0.0
  9
$DIMEXE
 40
1.0
  9
$DIMTP
 40
1.0
  9
$DIMTM
 40
1.0
  9
$DIMTXT
 40
3.0
  9
$DIMCEN
 40
0.0
  9
$DIMTSZ
 40
0.0
  9
$DIMTOL
 70
     0
  9
$DIMLIM
 70
     0
  9
$DIMTIH
 70
     0
  9
$DIMTOH
 70
     0
  9
$DIMSE1
 70
     0
  9
$DIMSE2
 70
     0
  9
$DIMTAD
 70
     1
  9
$DIMZIN
 70
     8
  9
$DIMBLK
  1

  9
$DIMASO
 70
     1
  9
$DIMSHO
 70
     1
  9
$DIMPOST
  1

  9
$DIMAPOST
  1

  9
$DIMALT
 70
     0
  9
$DIMALTD
 70
     2
  9
$DIMALTF
 40
0.039
  9
$DIMLFAC
 40
1.0
  9
$DIMTOFL
 70
     1
  9
$DIMTVP
 40
0.0
  9
$DIMTIX
 70
     0
  9
$DIMSOXD
 70
     0
  9
$DIMSAH
 70
     1
  9
$DIMBLK1
  1
OPEN
  9
$DIMBLK2
  1
OPEN
  9
$DIMSTYLE
  2
IGA
  9
$DIMCLRD
 70
     0
  9
$DIMCLRE
 70
     0
  9
$DIMCLRT
 70
     0
  9
$DIMTFAC
 40
10.0
  9
$DIMGAP
 40
1.0
  9
$LUNITS
 70
     2
  9
$LUPREC
 70
     3
  9
$SKETCHINC
 40
0.1
  9
$FILLETRAD
 40
50.0
  9
$AUNITS
 70
     0
  9
$AUPREC
 70
     0
  9
$MENU
  1
acad
  9
$ELEVATION
 40
0.0
  9
$PELEVATION
 40
0.0
  9
$THICKNESS
 40
0.0
  9
$LIMCHECK
 70
     0
  9
$BLIPMODE
 70
     0
  9
$CHAMFERA
 40
0.5
  9
$CHAMFERB
 40
0.5
  9
$SKPOLY
 70
     0
  9
$TDCREATE
 40
2450774.3596017361
  9
$TDUPDATE
 40
2454953.7705260762
  9
$TDINDWG
 40
0.0113484722
  9
$TDUSRTIMER
 40
0.0113484722
  9
$USRTIMER
 70
     1
  9
$ANGBASE
 50
0.0
  9
$ANGDIR
 70
     0
  9
$PDMODE
 70
     0
  9
$PDSIZE
 40
0.0
  9
$PLINEWID
 40
0.0
  9
$COORDS
 70
     1
  9
$SPLFRAME
 70
     0
  9
$SPLINETYPE
 70
     6
  9
$SPLINESEGS
 70
     8
  9
$ATTDIA
 70
     0
  9
$ATTREQ
 70
     1
  9
$HANDLING
 70
 10241
  9
$HANDSEED
  5
7EE7
  9
$SURFTAB1
 70
     6
  9
$SURFTAB2
 70
     6
  9
$SURFTYPE
 70
     6
  9
$SURFU
 70
     6
  9
$SURFV
 70
     6
  9
$UCSNAME
  2

  9
$UCSORG
 10
0.0
 20
0.0
 30
0.0
  9
$UCSXDIR
 10
1.0
 20
0.0
 30
0.0
  9
$UCSYDIR
 10
0.0
 20
1.0
 30
0.0
  9
$PUCSNAME
  2

  9
$PUCSORG
 10
0.0
 20
0.0
 30
0.0
  9
$PUCSXDIR
 10
1.0
 20
0.0
 30
0.0
  9
$PUCSYDIR
 10
0.0
 20
1.0
 30
0.0
  9
$USERI1
 70
     0
  9
$USERI2
 70
     0
  9
$USERI3
 70
     0
  9
$USERI4
 70
     0
  9
$USERI5
 70
     0
  9
$USERR1
 40
0.0
  9
$USERR2
 40
0.0
  9
$USERR3
 40
0.0
  9
$USERR4
 40
0.0
  9
$USERR5
 40
0.0
  9
$WORLDVIEW
 70
     1
  9
$SHADEDGE
 70
     3
  9
$SHADEDIF
 70
    70
  9
$TILEMODE
 70
     1
  9
$MAXACTVP
 70
    16
  9
$PLIMCHECK
 70
     0
  9
$PEXTMIN
 10
1.0000000000000000E+020
 20
1.0000000000000000E+020
 30
1.0000000000000000E+020
  9
$PEXTMAX
 10
-1.0000000000000000E+020
 20
-1.0000000000000000E+020
 30
-1.0000000000000000E+020
  9
$PLIMMIN
 10
0.0
 20
0.0
  9
$PLIMMAX
 10
12.0
 20
9.0
  9
$UNITMODE
 70
     0
  9
$VISRETAIN
 70
     0
  9
$PLINEGEN
 70
     0
  9
$PSLTSCALE
 70
     1
  0
ENDSEC
  0
SECTION
  2
TABLES
  0
TABLE
  2
VPORT
 70
     2
  0
VPORT
  2
*ACTIVE
 70
     0
 10
0.0
 20
0.0
 11
1.0
 21
1.0
 12
9438.4567678319436
 22
4630.0975558305709
 13
0.0
 23
0.0
 14
10.0
 24
10.0
 15
10.0
 25
10.0
 16
0.0
 26
0.0
 36
1.0
 17
0.0
 27
0.0
 37
0.0
 40
7517.4747125171307
 41
3.1666666666666661
 42
50.0
 43
0.0
 44
0.0
 50
0.0
 51
0.0
 71
     0
 72
   100
 73
     1
 74
     0
 75
     0
 76
     0
 77
     0
 78
     0
  0
ENDTAB
  0
TABLE
  2
LTYPE
 70
     2
  0
LTYPE
  2
CONTINUOUS
 70
     0
  3
Solid line
 72
    65
 73
     0
 40
0.0
  0
LTYPE
  2
CENTER
 70
     0
  3
____ _ ____ _ ____ _ ____ _ ____ _ ____ _ ____ 
 72
    65
 73
     4
 40
2.0
 49
1.25
 49
-0.25
 49
0.25
 49
-0.25
  0
ENDTAB
  0
TABLE
  2
LAYER
 70
     6
  0
LAYER
  2
0
 70
     0
 62
     7
  6
CONTINUOUS
  0
LAYER
  2
3
 70
     0
 62
     2
  6
CONTINUOUS
  0
LAYER
  2
2
 70
     0
 62
     3
  6
CENTER
  0
LAYER
  2
1
 70
     0
 62
     4
  6
CONTINUOUS
  0
LAYER
  2
4
 70
     0
 62
     7
  6
CONTINUOUS
  0
LAYER
  2
DEFPOINTS
 70
     0
 62
     7
  6
CONTINUOUS
  0
ENDTAB
  0
TABLE
  2
STYLE
 70
     1
  0
STYLE
  2
STANDARD
 70
     0
 40
0.0
 41
1.0
 50
0.0
 71
     0
 42
180.0
  3
simplex.shx
  4
extfont.shx
  0
ENDTAB
  0
TABLE
  2
VIEW
 70
     0
  0
ENDTAB
  0
TABLE
  2
UCS
 70
     0
  0
ENDTAB
  0
TABLE
  2
APPID
 70
     1
  0
APPID
  2
ACAD
 70
     0
  0
ENDTAB
  0
TABLE
  2
DIMSTYLE
 70
     1
  0
DIMSTYLE
  2
IGA
 70
     0
  3

  4

  5

  6
OPEN
  7
OPEN
 40
2.0
 41
2.0
 42
0.5
 43
10.0
 44
1.0
 45
0.0
 46
0.0
 47
1.0
 48
1.0
140
3.0
141
0.0
142
0.0
143
0.03937
144
1.0
145
0.0
146
10.0
147
1.0
 71
     0
 72
     0
 73
     0
 74
     0
 75
     0
 76
     0
 77
     1
 78
     8
170
     0
171
     2
172
     0
173
     1
174
     0
175
     0
176
     0
177
     0
178
     0
  0
ENDTAB
  0
ENDSEC
  0
SECTION
  2
BLOCKS
  0
BLOCK
  8
0
  2
$MODEL_SPACE
 70
     0
 10
0.0
 20
0.0
 30
0.0
  3
$MODEL_SPACE
  1

  0
ENDBLK
  5
1B
  8
0
  0
BLOCK
 67
     1
  8
0
  2
$PAPER_SPACE
 70
     0
 10
0.0
 20
0.0
 30
0.0
  3
$PAPER_SPACE
  1

  0
ENDBLK
  5
18
 67
     1
  8
0
  0
BLOCK
  8
0
  2
_OPEN
 70
     0
 10
0.0
 20
0.0
 30
0.0
  3
_OPEN
  1

  0
LINE
  5
7AC1
  8
0
  6
BYBLOCK
 62
     0
 10
-1.0
 20
0.166667
 30
0.0
 11
0.0
 21
0.0
 31
0.0
  0
LINE
  5
7AC2
  8
0
  6
BYBLOCK
 62
     0
 10
0.0
 20
0.0
 30
0.0
 11
-1.0
 21
-0.166667
 31
0.0
  0
LINE
  5
7AC3
  8
0
  6
BYBLOCK
 62
     0
 10
0.0
 20
0.0
 30
0.0
 11
-1.0
 21
0.0
 31
0.0
  0
ENDBLK
  5
7AC4
  8
0
  0
BLOCK
  8
0
  2
*D1
 70
     1
 10
0.0
 20
0.0
 30
0.0
  3
*D1
  1

  0
LINE
  5
7E4B
  8
3
  6
CONTINUOUS
 62
     0
 10
1223.4316033357759
 20
2806.142108
 30
0.0
 11
1223.4316033357759
 21
2472.755955315411
 31
0.0
  0
LINE
  5
7E4C
  8
3
  6
CONTINUOUS
 62
     0
 10
2323.4316033357759
 20
2638.1477509999991
 30
0.0
 11
2323.4316033357759
 21
2472.755955315411
 31
0.0
  0
LINE
  5
7E4D
  8
3
  6
CONTINUOUS
 62
     0
 10
1283.4316033357759
 20
2502.755955315411
 30
0.0
 11
2263.4316033357759
 21
2502.755955315411
 31
0.0
  0
INSERT
  5
7E4E
  8
3
  6
CONTINUOUS
 62
     0
  2
_OPEN
 10
1223.4316033357759
 20
2502.755955315411
 30
0.0
 41
60.0
 42
60.0
 43
60.0
 50
180.0
  0
INSERT
  5
7E4F
  8
3
  6
CONTINUOUS
 62
     0
  2
_OPEN
 10
2323.4316033357759
 20
2502.755955315411
 30
0.0
 41
60.0
 42
60.0
 43
60.0
  0
TEXT
  8
3
  40
90
  5
7ED6
  62
0
  72
0
  71
0
 10
1622.98
 20
2418.46
 30
0.000000
  1
1100
  0
POINT
  5
7E51
  8
DEFPOINTS
  6
CONTINUOUS
 62
     0
 10
1223.4316033357759
 20
2821.142108
 30
0.0
  0
POINT
  5
7E52
  8
DEFPOINTS
  6
CONTINUOUS
 62
     0
 10
2323.4316033357759
 20
2653.147751
 30
0.0
  0
POINT
  5
7E53
  8
DEFPOINTS
  6
CONTINUOUS
 62
     0
 10
2323.4316033357759
 20
2502.755955315411
 30
0.0
  0
ENDBLK
  5
7AD1
  8
0
  0
BLOCK
  8
0
  2
*D2
 70
     1
 10
0.0
 20
0.0
 30
0.0
  3
*D2
  1

  0
LINE
  5
7E54
  8
3
  6
CONTINUOUS
 62
     0
 10
2823.4316033357759
 20
2806.142108
 30
0.0
 11
2823.4316033357759
 21
2472.755955315411
 31
0.0
  0
LINE
  5
7E55
  8
3
  6
CONTINUOUS
 62
     0
 10
2383.4316033357759
 20
2502.755955315411
 30
0.0
 11
2763.4316033357759
 21
2502.755955315411
 31
0.0
  0
INSERT
  5
7E56
  8
3
  6
CONTINUOUS
 62
     0
  2
_OPEN
 10
2323.4316033357759
 20
2502.755955315411
 30
0.0
 41
60.0
 42
60.0
 43
60.0
 50
180.0
  0
INSERT
  5
7E57
  8
3
  6
CONTINUOUS
 62
     0
  2
_OPEN
 10
2823.4316033357759
 20
2502.755955315411
 30
0.0
 41
60.0
 42
60.0
 43
60.0
  0
TEXT
  8
3
  40
90
  5
7ED7
  62
0
  72
0
  71
0
 10
2393.43
 20
2418.46
 30
0.000000
  1
500
  0
POINT
  5
7E59
  8
DEFPOINTS
  6
CONTINUOUS
 62
     0
 10
2323.4316033357759
 20
2653.147751
 30
0.0
  0
POINT
  5
7E5A
  8
DEFPOINTS
  6
CONTINUOUS
 62
     0
 10
2823.4316033357759
 20
2821.142108
 30
0.0
  0
POINT
  5
7E5B
  8
DEFPOINTS
  6
CONTINUOUS
 62
     0
 10
2823.4316033357759
 20
2502.755955315411
 30
0.0
  0
ENDBLK
  5
7ADD
  8
0
  0
BLOCK
  8
0
  2
*D3
 70
     1
 10
0.0
 20
0.0
 30
0.0
  3
*D3
  1

  0
LINE
  5
7E5C
  8
3
  6
CONTINUOUS
 62
     0
 10
2823.4316033357759
 20
4011.142108
 30
0.0
 11
3127.6538153357769
 21
4011.142108
 31
0.0
  0
LINE
  5
7E5D
  8
3
  6
CONTINUOUS
 62
     0
 10
2823.4316033357759
 20
3361.142108
 30
0.0
 11
3127.6538153357769
 21
3361.142108
 31
0.0
  0
LINE
  5
7E5E
  8
3
  6
CONTINUOUS
 62
     0
 10
3097.653815335776
 20
3951.1421079999991
 30
0.0
 11
3097.653815335776
 21
3421.1421079999991
 31
0.0
  0
INSERT
  5
7E5F
  8
3
  6
CONTINUOUS
 62
     0
  2
_OPEN
 10
3097.653815335776
 20
4011.142108
 30
0.0
 41
60.0
 42
60.0
 43
60.0
 50
90.0
  0
INSERT
  5
7E60
  8
3
  6
CONTINUOUS
 62
     0
  2
_OPEN
 10
3097.653815335776
 20
3361.142108
 30
0.0
 41
60.0
 42
60.0
 43
60.0
 50
270.0
  0
TEXT
  8
3
  40
90
  5
7ED8
  62
0
  72
0
  71
0
 10
2842.65
 20
3526.93
 30
0.000000
  1
650
  0
POINT
  5
7E62
  8
DEFPOINTS
  6
CONTINUOUS
 62
     0
 10
2808.4316033357759
 20
4011.142108
 30
0.0
  0
POINT
  5
7E63
  8
DEFPOINTS
  6
CONTINUOUS
 62
     0
 10
2808.4316033357759
 20
3361.142108
 30
0.0
  0
POINT
  5
7E64
  8
DEFPOINTS
  6
CONTINUOUS
 62
     0
 10
3097.653815335776
 20
3361.142108
 30
0.0
  0
ENDBLK
  5
7AEA
  8
0
  0
BLOCK
  8
0
  2
*D4
 70
     1
 10
0.0
 20
0.0
 30
0.0
  3
*D4
  1

  0
LINE
  5
7E65
  8
3
  6
CONTINUOUS
 62
     0
 10
2823.4316033357759
 20
4011.142108
 30
0.0
 11
3367.628094335776
 21
4011.142108
 31
0.0
  0
LINE
  5
7E66
  8
3
  6
CONTINUOUS
 62
     0
 10
2823.4316033357759
 20
3391.142108
 30
0.0
 11
3367.628094335776
 21
3391.1421079999991
 31
0.0
  0
LINE
  5
7E67
  8
3
  6
CONTINUOUS
 62
     0
 10
3337.628094335777
 20
3951.1421079999991
 30
0.0
 11
3337.628094335777
 21
3451.1421079999991
 31
0.0
  0
INSERT
  5
7E68
  8
3
  6
CONTINUOUS
 62
     0
  2
_OPEN
 10
3337.628094335777
 20
4011.142108
 30
0.0
 41
60.0
 42
60.0
 43
60.0
 50
90.0
  0
INSERT
  5
7E69
  8
3
  6
CONTINUOUS
 62
     0
  2
_OPEN
 10
3337.628094335777
 20
3391.1421079999991
 30
0.0
 41
60.0
 42
60.0
 43
60.0
 50
270.0
  0
TEXT
  8
3
  40
90
  5
7ED9
  62
0
  72
0
  71
0
 10
3082.63
 20
3529.89
 30
0.000000
  1
620
  0
POINT
  5
7E6B
  8
DEFPOINTS
  6
CONTINUOUS
 62
     0
 10
2808.4316033357759
 20
4011.142108
 30
0.0
  0
POINT
  5
7E6C
  8
DEFPOINTS
  6
CONTINUOUS
 62
     0
 10
2808.4316033357759
 20
3391.142108
 30
0.0
  0
POINT
  5
7E6D
  8
DEFPOINTS
  6
CONTINUOUS
 62
     0
 10
3337.628094335777
 20
3391.1421079999991
 30
0.0
  0
ENDBLK
  5
7AF7
  8
0
  0
BLOCK
  8
0
  2
*D5
 70
     1
 10
0.0
 20
0.0
 30
0.0
  3
*D5
  1

  0
LINE
  5
7E6E
  8
3
  6
CONTINUOUS
 62
     0
 10
2838.4316033357759
 20
2821.142108
 30
0.0
 11
3367.628094335776
 21
2821.142108
 31
0.0
  0
LINE
  5
7E6F
  8
3
  6
CONTINUOUS
 62
     0
 10
3337.628094335776
 20
3331.1421079999991
 30
0.0
 11
3337.628094335776
 21
2881.1421079999991
 31
0.0
  0
INSERT
  5
7E70
  8
3
  6
CONTINUOUS
 62
     0
  2
_OPEN
 10
3337.628094335776
 20
3391.1421079999991
 30
0.0
 41
60.0
 42
60.0
 43
60.0
 50
90.0
  0
INSERT
  5
7E71
  8
3
  6
CONTINUOUS
 62
     0
  2
_OPEN
 10
3337.628094335776
 20
2821.142108
 30
0.0
 41
60.0
 42
60.0
 43
60.0
 50
270.0
  0
TEXT
  8
3
  40
90
  5
7EDA
  62
0
  72
0
  71
0
 10
3082.63
 20
2946.84
 30
0.000000
  1
570
  0
POINT
  5
7E73
  8
DEFPOINTS
  6
CONTINUOUS
 62
     0
 10
2808.4316033357759
 20
3391.142108
 30
0.0
  0
POINT
  5
7E74
  8
DEFPOINTS
  6
CONTINUOUS
 62
     0
 10
2823.4316033357759
 20
2821.142108
 30
0.0
  0
POINT
  5
7E75
  8
DEFPOINTS
  6
CONTINUOUS
 62
     0
 10
3337.628094335776
 20
2821.142108
 30
0.0
  0
ENDBLK
  5
7B03
  8
0
  0
BLOCK
  8
0
  2
*D6
 70
     1
 10
0.0
 20
0.0
 30
0.0
  3
*D6
  1

  0
LINE
  5
7E76
  8
3
  6
CONTINUOUS
 62
     0
 10
2823.4316033357759
 20
4051.1421079999991
 30
0.0
 11
3622.7091373357762
 21
4051.1421079999991
 31
0.0
  0
LINE
  5
7E77
  8
3
  6
CONTINUOUS
 62
     0
 10
2838.4316033357759
 20
2821.142108
 30
0.0
 11
3622.7091373357762
 21
2821.142108
 31
0.0
  0
LINE
  5
7E78
  8
3
  6
CONTINUOUS
 62
     0
 10
3592.7091373357771
 20
3991.142108
 30
0.0
 11
3592.7091373357762
 21
2881.1421079999991
 31
0.0
  0
INSERT
  5
7E79
  8
3
  6
CONTINUOUS
 62
     0
  2
_OPEN
 10
3592.7091373357771
 20
4051.1421079999991
 30
0.0
 41
60.0
 42
60.0
 43
60.0
 50
90.0
  0
INSERT
  5
7E7A
  8
3
  6
CONTINUOUS
 62
     0
  2
_OPEN
 10
3592.7091373357762
 20
2821.142108
 30
0.0
 41
60.0
 42
60.0
 43
60.0
 50
270.0
  0
TEXT
  8
3
  40
90
  5
7EDB
  62
0
  72
0
  71
0
 10
3337.71
 20
3245.68
 30
0.000000
  1
1230
  0
POINT
  5
7E7C
  8
DEFPOINTS
  6
CONTINUOUS
 62
     0
 10
2808.4316033357759
 20
4051.1421079999991
 30
0.0
  0
POINT
  5
7E7D
  8
DEFPOINTS
  6
CONTINUOUS
 62
     0
 10
2823.4316033357759
 20
2821.142108
 30
0.0
  0
POINT
  5
7E7E
  8
DEFPOINTS
  6
CONTINUOUS
 62
     0
 10
3592.7091373357762
 20
2821.142108
 30
0.0
  0
ENDBLK
  5
7B10
  8
0
  0
BLOCK
  8
0
  2
*D7
 70
     1
 10
0.0
 20
0.0
 30
0.0
  3
*D7
  1

  0
LINE
  5
7E7F
  8
3
  6
CONTINUOUS
 62
     0
 10
1801.4316033357759
 20
3406.142108
 30
0.0
 11
1801.4316033357759
 21
4234.6348979999993
 31
0.0
  0
LINE
  5
7E80
  8
3
  6
CONTINUOUS
 62
     0
 10
2323.4316033357759
 20
4010.142108
 30
0.0
 11
2323.4316033357759
 21
4234.6348979999993
 31
0.0
  0
LINE
  5
7E81
  8
3
  6
CONTINUOUS
 62
     0
 10
1861.4316033357759
 20
4204.6348980000002
 30
0.0
 11
2263.4316033357759
 21
4204.6348980000002
 31
0.0
  0
INSERT
  5
7E82
  8
3
  6
CONTINUOUS
 62
     0
  2
_OPEN
 10
1801.4316033357759
 20
4204.6348980000002
 30
0.0
 41
60.0
 42
60.0
 43
60.0
 50
180.0
  0
INSERT
  5
7E83
  8
3
  6
CONTINUOUS
 62
     0
  2
_OPEN
 10
2323.4316033357759
 20
4204.6348980000002
 30
0.0
 41
60.0
 42
60.0
 43
60.0
  0
TEXT
  8
3
  40
90
  5
7EDC
  62
0
  72
0
  71
0
 10
1872.13
 20
4120.33
 30
0.000000
  1
522
  0
POINT
  5
7E85
  8
DEFPOINTS
  6
CONTINUOUS
 62
     0
 10
1801.4316033357759
 20
3391.142108
 30
0.0
  0
POINT
  5
7E86
  8
DEFPOINTS
  6
CONTINUOUS
 62
     0
 10
2323.4316033357759
 20
3995.142108
 30
0.0
  0
POINT
  5
7E87
  8
DEFPOINTS
  6
CONTINUOUS
 62
     0
 10
2323.4316033357759
 20
4204.6348980000002
 30
0.0
  0
ENDBLK
  5
7B1D
  8
0
  0
BLOCK
  8
0
  2
*D8
 70
     1
 10
0.0
 20
0.0
 30
0.0
  3
*D8
  1

  0
LINE
  5
7E88
  8
3
  6
CONTINUOUS
 62
     0
 10
2808.4316033357759
 20
4066.142108
 30
0.0
 11
2808.4316033357759
 21
4234.6348979999993
 31
0.0
  0
LINE
  5
7E89
  8
3
  6
CONTINUOUS
 62
     0
 10
2383.4316033357759
 20
4204.6348980000002
 30
0.0
 11
2748.4316033357759
 21
4204.6348980000002
 31
0.0
  0
INSERT
  5
7E8A
  8
3
  6
CONTINUOUS
 62
     0
  2
_OPEN
 10
2323.4316033357759
 20
4204.6348980000002
 30
0.0
 41
60.0
 42
60.0
 43
60.0
 50
180.0
  0
INSERT
  5
7E8B
  8
3
  6
CONTINUOUS
 62
     0
  2
_OPEN
 10
2808.4316033357759
 20
4204.6348980000002
 30
0.0
 41
60.0
 42
60.0
 43
60.0
  0
TEXT
  8
3
  40
90
  5
7EDD
  62
0
  72
0
  71
0
 10
2385.93
 20
4120.33
 30
0.000000
  1
485
  0
POINT
  5
7E8D
  8
DEFPOINTS
  6
CONTINUOUS
 62
     0
 10
2323.4316033357759
 20
3995.142108
 30
0.0
  0
POINT
  5
7E8E
  8
DEFPOINTS
  6
CONTINUOUS
 62
     0
 10
2808.4316033357759
 20
4051.1421079999991
 30
0.0
  0
POINT
  5
7E8F
  8
DEFPOINTS
  6
CONTINUOUS
 62
     0
 10
2808.4316033357759
 20
4204.6348980000002
 30
0.0
  0
ENDBLK
  5
7B29
  8
0
  0
BLOCK
  8
0
  2
*D9
 70
     1
 10
0.0
 20
0.0
 30
0.0
  3
*D9
  1

  0
LINE
  5
7E90
  8
3
  6
CONTINUOUS
 62
     0
 10
1223.4316033357759
 20
5646.9643840000008
 30
0.0
 11
1223.4316033357759
 21
5240.7421020000002
 31
0.0
  0
LINE
  5
7E91
  8
3
  6
CONTINUOUS
 62
     0
 10
2823.4316033357759
 20
5646.9643840000008
 30
0.0
 11
2823.4316033357759
 21
5240.7421020000002
 31
0.0
  0
LINE
  5
7E92
  8
3
  6
CONTINUOUS
 62
     0
 10
1283.4316033357759
 20
5270.7421020000002
 30
0.0
 11
2763.4316033357759
 21
5270.7421020000002
 31
0.0
  0
INSERT
  5
7E93
  8
3
  6
CONTINUOUS
 62
     0
  2
_OPEN
 10
1223.4316033357759
 20
5270.7421020000002
 30
0.0
 41
60.0
 42
60.0
 43
60.0
 50
180.0
  0
INSERT
  5
7E94
  8
3
  6
CONTINUOUS
 62
     0
  2
_OPEN
 10
2823.4316033357759
 20
5270.7421020000002
 30
0.0
 41
60.0
 42
60.0
 43
60.0
  0
TEXT
  8
3
  40
90
  5
7EDE
  62
0
  72
0
  71
0
 10
1801.03
 20
5186.44
 30
0.000000
  1
1600
  0
POINT
  5
7E96
  8
DEFPOINTS
  6
CONTINUOUS
 62
     0
 10
1223.4316033357759
 20
5661.9643839999999
 30
0.0
  0
POINT
  5
7E97
  8
DEFPOINTS
  6
CONTINUOUS
 62
     0
 10
2823.4316033357759
 20
5661.9643839999999
 30
0.0
  0
POINT
  5
7E98
  8
DEFPOINTS
  6
CONTINUOUS
 62
     0
 10
2823.4316033357759
 20
5270.7421020000002
 30
0.0
  0
ENDBLK
  5
7B36
  8
0
  0
BLOCK
  8
0
  2
*D10
 70
     1
 10
0.0
 20
0.0
 30
0.0
  3
*D10
  1

  0
LINE
  5
7E99
  8
3
  6
CONTINUOUS
 62
     0
 10
2838.4316033357759
 20
6361.9643840000008
 30
0.0
 11
3151.6485623357771
 21
6361.9643840000008
 31
0.0
  0
LINE
  5
7E9A
  8
3
  6
CONTINUOUS
 62
     0
 10
2838.4316033357759
 20
5661.9643839999999
 30
0.0
 11
3151.6485623357771
 21
5661.9643839999999
 31
0.0
  0
LINE
  5
7E9B
  8
3
  6
CONTINUOUS
 62
     0
 10
3121.6485623357771
 20
6301.9643840000008
 30
0.0
 11
3121.6485623357771
 21
5721.9643840000008
 31
0.0
  0
INSERT
  5
7E9C
  8
3
  6
CONTINUOUS
 62
     0
  2
_OPEN
 10
3121.6485623357771
 20
6361.9643840000008
 30
0.0
 41
60.0
 42
60.0
 43
60.0
 50
90.0
  0
INSERT
  5
7E9D
  8
3
  6
CONTINUOUS
 62
     0
  2
_OPEN
 10
3121.6485623357771
 20
5661.9643839999999
 30
0.0
 41
60.0
 42
60.0
 43
60.0
 50
270.0
  0
TEXT
  8
3
  40
90
  5
7EDF
  62
0
  72
0
  71
0
 10
2866.65
 20
5858.40
 30
0.000000
  1
700
  0
POINT
  5
7E9F
  8
DEFPOINTS
  6
CONTINUOUS
 62
     0
 10
2823.4316033357759
 20
6361.9643840000008
 30
0.0
  0
POINT
  5
7EA0
  8
DEFPOINTS
  6
CONTINUOUS
 62
     0
 10
2823.4316033357759
 20
5661.9643839999999
 30
0.0
  0
POINT
  5
7EA1
  8
DEFPOINTS
  6
CONTINUOUS
 62
     0
 10
3121.6485623357771
 20
5661.9643839999999
 30
0.0
  0
ENDBLK
  5
7B43
  8
0
  0
BLOCK
  8
0
  2
*D11
 70
     1
 10
0.0
 20
0.0
 30
0.0
  3
*D11
  1

  0
LINE
  5
7EA2
  8
3
  6
CONTINUOUS
 62
     0
 10
4395.2437473357759
 20
4026.142108
 30
0.0
 11
4395.2437473357759
 21
4206.412002
 31
0.0
  0
LINE
  5
7EA3
  8
3
  6
CONTINUOUS
 62
     0
 10
4870.2437473357759
 20
4026.142108
 30
0.0
 11
4870.2437473357759
 21
4206.412002
 31
0.0
  0
LINE
  5
7EA4
  8
3
  6
CONTINUOUS
 62
     0
 10
4455.2437473357759
 20
4176.412002
 30
0.0
 11
4810.2437473357759
 21
4176.412002
 31
0.0
  0
INSERT
  5
7EA5
  8
3
  6
CONTINUOUS
 62
     0
  2
_OPEN
 10
4395.2437473357759
 20
4176.412002
 30
0.0
 41
60.0
 42
60.0
 43
60.0
 50
180.0
  0
INSERT
  5
7EA6
  8
3
  6
CONTINUOUS
 62
     0
  2
_OPEN
 10
4870.2437473357759
 20
4176.412002
 30
0.0
 41
60.0
 42
60.0
 43
60.0
  0
TEXT
  8
3
  40
90
  5
7EE0
  62
0
  72
0
  71
0
 10
4452.27
 20
4092.11
 30
0.000000
  1
475
  0
POINT
  5
7EA8
  8
DEFPOINTS
  6
CONTINUOUS
 62
     0
 10
4395.2437473357759
 20
4011.142108
 30
0.0
  0
POINT
  5
7EA9
  8
DEFPOINTS
  6
CONTINUOUS
 62
     0
 10
4870.2437473357759
 20
4011.142108
 30
0.0
  0
POINT
  5
7EAA
  8
DEFPOINTS
  6
CONTINUOUS
 62
     0
 10
4870.2437473357759
 20
4176.412002
 30
0.0
  0
ENDBLK
  5
7B53
  8
0
  0
BLOCK
  8
0
  2
*D12
 70
     1
 10
0.0
 20
0.0
 30
0.0
  3
*D12
  1

  0
LINE
  5
7EAB
  8
3
  6
CONTINUOUS
 62
     0
 10
4152.743747335775
 20
3936.142108
 30
0.0
 11
4152.743747335775
 21
4412.3685249999999
 31
0.0
  0
LINE
  5
7EAC
  8
3
  6
CONTINUOUS
 62
     0
 10
4632.743747335775
 20
4342.2533960000001
 30
0.0
 11
4632.743747335775
 21
4412.3685249999999
 31
0.0
  0
LINE
  5
7EAD
  8
3
  6
CONTINUOUS
 62
     0
 10
4212.7437473357759
 20
4382.368524999999
 30
0.0
 11
4572.7437473357759
 21
4382.368524999999
 31
0.0
  0
INSERT
  5
7EAE
  8
3
  6
CONTINUOUS
 62
     0
  2
_OPEN
 10
4152.743747335775
 20
4382.368524999999
 30
0.0
 41
60.0
 42
60.0
 43
60.0
 50
180.0
  0
INSERT
  5
7EAF
  8
3
  6
CONTINUOUS
 62
     0
  2
_OPEN
 10
4632.743747335775
 20
4382.368524999999
 30
0.0
 41
60.0
 42
60.0
 43
60.0
  0
TEXT
  8
3
  40
90
  5
7EE1
  62
0
  72
0
  71
0
 10
4191.32
 20
4373.07
 30
0.000000
  1
MAX
  0
TEXT
  8
3
  40
90
  5
7EE2
  62
0
  72
0
  71
0
 10
4191.32
 20
4256.07
 30
0.000000
  1
530
  0
POINT
  5
7EB1
  8
DEFPOINTS
  6
CONTINUOUS
 62
     0
 10
4152.743747335775
 20
3921.142108
 30
0.0
  0
POINT
  5
7EB2
  8
DEFPOINTS
  6
CONTINUOUS
 62
     0
 10
4632.743747335775
 20
4327.2533960000001
 30
0.0
  0
POINT
  5
7EB3
  8
DEFPOINTS
  6
CONTINUOUS
 62
     0
 10
4632.743747335775
 20
4382.368524999999
 30
0.0
  0
ENDBLK
  5
7C47
  8
0
  0
BLOCK
  8
0
  2
*D13
 70
     1
 10
0.0
 20
0.0
 30
0.0
  3
*D13
  1

  0
LINE
  5
7EB4
  8
3
  6
CONTINUOUS
 62
     0
 10
4873.2437473357759
 20
3741.142108
 30
0.0
 11
4873.2437473357759
 21
4412.3685249999999
 31
0.0
  0
LINE
  5
7EB5
  8
3
  6
CONTINUOUS
 62
     0
 10
4692.7437473357759
 20
4382.368524999999
 30
0.0
 11
4813.2437473357759
 21
4382.368524999999
 31
0.0
  0
TEXT
  8
3
  40
90
  5
7EE3
  62
0
  72
0
  71
0
 10
4565.99
 20
4298.64
 30
0.000000
  1
241
  0
INSERT
  5
7EB7
  8
3
  6
CONTINUOUS
 62
     0
  2
_OPEN
 10
4632.743747335775
 20
4382.368524999999
 30
0.0
 41
60.0
 42
60.0
 43
60.0
 50
180.0
  0
INSERT
  5
7EB8
  8
3
  6
CONTINUOUS
 62
     0
  2
_OPEN
 10
4873.2437473357759
 20
4382.368524999999
 30
0.0
 41
60.0
 42
60.0
 43
60.0
  0
POINT
  5
7EB9
  8
DEFPOINTS
  6
CONTINUOUS
 62
     0
 10
4632.743747335775
 20
4327.2533960000001
 30
0.0
  0
POINT
  5
7EBA
  8
DEFPOINTS
  6
CONTINUOUS
 62
     0
 10
4873.2437473357759
 20
3726.1421079999991
 30
0.0
  0
POINT
  5
7EBB
  8
DEFPOINTS
  6
CONTINUOUS
 62
     0
 10
4873.2437473357759
 20
4382.368524999999
 30
0.0
  0
ENDBLK
  5
7B8C
  8
0
  0
BLOCK
  8
0
  2
*D14
 70
     1
 10
0.0
 20
0.0
 30
0.0
  3
*D14
  1

  0
LINE
  5
7D6A
  8
3
  6
CONTINUOUS
 62
     0
 10
4272.7437473357759
 20
2806.142108
 30
0.0
 11
4272.7437473357759
 21
2461.8584587655819
 31
0.0
  0
LINE
  5
7D6B
  8
3
  6
CONTINUOUS
 62
     0
 10
4632.743747335775
 20
2659.6809910000002
 30
0.0
 11
4632.743747335775
 21
2461.8584587655819
 31
0.0
  0
LINE
  5
7D6C
  8
3
  6
CONTINUOUS
 62
     0
 10
4332.7437473357759
 20
2491.8584587655819
 30
0.0
 11
4572.7437473357759
 21
2491.8584587655819
 31
0.0
  0
TEXT
  5
7D6D
  8
3
 62
     0
 10
4315.3422382336921
 20
2529.3670464565798
 30
0.0
 40
90.0
  1
360
  0
INSERT
  5
7D6E
  8
3
  6
CONTINUOUS
 62
     0
  2
_OPEN
 10
4272.7437473357759
 20
2491.8584587655819
 30
0.0
 41
60.0
 42
60.0
 43
60.0
 50
180.0
  0
INSERT
  5
7D6F
  8
3
  6
CONTINUOUS
 62
     0
  2
_OPEN
 10
4632.743747335775
 20
2491.8584587655819
 30
0.0
 41
60.0
 42
60.0
 43
60.0
  0
POINT
  5
7D70
  8
DEFPOINTS
  6
CONTINUOUS
 62
     0
 10
4272.7437473357759
 20
2821.142108
 30
0.0
  0
POINT
  5
7D71
  8
DEFPOINTS
  6
CONTINUOUS
 62
     0
 10
4632.743747335775
 20
2674.6809910000002
 30
0.0
  0
POINT
  5
7D72
  8
DEFPOINTS
  6
CONTINUOUS
 62
     0
 10
4632.743747335775
 20
2491.8584587655819
 30
0.0
  0
ENDBLK
  5
7C31
  8
0
  0
BLOCK
  8
0
  2
*D15
 70
     1
 10
0.0
 20
0.0
 30
0.0
  3
*D15
  1

  0
LINE
  5
7EBC
  8
3
  6
CONTINUOUS
 62
     0
 10
4972.7437473357759
 20
2806.142108
 30
0.0
 11
4972.7437473357759
 21
2461.8584587655819
 31
0.0
  0
LINE
  5
7EBD
  8
3
  6
CONTINUOUS
 62
     0
 10
4692.7437473357759
 20
2491.8584587655819
 30
0.0
 11
4912.7437473357759
 21
2491.8584587655819
 31
0.0
  0
TEXT
  8
3
  40
90
  5
7EE4
  62
0
  72
0
  71
0
 10
4606.48
 20
2407.11
 30
0.000000
  1
340
  0
INSERT
  5
7EBF
  8
3
  6
CONTINUOUS
 62
     0
  2
_OPEN
 10
4632.743747335775
 20
2491.8584587655819
 30
0.0
 41
60.0
 42
60.0
 43
60.0
 50
180.0
  0
INSERT
  5
7EC0
  8
3
  6
CONTINUOUS
 62
     0
  2
_OPEN
 10
4972.7437473357759
 20
2491.8584587655819
 30
0.0
 41
60.0
 42
60.0
 43
60.0
  0
POINT
  5
7EC1
  8
DEFPOINTS
  6
CONTINUOUS
 62
     0
 10
4632.743747335775
 20
2674.6809910000002
 30
0.0
  0
POINT
  5
7EC2
  8
DEFPOINTS
  6
CONTINUOUS
 62
     0
 10
4972.7437473357759
 20
2821.142108
 30
0.0
  0
POINT
  5
7EC3
  8
DEFPOINTS
  6
CONTINUOUS
 62
     0
 10
4972.7437473357759
 20
2491.8584587655819
 30
0.0
  0
ENDBLK
  5
7BF8
  8
0
  0
BLOCK
  8
0
  2
*D16
 70
     1
 10
0.0
 20
0.0
 30
0.0
  3
*D16
  1

  0
LINE
  5
7EC4
  8
3
  6
CONTINUOUS
 62
     0
 10
4885.2437473357759
 20
3726.1421079999991
 30
0.0
 11
5176.1019843357772
 21
3726.1421079999991
 31
0.0
  0
LINE
  5
7EC5
  8
3
  6
CONTINUOUS
 62
     0
 10
4888.2437473357759
 20
3056.142108
 30
0.0
 11
5176.1019843357772
 21
3056.1421079999991
 31
0.0
  0
LINE
  5
7EC6
  8
3
  6
CONTINUOUS
 62
     0
 10
5146.1019843357781
 20
3666.1421079999991
 30
0.0
 11
5146.1019843357781
 21
3116.142108
 31
0.0
  0
INSERT
  5
7EC7
  8
3
  6
CONTINUOUS
 62
     0
  2
_OPEN
 10
5146.1019843357781
 20
3726.1421079999991
 30
0.0
 41
60.0
 42
60.0
 43
60.0
 50
90.0
  0
INSERT
  5
7EC8
  8
3
  6
CONTINUOUS
 62
     0
  2
_OPEN
 10
5146.1019843357781
 20
3056.1421079999991
 30
0.0
 41
60.0
 42
60.0
 43
60.0
 50
270.0
  0
TEXT
  8
3
  40
90
  5
7EE5
  62
0
  72
0
  71
0
 10
4891.10
 20
3216.30
 30
0.000000
  1
φ670
  0
POINT
  5
7ECA
  8
DEFPOINTS
  6
CONTINUOUS
 62
     0
 10
4870.2437473357759
 20
3726.1421079999991
 30
0.0
  0
POINT
  5
7ECB
  8
DEFPOINTS
  6
CONTINUOUS
 62
     0
 10
4873.2437473357759
 20
3056.142108
 30
0.0
  0
POINT
  5
7ECC
  8
DEFPOINTS
  6
CONTINUOUS
 62
     0
 10
5146.1019843357781
 20
3056.1421079999991
 30
0.0
  0
ENDBLK
  5
7C3C
  8
0
  0
BLOCK
  8
0
  2
*D17
 70
     1
 10
0.0
 20
0.0
 30
0.0
  3
*D17
  1

  0
LINE
  5
7ECD
  8
3
 62
     0
 10
2808.4316033357759
 20
4066.142108
 30
0.0
 11
2808.4316033357759
 21
4414.5370357419451
 31
0.0
  0
LINE
  5
7ECE
  8
3
 62
     0
 10
1223.4316033357759
 20
2936.142108
 30
0.0
 11
1223.4316033357759
 21
4414.5370357419451
 31
0.0
  0
LINE
  5
7ECF
  8
3
 62
     0
 10
2748.4316033357759
 20
4384.5370357419451
 30
0.0
 11
1283.4316033357759
 21
4384.5370357419451
 31
0.0
  0
INSERT
  5
7ED0
  8
3
 62
     0
  2
_OPEN
 10
2808.4316033357759
 20
4384.5370357419451
 30
0.0
 41
60.0
 42
60.0
 43
60.0
  0
INSERT
  5
7ED1
  8
3
 62
     0
  2
_OPEN
 10
1223.4316033357759
 20
4384.5370357419451
 30
0.0
 41
60.0
 42
60.0
 43
60.0
 50
180.0
  0
TEXT
  8
3
  40
90
  5
7EE6
  62
0
  72
0
  71
0
 10
1883.63
 20
4300.24
 30
0.000000
  1
1585
  0
POINT
  5
7ED3
  8
DEFPOINTS
 62
     0
 10
2808.4316033357759
 20
4051.1421079999991
 30
0.0
  0
POINT
  5
7ED4
  8
DEFPOINTS
 62
     0
 10
1223.4316033357759
 20
2921.142108
 30
0.0
  0
POINT
  5
7ED5
  8
DEFPOINTS
 62
     0
 10
1223.4316033357759
 20
4384.5370357419451
 30
0.0
  0
ENDBLK
  5
7C53
  8
0
  0
ENDSEC
  0
SECTION
  2
ENTITIES
  0
LINE
  5
7A62
  8
1
  6
CONTINUOUS
 10
2823.4316033357759
 20
2921.142108
 30
0.0
 11
1223.4316033357759
 21
2921.142108
 31
0.0
  0
LINE
  5
7A63
  8
1
  6
CONTINUOUS
 10
1223.4316033357759
 20
2821.142108
 30
0.0
 11
2823.4316033357759
 21
2821.142108
 31
0.0
  0
ARC
  5
7A64
  8
1
  6
CONTINUOUS
 10
1602.582712335776
 20
3121.142108
 30
0.0
 40
162.0
 50
324.972283
 51
215.02771699999991
  0
LINE
  5
7A65
  8
1
  6
CONTINUOUS
 10
1448.582712335776
 20
2979.1421079999991
 30
0.0
 11
1469.925046335776
 21
3028.1585409999998
 31
0.0
  0
LINE
  5
7A66
  8
1
  6
CONTINUOUS
 10
1393.4316033357759
 20
3221.142108
 30
0.0
 11
2223.4316033357759
 21
3921.142108
 31
0.0
  0
LINE
  5
7A67
  8
1
  6
CONTINUOUS
 10
1756.582712335776
 20
2961.142108
 30
0.0
 11
1448.582712335776
 21
2961.142108
 31
0.0
  0
LINE
  5
7A68
  8
1
  6
CONTINUOUS
 10
1393.4316033357759
 20
2921.142108
 30
0.0
 11
1393.4316033357759
 21
3221.142108
 31
0.0
  0
LINE
  5
7A69
  8
1
  6
CONTINUOUS
 10
1448.582712335776
 20
2961.142108
 30
0.0
 11
1448.582712335776
 21
2979.1421079999991
 31
0.0
  0
LINE
  5
7A6A
  8
1
  6
CONTINUOUS
 10
1448.582712335776
 20
2921.142108
 30
0.0
 11
1448.582712335776
 21
2979.1421079999991
 31
0.0
  0
LINE
  5
7A6B
  8
1
  6
CONTINUOUS
 10
1223.4316033357759
 20
2921.142108
 30
0.0
 11
1223.4316033357759
 21
2821.142108
 31
0.0
  0
LINE
  5
7A6D
  8
1
  6
CONTINUOUS
 10
2808.4316033357759
 20
3321.142108
 30
0.0
 11
2808.4316033357759
 21
4051.1421079999991
 31
0.0
  0
LINE
  5
7A6E
  8
1
  6
CONTINUOUS
 10
1881.4316033357759
 20
3833.142108
 30
0.0
 11
1881.4316033357759
 21
2921.142108
 31
0.0
  0
LINE
  5
7A6F
  8
1
  6
CONTINUOUS
 10
2765.4316033357759
 20
3833.142108
 30
0.0
 11
2765.4316033357759
 21
2921.142108
 31
0.0
  0
LINE
  5
7A70
  8
1
  6
CONTINUOUS
 10
2663.4316033357759
 20
2921.142108
 30
0.0
 11
2663.4316033357759
 21
3921.142108
 31
0.0
  0
ARC
  5
7A71
  8
1
  6
CONTINUOUS
 10
2364.4316033357759
 20
3432.142108
 30
0.0
 40
564.49092099999984
 50
94.165164000000004
 51
184.5139879999999
  0
LINE
  5
7A72
  8
2
  6
CENTER
 10
2323.4316033357759
 20
6474.8659090000001
 30
0.0
 11
2323.4316033357759
 21
5425.5055080000002
 31
0.0
  0
CIRCLE
  5
7A73
  8
1
  6
CONTINUOUS
 10
2323.4316033357759
 20
3391.142108
 30
0.0
 40
150.0
  0
LINE
  5
7A74
  8
1
  6
CONTINUOUS
 10
2778.4316033357759
 20
3361.142108
 30
0.0
 11
2778.4316033357759
 21
4009.8225200000002
 31
0.0
  0
LINE
  5
7A75
  8
1
  6
CONTINUOUS
 10
1567.8252923357761
 20
3193.197099
 30
0.0
 11
2258.2614413357751
 21
3526.2452159999998
 31
0.0
  0
ARC
  5
7A77
  8
1
  6
CONTINUOUS
 10
2296.4316033357759
 20
3364.142108
 30
0.0
 40
425.74044800000001
 50
277.35237899999998
 51
359.59625899999992
  0
LINE
  5
7A78
  8
2
  6
CENTER
 10
4929.3294583357747
 20
3391.142108
 30
0.0
 11
3995.500007335776
 21
3391.142108
 31
0.0
  0
ARC
  5
7A79
  8
1
  6
CONTINUOUS
 10
2288.4316033357759
 20
3426.142108
 30
0.0
 40
488.25444700000003
 50
184.5139879999999
 51
277.35237899999998
  0
LINE
  5
7A7A
  8
1
  6
CONTINUOUS
 10
1623.714490335776
 20
3043.983518
 30
0.0
 11
2363.0536883357759
 21
3246.469752
 31
0.0
  0
CIRCLE
  5
7A7B
  8
1
  6
CONTINUOUS
 10
1602.582712335776
 20
3121.142108
 30
0.0
 40
80.0
  0
LINE
  5
7A7C
  8
1
  6
CONTINUOUS
 10
1756.582712335776
 20
2979.1421079999991
 30
0.0
 11
1735.240377335776
 21
3028.1585409999998
 31
0.0
  0
LINE
  5
7A7D
  8
1
  6
CONTINUOUS
 10
1756.582712335776
 20
2921.142108
 30
0.0
 11
1756.582712335776
 21
2979.1421079999991
 31
0.0
  0
LINE
  5
7A7E
  8
2
  6
CENTER
 10
1602.582712335776
 20
3201.1421079999991
 30
0.0
 11
1602.582712335776
 21
3041.142108
 31
0.0
  0
LINE
  5
7A7F
  8
2
  6
CENTER
 10
1682.582712335776
 20
3121.142108
 30
0.0
 11
1522.582712335776
 21
3121.142108
 31
0.0
  0
LINE
  5
7A80
  8
1
  6
CONTINUOUS
 10
2722.1614823357759
 20
3361.142108
 30
0.0
 11
2808.4316033357759
 21
3361.142108
 31
0.0
  0
LINE
  5
7A81
  8
1
  6
CONTINUOUS
 10
2823.4316033357759
 20
2921.142108
 30
0.0
 11
2823.4316033357759
 21
2821.142108
 31
0.0
  0
LINE
  5
7A82
  8
1
  6
CONTINUOUS
 10
2765.4316033357759
 20
3833.142108
 30
0.0
 11
1881.4316033357759
 21
3833.142108
 31
0.0
  0
LINE
  5
7A83
  8
1
  6
CONTINUOUS
 10
2663.4316033357759
 20
3921.142108
 30
0.0
 11
2223.4316033357759
 21
3921.142108
 31
0.0
  0
LINE
  5
7A84
  8
1
  6
CONTINUOUS
 10
2808.4316033357759
 20
4011.142108
 30
0.0
 11
2323.4316033357759
 21
3995.142108
 31
0.0
  0
LINE
  5
7A85
  8
1
  6
CONTINUOUS
 10
4395.2437473357759
 20
4011.142108
 30
0.0
 11
4395.2437473357759
 21
2921.142108
 31
0.0
  0
LINE
  5
7A86
  8
1
  6
CONTINUOUS
 10
4870.2437473357759
 20
4011.142108
 30
0.0
 11
4870.2437473357759
 21
2921.142108
 31
0.0
  0
LINE
  5
7A87
  8
1
  6
CONTINUOUS
 10
4152.743747335775
 20
3921.142108
 30
0.0
 11
4152.743747335775
 21
2921.142108
 31
0.0
  0
LINE
  5
7A88
  8
1
  6
CONTINUOUS
 10
4870.2437473357759
 20
4011.142108
 30
0.0
 11
4395.2437473357759
 21
3361.142108
 31
0.0
  0
LINE
  5
7A89
  8
1
  6
CONTINUOUS
 10
4395.2437473357759
 20
4011.142108
 30
0.0
 11
4870.2437473357759
 21
3361.142108
 31
0.0
  0
LINE
  5
7A8A
  8
1
  6
CONTINUOUS
 10
4292.7437473357759
 20
3921.142108
 30
0.0
 11
4292.7437473357759
 21
2921.142108
 31
0.0
  0
LINE
  5
7A8B
  8
1
  6
CONTINUOUS
 10
4187.743747335775
 20
3541.142108
 30
0.0
 11
4187.743747335775
 21
3241.142108
 31
0.0
  0
LINE
  5
7A8C
  8
1
  6
CONTINUOUS
 10
4257.743747335775
 20
3541.142108
 30
0.0
 11
4257.743747335775
 21
3241.142108
 31
0.0
  0
LINE
  5
7A8D
  8
1
  6
CONTINUOUS
 10
4272.7437473357759
 20
2821.142108
 30
0.0
 11
4972.7437473357759
 21
2821.142108
 31
0.0
  0
LINE
  5
7A8E
  8
1
  6
CONTINUOUS
 10
4272.7437473357759
 20
2921.142108
 30
0.0
 11
4972.7437473357759
 21
2921.142108
 31
0.0
  0
LINE
  5
7A8F
  8
1
  6
CONTINUOUS
 10
4395.2437473357759
 20
3361.142108
 30
0.0
 11
4870.2437473357759
 21
3361.142108
 31
0.0
  0
LINE
  5
7A90
  8
1
  6
CONTINUOUS
 10
4152.743747335775
 20
2921.142108
 30
0.0
 11
4272.7437473357759
 21
2921.142108
 31
0.0
  0
LINE
  5
7A91
  8
1
  6
CONTINUOUS
 10
4187.743747335775
 20
3241.142108
 30
0.0
 11
4257.743747335775
 21
3241.142108
 31
0.0
  0
LINE
  5
7A92
  8
1
  6
CONTINUOUS
 10
4187.743747335775
 20
3041.142108
 30
0.0
 11
4257.743747335775
 21
3041.142108
 31
0.0
  0
LINE
  5
7A93
  8
1
  6
CONTINUOUS
 10
4187.743747335775
 20
3201.1421079999991
 30
0.0
 11
4257.743747335775
 21
3201.1421079999991
 31
0.0
  0
LINE
  5
7A94
  8
1
  6
CONTINUOUS
 10
4187.743747335775
 20
3201.1421079999991
 30
0.0
 11
4187.743747335775
 21
3041.142108
 31
0.0
  0
LINE
  5
7A95
  8
1
  6
CONTINUOUS
 10
4272.7437473357759
 20
2921.142108
 30
0.0
 11
4272.7437473357759
 21
2821.142108
 31
0.0
  0
LINE
  5
7A96
  8
1
  6
CONTINUOUS
 10
4257.743747335775
 20
3370.142108
 30
0.0
 11
4395.2437473357759
 21
3370.142108
 31
0.0
  0
LINE
  5
7A97
  8
1
  6
CONTINUOUS
 10
4257.743747335775
 20
3412.1421079999991
 30
0.0
 11
4395.2437473357759
 21
3412.1421079999991
 31
0.0
  0
LINE
  5
7A98
  8
1
  6
CONTINUOUS
 10
4257.743747335775
 20
3100.142108
 30
0.0
 11
4395.2437473357759
 21
3100.142108
 31
0.0
  0
LINE
  5
7A99
  8
1
  6
CONTINUOUS
 10
4257.743747335775
 20
3142.142108
 30
0.0
 11
4395.2437473357759
 21
3142.142108
 31
0.0
  0
LINE
  5
7A9A
  8
1
  6
CONTINUOUS
 10
4257.743747335775
 20
3201.1421079999991
 30
0.0
 11
4257.743747335775
 21
3041.142108
 31
0.0
  0
LINE
  5
7A9B
  8
1
  6
CONTINUOUS
 10
4972.7437473357759
 20
2921.142108
 30
0.0
 11
4972.7437473357759
 21
2821.142108
 31
0.0
  0
LINE
  5
7A9C
  8
1
  6
CONTINUOUS
 10
4395.2437473357759
 20
4011.142108
 30
0.0
 11
4870.2437473357759
 21
4011.142108
 31
0.0
  0
LINE
  5
7A9D
  8
1
  6
CONTINUOUS
 10
4292.7437473357759
 20
3921.142108
 30
0.0
 11
4152.743747335775
 21
3921.142108
 31
0.0
  0
LINE
  5
7A9E
  8
1
  6
CONTINUOUS
 10
4187.743747335775
 20
3541.142108
 30
0.0
 11
4257.743747335775
 21
3541.142108
 31
0.0
  0
LINE
  5
7A9F
  8
1
  6
CONTINUOUS
 10
1440.582712335776
 20
6198.6963009999999
 30
0.0
 11
1764.582712335776
 21
6198.6963009999999
 31
0.0
  0
LINE
  5
7AA0
  8
1
  6
CONTINUOUS
 10
1440.582712335776
 20
5713.6963009999999
 30
0.0
 11
1764.582712335776
 21
5713.6963009999999
 31
0.0
  0
LINE
  5
7AA1
  8
1
  6
CONTINUOUS
 10
2663.4316033357759
 20
5541.9643839999999
 30
0.0
 11
1393.4316033357759
 21
5541.9643839999999
 31
0.0
  0
LINE
  5
7AA2
  8
1
  6
CONTINUOUS
 10
2663.4316033357759
 20
5681.9643840000008
 30
0.0
 11
1393.4316033357759
 21
5681.9643840000008
 31
0.0
  0
LINE
  5
7AA3
  8
1
  6
CONTINUOUS
 10
2823.4316033357759
 20
6361.9643840000008
 30
0.0
 11
1223.4316033357759
 21
6361.9643840000008
 31
0.0
  0
LINE
  5
7AA4
  8
1
  6
CONTINUOUS
 10
1581.582712335776
 20
5661.9643839999999
 30
0.0
 11
1223.4316033357759
 21
5661.9643839999999
 31
0.0
  0
LINE
  5
7AA5
  8
1
  6
CONTINUOUS
 10
1440.582712335776
 20
5713.6963009999999
 30
0.0
 11
1440.582712335776
 21
6198.6963009999999
 31
0.0
  0
LINE
  5
7AA6
  8
1
  6
CONTINUOUS
 10
1223.4316033357759
 20
6361.9643840000008
 30
0.0
 11
1223.4316033357759
 21
5661.9643839999999
 31
0.0
  0
LINE
  5
7AA7
  8
1
  6
CONTINUOUS
 10
1393.4316033357759
 20
5541.9643839999999
 30
0.0
 11
1393.4316033357759
 21
5681.9643840000008
 31
0.0
  0
LINE
  5
7AA8
  8
1
  6
CONTINUOUS
 10
2173.4316033357759
 20
5646.9643840000008
 30
0.0
 11
2473.4316033357759
 21
5646.9643840000008
 31
0.0
  0
LINE
  5
7AA9
  8
1
  6
CONTINUOUS
 10
2173.4316033357759
 20
5576.9643839999999
 30
0.0
 11
2473.4316033357759
 21
5576.9643839999999
 31
0.0
  0
LINE
  5
7AAA
  8
1
  6
CONTINUOUS
 10
2808.4316033357759
 20
6259.4643840000008
 30
0.0
 11
1799.9406823357749
 21
6259.4643840000008
 31
0.0
  0
LINE
  5
7AAB
  8
1
  6
CONTINUOUS
 10
2808.4316033357759
 20
5784.4643840000008
 30
0.0
 11
1799.9406823357749
 21
5784.4643840000008
 31
0.0
  0
LINE
  5
7AAC
  8
1
  6
CONTINUOUS
 10
2823.4316033357759
 20
5661.9643839999999
 30
0.0
 11
2344.4316033357759
 21
5661.9643839999999
 31
0.0
  0
LINE
  5
7AAD
  8
1
  6
CONTINUOUS
 10
1764.582712335776
 20
5713.6963009999999
 30
0.0
 11
1764.582712335776
 21
6198.6963009999999
 31
0.0
  0
LINE
  5
7AAE
  8
1
  6
CONTINUOUS
 10
1799.9406823357749
 20
5784.4643840000008
 30
0.0
 11
1799.9406823357749
 21
6259.4643840000008
 31
0.0
  0
LINE
  5
7AAF
  8
1
  6
CONTINUOUS
 10
2302.4316033357759
 20
5661.9643839999999
 30
0.0
 11
1623.582712335776
 21
5661.9643839999999
 31
0.0
  0
LINE
  5
7AB0
  8
1
  6
CONTINUOUS
 10
1764.582712335776
 20
6035.4127490000001
 30
0.0
 11
1764.582712335776
 21
5793.1657090000008
 31
0.0
  0
LINE
  5
7AB1
  8
1
  6
CONTINUOUS
 10
1623.582712335776
 20
5646.9643840000008
 30
0.0
 11
1623.582712335776
 21
5713.6963009999999
 31
0.0
  0
LINE
  5
7AB2
  8
1
  6
CONTINUOUS
 10
1581.582712335776
 20
5646.9643840000008
 30
0.0
 11
1581.582712335776
 21
5713.6963009999999
 31
0.0
  0
LINE
  5
7AB3
  8
1
  6
CONTINUOUS
 10
1522.582712335776
 20
5576.9643839999999
 30
0.0
 11
1522.582712335776
 21
5646.9643840000008
 31
0.0
  0
LINE
  5
7AB4
  8
1
  6
CONTINUOUS
 10
1682.582712335776
 20
5576.9643839999999
 30
0.0
 11
1682.582712335776
 21
5646.9643840000008
 31
0.0
  0
LINE
  5
7AB5
  8
1
  6
CONTINUOUS
 10
1522.582712335776
 20
5576.9643839999999
 30
0.0
 11
1682.582712335776
 21
5576.9643839999999
 31
0.0
  0
LINE
  5
7AB6
  8
1
  6
CONTINUOUS
 10
1522.582712335776
 20
5646.9643840000008
 30
0.0
 11
1682.582712335776
 21
5646.9643840000008
 31
0.0
  0
LINE
  5
7AB7
  8
1
  6
CONTINUOUS
 10
2173.4316033357759
 20
5576.9643839999999
 30
0.0
 11
2173.4316033357759
 21
5646.9643840000008
 31
0.0
  0
LINE
  5
7AB8
  8
1
  6
CONTINUOUS
 10
2302.4316033357759
 20
5646.9643840000008
 30
0.0
 11
2302.4316033357759
 21
5784.4643840000008
 31
0.0
  0
LINE
  5
7AB9
  8
1
  6
CONTINUOUS
 10
2344.4316033357759
 20
5646.9643840000008
 30
0.0
 11
2344.4316033357759
 21
5784.4643840000008
 31
0.0
  0
LINE
  5
7ABA
  8
1
  6
CONTINUOUS
 10
2808.4316033357759
 20
5741.9643839999999
 30
0.0
 11
2808.4316033357759
 21
6301.9643840000008
 31
0.0
  0
LINE
  5
7ABB
  8
1
  6
CONTINUOUS
 10
2768.4316033357759
 20
5784.4643840000008
 30
0.0
 11
2768.4316033357759
 21
6259.4643840000008
 31
0.0
  0
LINE
  5
7ABC
  8
1
  6
CONTINUOUS
 10
2823.4316033357759
 20
6361.9643840000008
 30
0.0
 11
2823.4316033357759
 21
5661.9643839999999
 31
0.0
  0
LINE
  5
7ABD
  8
1
  6
CONTINUOUS
 10
2473.4316033357759
 20
5576.9643839999999
 30
0.0
 11
2473.4316033357759
 21
5646.9643840000008
 31
0.0
  0
LINE
  5
7ABE
  8
1
  6
CONTINUOUS
 10
2663.4316033357759
 20
5541.9643839999999
 30
0.0
 11
2663.4316033357759
 21
5681.9643840000008
 31
0.0
  0
DIMENSION
  5
7AD2
  8
3
  6
CONTINUOUS
  2
*D1
 10
2323.4316033357759
 20
2502.755955315411
 30
0.0
 11
1802.9777583357759
 21
2502.755955315411
 31
0.0
 70
   128
 13
1223.4316033357759
 23
2821.142108
 33
0.0
 14
2323.4316033357759
 24
2653.147751
 34
0.0
1001
ACAD
1000
DSTYLE
1002
{
1070
   287
1070
     3
1070
   287
1070
     3
1070
    40
1040
30.0
1070
   143
1040
0.039
1070
   172
1070
     1
1070
   271
1070
     0
1070
   279
1070
     0
1070
   288
1070
     1
1002
}
  0
DIMENSION
  5
7ADE
  8
3
  6
CONTINUOUS
  2
*D2
 10
2823.4316033357759
 20
2502.755955315411
 30
0.0
 11
2573.4316033357759
 21
2577.755955315411
 31
0.0
 70
     0
 13
2323.4316033357759
 23
2653.147751
 33
0.0
 14
2823.4316033357759
 24
2821.142108
 34
0.0
1001
ACAD
1000
DSTYLE
1002
{
1070
   287
1070
     4
1070
   287
1070
     4
1070
    40
1040
30.0
1070
    75
1070
     1
1070
   143
1040
0.039
1070
   172
1070
     1
1070
   271
1070
     0
1070
   279
1070
     1
1070
   288
1070
     1
1002
}
  0
DIMENSION
  5
7AEB
  8
3
  6
CONTINUOUS
  2
*D3
 10
3097.653815335776
 20
3361.142108
 30
0.0
 11
3097.653815335776
 21
3686.2343599999999
 31
0.0
 70
   128
 13
2808.4316033357759
 23
4011.142108
 33
0.0
 14
2808.4316033357759
 24
3361.142108
 34
0.0
 50
90.0
1001
ACAD
1000
DSTYLE
1002
{
1070
   287
1070
     3
1070
   287
1070
     3
1070
    40
1040
30.0
1070
   143
1040
0.039
1070
   172
1070
     1
1070
   271
1070
     0
1070
   279
1070
     0
1070
   288
1070
     1
1002
}
  0
DIMENSION
  5
7AF8
  8
3
  6
CONTINUOUS
  2
*D4
 10
3337.628094335777
 20
3391.1421079999991
 30
0.0
 11
3337.628094335776
 21
3689.1949809999992
 31
0.0
 70
   128
 13
2808.4316033357759
 23
4011.142108
 33
0.0
 14
2808.4316033357759
 24
3391.142108
 34
0.0
 50
90.0
1001
ACAD
1000
DSTYLE
1002
{
1070
   287
1070
     3
1070
   287
1070
     3
1070
    40
1040
30.0
1070
   143
1040
0.039
1070
   172
1070
     1
1070
   271
1070
     0
1070
   279
1070
     0
1070
   288
1070
     1
1002
}
  0
DIMENSION
  5
7B04
  8
3
  6
CONTINUOUS
  2
*D5
 10
3337.628094335776
 20
2821.142108
 30
0.0
 11
3262.6280943357751
 21
3106.142108
 31
0.0
 70
     0
 13
2808.4316033357759
 23
3391.142108
 33
0.0
 14
2823.4316033357759
 24
2821.142108
 34
0.0
 50
90.0
1001
ACAD
1000
DSTYLE
1002
{
1070
   287
1070
     4
1070
   287
1070
     4
1070
    40
1040
30.0
1070
    75
1070
     1
1070
   143
1040
0.039
1070
   172
1070
     1
1070
   271
1070
     0
1070
   279
1070
     1
1070
   288
1070
     1
1002
}
  0
DIMENSION
  5
7B11
  8
3
  6
CONTINUOUS
  2
*D6
 10
3592.7091373357762
 20
2821.142108
 30
0.0
 11
3592.7091373357762
 21
3404.9767660000002
 31
0.0
 70
   128
 13
2808.4316033357759
 23
4051.1421079999991
 33
0.0
 14
2823.4316033357759
 24
2821.142108
 34
0.0
 50
90.0
1001
ACAD
1000
DSTYLE
1002
{
1070
   287
1070
     3
1070
   287
1070
     3
1070
    40
1040
30.0
1070
   143
1040
0.039
1070
   172
1070
     1
1070
   271
1070
     0
1070
   279
1070
     0
1070
   288
1070
     1
1002
}
  0
DIMENSION
  5
7B1E
  8
3
  6
CONTINUOUS
  2
*D7
 10
2323.4316033357759
 20
4204.6348980000002
 30
0.0
 11
2052.1335013357761
 21
4204.6348980000002
 31
0.0
 70
   128
 13
1801.4316033357759
 23
3391.142108
 33
0.0
 14
2323.4316033357759
 24
3995.142108
 34
0.0
1001
ACAD
1000
DSTYLE
1002
{
1070
   287
1070
     3
1070
   287
1070
     3
1070
    40
1040
30.0
1070
   143
1040
0.039
1070
   172
1070
     1
1070
   271
1070
     0
1070
   279
1070
     0
1070
   288
1070
     1
1002
}
  0
DIMENSION
  5
7B2A
  8
3
  6
CONTINUOUS
  2
*D8
 10
2808.4316033357759
 20
4204.6348980000002
 30
0.0
 11
2565.9316033357759
 21
4279.6348980000002
 31
0.0
 70
     0
 13
2323.4316033357759
 23
3995.142108
 33
0.0
 14
2808.4316033357759
 24
4051.1421079999991
 34
0.0
1001
ACAD
1000
DSTYLE
1002
{
1070
   287
1070
     4
1070
   287
1070
     4
1070
    40
1040
30.0
1070
    75
1070
     1
1070
   143
1040
0.039
1070
   172
1070
     1
1070
   271
1070
     0
1070
   279
1070
     1
1070
   288
1070
     1
1002
}
  0
DIMENSION
  5
7B37
  8
3
  6
CONTINUOUS
  2
*D9
 10
2823.4316033357759
 20
5270.7421020000002
 30
0.0
 11
1981.0300353357759
 21
5270.7421020000002
 31
0.0
 70
   129
 13
1223.4316033357759
 23
5661.9643839999999
 33
0.0
 14
2823.4316033357759
 24
5661.9643839999999
 34
0.0
1001
ACAD
1000
DSTYLE
1002
{
1070
   287
1070
     3
1070
   287
1070
     3
1070
    40
1040
30.0
1070
   143
1040
0.039
1070
   172
1070
     1
1070
   271
1070
     0
1070
   279
1070
     0
1070
   288
1070
     1
1002
}
  0
DIMENSION
  5
7B44
  8
3
  6
CONTINUOUS
  2
*D10
 10
3121.6485623357771
 20
5661.9643839999999
 30
0.0
 11
3121.6485623357762
 21
6017.6982170000001
 31
0.0
 70
   128
 13
2823.4316033357759
 23
6361.9643840000008
 33
0.0
 14
2823.4316033357759
 24
5661.9643839999999
 34
0.0
 50
90.0
1001
ACAD
1000
DSTYLE
1002
{
1070
   287
1070
     3
1070
   287
1070
     3
1070
    40
1040
30.0
1070
   143
1040
0.039
1070
   172
1070
     1
1070
   271
1070
     0
1070
   279
1070
     0
1070
   288
1070
     1
1002
}
  0
LINE
  5
7B45
  8
2
  6
CENTER
 10
1065.204564335776
 20
6021.9643840000008
 30
0.0
 11
2938.258080335776
 21
6021.9643840000008
 31
0.0
  0
LINE
  5
7B47
  8
2
  6
CENTER
 10
4632.743747335775
 20
4102.691538
 30
0.0
 11
4632.743747335775
 21
2674.6809910000002
 31
0.0
  0
DIMENSION
  5
7B54
  8
3
  6
CONTINUOUS
  2
*D11
 10
4870.2437473357759
 20
4176.412002
 30
0.0
 11
4632.2742433357762
 21
4176.412002
 31
0.0
 70
   128
 13
4395.2437473357759
 23
4011.142108
 33
0.0
 14
4870.2437473357759
 24
4011.142108
 34
0.0
1001
ACAD
1000
DSTYLE
1002
{
1070
   287
1070
     3
1070
   287
1070
     3
1070
    40
1040
30.0
1070
   143
1040
0.039
1070
   172
1070
     1
1070
   271
1070
     0
1070
   279
1070
     0
1070
   288
1070
     1
1002
}
  0
DIMENSION
  5
7B62
  8
3
  6
CONTINUOUS
  2
*D12
 10
4632.743747335775
 20
4382.368524999999
 30
0.0
 11
4371.3151759072043
 21
4382.368524999999
 31
0.0
 70
   128
  1
MAX\P530
 13
4152.743747335775
 23
3921.142108
 33
0.0
 14
4632.743747335775
 24
4327.2533960000001
 34
0.0
1001
ACAD
1000
DSTYLE
1002
{
1070
   287
1070
     3
1070
   287
1070
     3
1070
    40
1040
30.0
1070
   143
1040
0.039
1070
   172
1070
     1
1070
   271
1070
     0
1070
   279
1070
     0
1070
   288
1070
     1
1002
}
  0
LINE
  5
7B65
  8
1
  6
CONTINUOUS
 10
4870.2437473357759
 20
3726.1421079999991
 30
0.0
 11
4873.2437473357759
 21
3726.1421079999991
 31
0.0
  0
LINE
  5
7B66
  8
1
  6
CONTINUOUS
 10
4873.2437473357759
 20
3391.142108
 30
0.0
 11
4873.2437473357759
 21
3056.142108
 31
0.0
  0
LINE
  5
7B67
  8
1
  6
CONTINUOUS
 10
4873.2437473357759
 20
3056.142108
 30
0.0
 11
4870.2437473357759
 21
3056.142108
 31
0.0
  0
LINE
  5
7B68
  8
1
  6
CONTINUOUS
 10
4873.2437473357759
 20
3391.142108
 30
0.0
 11
4873.2437473357759
 21
3726.1421079999991
 31
0.0
  0
DIMENSION
  5
7B76
  8
3
  6
CONTINUOUS
  2
*D13
 10
4873.2437473357759
 20
4382.368524999999
 30
0.0
 11
4745.991942335776
 21
4382.9384529999998
 31
0.0
 70
   128
 13
4632.743747335775
 23
4327.2533960000001
 33
0.0
 14
4873.2437473357759
 24
3726.1421079999991
 34
0.0
1001
ACAD
1000
DSTYLE
1002
{
1070
   287
1070
     4
1070
   287
1070
     4
1070
    40
1040
30.0
1070
    75
1070
     1
1070
   143
1040
0.039
1070
   172
1070
     1
1070
   271
1070
     0
1070
   279
1070
     1
1070
   288
1070
     1
1002
}
  0
DIMENSION
  5
7B9B
  8
3
  6
CONTINUOUS
  2
*D14
 10
4632.743747335775
 20
2491.8584587655819
 30
0.0
 11
4431.0565239479783
 21
2574.3670464565798
 31
0.0
 70
   128
 13
4272.7437473357759
 23
2821.142108
 33
0.0
 14
4632.743747335775
 24
2674.6809910000002
 34
0.0
1001
ACAD
1000
DSTYLE
1002
{
1070
   288
1070
     1
1070
   172
1070
     1
1070
    40
1040
30.0
1070
   271
1070
     0
1070
   143
1040
0.039
1002
}
  0
DIMENSION
  5
7BA9
  8
3
  6
CONTINUOUS
  2
*D15
 10
4972.7437473357759
 20
2491.8584587655819
 30
0.0
 11
4786.4816309479766
 21
2491.4123497655819
 31
0.0
 70
   128
 13
4632.743747335775
 23
2674.6809910000002
 33
0.0
 14
4972.7437473357759
 24
2821.142108
 34
0.0
1001
ACAD
1000
DSTYLE
1002
{
1070
   287
1070
     4
1070
   287
1070
     4
1070
    40
1040
30.0
1070
    75
1070
     1
1070
   143
1040
0.039
1070
   172
1070
     1
1070
   271
1070
     0
1070
   279
1070
     1
1070
   288
1070
     1
1002
}
  0
DIMENSION
  5
7BCC
  8
3
  6
CONTINUOUS
  2
*D16
 10
5146.1019843357781
 20
3056.1421079999991
 30
0.0
 11
5146.1019843357763
 21
3375.5996319999999
 31
0.0
 70
   128
 13
4870.2437473357759
 23
3726.1421079999991
 33
0.0
 14
4873.2437473357759
 24
3056.142108
 34
0.0
 50
90.0
1001
ACAD
1000
DSTYLE
1002
{
1070
   287
1070
     3
1070
   287
1070
     3
1070
     3
1000
φ<>
1070
    40
1040
30.0
1070
   143
1040
0.039
1070
   172
1070
     1
1070
   271
1070
     0
1070
   279
1070
     0
1070
   288
1070
     1
1002
}
  0
LINE
  5
7BCE
  8
2
  6
CENTER
 10
2921.0472403357749
 20
3391.142108
 30
0.0
 11
1399.9117973357761
 21
3391.142108
 31
0.0
  0
LINE
  5
7BCF
  8
2
  6
CENTER
 10
2323.4316033357759
 20
4107.766552
 30
0.0
 11
2323.4316033357759
 21
2653.147751
 31
0.0
  0
LINE
  5
7BD0
  8
4
  6
CONTINUOUS
 10
5550.0
 20
1500.0
 30
0.0
 11
5550.0
 21
900.0
 31
0.0
  0
LINE
  5
7BD1
  8
4
  6
CONTINUOUS
 10
3450.0
 20
1500.0
 30
0.0
 11
3450.0
 21
900.0
 31
0.0
  0
LINE
  5
7BD2
  8
4
  6
CONTINUOUS
 10
1950.0
 20
1500.0
 30
0.0
 11
1950.0
 21
900.0
 31
0.0
  0
LINE
  5
7BD5
  8
4
  6
CONTINUOUS
 10
1950.0
 20
900.0
 30
0.0
 11
5550.0
 21
900.0
 31
0.0
  0
LINE
  5
7BD6
  8
4
  6
CONTINUOUS
 10
1950.0
 20
1200.0
 30
0.0
 11
5550.0
 21
1200.0
 31
0.0
  0
TEXT
  5
7BD7
  8
4
  6
CONTINUOUS
 10
2065.5062429999989
 20
1294.6290779999999
 30
0.0
 40
150.0
  1
機器名称
  0
TEXT
  5
7BD8
  8
4
  6
CONTINUOUS
 10
2058.7743179999989
 20
964.9354699999999
 30
0.0
 40
150.0
  1
機器型番
  0
TEXT
  5
7BD9
  8
4
  6
CONTINUOUS
 10
3533.0362359999999
 20
1267.7153069999999
 30
0.0
 40
150.0
  1
ミツヤ多翼送風機
  0
TEXT
  5
7BDA
  8
4
  6
CONTINUOUS
 10
3559.9634869999991
 20
951.47875299999987
 30
0.0
 40
150.0
  1
MF#4-4
  0
TEXT
  5
7BDC
  8
4
  6
CONTINUOUS
 10
2470.1635019999999
 20
7150.2865239999992
 30
0.0
 40
162.0
  1
天井吊ベット
  0
TEXT
  5
7BDD
  8
4
  6
CONTINUOUS
 10
948.50278000000014
 20
7601.6429289999996
 30
0.0
 40
216.0
  1
ベルト駆動式片吸込両持多翼ファン
  0
LINE
  5
7BDE
  8
4
  6
CONTINUOUS
 10
750.0
 20
7408.2262629999996
 30
0.0
 11
5550.0
 21
7408.2262629999996
 31
0.0
  0
LINE
  5
7BDF
  8
4
  6
CONTINUOUS
 10
750.0
 20
8008.2262629999996
 30
0.0
 11
5550.0
 21
8008.2262629999996
 31
0.0
  0
LINE
  5
7BE0
  8
4
  6
CONTINUOUS
 10
1950.0
 20
1500.0
 30
0.0
 11
5550.0
 21
1500.0
 31
0.0
  0
LINE
  5
7BE1
  8
4
  6
CONTINUOUS
 10
750.0
 20
8008.2262629999996
 30
0.0
 11
750.0
 21
7408.2262629999996
 31
0.0
  0
TEXT
  5
7BE2
  8
4
  6
CONTINUOUS
 10
1162.5870050000001
 20
7146.9584329999998
 30
0.0
 40
162.0
  1
右回転右横向
  0
TEXT
  5
7BE3
  8
4
  6
CONTINUOUS
 10
4406.9086779999989
 20
8118.1832439999989
 30
0.0
 40
168.0
  1
No.
  0
TEXT
  5
7BE4
  8
4
  6
CONTINUOUS
 10
3933.8881879999999
 20
7150.2865239999992
 30
0.0
 40
162.0
  1
縮尺：1/30
  0
LINE
  5
7BE5
  8
4
  6
CONTINUOUS
 10
5550.0
 20
8008.2262629999996
 30
0.0
 11
5550.0
 21
7408.2262629999996
 31
0.0
  0
LINE
  5
7BE7
  8
4
  6
CONTINUOUS
 10
4321.8522670000002
 20
8043.7907490000007
 30
0.0
 11
4321.8522670000002
 21
8359.9567849999985
 31
0.0
  0
LINE
  5
7BE8
  8
4
  6
CONTINUOUS
 10
4321.8522670000002
 20
8359.9567849999985
 30
0.0
 11
5550.0
 21
8359.9567849999985
 31
0.0
  0
LINE
  5
7BE9
  8
4
  6
CONTINUOUS
 10
5550.0
 20
8359.9567849999985
 30
0.0
 11
5550.0
 21
8043.7907490000007
 31
0.0
  0
LINE
  5
7BEA
  8
4
  6
CONTINUOUS
 10
5550.0
 20
8043.7907490000007
 30
0.0
 11
4321.8522670000002
 21
8043.7907490000007
 31
0.0
  0
DIMENSION
  5
7C54
  8
3
  2
*D17
 10
1223.4316033357759
 20
4384.5370357419451
 30
0.0
 11
2063.6252278201609
 21
4384.5370357419451
 31
0.0
 70
   128
 13
2808.4316033357759
 23
4051.1421079999991
 33
0.0
 14
1223.4316033357759
 24
2921.142108
 34
0.0
1001
ACAD
1000
DSTYLE
1002
{
1070
   287
1070
     3
1070
   287
1070
     3
1070
    40
1040
30.0
1070
   143
1040
0.039
1070
   172
1070
     1
1070
   271
1070
     0
1070
   279
1070
     0
1070
   288
1070
     1
1002
}
  0
ENDSEC
  0
EOF
