  0
SECTION
  2
HEADER
  9
$ACADVER
  1
AC1009
  9
$INSBASE
 10
0.0
 20
0.0
 30
0.0
  9
$EXTMIN
 10
750.0
 20
900.0
 30
0.0
  9
$EXTMAX
 10
5550.0
 20
8359.9567849999985
 30
0.0
  9
$LIMMIN
 10
0.0
 20
0.0
  9
$LIMMAX
 10
297.0
 20
210.0
  9
$ORTHOMODE
 70
     0
  9
$REGENMODE
 70
     1
  9
$FILLMODE
 70
     0
  9
$QTEXTMODE
 70
     0
  9
$MIRRTEXT
 70
     1
  9
$DRAGMODE
 70
     2
  9
$LTSCALE
 40
100.0
  9
$OSMODE
 70
    37
  9
$ATTMODE
 70
     1
  9
$TEXTSIZE
 40
180.0
  9
$TRACEWID
 40
0.05
  9
$TEXTSTYLE
  7
STANDARD
  9
$CLAYER
  8
3
  9
$CELTYPE
  6
BYLAYER
  9
$CECOLOR
 62
   256
  9
$DIMSCALE
 40
30.0
  9
$DIMASZ
 40
2.0
  9
$DIMEXO
 40
0.5
  9
$DIMDLI
 40
10.0
  9
$DIMRND
 40
0.0
  9
$DIMDLE
 40
0.0
  9
$DIMEXE
 40
1.0
  9
$DIMTP
 40
1.0
  9
$DIMTM
 40
1.0
  9
$DIMTXT
 40
3.0
  9
$DIMCEN
 40
0.0
  9
$DIMTSZ
 40
0.0
  9
$DIMTOL
 70
     0
  9
$DIMLIM
 70
     0
  9
$DIMTIH
 70
     0
  9
$DIMTOH
 70
     0
  9
$DIMSE1
 70
     0
  9
$DIMSE2
 70
     0
  9
$DIMTAD
 70
     1
  9
$DIMZIN
 70
     8
  9
$DIMBLK
  1

  9
$DIMASO
 70
     1
  9
$DIMSHO
 70
     1
  9
$DIMPOST
  1

  9
$DIMAPOST
  1

  9
$DIMALT
 70
     0
  9
$DIMALTD
 70
     2
  9
$DIMALTF
 40
0.039
  9
$DIMLFAC
 40
1.0
  9
$DIMTOFL
 70
     1
  9
$DIMTVP
 40
0.0
  9
$DIMTIX
 70
     0
  9
$DIMSOXD
 70
     0
  9
$DIMSAH
 70
     1
  9
$DIMBLK1
  1
OPEN
  9
$DIMBLK2
  1
OPEN
  9
$DIMSTYLE
  2
IGA
  9
$DIMCLRD
 70
     0
  9
$DIMCLRE
 70
     0
  9
$DIMCLRT
 70
     0
  9
$DIMTFAC
 40
10.0
  9
$DIMGAP
 40
1.0
  9
$LUNITS
 70
     2
  9
$LUPREC
 70
     3
  9
$SKETCHINC
 40
0.1
  9
$FILLETRAD
 40
50.0
  9
$AUNITS
 70
     0
  9
$AUPREC
 70
     0
  9
$MENU
  1
acad
  9
$ELEVATION
 40
0.0
  9
$PELEVATION
 40
0.0
  9
$THICKNESS
 40
0.0
  9
$LIMCHECK
 70
     0
  9
$BLIPMODE
 70
     0
  9
$CHAMFERA
 40
0.5
  9
$CHAMFERB
 40
0.5
  9
$SKPOLY
 70
     0
  9
$TDCREATE
 40
2450742.4044130789
  9
$TDUPDATE
 40
2454953.7704720022
  9
$TDINDWG
 40
0.008103669
  9
$TDUSRTIMER
 40
0.008103669
  9
$USRTIMER
 70
     1
  9
$ANGBASE
 50
0.0
  9
$ANGDIR
 70
     0
  9
$PDMODE
 70
     0
  9
$PDSIZE
 40
0.0
  9
$PLINEWID
 40
0.0
  9
$COORDS
 70
     1
  9
$SPLFRAME
 70
     0
  9
$SPLINETYPE
 70
     6
  9
$SPLINESEGS
 70
     8
  9
$ATTDIA
 70
     0
  9
$ATTREQ
 70
     1
  9
$HANDLING
 70
 10241
  9
$HANDSEED
  5
7F64
  9
$SURFTAB1
 70
     6
  9
$SURFTAB2
 70
     6
  9
$SURFTYPE
 70
     6
  9
$SURFU
 70
     6
  9
$SURFV
 70
     6
  9
$UCSNAME
  2

  9
$UCSORG
 10
0.0
 20
0.0
 30
0.0
  9
$UCSXDIR
 10
1.0
 20
0.0
 30
0.0
  9
$UCSYDIR
 10
0.0
 20
1.0
 30
0.0
  9
$PUCSNAME
  2

  9
$PUCSORG
 10
0.0
 20
0.0
 30
0.0
  9
$PUCSXDIR
 10
1.0
 20
0.0
 30
0.0
  9
$PUCSYDIR
 10
0.0
 20
1.0
 30
0.0
  9
$USERI1
 70
     0
  9
$USERI2
 70
     0
  9
$USERI3
 70
     0
  9
$USERI4
 70
     0
  9
$USERI5
 70
     0
  9
$USERR1
 40
0.0
  9
$USERR2
 40
0.0
  9
$USERR3
 40
0.0
  9
$USERR4
 40
0.0
  9
$USERR5
 40
0.0
  9
$WORLDVIEW
 70
     1
  9
$SHADEDGE
 70
     3
  9
$SHADEDIF
 70
    70
  9
$TILEMODE
 70
     1
  9
$MAXACTVP
 70
    16
  9
$PLIMCHECK
 70
     0
  9
$PEXTMIN
 10
1.0000000000000000E+020
 20
1.0000000000000000E+020
 30
1.0000000000000000E+020
  9
$PEXTMAX
 10
-1.0000000000000000E+020
 20
-1.0000000000000000E+020
 30
-1.0000000000000000E+020
  9
$PLIMMIN
 10
0.0
 20
0.0
  9
$PLIMMAX
 10
12.0
 20
9.0
  9
$UNITMODE
 70
     0
  9
$VISRETAIN
 70
     0
  9
$PLINEGEN
 70
     0
  9
$PSLTSCALE
 70
     1
  0
ENDSEC
  0
SECTION
  2
TABLES
  0
TABLE
  2
VPORT
 70
     2
  0
VPORT
  2
*ACTIVE
 70
     0
 10
0.0
 20
0.0
 11
1.0
 21
1.0
 12
9438.4567678319436
 22
4630.0975558305709
 13
0.0
 23
0.0
 14
10.0
 24
10.0
 15
10.0
 25
10.0
 16
0.0
 26
0.0
 36
1.0
 17
0.0
 27
0.0
 37
0.0
 40
7517.4747125171307
 41
3.1666666666666661
 42
50.0
 43
0.0
 44
0.0
 50
0.0
 51
0.0
 71
     0
 72
   100
 73
     1
 74
     0
 75
     0
 76
     0
 77
     0
 78
     0
  0
ENDTAB
  0
TABLE
  2
LTYPE
 70
     2
  0
LTYPE
  2
CONTINUOUS
 70
     0
  3
Solid line
 72
    65
 73
     0
 40
0.0
  0
LTYPE
  2
CENTER
 70
     0
  3
____ _ ____ _ ____ _ ____ _ ____ _ ____ _ ____ 
 72
    65
 73
     4
 40
2.0
 49
1.25
 49
-0.25
 49
0.25
 49
-0.25
  0
ENDTAB
  0
TABLE
  2
LAYER
 70
     6
  0
LAYER
  2
0
 70
     0
 62
     7
  6
CONTINUOUS
  0
LAYER
  2
3
 70
     0
 62
     2
  6
CONTINUOUS
  0
LAYER
  2
2
 70
     0
 62
     3
  6
CENTER
  0
LAYER
  2
1
 70
     0
 62
     4
  6
CONTINUOUS
  0
LAYER
  2
4
 70
     0
 62
     7
  6
CONTINUOUS
  0
LAYER
  2
DEFPOINTS
 70
     0
 62
     7
  6
CONTINUOUS
  0
ENDTAB
  0
TABLE
  2
STYLE
 70
     1
  0
STYLE
  2
STANDARD
 70
     0
 40
0.0
 41
1.0
 50
0.0
 71
     0
 42
180.0
  3
simplex.shx
  4
extfont.shx
  0
ENDTAB
  0
TABLE
  2
VIEW
 70
     0
  0
ENDTAB
  0
TABLE
  2
UCS
 70
     0
  0
ENDTAB
  0
TABLE
  2
APPID
 70
     1
  0
APPID
  2
ACAD
 70
     0
  0
ENDTAB
  0
TABLE
  2
DIMSTYLE
 70
     1
  0
DIMSTYLE
  2
IGA
 70
     0
  3

  4

  5

  6
OPEN
  7
OPEN
 40
2.0
 41
2.0
 42
0.5
 43
10.0
 44
1.0
 45
0.0
 46
0.0
 47
1.0
 48
1.0
140
3.0
141
0.0
142
0.0
143
0.03937
144
1.0
145
0.0
146
10.0
147
1.0
 71
     0
 72
     0
 73
     0
 74
     0
 75
     0
 76
     0
 77
     1
 78
     8
170
     0
171
     2
172
     0
173
     1
174
     0
175
     0
176
     0
177
     0
178
     0
  0
ENDTAB
  0
ENDSEC
  0
SECTION
  2
BLOCKS
  0
BLOCK
  8
0
  2
$MODEL_SPACE
 70
     0
 10
0.0
 20
0.0
 30
0.0
  3
$MODEL_SPACE
  1

  0
ENDBLK
  5
1B
  8
0
  0
BLOCK
 67
     1
  8
0
  2
$PAPER_SPACE
 70
     0
 10
0.0
 20
0.0
 30
0.0
  3
$PAPER_SPACE
  1

  0
ENDBLK
  5
18
 67
     1
  8
0
  0
BLOCK
  8
0
  2
_OPEN
 70
     0
 10
0.0
 20
0.0
 30
0.0
  3
_OPEN
  1

  0
LINE
  5
7AE8
  8
0
  6
BYBLOCK
 62
     0
 10
-1.0
 20
0.166667
 30
0.0
 11
0.0
 21
0.0
 31
0.0
  0
LINE
  5
7AE9
  8
0
  6
BYBLOCK
 62
     0
 10
0.0
 20
0.0
 30
0.0
 11
-1.0
 21
-0.166667
 31
0.0
  0
LINE
  5
7AEA
  8
0
  6
BYBLOCK
 62
     0
 10
0.0
 20
0.0
 30
0.0
 11
-1.0
 21
0.0
 31
0.0
  0
ENDBLK
  5
7AEB
  8
0
  0
BLOCK
  8
0
  2
*D1
 70
     1
 10
0.0
 20
0.0
 30
0.0
  3
*D1
  1

  0
LINE
  5
7EC8
  8
3
  6
CONTINUOUS
 62
     0
 10
2886.54917285593
 20
3578.54157067591
 30
0.0
 11
3104.4242678559308
 21
3578.54157067591
 31
0.0
  0
LINE
  5
7EC9
  8
3
  6
CONTINUOUS
 62
     0
 10
2886.54917285593
 20
2928.54157067591
 30
0.0
 11
3104.4242678559299
 21
2928.54157067591
 31
0.0
  0
LINE
  5
7ECA
  8
3
  6
CONTINUOUS
 62
     0
 10
3074.4242678559308
 20
3518.54157067591
 30
0.0
 11
3074.4242678559299
 21
2988.54157067591
 31
0.0
  0
INSERT
  5
7ECB
  8
3
  6
CONTINUOUS
 62
     0
  2
_OPEN
 10
3074.4242678559308
 20
3578.54157067591
 30
0.0
 41
60.0
 42
60.0
 43
60.0
 50
90.0
  0
INSERT
  5
7ECC
  8
3
  6
CONTINUOUS
 62
     0
  2
_OPEN
 10
3074.4242678559299
 20
2928.54157067591
 30
0.0
 41
60.0
 42
60.0
 43
60.0
 50
270.0
  0
TEXT
  8
3
  40
90
  5
7F53
  62
0
  72
0
  71
0
 10
2819.42
 20
3112.48
 30
0.000000
  1
650
  0
POINT
  5
7ECE
  8
DEFPOINTS
  6
CONTINUOUS
 62
     0
 10
2871.54917285593
 20
3578.54157067591
 30
0.0
  0
POINT
  5
7ECF
  8
DEFPOINTS
  6
CONTINUOUS
 62
     0
 10
2871.54917285593
 20
2928.54157067591
 30
0.0
  0
POINT
  5
7ED0
  8
DEFPOINTS
  6
CONTINUOUS
 62
     0
 10
3074.4242678559299
 20
2928.54157067591
 30
0.0
  0
ENDBLK
  5
7AF8
  8
0
  0
BLOCK
  8
0
  2
*D2
 70
     1
 10
0.0
 20
0.0
 30
0.0
  3
*D2
  1

  0
LINE
  5
7ED1
  8
3
  6
CONTINUOUS
 62
     0
 10
2886.54917285593
 20
2928.54157067591
 30
0.0
 11
3299.1374068559312
 21
2928.54157067591
 31
0.0
  0
LINE
  5
7ED2
  8
3
  6
CONTINUOUS
 62
     0
 10
2990.4458408559299
 20
3548.54157067591
 30
0.0
 11
3299.1374068559312
 21
3548.54157067591
 31
0.0
  0
LINE
  5
7ED3
  8
3
  6
CONTINUOUS
 62
     0
 10
3269.1374068559298
 20
2988.54157067591
 30
0.0
 11
3269.1374068559312
 21
3488.541570675909
 31
0.0
  0
INSERT
  5
7ED4
  8
3
  6
CONTINUOUS
 62
     0
  2
_OPEN
 10
3269.1374068559298
 20
2928.54157067591
 30
0.0
 41
60.0
 42
60.0
 43
60.0
 50
270.0
  0
INSERT
  5
7ED5
  8
3
  6
CONTINUOUS
 62
     0
  2
_OPEN
 10
3269.1374068559312
 20
3548.54157067591
 30
0.0
 41
60.0
 42
60.0
 43
60.0
 50
90.0
  0
TEXT
  8
3
  40
90
  5
7F54
  62
0
  72
0
  71
0
 10
3014.14
 20
3112.48
 30
0.000000
  1
620
  0
POINT
  5
7ED7
  8
DEFPOINTS
  6
CONTINUOUS
 62
     0
 10
2871.54917285593
 20
2928.54157067591
 30
0.0
  0
POINT
  5
7ED8
  8
DEFPOINTS
  6
CONTINUOUS
 62
     0
 10
2975.4458408559299
 20
3548.54157067591
 30
0.0
  0
POINT
  5
7ED9
  8
DEFPOINTS
  6
CONTINUOUS
 62
     0
 10
3269.1374068559312
 20
3548.54157067591
 30
0.0
  0
ENDBLK
  5
7B05
  8
0
  0
BLOCK
  8
0
  2
*D3
 70
     1
 10
0.0
 20
0.0
 30
0.0
  3
*D3
  1

  0
LINE
  5
7EDA
  8
3
  6
CONTINUOUS
 62
     0
 10
2901.54917285593
 20
2748.54157067591
 30
0.0
 11
3500.13161385593
 21
2748.541570675909
 31
0.0
  0
LINE
  5
7EDB
  8
3
  6
CONTINUOUS
 62
     0
 10
3470.13161385593
 20
3488.541570675909
 30
0.0
 11
3470.1316138559291
 21
2808.54157067591
 31
0.0
  0
INSERT
  5
7EDC
  8
3
  6
CONTINUOUS
 62
     0
  2
_OPEN
 10
3470.13161385593
 20
3548.54157067591
 30
0.0
 41
60.0
 42
60.0
 43
60.0
 50
90.0
  0
INSERT
  5
7EDD
  8
3
  6
CONTINUOUS
 62
     0
  2
_OPEN
 10
3470.1316138559291
 20
2748.541570675909
 30
0.0
 41
60.0
 42
60.0
 43
60.0
 50
270.0
  0
TEXT
  8
3
  40
90
  5
7F55
  62
0
  72
0
  71
0
 10
3215.13
 20
2989.24
 30
0.000000
  1
800
  0
POINT
  5
7EDF
  8
DEFPOINTS
  6
CONTINUOUS
 62
     0
 10
2975.4458408559299
 20
3548.54157067591
 30
0.0
  0
POINT
  5
7EE0
  8
DEFPOINTS
  6
CONTINUOUS
 62
     0
 10
2886.54917285593
 20
2748.54157067591
 30
0.0
  0
POINT
  5
7EE1
  8
DEFPOINTS
  6
CONTINUOUS
 62
     0
 10
3470.1316138559291
 20
2748.541570675909
 30
0.0
  0
ENDBLK
  5
7B1E
  8
0
  0
BLOCK
  8
0
  2
*D4
 70
     1
 10
0.0
 20
0.0
 30
0.0
  3
*D4
  1

  0
LINE
  5
7EE2
  8
3
  6
CONTINUOUS
 62
     0
 10
1286.54917285593
 20
2733.54157067591
 30
0.0
 11
1286.54917285593
 21
2430.01963767591
 31
0.0
  0
LINE
  5
7EE3
  8
3
  6
CONTINUOUS
 62
     0
 10
2386.54917285593
 20
2652.4945866759099
 30
0.0
 11
2386.54917285593
 21
2430.01963767591
 31
0.0
  0
LINE
  5
7EE4
  8
3
  6
CONTINUOUS
 62
     0
 10
1346.54917285593
 20
2460.01963767591
 30
0.0
 11
2326.5491728559291
 21
2460.01963767591
 31
0.0
  0
INSERT
  5
7EE5
  8
3
  6
CONTINUOUS
 62
     0
  2
_OPEN
 10
1286.54917285593
 20
2460.01963767591
 30
0.0
 41
60.0
 42
60.0
 43
60.0
 50
180.0
  0
INSERT
  5
7EE6
  8
3
  6
CONTINUOUS
 62
     0
  2
_OPEN
 10
2386.54917285593
 20
2460.01963767591
 30
0.0
 41
60.0
 42
60.0
 43
60.0
  0
TEXT
  8
3
  40
90
  5
7F56
  62
0
  72
0
  71
0
 10
1675.90
 20
2375.72
 30
0.000000
  1
1100
  0
POINT
  5
7EE8
  8
DEFPOINTS
  6
CONTINUOUS
 62
     0
 10
1286.54917285593
 20
2748.54157067591
 30
0.0
  0
POINT
  5
7EE9
  8
DEFPOINTS
  6
CONTINUOUS
 62
     0
 10
2386.54917285593
 20
2667.4945866759099
 30
0.0
  0
POINT
  5
7EEA
  8
DEFPOINTS
  6
CONTINUOUS
 62
     0
 10
2386.54917285593
 20
2460.01963767591
 30
0.0
  0
ENDBLK
  5
7BDC
  8
0
  0
BLOCK
  8
0
  2
*D5
 70
     1
 10
0.0
 20
0.0
 30
0.0
  3
*D5
  1

  0
LINE
  5
7EEB
  8
3
  6
CONTINUOUS
 62
     0
 10
2886.54917285593
 20
2733.54157067591
 30
0.0
 11
2886.54917285593
 21
2430.01963767591
 31
0.0
  0
LINE
  5
7EEC
  8
3
  6
CONTINUOUS
 62
     0
 10
2446.54917285593
 20
2460.01963767591
 30
0.0
 11
2826.54917285593
 21
2460.01963767591
 31
0.0
  0
INSERT
  5
7EED
  8
3
  6
CONTINUOUS
 62
     0
  2
_OPEN
 10
2386.54917285593
 20
2460.01963767591
 30
0.0
 41
60.0
 42
60.0
 43
60.0
 50
180.0
  0
INSERT
  5
7EEE
  8
3
  6
CONTINUOUS
 62
     0
  2
_OPEN
 10
2886.54917285593
 20
2460.01963767591
 30
0.0
 41
60.0
 42
60.0
 43
60.0
  0
TEXT
  8
3
  40
90
  5
7F57
  62
0
  72
0
  71
0
 10
2456.55
 20
2375.72
 30
0.000000
  1
500
  0
POINT
  5
7EF0
  8
DEFPOINTS
  6
CONTINUOUS
 62
     0
 10
2386.54917285593
 20
2667.4945866759099
 30
0.0
  0
POINT
  5
7EF1
  8
DEFPOINTS
  6
CONTINUOUS
 62
     0
 10
2886.54917285593
 20
2748.54157067591
 30
0.0
  0
POINT
  5
7EF2
  8
DEFPOINTS
  6
CONTINUOUS
 62
     0
 10
2886.54917285593
 20
2460.01963767591
 30
0.0
  0
ENDBLK
  5
7BE6
  8
0
  0
BLOCK
  8
0
  2
*D6
 70
     1
 10
0.0
 20
0.0
 30
0.0
  3
*D6
  1

  0
LINE
  5
7EF3
  8
3
  6
CONTINUOUS
 62
     0
 10
2871.54917285593
 20
3633.5415706759109
 30
0.0
 11
2871.54917285593
 21
4240.2017946759097
 31
0.0
  0
LINE
  5
7EF4
  8
3
  6
CONTINUOUS
 62
     0
 10
2386.54917285593
 20
4209.2064586759097
 30
0.0
 11
2386.54917285593
 21
4240.2017946759097
 31
0.0
  0
LINE
  5
7EF5
  8
3
  6
CONTINUOUS
 62
     0
 10
2811.54917285593
 20
4210.2017946759097
 30
0.0
 11
2446.54917285593
 21
4210.2017946759097
 31
0.0
  0
INSERT
  5
7EF6
  8
3
  6
CONTINUOUS
 62
     0
  2
_OPEN
 10
2871.54917285593
 20
4210.2017946759097
 30
0.0
 41
60.0
 42
60.0
 43
60.0
  0
INSERT
  5
7EF7
  8
3
  6
CONTINUOUS
 62
     0
  2
_OPEN
 10
2386.54917285593
 20
4210.2017946759097
 30
0.0
 41
60.0
 42
60.0
 43
60.0
 50
180.0
  0
TEXT
  8
3
  40
90
  5
7F58
  62
0
  72
0
  71
0
 10
2412.26
 20
4125.90
 30
0.000000
  1
485
  0
POINT
  5
7EF9
  8
DEFPOINTS
  6
CONTINUOUS
 62
     0
 10
2871.54917285593
 20
3618.54157067591
 30
0.0
  0
POINT
  5
7EFA
  8
DEFPOINTS
  6
CONTINUOUS
 62
     0
 10
2386.54917285593
 20
4194.2064586759097
 30
0.0
  0
POINT
  5
7EFB
  8
DEFPOINTS
  6
CONTINUOUS
 62
     0
 10
2386.54917285593
 20
4210.2017946759097
 30
0.0
  0
ENDBLK
  5
7BFB
  8
0
  0
BLOCK
  8
0
  2
*D7
 70
     1
 10
0.0
 20
0.0
 30
0.0
  3
*D7
  1

  0
LINE
  5
7EFC
  8
3
  6
CONTINUOUS
 62
     0
 10
4361.8224449999998
 20
4016.7960176759088
 30
0.0
 11
4361.8224449999998
 21
4161.6601566759091
 31
0.0
  0
LINE
  5
7EFD
  8
3
  6
CONTINUOUS
 62
     0
 10
4836.8224450000007
 20
4016.7960176759088
 30
0.0
 11
4836.8224450000007
 21
4161.6601566759091
 31
0.0
  0
LINE
  5
7EFE
  8
3
  6
CONTINUOUS
 62
     0
 10
4421.8224449999998
 20
4131.66015667591
 30
0.0
 11
4776.8224449999998
 21
4131.66015667591
 31
0.0
  0
INSERT
  5
7EFF
  8
3
  6
CONTINUOUS
 62
     0
  2
_OPEN
 10
4361.8224449999998
 20
4131.66015667591
 30
0.0
 41
60.0
 42
60.0
 43
60.0
 50
180.0
  0
INSERT
  5
7F00
  8
3
  6
CONTINUOUS
 62
     0
  2
_OPEN
 10
4836.8224450000007
 20
4131.66015667591
 30
0.0
 41
60.0
 42
60.0
 43
60.0
  0
TEXT
  8
3
  40
90
  5
7F59
  62
0
  72
0
  71
0
 10
4419.94
 20
4047.36
 30
0.000000
  1
475
  0
POINT
  5
7F02
  8
DEFPOINTS
  6
CONTINUOUS
 62
     0
 10
4361.8224449999998
 20
4001.7960176759102
 30
0.0
  0
POINT
  5
7F03
  8
DEFPOINTS
  6
CONTINUOUS
 62
     0
 10
4836.8224450000007
 20
4001.7960176759102
 30
0.0
  0
POINT
  5
7F04
  8
DEFPOINTS
  6
CONTINUOUS
 62
     0
 10
4836.8224450000007
 20
4131.66015667591
 30
0.0
  0
ENDBLK
  5
7B6A
  8
0
  0
BLOCK
  8
0
  2
*D8
 70
     1
 10
0.0
 20
0.0
 30
0.0
  3
*D8
  1

  0
LINE
  5
7F05
  8
3
  6
CONTINUOUS
 62
     0
 10
4855.3224450000007
 20
3883.5415706759109
 30
0.0
 11
5107.3022650000012
 21
3883.5415706759109
 31
0.0
  0
LINE
  5
7F06
  8
3
  6
CONTINUOUS
 62
     0
 10
4855.3224450000007
 20
3213.54157067591
 30
0.0
 11
5107.3022650000012
 21
3213.54157067591
 31
0.0
  0
LINE
  5
7F07
  8
3
  6
CONTINUOUS
 62
     0
 10
5077.3022650000012
 20
3823.54157067591
 30
0.0
 11
5077.3022650000012
 21
3273.54157067591
 31
0.0
  0
INSERT
  5
7F08
  8
3
  6
CONTINUOUS
 62
     0
  2
_OPEN
 10
5077.3022650000012
 20
3883.5415706759109
 30
0.0
 41
60.0
 42
60.0
 43
60.0
 50
90.0
  0
INSERT
  5
7F09
  8
3
  6
CONTINUOUS
 62
     0
  2
_OPEN
 10
5077.3022650000012
 20
3213.54157067591
 30
0.0
 41
60.0
 42
60.0
 43
60.0
 50
270.0
  0
TEXT
  8
3
  40
90
  5
7F5A
  62
0
  72
0
  71
0
 10
4822.30
 20
3376.10
 30
0.000000
  1
φ670
  0
POINT
  5
7F0B
  8
DEFPOINTS
  6
CONTINUOUS
 62
     0
 10
4840.3224450000007
 20
3883.5415706759109
 30
0.0
  0
POINT
  5
7F0C
  8
DEFPOINTS
  6
CONTINUOUS
 62
     0
 10
4840.3224450000007
 20
3213.54157067591
 30
0.0
  0
POINT
  5
7F0D
  8
DEFPOINTS
  6
CONTINUOUS
 62
     0
 10
5077.3022650000012
 20
3213.54157067591
 30
0.0
  0
ENDBLK
  5
7CE3
  8
0
  0
BLOCK
  8
0
  2
*D9
 70
     1
 10
0.0
 20
0.0
 30
0.0
  3
*D9
  1

  0
LINE
  5
7F0E
  8
3
  6
CONTINUOUS
 62
     0
 10
4599.3224450000007
 20
4295.3561603252247
 30
0.0
 11
4599.3224450000007
 21
4381.3367566759098
 31
0.0
  0
LINE
  5
7F0F
  8
3
  6
CONTINUOUS
 62
     0
 10
4119.3224449999998
 20
3863.54157067591
 30
0.0
 11
4119.3224449999998
 21
4381.3367566759098
 31
0.0
  0
LINE
  5
7F10
  8
3
  6
CONTINUOUS
 62
     0
 10
4539.3224449999998
 20
4351.3367566759107
 30
0.0
 11
4179.3224450000007
 21
4351.3367566759107
 31
0.0
  0
INSERT
  5
7F11
  8
3
  6
CONTINUOUS
 62
     0
  2
_OPEN
 10
4599.3224450000007
 20
4351.3367566759107
 30
0.0
 41
60.0
 42
60.0
 43
60.0
  0
INSERT
  5
7F12
  8
3
  6
CONTINUOUS
 62
     0
  2
_OPEN
 10
4119.3224449999998
 20
4351.3367566759107
 30
0.0
 41
60.0
 42
60.0
 43
60.0
 50
180.0
  0
TEXT
  8
3
  40
90
  5
7F5B
  62
0
  72
0
  71
0
 10
4179.32
 20
4342.04
 30
0.000000
  1
MAX
  0
TEXT
  8
3
  40
90
  5
7F5C
  62
0
  72
0
  71
0
 10
4179.32
 20
4225.04
 30
0.000000
  1
530
  0
POINT
  5
7F14
  8
DEFPOINTS
  6
CONTINUOUS
 62
     0
 10
4599.3224450000007
 20
4280.3561603252247
 30
0.0
  0
POINT
  5
7F15
  8
DEFPOINTS
  6
CONTINUOUS
 62
     0
 10
4119.3224449999998
 20
3848.54157067591
 30
0.0
  0
POINT
  5
7F16
  8
DEFPOINTS
  6
CONTINUOUS
 62
     0
 10
4119.3224449999998
 20
4351.3367566759107
 30
0.0
  0
ENDBLK
  5
7CF9
  8
0
  0
BLOCK
  8
0
  2
*D10
 70
     1
 10
0.0
 20
0.0
 30
0.0
  3
*D10
  1

  0
LINE
  5
7CAC
  8
0
  6
BYBLOCK
 62
     0
 10
4239.3224449999998
 20
2733.54157067591
 30
0.0
 11
4239.3224449999998
 21
2457.3002846759091
 31
0.0
  0
LINE
  5
7CAD
  8
0
  6
BYBLOCK
 62
     0
 10
4599.3224450000007
 20
2654.00925967591
 30
0.0
 11
4599.3224450000007
 21
2457.3002846759091
 31
0.0
  0
LINE
  5
7CAE
  8
0
  6
BYBLOCK
 62
     0
 10
4299.3224449999998
 20
2487.30028467591
 30
0.0
 11
4539.3224449999998
 21
2487.30028467591
 31
0.0
  0
TEXT
  5
7CAF
  8
3
 62
     0
 10
4303.6081592857136
 20
2517.3665128423158
 30
0.0
 40
90.0
  1
360
  0
INSERT
  5
7CB0
  8
0
  6
BYBLOCK
 62
     0
  2
_OPEN
 10
4239.3224449999998
 20
2487.30028467591
 30
0.0
 41
60.0
 42
60.0
 43
60.0
 50
180.0
  0
INSERT
  5
7CB1
  8
0
  6
BYBLOCK
 62
     0
  2
_OPEN
 10
4599.3224450000007
 20
2487.30028467591
 30
0.0
 41
60.0
 42
60.0
 43
60.0
  0
POINT
  5
7CB2
  8
DEFPOINTS
  6
BYBLOCK
 62
     0
 10
4239.3224449999998
 20
2748.54157067591
 30
0.0
  0
POINT
  5
7CB3
  8
DEFPOINTS
  6
BYBLOCK
 62
     0
 10
4599.3224450000007
 20
2669.00925967591
 30
0.0
  0
POINT
  5
7CB4
  8
DEFPOINTS
  6
BYBLOCK
 62
     0
 10
4599.3224450000007
 20
2487.30028467591
 30
0.0
  0
ENDBLK
  5
7CB5
  8
0
  0
BLOCK
  8
0
  2
*D11
 70
     1
 10
0.0
 20
0.0
 30
0.0
  3
*D11
  1

  0
LINE
  5
7F17
  8
3
  6
CONTINUOUS
 62
     0
 10
4939.3224450000007
 20
2733.54157067591
 30
0.0
 11
4939.3224450000007
 21
2457.3002846759091
 31
0.0
  0
LINE
  5
7F18
  8
3
  6
CONTINUOUS
 62
     0
 10
4659.3224449999998
 20
2487.30028467591
 30
0.0
 11
4879.3224450000007
 21
2487.30028467591
 31
0.0
  0
TEXT
  8
3
  40
90
  5
7F5D
  62
0
  72
0
  71
0
 10
4611.87
 20
2406.22
 30
0.000000
  1
340
  0
INSERT
  5
7F1A
  8
3
  6
CONTINUOUS
 62
     0
  2
_OPEN
 10
4599.3224450000007
 20
2487.30028467591
 30
0.0
 41
60.0
 42
60.0
 43
60.0
 50
180.0
  0
INSERT
  5
7F1B
  8
3
  6
CONTINUOUS
 62
     0
  2
_OPEN
 10
4939.3224450000007
 20
2487.30028467591
 30
0.0
 41
60.0
 42
60.0
 43
60.0
  0
POINT
  5
7F1C
  8
DEFPOINTS
  6
CONTINUOUS
 62
     0
 10
4599.3224450000007
 20
2669.00925967591
 30
0.0
  0
POINT
  5
7F1D
  8
DEFPOINTS
  6
CONTINUOUS
 62
     0
 10
4939.3224450000007
 20
2748.54157067591
 30
0.0
  0
POINT
  5
7F1E
  8
DEFPOINTS
  6
CONTINUOUS
 62
     0
 10
4939.3224450000007
 20
2487.30028467591
 30
0.0
  0
ENDBLK
  5
7C5A
  8
0
  0
BLOCK
  8
0
  2
*D12
 70
     1
 10
0.0
 20
0.0
 30
0.0
  3
*D12
  1

  0
LINE
  5
7F1F
  8
3
  6
CONTINUOUS
 62
     0
 10
1286.54917285593
 20
5915.0352789999997
 30
0.0
 11
1286.54917285593
 21
6210.0654889999987
 31
0.0
  0
LINE
  5
7F20
  8
3
  6
CONTINUOUS
 62
     0
 10
2886.54917285593
 20
5915.0352789999997
 30
0.0
 11
2886.54917285593
 21
6210.0654889999987
 31
0.0
  0
LINE
  5
7F21
  8
3
  6
CONTINUOUS
 62
     0
 10
1346.54917285593
 20
6180.0654889999996
 30
0.0
 11
2826.54917285593
 21
6180.0654889999996
 31
0.0
  0
INSERT
  5
7F22
  8
3
  6
CONTINUOUS
 62
     0
  2
_OPEN
 10
1286.54917285593
 20
6180.0654889999996
 30
0.0
 41
60.0
 42
60.0
 43
60.0
 50
180.0
  0
INSERT
  5
7F23
  8
3
  6
CONTINUOUS
 62
     0
  2
_OPEN
 10
2886.54917285593
 20
6180.0654889999996
 30
0.0
 41
60.0
 42
60.0
 43
60.0
  0
TEXT
  8
3
  40
90
  5
7F5E
  62
0
  72
0
  71
0
 10
1914.58
 20
6095.77
 30
0.000000
  1
1600
  0
POINT
  5
7F25
  8
DEFPOINTS
  6
CONTINUOUS
 62
     0
 10
1286.54917285593
 20
5900.0352789999997
 30
0.0
  0
POINT
  5
7F26
  8
DEFPOINTS
  6
CONTINUOUS
 62
     0
 10
2886.54917285593
 20
5900.0352789999997
 30
0.0
  0
POINT
  5
7F27
  8
DEFPOINTS
  6
CONTINUOUS
 62
     0
 10
2886.54917285593
 20
6180.0654889999996
 30
0.0
  0
ENDBLK
  5
7C2B
  8
0
  0
BLOCK
  8
0
  2
*D13
 70
     1
 10
0.0
 20
0.0
 30
0.0
  3
*D13
  1

  0
LINE
  5
7F28
  8
3
  6
CONTINUOUS
 62
     0
 10
2901.54917285593
 20
5900.0352789999997
 30
0.0
 11
3148.3917428559312
 21
5900.0352789999997
 31
0.0
  0
LINE
  5
7F29
  8
3
  6
CONTINUOUS
 62
     0
 10
2901.54917285593
 20
5200.0352789999997
 30
0.0
 11
3148.3917428559312
 21
5200.0352789999997
 31
0.0
  0
LINE
  5
7F2A
  8
3
  6
CONTINUOUS
 62
     0
 10
3118.3917428559312
 20
5840.0352789999997
 30
0.0
 11
3118.3917428559312
 21
5260.0352789999997
 31
0.0
  0
INSERT
  5
7F2B
  8
3
  6
CONTINUOUS
 62
     0
  2
_OPEN
 10
3118.3917428559312
 20
5900.0352789999997
 30
0.0
 41
60.0
 42
60.0
 43
60.0
 50
90.0
  0
INSERT
  5
7F2C
  8
3
  6
CONTINUOUS
 62
     0
  2
_OPEN
 10
3118.3917428559312
 20
5200.0352789999997
 30
0.0
 41
60.0
 42
60.0
 43
60.0
 50
270.0
  0
TEXT
  8
3
  40
90
  5
7F5F
  62
0
  72
0
  71
0
 10
2863.39
 20
5405.10
 30
0.000000
  1
700
  0
POINT
  5
7F2E
  8
DEFPOINTS
  6
CONTINUOUS
 62
     0
 10
2886.54917285593
 20
5900.0352789999997
 30
0.0
  0
POINT
  5
7F2F
  8
DEFPOINTS
  6
CONTINUOUS
 62
     0
 10
2886.54917285593
 20
5200.0352789999997
 30
0.0
  0
POINT
  5
7F30
  8
DEFPOINTS
  6
CONTINUOUS
 62
     0
 10
3118.3917428559312
 20
5200.0352789999997
 30
0.0
  0
ENDBLK
  5
7BCB
  8
0
  0
BLOCK
  8
0
  2
*D14
 70
     1
 10
0.0
 20
0.0
 30
0.0
  3
*D14
  1

  0
LINE
  5
7F31
  8
3
  6
CONTINUOUS
 62
     0
 10
1864.5491728559291
 20
3563.54157067591
 30
0.0
 11
1864.5491728559291
 21
4240.2017946759097
 31
0.0
  0
LINE
  5
7F32
  8
3
  6
CONTINUOUS
 62
     0
 10
2326.5491728559291
 20
4210.2017946759097
 30
0.0
 11
1924.54917285593
 21
4210.2017946759097
 31
0.0
  0
INSERT
  5
7F33
  8
3
  6
CONTINUOUS
 62
     0
  2
_OPEN
 10
2386.54917285593
 20
4210.2017946759097
 30
0.0
 41
60.0
 42
60.0
 43
60.0
  0
INSERT
  5
7F34
  8
3
  6
CONTINUOUS
 62
     0
  2
_OPEN
 10
1864.5491728559291
 20
4210.2017946759097
 30
0.0
 41
60.0
 42
60.0
 43
60.0
 50
180.0
  0
TEXT
  8
3
  40
90
  5
7F60
  62
0
  72
0
  71
0
 10
1945.55
 20
4125.90
 30
0.000000
  1
522
  0
POINT
  5
7F36
  8
DEFPOINTS
  6
CONTINUOUS
 62
     0
 10
2386.54917285593
 20
4194.2064586759097
 30
0.0
  0
POINT
  5
7F37
  8
DEFPOINTS
  6
CONTINUOUS
 62
     0
 10
1864.5491728559291
 20
3548.54157067591
 30
0.0
  0
POINT
  5
7F38
  8
DEFPOINTS
  6
CONTINUOUS
 62
     0
 10
1864.5491728559291
 20
4210.2017946759097
 30
0.0
  0
ENDBLK
  5
7C06
  8
0
  0
BLOCK
  8
0
  2
*D15
 70
     1
 10
0.0
 20
0.0
 30
0.0
  3
*D15
  1

  0
LINE
  5
7F39
  8
3
  6
CONTINUOUS
 62
     0
 10
4840.3224450000007
 20
3898.54157067591
 30
0.0
 11
4840.3224450000007
 21
4381.3367566759098
 31
0.0
  0
LINE
  5
7F3A
  8
3
  6
CONTINUOUS
 62
     0
 10
4659.3224449999998
 20
4351.3367566759107
 30
0.0
 11
4780.3224450000007
 21
4351.3367566759107
 31
0.0
  0
TEXT
  8
3
  40
90
  5
7F61
  62
0
  72
0
  71
0
 10
4541.01
 20
4265.12
 30
0.000000
  1
241
  0
INSERT
  5
7F3C
  8
3
  6
CONTINUOUS
 62
     0
  2
_OPEN
 10
4599.3224450000007
 20
4351.3367566759107
 30
0.0
 41
60.0
 42
60.0
 43
60.0
 50
180.0
  0
INSERT
  5
7F3D
  8
3
  6
CONTINUOUS
 62
     0
  2
_OPEN
 10
4840.3224450000007
 20
4351.3367566759107
 30
0.0
 41
60.0
 42
60.0
 43
60.0
  0
POINT
  5
7F3E
  8
DEFPOINTS
  6
CONTINUOUS
 62
     0
 10
4599.3224450000007
 20
4280.3561603252247
 30
0.0
  0
POINT
  5
7F3F
  8
DEFPOINTS
  6
CONTINUOUS
 62
     0
 10
4840.3224450000007
 20
3883.5415706759109
 30
0.0
  0
POINT
  5
7F40
  8
DEFPOINTS
  6
CONTINUOUS
 62
     0
 10
4840.3224450000007
 20
4351.3367566759107
 30
0.0
  0
ENDBLK
  5
7D03
  8
0
  0
BLOCK
  8
0
  2
*D16
 70
     1
 10
0.0
 20
0.0
 30
0.0
  3
*D16
  1

  0
LINE
  5
7F41
  8
3
 62
     0
 10
2871.54917285593
 20
3633.5415706759109
 30
0.0
 11
2871.54917285593
 21
4415.3370491136957
 31
0.0
  0
LINE
  5
7F42
  8
3
 62
     0
 10
1286.54917285593
 20
2863.54157067591
 30
0.0
 11
1286.54917285593
 21
4415.3370491136957
 31
0.0
  0
LINE
  5
7F43
  8
3
 62
     0
 10
2811.54917285593
 20
4385.3370491136957
 30
0.0
 11
1346.54917285593
 21
4385.3370491136957
 31
0.0
  0
INSERT
  5
7F44
  8
3
 62
     0
  2
_OPEN
 10
2871.54917285593
 20
4385.3370491136957
 30
0.0
 41
60.0
 42
60.0
 43
60.0
  0
INSERT
  5
7F45
  8
3
 62
     0
  2
_OPEN
 10
1286.54917285593
 20
4385.3370491136957
 30
0.0
 41
60.0
 42
60.0
 43
60.0
 50
180.0
  0
TEXT
  8
3
  40
90
  5
7F62
  62
0
  72
0
  71
0
 10
2036.13
 20
4301.04
 30
0.000000
  1
1585
  0
POINT
  5
7F47
  8
DEFPOINTS
 62
     0
 10
2871.54917285593
 20
3618.54157067591
 30
0.0
  0
POINT
  5
7F48
  8
DEFPOINTS
 62
     0
 10
1286.54917285593
 20
2848.54157067591
 30
0.0
  0
POINT
  5
7F49
  8
DEFPOINTS
 62
     0
 10
1286.54917285593
 20
4385.3370491136957
 30
0.0
  0
ENDBLK
  5
7CC1
  8
0
  0
BLOCK
  8
0
  2
*D17
 70
     1
 10
0.0
 20
0.0
 30
0.0
  3
*D17
  1

  0
LINE
  5
7F4A
  8
3
 62
     0
 10
2990.4458408559299
 20
3548.54157067591
 30
0.0
 11
3500.13161385593
 21
3548.54157067591
 31
0.0
  0
LINE
  5
7F4B
  8
3
 62
     0
 10
2366.54917285593
 20
4001.7960176759102
 30
0.0
 11
3500.13161385593
 21
4001.7960176759102
 31
0.0
  0
LINE
  5
7F4C
  8
3
 62
     0
 10
3470.13161385593
 20
3608.54157067591
 30
0.0
 11
3470.13161385593
 21
3941.7960176759088
 31
0.0
  0
INSERT
  5
7F4D
  8
3
 62
     0
  2
_OPEN
 10
3470.13161385593
 20
3548.54157067591
 30
0.0
 41
60.0
 42
60.0
 43
60.0
 50
270.0
  0
INSERT
  5
7F4E
  8
3
 62
     0
  2
_OPEN
 10
3470.13161385593
 20
4001.7960176759102
 30
0.0
 41
60.0
 42
60.0
 43
60.0
 50
90.0
  0
TEXT
  8
3
  40
90
  5
7F63
  62
0
  72
0
  71
0
 10
3215.13
 20
3615.87
 30
0.000000
  1
452
  0
POINT
  5
7F50
  8
DEFPOINTS
 62
     0
 10
2975.4458408559299
 20
3548.54157067591
 30
0.0
  0
POINT
  5
7F51
  8
DEFPOINTS
 62
     0
 10
2351.54917285593
 20
4001.7960176759102
 30
0.0
  0
POINT
  5
7F52
  8
DEFPOINTS
 62
     0
 10
3470.13161385593
 20
4001.7960176759102
 30
0.0
  0
ENDBLK
  5
7D3B
  8
0
  0
ENDSEC
  0
SECTION
  2
ENTITIES
  0
LINE
  5
7A64
  8
1
  6
CONTINUOUS
 10
1286.54917285593
 20
2748.54157067591
 30
0.0
 11
2886.54917285593
 21
2748.54157067591
 31
0.0
  0
LINE
  5
7A65
  8
1
  6
CONTINUOUS
 10
2886.54917285593
 20
2848.54157067591
 30
0.0
 11
1286.54917285593
 21
2848.54157067591
 31
0.0
  0
LINE
  5
7A66
  8
1
  6
CONTINUOUS
 10
1819.7002818559299
 20
2888.54157067591
 30
0.0
 11
1511.7002818559299
 21
2888.54157067591
 31
0.0
  0
LINE
  5
7A67
  8
1
  6
CONTINUOUS
 10
1819.7002818559299
 20
2906.54157067591
 30
0.0
 11
1798.3579468559301
 21
2955.5580036759102
 31
0.0
  0
ARC
  5
7A68
  8
1
  6
CONTINUOUS
 10
1665.7002818559299
 20
3048.54157067591
 30
0.0
 40
162.0
 50
324.972283
 51
215.02771699999991
  0
LINE
  5
7A69
  8
1
  6
CONTINUOUS
 10
1456.54917285593
 20
3148.54157067591
 30
0.0
 11
2286.54917285593
 21
3848.54157067591
 31
0.0
  0
ARC
  5
7A6A
  8
1
  6
CONTINUOUS
 10
2427.54917285593
 20
3507.54157067591
 30
0.0
 40
564.49092099999984
 50
175.48601199999999
 51
265.834836
  0
ARC
  5
7A6B
  8
1
  6
CONTINUOUS
 10
2351.54917285593
 20
3513.54157067591
 30
0.0
 40
488.25444700000003
 50
82.647621000000001
 51
175.48601199999999
  0
LINE
  5
7A6C
  8
1
  6
CONTINUOUS
 10
1615.0051658559289
 20
3110.42860667591
 30
0.0
 11
2291.4958308559299
 21
3664.5797626759099
 31
0.0
  0
LINE
  5
7A6D
  8
1
  6
CONTINUOUS
 10
1705.9051878559301
 20
2979.37824567591
 30
0.0
 11
2461.93337285593
 21
3418.8603366759089
 31
0.0
  0
LINE
  5
7A6E
  8
1
  6
CONTINUOUS
 10
1286.54917285593
 20
2848.54157067591
 30
0.0
 11
1286.54917285593
 21
2748.54157067591
 31
0.0
  0
LINE
  5
7A6F
  8
1
  6
CONTINUOUS
 10
1511.7002818559299
 20
2848.54157067591
 30
0.0
 11
1511.7002818559299
 21
2906.54157067591
 31
0.0
  0
LINE
  5
7A70
  8
1
  6
CONTINUOUS
 10
1511.7002818559299
 20
2888.54157067591
 30
0.0
 11
1511.7002818559299
 21
2906.54157067591
 31
0.0
  0
LINE
  5
7A71
  8
1
  6
CONTINUOUS
 10
1456.54917285593
 20
2848.54157067591
 30
0.0
 11
1456.54917285593
 21
3148.54157067591
 31
0.0
  0
LINE
  5
7A72
  8
1
  6
CONTINUOUS
 10
1511.7002818559299
 20
2906.54157067591
 30
0.0
 11
1533.0426158559301
 21
2955.5580036759102
 31
0.0
  0
LINE
  5
7A73
  8
2
  6
CENTER
 10
1745.7002818559299
 20
3048.54157067591
 30
0.0
 11
1585.7002818559299
 21
3048.54157067591
 31
0.0
  0
LINE
  5
7A74
  8
2
  6
CENTER
 10
1665.7002818559299
 20
3128.54157067591
 30
0.0
 11
1665.7002818559299
 21
2968.54157067591
 31
0.0
  0
CIRCLE
  5
7A75
  8
1
  6
CONTINUOUS
 10
1665.7002818559299
 20
3048.54157067591
 30
0.0
 40
80.0
  0
LINE
  5
7A79
  8
1
  6
CONTINUOUS
 10
2871.54917285593
 20
3618.54157067591
 30
0.0
 11
2871.54917285593
 21
2888.54157067591
 31
0.0
  0
LINE
  5
7A7A
  8
1
  6
CONTINUOUS
 10
2726.54917285593
 20
2848.54157067591
 30
0.0
 11
2726.54917285593
 21
3848.54157067591
 31
0.0
  0
LINE
  5
7A7B
  8
1
  6
CONTINUOUS
 10
2841.54917285593
 20
3578.54157067591
 30
0.0
 11
2841.54917285593
 21
2929.5312606759098
 31
0.0
  0
LINE
  5
7A7D
  8
1
  6
CONTINUOUS
 10
2828.54917285593
 20
2848.54157067591
 30
0.0
 11
1944.54917285593
 21
2848.54157067591
 31
0.0
  0
LINE
  5
7A7E
  8
1
  6
CONTINUOUS
 10
2871.54917285593
 20
2928.54157067591
 30
0.0
 11
2386.54917285593
 21
2944.54157067591
 31
0.0
  0
LINE
  5
7A7F
  8
1
  6
CONTINUOUS
 10
1819.7002818559299
 20
2848.54157067591
 30
0.0
 11
1819.7002818559299
 21
2906.54157067591
 31
0.0
  0
LINE
  5
7A80
  8
1
  6
CONTINUOUS
 10
2886.54917285593
 20
2848.54157067591
 30
0.0
 11
2886.54917285593
 21
2748.54157067591
 31
0.0
  0
LINE
  5
7A82
  8
1
  6
CONTINUOUS
 10
2785.27905185593
 20
3578.54157067591
 30
0.0
 11
2871.54917285593
 21
3578.54157067591
 31
0.0
  0
ARC
  5
7A83
  8
1
  6
CONTINUOUS
 10
2359.5491728559291
 20
3575.54157067591
 30
0.0
 40
425.74044800000001
 50
0.403741
 51
82.647621000000001
  0
LINE
  5
7A84
  8
2
  6
CENTER
 10
4676.0969218559303
 20
3548.54157067591
 30
0.0
 11
3787.0448078559298
 21
3548.54157067591
 31
0.0
  0
CIRCLE
  5
7A85
  8
1
  6
CONTINUOUS
 10
2386.54917285593
 20
3548.54157067591
 30
0.0
 40
150.0
  0
LINE
  5
7A86
  8
1
  6
CONTINUOUS
 10
2726.54917285593
 20
3848.54157067591
 30
0.0
 11
2286.54917285593
 21
3848.54157067591
 31
0.0
  0
LINE
  5
7A87
  8
2
  6
CENTER
 10
2386.54917285593
 20
5954.2926790000001
 30
0.0
 11
2386.54917285593
 21
4983.370903
 31
0.0
  0
LINE
  5
7A88
  8
1
  6
CONTINUOUS
 10
4361.8224449999998
 20
2848.54157067591
 30
0.0
 11
4361.8224449999998
 21
4001.7960176759102
 31
0.0
  0
LINE
  5
7A89
  8
1
  6
CONTINUOUS
 10
4836.8224450000007
 20
2848.54157067591
 30
0.0
 11
4836.8224450000007
 21
4001.7960176759102
 31
0.0
  0
LINE
  5
7A8A
  8
1
  6
CONTINUOUS
 10
4119.3224449999998
 20
3848.54157067591
 30
0.0
 11
4119.3224449999998
 21
2848.54157067591
 31
0.0
  0
LINE
  5
7A8B
  8
1
  6
CONTINUOUS
 10
4836.8224450000007
 20
2928.54157067591
 30
0.0
 11
4361.8224449999998
 21
3578.54157067591
 31
0.0
  0
LINE
  5
7A8C
  8
1
  6
CONTINUOUS
 10
4361.8224449999998
 20
2928.54157067591
 30
0.0
 11
4836.8224450000007
 21
3578.54157067591
 31
0.0
  0
LINE
  5
7A8D
  8
1
  6
CONTINUOUS
 10
4259.3224450000007
 20
3848.54157067591
 30
0.0
 11
4259.3224450000007
 21
2848.54157067591
 31
0.0
  0
LINE
  5
7A8E
  8
1
  6
CONTINUOUS
 10
4239.3224449999998
 20
2748.54157067591
 30
0.0
 11
4939.3224450000007
 21
2748.54157067591
 31
0.0
  0
LINE
  5
7A8F
  8
1
  6
CONTINUOUS
 10
4361.8224449999998
 20
2928.54157067591
 30
0.0
 11
4836.8224450000007
 21
2928.54157067591
 31
0.0
  0
LINE
  5
7A90
  8
1
  6
CONTINUOUS
 10
4939.3224450000007
 20
2848.54157067591
 30
0.0
 11
4239.3224449999998
 21
2848.54157067591
 31
0.0
  0
LINE
  5
7A91
  8
1
  6
CONTINUOUS
 10
4119.3224449999998
 20
2848.54157067591
 30
0.0
 11
4188.3224449999998
 21
2848.54157067591
 31
0.0
  0
LINE
  5
7A92
  8
1
  6
CONTINUOUS
 10
4154.3224449999998
 20
3128.54157067591
 30
0.0
 11
4224.3224450000007
 21
3128.54157067591
 31
0.0
  0
LINE
  5
7A93
  8
1
  6
CONTINUOUS
 10
4224.3224450000007
 20
3128.54157067591
 30
0.0
 11
4224.3224450000007
 21
2968.54157067591
 31
0.0
  0
LINE
  5
7A94
  8
1
  6
CONTINUOUS
 10
4154.3224449999998
 20
3128.54157067591
 30
0.0
 11
4154.3224449999998
 21
2968.54157067591
 31
0.0
  0
LINE
  5
7A95
  8
1
  6
CONTINUOUS
 10
4154.3224449999998
 20
2968.54157067591
 30
0.0
 11
4224.3224450000007
 21
2968.54157067591
 31
0.0
  0
LINE
  5
7A96
  8
1
  6
CONTINUOUS
 10
4224.3224450000007
 20
3069.54157067591
 30
0.0
 11
4361.8224449999998
 21
3069.54157067591
 31
0.0
  0
LINE
  5
7A97
  8
1
  6
CONTINUOUS
 10
4224.3224450000007
 20
3027.54157067591
 30
0.0
 11
4361.8224449999998
 21
3027.54157067591
 31
0.0
  0
LINE
  5
7A98
  8
1
  6
CONTINUOUS
 10
4239.3224449999998
 20
2848.54157067591
 30
0.0
 11
4239.3224449999998
 21
2748.54157067591
 31
0.0
  0
LINE
  5
7A99
  8
1
  6
CONTINUOUS
 10
4939.3224450000007
 20
2848.54157067591
 30
0.0
 11
4939.3224450000007
 21
2748.54157067591
 31
0.0
  0
LINE
  5
7A9A
  8
1
  6
CONTINUOUS
 10
4361.8224449999998
 20
4001.7960176759102
 30
0.0
 11
4836.8224450000007
 21
4001.7960176759102
 31
0.0
  0
LINE
  5
7A9B
  8
1
  6
CONTINUOUS
 10
4361.8224449999998
 20
3578.54157067591
 30
0.0
 11
4836.8224450000007
 21
3578.54157067591
 31
0.0
  0
LINE
  5
7A9C
  8
1
  6
CONTINUOUS
 10
4259.3224450000007
 20
3848.54157067591
 30
0.0
 11
4119.3224449999998
 21
3848.54157067591
 31
0.0
  0
LINE
  5
7A9D
  8
1
  6
CONTINUOUS
 10
4154.3224449999998
 20
3698.54157067591
 30
0.0
 11
4224.3224450000007
 21
3698.54157067591
 31
0.0
  0
LINE
  5
7A9E
  8
1
  6
CONTINUOUS
 10
4154.3224449999998
 20
3398.54157067591
 30
0.0
 11
4224.3224450000007
 21
3398.54157067591
 31
0.0
  0
LINE
  5
7A9F
  8
1
  6
CONTINUOUS
 10
4224.3224450000007
 20
3698.54157067591
 30
0.0
 11
4224.3224450000007
 21
3398.54157067591
 31
0.0
  0
LINE
  5
7AA0
  8
1
  6
CONTINUOUS
 10
4154.3224449999998
 20
3698.54157067591
 30
0.0
 11
4154.3224449999998
 21
3398.54157067591
 31
0.0
  0
LINE
  5
7AA1
  8
1
  6
CONTINUOUS
 10
4224.3224450000007
 20
3569.5415706759109
 30
0.0
 11
4361.8224449999998
 21
3569.5415706759109
 31
0.0
  0
LINE
  5
7AA2
  8
1
  6
CONTINUOUS
 10
4224.3224450000007
 20
3527.54157067591
 30
0.0
 11
4361.8224449999998
 21
3527.54157067591
 31
0.0
  0
LINE
  5
7AA3
  8
1
  6
CONTINUOUS
 10
1503.7002818559299
 20
5736.7671959999989
 30
0.0
 11
1827.7002818559299
 21
5736.7671959999989
 31
0.0
  0
LINE
  5
7AA4
  8
1
  6
CONTINUOUS
 10
1503.7002818559299
 20
5251.7671959999998
 30
0.0
 11
1827.7002818559299
 21
5251.7671959999998
 31
0.0
  0
LINE
  5
7AA5
  8
1
  6
CONTINUOUS
 10
2726.54917285593
 20
5080.0352789999997
 30
0.0
 11
1456.54917285593
 21
5080.0352789999997
 31
0.0
  0
LINE
  5
7AA6
  8
1
  6
CONTINUOUS
 10
2726.54917285593
 20
5220.0352789999997
 30
0.0
 11
1456.54917285593
 21
5220.0352789999997
 31
0.0
  0
LINE
  5
7AA7
  8
1
  6
CONTINUOUS
 10
2886.54917285593
 20
5900.0352789999997
 30
0.0
 11
1286.54917285593
 21
5900.0352789999997
 31
0.0
  0
LINE
  5
7AA8
  8
1
  6
CONTINUOUS
 10
2365.54917285593
 20
5200.0352789999997
 30
0.0
 11
1686.7002818559299
 21
5200.0352789999997
 31
0.0
  0
LINE
  5
7AA9
  8
1
  6
CONTINUOUS
 10
1503.7002818559299
 20
5251.7671959999998
 30
0.0
 11
1503.7002818559299
 21
5736.7671959999989
 31
0.0
  0
LINE
  5
7AAA
  8
1
  6
CONTINUOUS
 10
1286.54917285593
 20
5900.0352789999997
 30
0.0
 11
1286.54917285593
 21
5200.0352789999997
 31
0.0
  0
LINE
  5
7AAB
  8
1
  6
CONTINUOUS
 10
1644.7002818559299
 20
5200.0352789999997
 30
0.0
 11
1286.54917285593
 21
5200.0352789999997
 31
0.0
  0
LINE
  5
7AAC
  8
1
  6
CONTINUOUS
 10
1456.54917285593
 20
5080.0352789999997
 30
0.0
 11
1456.54917285593
 21
5220.0352789999997
 31
0.0
  0
LINE
  5
7AAD
  8
1
  6
CONTINUOUS
 10
1585.7002818559299
 20
5185.0352789999997
 30
0.0
 11
1745.7002818559299
 21
5185.0352789999997
 31
0.0
  0
LINE
  5
7AAE
  8
1
  6
CONTINUOUS
 10
1585.7002818559299
 20
5115.0352789999997
 30
0.0
 11
1745.7002818559299
 21
5115.0352789999997
 31
0.0
  0
LINE
  5
7AAF
  8
1
  6
CONTINUOUS
 10
1745.7002818559299
 20
5115.0352789999997
 30
0.0
 11
1745.7002818559299
 21
5185.0352789999997
 31
0.0
  0
LINE
  5
7AB0
  8
1
  6
CONTINUOUS
 10
1585.7002818559299
 20
5115.0352789999997
 30
0.0
 11
1585.7002818559299
 21
5185.0352789999997
 31
0.0
  0
LINE
  5
7AB1
  8
1
  6
CONTINUOUS
 10
1644.7002818559299
 20
5185.0352789999997
 30
0.0
 11
1644.7002818559299
 21
5251.7671959999998
 31
0.0
  0
LINE
  5
7AB2
  8
1
  6
CONTINUOUS
 10
1686.7002818559299
 20
5185.0352789999997
 30
0.0
 11
1686.7002818559299
 21
5251.7671959999998
 31
0.0
  0
LINE
  5
7AB3
  8
1
  6
CONTINUOUS
 10
2871.54917285593
 20
5797.5352789999988
 30
0.0
 11
1863.0582518559299
 21
5797.5352789999988
 31
0.0
  0
LINE
  5
7AB4
  8
1
  6
CONTINUOUS
 10
2871.54917285593
 20
5322.5352789999997
 30
0.0
 11
1863.0582518559299
 21
5322.5352789999997
 31
0.0
  0
LINE
  5
7AB5
  8
1
  6
CONTINUOUS
 10
2886.54917285593
 20
5200.0352789999997
 30
0.0
 11
2407.5491728559291
 21
5200.0352789999997
 31
0.0
  0
LINE
  5
7AB6
  8
1
  6
CONTINUOUS
 10
1827.7002818559299
 20
5251.7671959999998
 30
0.0
 11
1827.7002818559299
 21
5736.7671959999989
 31
0.0
  0
LINE
  5
7AB7
  8
1
  6
CONTINUOUS
 10
1863.0582518559299
 20
5322.5352789999997
 30
0.0
 11
1863.0582518559299
 21
5797.5352789999988
 31
0.0
  0
LINE
  5
7AB8
  8
1
  6
CONTINUOUS
 10
2236.54917285593
 20
5185.0352789999997
 30
0.0
 11
2536.54917285593
 21
5185.0352789999997
 31
0.0
  0
LINE
  5
7AB9
  8
1
  6
CONTINUOUS
 10
2236.54917285593
 20
5115.0352789999997
 30
0.0
 11
2536.54917285593
 21
5115.0352789999997
 31
0.0
  0
LINE
  5
7ABA
  8
1
  6
CONTINUOUS
 10
1827.7002818559299
 20
5573.4836439999999
 30
0.0
 11
1827.7002818559299
 21
5331.2366039999997
 31
0.0
  0
LINE
  5
7ABB
  8
1
  6
CONTINUOUS
 10
2236.54917285593
 20
5115.0352789999997
 30
0.0
 11
2236.54917285593
 21
5185.0352789999997
 31
0.0
  0
LINE
  5
7ABC
  8
1
  6
CONTINUOUS
 10
2536.54917285593
 20
5115.0352789999997
 30
0.0
 11
2536.54917285593
 21
5185.0352789999997
 31
0.0
  0
LINE
  5
7ABD
  8
1
  6
CONTINUOUS
 10
2726.54917285593
 20
5080.0352789999997
 30
0.0
 11
2726.54917285593
 21
5220.0352789999997
 31
0.0
  0
LINE
  5
7ABE
  8
1
  6
CONTINUOUS
 10
2407.5491728559291
 20
5185.0352789999997
 30
0.0
 11
2407.5491728559291
 21
5322.5352789999997
 31
0.0
  0
LINE
  5
7ABF
  8
1
  6
CONTINUOUS
 10
2365.54917285593
 20
5185.0352789999997
 30
0.0
 11
2365.54917285593
 21
5322.5352789999997
 31
0.0
  0
LINE
  5
7AC0
  8
1
  6
CONTINUOUS
 10
2871.54917285593
 20
5280.0352789999988
 30
0.0
 11
2871.54917285593
 21
5840.0352789999997
 31
0.0
  0
LINE
  5
7AC1
  8
1
  6
CONTINUOUS
 10
2831.54917285593
 20
5322.5352789999997
 30
0.0
 11
2831.54917285593
 21
5797.5352789999988
 31
0.0
  0
LINE
  5
7AC2
  8
1
  6
CONTINUOUS
 10
2886.54917285593
 20
5900.0352789999997
 30
0.0
 11
2886.54917285593
 21
5200.0352789999997
 31
0.0
  0
LINE
  5
7AC3
  8
2
  6
CENTER
 10
1222.92385785593
 20
5560.0352789999997
 30
0.0
 11
2948.8028758559299
 21
5560.0352789999997
 31
0.0
  0
LINE
  5
7AC4
  8
2
  6
CENTER
 10
4599.3224450000007
 20
4116.1925609114469
 30
0.0
 11
4599.3224450000007
 21
2669.00925967591
 31
0.0
  0
LINE
  5
7AC5
  8
2
  6
CENTER
 10
2386.54917285593
 20
4202.7980096759102
 30
0.0
 11
2386.54917285593
 21
2676.0861376759099
 31
0.0
  0
LINE
  5
7AC6
  8
2
  6
CENTER
 10
2975.4458408559299
 20
3548.54157067591
 30
0.0
 11
1569.4363728559299
 21
3548.54157067591
 31
0.0
  0
LINE
  5
7AC7
  8
4
  6
CONTINUOUS
 10
5550.0
 20
1500.0
 30
0.0
 11
5550.0
 21
900.0
 31
0.0
  0
LINE
  5
7AC8
  8
4
  6
CONTINUOUS
 10
3450.0
 20
1500.0
 30
0.0
 11
3450.0
 21
900.0
 31
0.0
  0
LINE
  5
7AC9
  8
4
  6
CONTINUOUS
 10
1950.0
 20
1500.0
 30
0.0
 11
1950.0
 21
900.0
 31
0.0
  0
LINE
  5
7ACC
  8
4
  6
CONTINUOUS
 10
1950.0
 20
900.0
 30
0.0
 11
5550.0
 21
900.0
 31
0.0
  0
LINE
  5
7ACD
  8
4
  6
CONTINUOUS
 10
1950.0
 20
1200.0
 30
0.0
 11
5550.0
 21
1200.0
 31
0.0
  0
TEXT
  5
7ACE
  8
4
  6
CONTINUOUS
 10
2065.5062429999989
 20
1294.6290779999999
 30
0.0
 40
150.0
  1
機器名称
  0
TEXT
  5
7ACF
  8
4
  6
CONTINUOUS
 10
2058.7743179999989
 20
964.9354699999999
 30
0.0
 40
150.0
  1
機器型番
  0
TEXT
  5
7AD0
  8
4
  6
CONTINUOUS
 10
3533.0362359999999
 20
1267.7153069999999
 30
0.0
 40
150.0
  1
ミツヤ多翼送風機
  0
TEXT
  5
7AD1
  8
4
  6
CONTINUOUS
 10
3559.9634869999991
 20
951.47875299999987
 30
0.0
 40
150.0
  1
MF#4-4
  0
TEXT
  5
7AD3
  8
4
  6
CONTINUOUS
 10
2481.7293330000002
 20
7150.2865239999992
 30
0.0
 40
162.0
  1
天井吊ベット
  0
TEXT
  5
7AD4
  8
4
  6
CONTINUOUS
 10
948.50278000000014
 20
7601.6429289999996
 30
0.0
 40
216.0
  1
ベルト駆動式片吸込両持多翼ファン
  0
LINE
  5
7AD5
  8
4
  6
CONTINUOUS
 10
750.0
 20
7408.2262629999996
 30
0.0
 11
5550.0
 21
7408.2262629999996
 31
0.0
  0
LINE
  5
7AD6
  8
4
  6
CONTINUOUS
 10
750.0
 20
8008.2262629999996
 30
0.0
 11
5550.0
 21
8008.2262629999996
 31
0.0
  0
LINE
  5
7AD7
  8
4
  6
CONTINUOUS
 10
1950.0
 20
1500.0
 30
0.0
 11
5550.0
 21
1500.0
 31
0.0
  0
LINE
  5
7AD8
  8
4
  6
CONTINUOUS
 10
750.0
 20
8008.2262629999996
 30
0.0
 11
750.0
 21
7408.2262629999996
 31
0.0
  0
TEXT
  5
7AD9
  8
4
  6
CONTINUOUS
 10
1174.1528370000001
 20
7146.9584329999998
 30
0.0
 40
162.0
  1
左回転右横向
  0
TEXT
  5
7ADA
  8
4
  6
CONTINUOUS
 10
4406.9086779999989
 20
8118.1832439999989
 30
0.0
 40
168.0
  1
No.
  0
TEXT
  5
7ADB
  8
4
  6
CONTINUOUS
 10
3933.8881879999999
 20
7150.2865239999992
 30
0.0
 40
162.0
  1
縮尺：1/30
  0
LINE
  5
7ADC
  8
4
  6
CONTINUOUS
 10
5550.0
 20
8008.2262629999996
 30
0.0
 11
5550.0
 21
7408.2262629999996
 31
0.0
  0
LINE
  5
7ADE
  8
4
  6
CONTINUOUS
 10
4321.8522670000002
 20
8043.7907490000007
 30
0.0
 11
4321.8522670000002
 21
8359.9567849999985
 31
0.0
  0
LINE
  5
7ADF
  8
4
  6
CONTINUOUS
 10
4321.8522670000002
 20
8359.9567849999985
 30
0.0
 11
5550.0
 21
8359.9567849999985
 31
0.0
  0
LINE
  5
7AE0
  8
4
  6
CONTINUOUS
 10
5550.0
 20
8359.9567849999985
 30
0.0
 11
5550.0
 21
8043.7907490000007
 31
0.0
  0
LINE
  5
7AE1
  8
4
  6
CONTINUOUS
 10
5550.0
 20
8043.7907490000007
 30
0.0
 11
4321.8522670000002
 21
8043.7907490000007
 31
0.0
  0
DIMENSION
  5
7AF9
  8
3
  6
CONTINUOUS
  2
*D1
 10
3074.4242678559299
 20
2928.54157067591
 30
0.0
 11
3074.424267855929
 21
3271.7831576759099
 31
0.0
 70
   128
 13
2871.54917285593
 23
3578.54157067591
 33
0.0
 14
2871.54917285593
 24
2928.54157067591
 34
0.0
 50
90.0
1001
ACAD
1000
DSTYLE
1002
{
1070
   287
1070
     3
1070
   287
1070
     3
1070
    40
1040
30.0
1070
   143
1040
0.039
1070
   172
1070
     1
1070
   271
1070
     0
1070
   279
1070
     0
1070
   288
1070
     1
1002
}
  0
DIMENSION
  5
7B06
  8
3
  6
CONTINUOUS
  2
*D2
 10
3269.1374068559312
 20
3548.54157067591
 30
0.0
 11
3269.1374068559298
 21
3271.7831576759099
 31
0.0
 70
   128
 13
2871.54917285593
 23
2928.54157067591
 33
0.0
 14
2975.4458408559299
 24
3548.54157067591
 34
0.0
 50
90.0
1001
ACAD
1000
DSTYLE
1002
{
1070
   287
1070
     3
1070
   287
1070
     3
1070
    40
1040
30.0
1070
   143
1040
0.039
1070
   172
1070
     1
1070
   271
1070
     0
1070
   279
1070
     0
1070
   288
1070
     1
1002
}
  0
DIMENSION
  5
7B1F
  8
3
  6
CONTINUOUS
  2
*D3
 10
3470.1316138559291
 20
2748.541570675909
 30
0.0
 11
3395.13161385593
 21
3148.5415706759109
 31
0.0
 70
     0
 13
2975.4458408559299
 23
3548.54157067591
 33
0.0
 14
2886.54917285593
 24
2748.54157067591
 34
0.0
 50
90.0
1001
ACAD
1000
DSTYLE
1002
{
1070
   287
1070
     4
1070
   287
1070
     4
1070
    40
1040
30.0
1070
    75
1070
     1
1070
   143
1040
0.039
1070
   172
1070
     1
1070
   271
1070
     0
1070
   279
1070
     1
1070
   288
1070
     1
1002
}
  0
DIMENSION
  5
7B39
  8
3
  6
CONTINUOUS
  2
*D4
 10
2386.54917285593
 20
2460.01963767591
 30
0.0
 11
1855.8968568559301
 21
2460.01963767591
 31
0.0
 70
   128
 13
1286.54917285593
 23
2748.54157067591
 33
0.0
 14
2386.54917285593
 24
2667.4945866759099
 34
0.0
1001
ACAD
1000
DSTYLE
1002
{
1070
   287
1070
     3
1070
   287
1070
     3
1070
    40
1040
30.0
1070
   143
1040
0.039
1070
   172
1070
     1
1070
   271
1070
     0
1070
   279
1070
     0
1070
   288
1070
     1
1002
}
  0
DIMENSION
  5
7B45
  8
3
  6
CONTINUOUS
  2
*D5
 10
2886.54917285593
 20
2460.01963767591
 30
0.0
 11
2636.54917285593
 21
2535.01963767591
 31
0.0
 70
     0
 13
2386.54917285593
 23
2667.4945866759099
 33
0.0
 14
2886.54917285593
 24
2748.54157067591
 34
0.0
1001
ACAD
1000
DSTYLE
1002
{
1070
   287
1070
     4
1070
   287
1070
     4
1070
    40
1040
30.0
1070
    75
1070
     1
1070
   143
1040
0.039
1070
   172
1070
     1
1070
   271
1070
     0
1070
   279
1070
     1
1070
   288
1070
     1
1002
}
  0
DIMENSION
  5
7B52
  8
3
  6
CONTINUOUS
  2
*D6
 10
2386.54917285593
 20
4210.2017946759097
 30
0.0
 11
2592.2634588559299
 21
4210.2017946759097
 31
0.0
 70
   128
 13
2871.54917285593
 23
3618.54157067591
 33
0.0
 14
2386.54917285593
 24
4194.2064586759097
 34
0.0
1001
ACAD
1000
DSTYLE
1002
{
1070
   287
1070
     3
1070
   287
1070
     3
1070
    40
1040
30.0
1070
   143
1040
0.039
1070
   172
1070
     1
1070
   271
1070
     0
1070
   279
1070
     0
1070
   288
1070
     1
1002
}
  0
DIMENSION
  5
7B6B
  8
3
  6
CONTINUOUS
  2
*D7
 10
4836.8224450000007
 20
4131.66015667591
 30
0.0
 11
4599.9410029999999
 21
4131.66015667591
 31
0.0
 70
   128
 13
4361.8224449999998
 23
4001.7960176759102
 33
0.0
 14
4836.8224450000007
 24
4001.7960176759102
 34
0.0
1001
ACAD
1000
DSTYLE
1002
{
1070
   287
1070
     3
1070
   287
1070
     3
1070
    40
1040
30.0
1070
   143
1040
0.039
1070
   172
1070
     1
1070
   271
1070
     0
1070
   279
1070
     0
1070
   288
1070
     1
1002
}
  0
LINE
  5
7B6C
  8
1
  6
CONTINUOUS
 10
4840.3224450000007
 20
3213.54157067591
 30
0.0
 11
4840.3224450000007
 21
3883.5415706759109
 31
0.0
  0
DIMENSION
  5
7B7B
  8
3
  6
CONTINUOUS
  2
*D8
 10
5077.3022650000012
 20
3213.54157067591
 30
0.0
 11
5077.3022650000003
 21
3535.3950976759102
 31
0.0
 70
   128
 13
4840.3224450000007
 23
3883.5415706759109
 33
0.0
 14
4840.3224450000007
 24
3213.54157067591
 34
0.0
 50
90.0
1001
ACAD
1000
DSTYLE
1002
{
1070
   287
1070
     3
1070
   287
1070
     3
1070
     3
1000
φ<>
1070
    40
1040
30.0
1070
   143
1040
0.039
1070
   172
1070
     1
1070
   271
1070
     0
1070
   279
1070
     0
1070
   288
1070
     1
1002
}
  0
DIMENSION
  5
7B95
  8
3
  6
CONTINUOUS
  2
*D9
 10
4119.3224449999998
 20
4351.3367566759107
 30
0.0
 11
4359.3224449999998
 21
4501.3367566759098
 31
0.0
 70
     0
  1
MAX\P530
 13
4599.3224450000007
 23
4280.3561603252247
 33
0.0
 14
4119.3224449999998
 24
3848.54157067591
 34
0.0
1001
ACAD
1000
DSTYLE
1002
{
1070
   287
1070
     3
1070
   287
1070
     3
1070
    40
1040
30.0
1070
   143
1040
0.039
1070
   172
1070
     1
1070
   271
1070
     0
1070
   279
1070
     0
1070
   288
1070
     1
1002
}
  0
DIMENSION
  5
7BA4
  8
3
  6
CONTINUOUS
  2
*D10
 10
4599.3224450000007
 20
2487.30028467591
 30
0.0
 11
4419.3224450000007
 21
2562.3665128423158
 31
0.0
 70
   128
 13
4239.3224449999998
 23
2748.54157067591
 33
0.0
 14
4599.3224450000007
 24
2669.00925967591
 34
0.0
1001
ACAD
1000
DSTYLE
1002
{
1070
   288
1070
     1
1070
   172
1070
     1
1070
    40
1040
30.0
1070
   271
1070
     0
1070
   143
1040
0.039
1002
}
  0
DIMENSION
  5
7BB2
  8
3
  6
CONTINUOUS
  2
*D11
 10
4939.3224450000007
 20
2487.30028467591
 30
0.0
 11
4791.8746160000001
 21
2490.52175067591
 31
0.0
 70
   128
 13
4599.3224450000007
 23
2669.00925967591
 33
0.0
 14
4939.3224450000007
 24
2748.54157067591
 34
0.0
1001
ACAD
1000
DSTYLE
1002
{
1070
   287
1070
     4
1070
   287
1070
     4
1070
    40
1040
30.0
1070
    75
1070
     1
1070
   143
1040
0.039
1070
   172
1070
     1
1070
   271
1070
     0
1070
   279
1070
     1
1070
   288
1070
     1
1002
}
  0
DIMENSION
  5
7BBF
  8
3
  6
CONTINUOUS
  2
*D12
 10
2886.54917285593
 20
6180.0654889999996
 30
0.0
 11
2094.5774718559301
 21
6180.0654889999996
 31
0.0
 70
   128
 13
1286.54917285593
 23
5900.0352789999997
 33
0.0
 14
2886.54917285593
 24
5900.0352789999997
 34
0.0
1001
ACAD
1000
DSTYLE
1002
{
1070
   287
1070
     3
1070
   287
1070
     3
1070
    40
1040
30.0
1070
   143
1040
0.039
1070
   172
1070
     1
1070
   271
1070
     0
1070
   279
1070
     0
1070
   288
1070
     1
1002
}
  0
DIMENSION
  5
7BCC
  8
3
  6
CONTINUOUS
  2
*D13
 10
3118.3917428559312
 20
5200.0352789999997
 30
0.0
 11
3118.3917428559298
 21
5564.3989190000011
 31
0.0
 70
   128
 13
2886.54917285593
 23
5900.0352789999997
 33
0.0
 14
2886.54917285593
 24
5200.0352789999997
 34
0.0
 50
90.0
1001
ACAD
1000
DSTYLE
1002
{
1070
   287
1070
     3
1070
   287
1070
     3
1070
    40
1040
30.0
1070
   143
1040
0.039
1070
   172
1070
     1
1070
   271
1070
     0
1070
   279
1070
     0
1070
   288
1070
     1
1002
}
  0
DIMENSION
  5
7C07
  8
3
  6
CONTINUOUS
  2
*D14
 10
1864.5491728559291
 20
4210.2017946759097
 30
0.0
 11
2125.5491728559291
 21
4285.2017946759097
 31
0.0
 70
     0
 13
2386.54917285593
 23
4194.2064586759097
 33
0.0
 14
1864.5491728559291
 24
3548.54157067591
 34
0.0
1001
ACAD
1000
DSTYLE
1002
{
1070
   287
1070
     4
1070
   287
1070
     4
1070
    40
1040
30.0
1070
    75
1070
     1
1070
   143
1040
0.039
1070
   172
1070
     1
1070
   271
1070
     0
1070
   279
1070
     1
1070
   288
1070
     1
1002
}
  0
DIMENSION
  5
7C74
  8
3
  6
CONTINUOUS
  2
*D15
 10
4840.3224450000007
 20
4351.3367566759107
 30
0.0
 11
4721.0105469999999
 21
4349.4236996759091
 31
0.0
 70
   128
 13
4599.3224450000007
 23
4280.3561603252247
 33
0.0
 14
4840.3224450000007
 24
3883.5415706759109
 34
0.0
1001
ACAD
1000
DSTYLE
1002
{
1070
   287
1070
     4
1070
   287
1070
     4
1070
    40
1040
30.0
1070
    75
1070
     1
1070
   143
1040
0.039
1070
   172
1070
     1
1070
   271
1070
     0
1070
   279
1070
     1
1070
   288
1070
     1
1002
}
  0
DIMENSION
  5
7CC2
  8
3
  2
*D16
 10
1286.54917285593
 20
4385.3370491136957
 30
0.0
 11
2216.1281915872601
 21
4385.3370491136957
 31
0.0
 70
   128
 13
2871.54917285593
 23
3618.54157067591
 33
0.0
 14
1286.54917285593
 24
2848.54157067591
 34
0.0
1001
ACAD
1000
DSTYLE
1002
{
1070
   287
1070
     3
1070
   287
1070
     3
1070
    40
1040
30.0
1070
   143
1040
0.039
1070
   172
1070
     1
1070
   271
1070
     0
1070
   279
1070
     0
1070
   288
1070
     1
1002
}
  0
LINE
  5
7D2B
  8
1
  6
CONTINUOUS
 10
1976.54917285593
 20
3826.2193681212611
 30
0.0
 11
1976.54917285593
 21
2848.54157067591
 31
0.0
  0
LINE
  5
7D2C
  8
1
  6
CONTINUOUS
 10
2796.54917285593
 20
3668.54157067591
 30
0.0
 11
2796.54917285593
 21
2848.54157067591
 31
0.0
  0
LINE
  5
7D2D
  8
1
  6
CONTINUOUS
 10
2796.54917285593
 20
3668.54157067591
 30
0.0
 11
1976.5491728559291
 21
3668.54157067591
 31
0.0
  0
DIMENSION
  5
7D2F
  8
3
  2
*D17
 10
3470.13161385593
 20
4001.7960176759102
 30
0.0
 11
3395.13161385593
 21
3775.168794175911
 31
0.0
 70
     0
  1
452
 13
2975.4458408559299
 23
3548.54157067591
 33
0.0
 14
2351.54917285593
 24
4001.7960176759102
 34
0.0
 50
90.0
1001
ACAD
1000
DSTYLE
1002
{
1070
   287
1070
     4
1070
   287
1070
     4
1070
    40
1040
30.0
1070
   143
1040
0.039
1070
   172
1070
     1
1070
   271
1070
     0
1070
   279
1070
     1
1070
   288
1070
     1
1002
}
  0
ENDSEC
  0
EOF
