  0
SECTION
  2
HEADER
  9
$ACADVER
  1
AC1009
  9
$INSBASE
 10
0.0
 20
0.0
 30
0.0
  9
$EXTMIN
 10
750.0
 20
900.0
 30
0.0
  9
$EXTMAX
 10
5550.0
 20
8359.9567849999985
 30
0.0
  9
$LIMMIN
 10
0.0
 20
0.0
  9
$LIMMAX
 10
297.0
 20
210.0
  9
$ORTHOMODE
 70
     0
  9
$REGENMODE
 70
     1
  9
$FILLMODE
 70
     0
  9
$QTEXTMODE
 70
     0
  9
$MIRRTEXT
 70
     1
  9
$DRAGMODE
 70
     2
  9
$LTSCALE
 40
100.0
  9
$OSMODE
 70
    37
  9
$ATTMODE
 70
     1
  9
$TEXTSIZE
 40
180.0
  9
$TRACEWID
 40
0.05
  9
$TEXTSTYLE
  7
STANDARD
  9
$CLAYER
  8
3
  9
$CELTYPE
  6
BYLAYER
  9
$CECOLOR
 62
   256
  9
$DIMSCALE
 40
30.0
  9
$DIMASZ
 40
2.0
  9
$DIMEXO
 40
0.5
  9
$DIMDLI
 40
10.0
  9
$DIMRND
 40
0.0
  9
$DIMDLE
 40
0.0
  9
$DIMEXE
 40
1.0
  9
$DIMTP
 40
1.0
  9
$DIMTM
 40
1.0
  9
$DIMTXT
 40
3.0
  9
$DIMCEN
 40
0.0
  9
$DIMTSZ
 40
0.0
  9
$DIMTOL
 70
     0
  9
$DIMLIM
 70
     0
  9
$DIMTIH
 70
     0
  9
$DIMTOH
 70
     0
  9
$DIMSE1
 70
     0
  9
$DIMSE2
 70
     0
  9
$DIMTAD
 70
     1
  9
$DIMZIN
 70
     8
  9
$DIMBLK
  1

  9
$DIMASO
 70
     1
  9
$DIMSHO
 70
     1
  9
$DIMPOST
  1

  9
$DIMAPOST
  1

  9
$DIMALT
 70
     0
  9
$DIMALTD
 70
     2
  9
$DIMALTF
 40
0.039
  9
$DIMLFAC
 40
1.0
  9
$DIMTOFL
 70
     1
  9
$DIMTVP
 40
0.0
  9
$DIMTIX
 70
     0
  9
$DIMSOXD
 70
     0
  9
$DIMSAH
 70
     1
  9
$DIMBLK1
  1
OPEN
  9
$DIMBLK2
  1
OPEN
  9
$DIMSTYLE
  2
IGA
  9
$DIMCLRD
 70
     0
  9
$DIMCLRE
 70
     0
  9
$DIMCLRT
 70
     0
  9
$DIMTFAC
 40
10.0
  9
$DIMGAP
 40
1.0
  9
$LUNITS
 70
     2
  9
$LUPREC
 70
     3
  9
$SKETCHINC
 40
0.1
  9
$FILLETRAD
 40
50.0
  9
$AUNITS
 70
     0
  9
$AUPREC
 70
     0
  9
$MENU
  1
acad
  9
$ELEVATION
 40
0.0
  9
$PELEVATION
 40
0.0
  9
$THICKNESS
 40
0.0
  9
$LIMCHECK
 70
     0
  9
$BLIPMODE
 70
     0
  9
$CHAMFERA
 40
0.5
  9
$CHAMFERB
 40
0.5
  9
$SKPOLY
 70
     0
  9
$TDCREATE
 40
2450738.6593982629
  9
$TDUPDATE
 40
2454953.7704229858
  9
$TDINDWG
 40
0.0064219444
  9
$TDUSRTIMER
 40
0.0064219444
  9
$USRTIMER
 70
     1
  9
$ANGBASE
 50
0.0
  9
$ANGDIR
 70
     0
  9
$PDMODE
 70
     0
  9
$PDSIZE
 40
0.0
  9
$PLINEWID
 40
0.0
  9
$COORDS
 70
     1
  9
$SPLFRAME
 70
     0
  9
$SPLINETYPE
 70
     6
  9
$SPLINESEGS
 70
     8
  9
$ATTDIA
 70
     0
  9
$ATTREQ
 70
     1
  9
$HANDLING
 70
 10241
  9
$HANDSEED
  5
7F64
  9
$SURFTAB1
 70
     6
  9
$SURFTAB2
 70
     6
  9
$SURFTYPE
 70
     6
  9
$SURFU
 70
     6
  9
$SURFV
 70
     6
  9
$UCSNAME
  2

  9
$UCSORG
 10
0.0
 20
0.0
 30
0.0
  9
$UCSXDIR
 10
1.0
 20
0.0
 30
0.0
  9
$UCSYDIR
 10
0.0
 20
1.0
 30
0.0
  9
$PUCSNAME
  2

  9
$PUCSORG
 10
0.0
 20
0.0
 30
0.0
  9
$PUCSXDIR
 10
1.0
 20
0.0
 30
0.0
  9
$PUCSYDIR
 10
0.0
 20
1.0
 30
0.0
  9
$USERI1
 70
     0
  9
$USERI2
 70
     0
  9
$USERI3
 70
     0
  9
$USERI4
 70
     0
  9
$USERI5
 70
     0
  9
$USERR1
 40
0.0
  9
$USERR2
 40
0.0
  9
$USERR3
 40
0.0
  9
$USERR4
 40
0.0
  9
$USERR5
 40
0.0
  9
$WORLDVIEW
 70
     1
  9
$SHADEDGE
 70
     3
  9
$SHADEDIF
 70
    70
  9
$TILEMODE
 70
     1
  9
$MAXACTVP
 70
    16
  9
$PLIMCHECK
 70
     0
  9
$PEXTMIN
 10
1.0000000000000000E+020
 20
1.0000000000000000E+020
 30
1.0000000000000000E+020
  9
$PEXTMAX
 10
-1.0000000000000000E+020
 20
-1.0000000000000000E+020
 30
-1.0000000000000000E+020
  9
$PLIMMIN
 10
0.0
 20
0.0
  9
$PLIMMAX
 10
12.0
 20
9.0
  9
$UNITMODE
 70
     0
  9
$VISRETAIN
 70
     0
  9
$PLINEGEN
 70
     0
  9
$PSLTSCALE
 70
     1
  0
ENDSEC
  0
SECTION
  2
TABLES
  0
TABLE
  2
VPORT
 70
     2
  0
VPORT
  2
*ACTIVE
 70
     0
 10
0.0
 20
0.0
 11
1.0
 21
1.0
 12
9438.4567678319436
 22
4630.0975558305709
 13
0.0
 23
0.0
 14
10.0
 24
10.0
 15
10.0
 25
10.0
 16
0.0
 26
0.0
 36
1.0
 17
0.0
 27
0.0
 37
0.0
 40
7517.4747125171307
 41
3.1666666666666661
 42
50.0
 43
0.0
 44
0.0
 50
0.0
 51
0.0
 71
     0
 72
   100
 73
     1
 74
     0
 75
     0
 76
     0
 77
     0
 78
     0
  0
ENDTAB
  0
TABLE
  2
LTYPE
 70
     2
  0
LTYPE
  2
CONTINUOUS
 70
     0
  3
Solid line
 72
    65
 73
     0
 40
0.0
  0
LTYPE
  2
CENTER
 70
     0
  3
____ _ ____ _ ____ _ ____ _ ____ _ ____ _ ____ 
 72
    65
 73
     4
 40
2.0
 49
1.25
 49
-0.25
 49
0.25
 49
-0.25
  0
ENDTAB
  0
TABLE
  2
LAYER
 70
     6
  0
LAYER
  2
0
 70
     0
 62
     7
  6
CONTINUOUS
  0
LAYER
  2
3
 70
     0
 62
     2
  6
CONTINUOUS
  0
LAYER
  2
2
 70
     0
 62
     3
  6
CENTER
  0
LAYER
  2
1
 70
     0
 62
     4
  6
CONTINUOUS
  0
LAYER
  2
4
 70
     0
 62
     7
  6
CONTINUOUS
  0
LAYER
  2
DEFPOINTS
 70
     0
 62
     7
  6
CONTINUOUS
  0
ENDTAB
  0
TABLE
  2
STYLE
 70
     1
  0
STYLE
  2
STANDARD
 70
     0
 40
0.0
 41
1.0
 50
0.0
 71
     0
 42
180.0
  3
simplex.shx
  4
extfont.shx
  0
ENDTAB
  0
TABLE
  2
VIEW
 70
     0
  0
ENDTAB
  0
TABLE
  2
UCS
 70
     0
  0
ENDTAB
  0
TABLE
  2
APPID
 70
     1
  0
APPID
  2
ACAD
 70
     0
  0
ENDTAB
  0
TABLE
  2
DIMSTYLE
 70
     1
  0
DIMSTYLE
  2
IGA
 70
     0
  3

  4

  5

  6
OPEN
  7
OPEN
 40
2.0
 41
2.0
 42
0.5
 43
10.0
 44
1.0
 45
0.0
 46
0.0
 47
1.0
 48
1.0
140
3.0
141
0.0
142
0.0
143
0.03937
144
1.0
145
0.0
146
10.0
147
1.0
 71
     0
 72
     0
 73
     0
 74
     0
 75
     0
 76
     0
 77
     1
 78
     8
170
     0
171
     2
172
     0
173
     1
174
     0
175
     0
176
     0
177
     0
178
     0
  0
ENDTAB
  0
ENDSEC
  0
SECTION
  2
BLOCKS
  0
BLOCK
  8
0
  2
$MODEL_SPACE
 70
     0
 10
0.0
 20
0.0
 30
0.0
  3
$MODEL_SPACE
  1

  0
ENDBLK
  5
1B
  8
0
  0
BLOCK
 67
     1
  8
0
  2
$PAPER_SPACE
 70
     0
 10
0.0
 20
0.0
 30
0.0
  3
$PAPER_SPACE
  1

  0
ENDBLK
  5
18
 67
     1
  8
0
  0
BLOCK
  8
0
  2
_OPEN
 70
     0
 10
0.0
 20
0.0
 30
0.0
  3
_OPEN
  1

  0
LINE
  5
7B6E
  8
0
  6
BYBLOCK
 62
     0
 10
-1.0
 20
0.166667
 30
0.0
 11
0.0
 21
0.0
 31
0.0
  0
LINE
  5
7B6F
  8
0
  6
BYBLOCK
 62
     0
 10
0.0
 20
0.0
 30
0.0
 11
-1.0
 21
-0.166667
 31
0.0
  0
LINE
  5
7B70
  8
0
  6
BYBLOCK
 62
     0
 10
0.0
 20
0.0
 30
0.0
 11
-1.0
 21
0.0
 31
0.0
  0
ENDBLK
  5
7B71
  8
0
  0
BLOCK
  8
0
  2
*D1
 70
     1
 10
0.0
 20
0.0
 30
0.0
  3
*D1
  1

  0
LINE
  5
7ED1
  8
3
  6
CONTINUOUS
 62
     0
 10
2590.3031070000002
 20
3816.9974520000001
 30
0.0
 11
2590.3031070000002
 21
4056.23875
 31
0.0
  0
LINE
  5
7ED2
  8
3
  6
CONTINUOUS
 62
     0
 10
1940.303107
 20
3816.9974520000001
 30
0.0
 11
1940.303107
 21
4056.23875
 31
0.0
  0
LINE
  5
7ED3
  8
3
  6
CONTINUOUS
 62
     0
 10
2530.3031070000002
 20
4026.23875
 30
0.0
 11
2000.303107
 21
4026.23875
 31
0.0
  0
INSERT
  5
7ED4
  8
3
  6
CONTINUOUS
 62
     0
  2
_OPEN
 10
2590.3031070000002
 20
4026.23875
 30
0.0
 41
60.0
 42
60.0
 43
60.0
  0
INSERT
  5
7ED5
  8
3
  6
CONTINUOUS
 62
     0
  2
_OPEN
 10
1940.303107
 20
4026.23875
 30
0.0
 41
60.0
 42
60.0
 43
60.0
 50
180.0
  0
TEXT
  8
3
  40
90
  5
7F54
  62
0
  72
0
  71
0
 10
2057.75
 20
3941.94
 30
0.000000
  1
650
  0
POINT
  5
7ED7
  8
DEFPOINTS
  6
CONTINUOUS
 62
     0
 10
2590.3031070000002
 20
3801.9974520000001
 30
0.0
  0
POINT
  5
7ED8
  8
DEFPOINTS
  6
CONTINUOUS
 62
     0
 10
1940.303107
 20
3801.9974520000001
 30
0.0
  0
POINT
  5
7ED9
  8
DEFPOINTS
  6
CONTINUOUS
 62
     0
 10
1940.303107
 20
4026.23875
 30
0.0
  0
ENDBLK
  5
7C6C
  8
0
  0
BLOCK
  8
0
  2
*D2
 70
     1
 10
0.0
 20
0.0
 30
0.0
  3
*D2
  1

  0
LINE
  5
7EDA
  8
3
  6
CONTINUOUS
 62
     0
 10
2590.3031070000002
 20
3816.9974520000001
 30
0.0
 11
2590.3031070000002
 21
4237.2662499999997
 31
0.0
  0
LINE
  5
7EDB
  8
3
  6
CONTINUOUS
 62
     0
 10
1970.303107
 20
4101.5456510000013
 30
0.0
 11
1970.303107
 21
4237.2662499999997
 31
0.0
  0
LINE
  5
7EDC
  8
3
  6
CONTINUOUS
 62
     0
 10
2530.3031070000002
 20
4207.2662499999988
 30
0.0
 11
2030.303106999999
 21
4207.2662499999988
 31
0.0
  0
INSERT
  5
7EDD
  8
3
  6
CONTINUOUS
 62
     0
  2
_OPEN
 10
2590.3031070000002
 20
4207.2662499999988
 30
0.0
 41
60.0
 42
60.0
 43
60.0
  0
INSERT
  5
7EDE
  8
3
  6
CONTINUOUS
 62
     0
  2
_OPEN
 10
1970.303107
 20
4207.2662499999988
 30
0.0
 41
60.0
 42
60.0
 43
60.0
 50
180.0
  0
TEXT
  8
3
  40
90
  5
7F55
  62
0
  72
0
  71
0
 10
2046.42
 20
4122.97
 30
0.000000
  1
620
  0
POINT
  5
7EE0
  8
DEFPOINTS
  6
CONTINUOUS
 62
     0
 10
2590.3031070000002
 20
3801.9974520000001
 30
0.0
  0
POINT
  5
7EE1
  8
DEFPOINTS
  6
CONTINUOUS
 62
     0
 10
1970.303107
 20
4086.5456509999999
 30
0.0
  0
POINT
  5
7EE2
  8
DEFPOINTS
  6
CONTINUOUS
 62
     0
 10
1970.303107
 20
4207.2662499999988
 30
0.0
  0
ENDBLK
  5
7C61
  8
0
  0
BLOCK
  8
0
  2
*D3
 70
     1
 10
0.0
 20
0.0
 30
0.0
  3
*D3
  1

  0
LINE
  5
7EE3
  8
3
  6
CONTINUOUS
 62
     0
 10
1885.303107
 20
3801.9974520000001
 30
0.0
 11
1313.0924190000001
 21
3801.9974520000001
 31
0.0
  0
LINE
  5
7EE4
  8
3
  6
CONTINUOUS
 62
     0
 10
1358.5610879999999
 20
3316.9974520000001
 30
0.0
 11
1313.0924190000001
 21
3316.9974520000001
 31
0.0
  0
LINE
  5
7EE5
  8
3
  6
CONTINUOUS
 62
     0
 10
1343.0924190000001
 20
3741.9974520000001
 30
0.0
 11
1343.0924190000001
 21
3376.9974519999992
 31
0.0
  0
INSERT
  5
7EE6
  8
3
  6
CONTINUOUS
 62
     0
  2
_OPEN
 10
1343.0924190000001
 20
3801.9974520000001
 30
0.0
 41
60.0
 42
60.0
 43
60.0
 50
90.0
  0
INSERT
  5
7EE7
  8
3
  6
CONTINUOUS
 62
     0
  2
_OPEN
 10
1343.0924190000001
 20
3316.9974520000001
 30
0.0
 41
60.0
 42
60.0
 43
60.0
 50
270.0
  0
TEXT
  8
3
  40
90
  5
7F56
  62
0
  72
0
  71
0
 10
1088.09
 20
3400.56
 30
0.000000
  1
485
  0
POINT
  5
7EE9
  8
DEFPOINTS
  6
CONTINUOUS
 62
     0
 10
1900.303107
 20
3801.9974520000001
 30
0.0
  0
POINT
  5
7EEA
  8
DEFPOINTS
  6
CONTINUOUS
 62
     0
 10
1373.5610879999999
 20
3316.9974520000001
 30
0.0
  0
POINT
  5
7EEB
  8
DEFPOINTS
  6
CONTINUOUS
 62
     0
 10
1343.0924190000001
 20
3316.9974520000001
 30
0.0
  0
ENDBLK
  5
7BA4
  8
0
  0
BLOCK
  8
0
  2
*D4
 70
     1
 10
0.0
 20
0.0
 30
0.0
  3
*D4
  1

  0
LINE
  5
7EEC
  8
3
  6
CONTINUOUS
 62
     0
 10
1455.303106999999
 20
2746.9974520000001
 30
0.0
 11
1313.0924189999989
 21
2746.9974520000001
 31
0.0
  0
LINE
  5
7EED
  8
3
  6
CONTINUOUS
 62
     0
 10
1343.0924189999989
 20
3256.9974520000001
 30
0.0
 11
1343.0924189999989
 21
2806.9974520000001
 31
0.0
  0
INSERT
  5
7EEE
  8
3
  6
CONTINUOUS
 62
     0
  2
_OPEN
 10
1343.0924189999989
 20
3316.9974520000001
 30
0.0
 41
60.0
 42
60.0
 43
60.0
 50
90.0
  0
INSERT
  5
7EEF
  8
3
  6
CONTINUOUS
 62
     0
  2
_OPEN
 10
1343.0924189999989
 20
2746.9974520000001
 30
0.0
 41
60.0
 42
60.0
 43
60.0
 50
270.0
  0
TEXT
  8
3
  40
90
  5
7F57
  62
0
  72
0
  71
0
 10
1088.09
 20
2872.70
 30
0.000000
  1
570
  0
POINT
  5
7EF1
  8
DEFPOINTS
  6
CONTINUOUS
 62
     0
 10
1373.5610879999999
 20
3316.9974520000001
 30
0.0
  0
POINT
  5
7EF2
  8
DEFPOINTS
  6
CONTINUOUS
 62
     0
 10
1470.303107
 20
2746.9974520000001
 30
0.0
  0
POINT
  5
7EF3
  8
DEFPOINTS
  6
CONTINUOUS
 62
     0
 10
1343.0924189999989
 20
2746.9974520000001
 30
0.0
  0
ENDBLK
  5
7BB0
  8
0
  0
BLOCK
  8
0
  2
*D5
 70
     1
 10
0.0
 20
0.0
 30
0.0
  3
*D5
  1

  0
LINE
  5
7EF4
  8
3
  6
CONTINUOUS
 62
     0
 10
1870.303107
 20
3801.9974520000001
 30
0.0
 11
1114.9089670000001
 21
3801.9974520000001
 31
0.0
  0
LINE
  5
7EF5
  8
3
  6
CONTINUOUS
 62
     0
 10
1455.303106999999
 20
2746.9974520000001
 30
0.0
 11
1114.9089670000001
 21
2746.9974520000001
 31
0.0
  0
LINE
  5
7EF6
  8
3
  6
CONTINUOUS
 62
     0
 10
1144.9089670000001
 20
3741.9974520000001
 30
0.0
 11
1144.9089670000001
 21
2806.9974520000001
 31
0.0
  0
INSERT
  5
7EF7
  8
3
  6
CONTINUOUS
 62
     0
  2
_OPEN
 10
1144.9089670000001
 20
3801.9974520000001
 30
0.0
 41
60.0
 42
60.0
 43
60.0
 50
90.0
  0
INSERT
  5
7EF8
  8
3
  6
CONTINUOUS
 62
     0
  2
_OPEN
 10
1144.9089670000001
 20
2746.9974520000001
 30
0.0
 41
60.0
 42
60.0
 43
60.0
 50
270.0
  0
TEXT
  8
3
  40
90
  5
7F58
  62
0
  72
0
  71
0
 10
889.909
 20
3061.13
 30
0.000000
  1
1055
  0
POINT
  5
7EFA
  8
DEFPOINTS
  6
CONTINUOUS
 62
     0
 10
1885.303107
 20
3801.9974520000001
 30
0.0
  0
POINT
  5
7EFB
  8
DEFPOINTS
  6
CONTINUOUS
 62
     0
 10
1470.303107
 20
2746.9974520000001
 30
0.0
  0
POINT
  5
7EFC
  8
DEFPOINTS
  6
CONTINUOUS
 62
     0
 10
1144.9089670000001
 20
2746.9974520000001
 30
0.0
  0
ENDBLK
  5
7BBD
  8
0
  0
BLOCK
  8
0
  2
*D6
 70
     1
 10
0.0
 20
0.0
 30
0.0
  3
*D6
  1

  0
LINE
  5
7EFD
  8
3
  6
CONTINUOUS
 62
     0
 10
1470.303107
 20
2731.9974520000001
 30
0.0
 11
1470.303107
 21
2466.1887750000001
 31
0.0
  0
LINE
  5
7EFE
  8
3
  6
CONTINUOUS
 62
     0
 10
1970.303107
 20
2601.5289309999998
 30
0.0
 11
1970.303107
 21
2466.1887750000001
 31
0.0
  0
LINE
  5
7EFF
  8
3
  6
CONTINUOUS
 62
     0
 10
1530.303106999999
 20
2496.1887750000001
 30
0.0
 11
1910.303107
 21
2496.1887750000001
 31
0.0
  0
INSERT
  5
7F00
  8
3
  6
CONTINUOUS
 62
     0
  2
_OPEN
 10
1470.303107
 20
2496.1887750000001
 30
0.0
 41
60.0
 42
60.0
 43
60.0
 50
180.0
  0
INSERT
  5
7F01
  8
3
  6
CONTINUOUS
 62
     0
  2
_OPEN
 10
1970.303107
 20
2496.1887750000001
 30
0.0
 41
60.0
 42
60.0
 43
60.0
  0
TEXT
  8
3
  40
90
  5
7F59
  62
0
  72
0
  71
0
 10
1548.13
 20
2411.89
 30
0.000000
  1
500
  0
POINT
  5
7F03
  8
DEFPOINTS
  6
CONTINUOUS
 62
     0
 10
1470.303107
 20
2746.9974520000001
 30
0.0
  0
POINT
  5
7F04
  8
DEFPOINTS
  6
CONTINUOUS
 62
     0
 10
1970.303107
 20
2616.5289309999989
 30
0.0
  0
POINT
  5
7F05
  8
DEFPOINTS
  6
CONTINUOUS
 62
     0
 10
1970.303107
 20
2496.1887750000001
 30
0.0
  0
ENDBLK
  5
7C8B
  8
0
  0
BLOCK
  8
0
  2
*D7
 70
     1
 10
0.0
 20
0.0
 30
0.0
  3
*D7
  1

  0
LINE
  5
7F06
  8
3
  6
CONTINUOUS
 62
     0
 10
3070.3031070000002
 20
2731.9974520000001
 30
0.0
 11
3070.3031070000002
 21
2466.1887750000001
 31
0.0
  0
LINE
  5
7F07
  8
3
  6
CONTINUOUS
 62
     0
 10
2030.303106999999
 20
2496.1887750000001
 30
0.0
 11
3010.3031070000002
 21
2496.1887750000001
 31
0.0
  0
INSERT
  5
7F08
  8
3
  6
CONTINUOUS
 62
     0
  2
_OPEN
 10
1970.303107
 20
2496.1887750000001
 30
0.0
 41
60.0
 42
60.0
 43
60.0
 50
180.0
  0
INSERT
  5
7F09
  8
3
  6
CONTINUOUS
 62
     0
  2
_OPEN
 10
3070.3031070000002
 20
2496.1887750000001
 30
0.0
 41
60.0
 42
60.0
 43
60.0
  0
TEXT
  8
3
  40
90
  5
7F5A
  62
0
  72
0
  71
0
 10
2340.30
 20
2411.89
 30
0.000000
  1
1100
  0
POINT
  5
7F0B
  8
DEFPOINTS
  6
CONTINUOUS
 62
     0
 10
1970.303107
 20
2616.5289309999989
 30
0.0
  0
POINT
  5
7F0C
  8
DEFPOINTS
  6
CONTINUOUS
 62
     0
 10
3070.3031070000002
 20
2746.9974520000001
 30
0.0
  0
POINT
  5
7F0D
  8
DEFPOINTS
  6
CONTINUOUS
 62
     0
 10
3070.3031070000002
 20
2496.1887750000001
 30
0.0
  0
ENDBLK
  5
7C80
  8
0
  0
BLOCK
  8
0
  2
*D8
 70
     1
 10
0.0
 20
0.0
 30
0.0
  3
*D8
  1

  0
LINE
  5
7F0E
  8
3
  6
CONTINUOUS
 62
     0
 10
5016.5156479999996
 20
3816.9974520000001
 30
0.0
 11
5016.5156479999996
 21
3991.1805169999998
 31
0.0
  0
LINE
  5
7F0F
  8
3
  6
CONTINUOUS
 62
     0
 10
4541.5156479999987
 20
3816.9974520000001
 30
0.0
 11
4541.5156479999987
 21
3991.1805169999998
 31
0.0
  0
LINE
  5
7F10
  8
3
  6
CONTINUOUS
 62
     0
 10
4956.5156479999987
 20
3961.1805169999998
 30
0.0
 11
4601.5156479999987
 21
3961.1805169999998
 31
0.0
  0
INSERT
  5
7F11
  8
3
  6
CONTINUOUS
 62
     0
  2
_OPEN
 10
5016.5156479999996
 20
3961.1805169999998
 30
0.0
 41
60.0
 42
60.0
 43
60.0
  0
INSERT
  5
7F12
  8
3
  6
CONTINUOUS
 62
     0
  2
_OPEN
 10
4541.5156479999987
 20
3961.1805169999998
 30
0.0
 41
60.0
 42
60.0
 43
60.0
 50
180.0
  0
TEXT
  8
3
  40
90
  5
7F5B
  62
0
  72
0
  71
0
 10
4600.41
 20
3876.88
 30
0.000000
  1
475
  0
POINT
  5
7F14
  8
DEFPOINTS
  6
CONTINUOUS
 62
     0
 10
5016.5156479999996
 20
3801.9974520000001
 30
0.0
  0
POINT
  5
7F15
  8
DEFPOINTS
  6
CONTINUOUS
 62
     0
 10
4541.5156479999987
 20
3801.9974520000001
 30
0.0
  0
POINT
  5
7F16
  8
DEFPOINTS
  6
CONTINUOUS
 62
     0
 10
4541.5156479999987
 20
3961.1805169999998
 30
0.0
  0
ENDBLK
  5
7CFB
  8
0
  0
BLOCK
  8
0
  2
*D9
 70
     1
 10
0.0
 20
0.0
 30
0.0
  3
*D9
  1

  0
LINE
  5
7F17
  8
3
  6
CONTINUOUS
 62
     0
 10
5035.0156479999987
 20
3651.9974520000001
 30
0.0
 11
5291.7084619999996
 21
3651.9974519999992
 31
0.0
  0
LINE
  5
7F18
  8
3
  6
CONTINUOUS
 62
     0
 10
5035.0156479999987
 20
2981.9974520000001
 30
0.0
 11
5291.7084619999996
 21
2981.9974519999992
 31
0.0
  0
LINE
  5
7F19
  8
3
  6
CONTINUOUS
 62
     0
 10
5261.7084620000014
 20
3591.9974520000001
 30
0.0
 11
5261.7084620000014
 21
3041.9974519999992
 31
0.0
  0
INSERT
  5
7F1A
  8
3
  6
CONTINUOUS
 62
     0
  2
_OPEN
 10
5261.7084620000014
 20
3651.9974519999992
 30
0.0
 41
60.0
 42
60.0
 43
60.0
 50
90.0
  0
INSERT
  5
7F1B
  8
3
  6
CONTINUOUS
 62
     0
  2
_OPEN
 10
5261.7084620000014
 20
2981.9974519999992
 30
0.0
 41
60.0
 42
60.0
 43
60.0
 50
270.0
  0
TEXT
  8
3
  40
90
  5
7F5C
  62
0
  72
0
  71
0
 10
5006.71
 20
3185.59
 30
0.000000
  1
φ670
  0
POINT
  5
7F1D
  8
DEFPOINTS
  6
CONTINUOUS
 62
     0
 10
5020.0156479999996
 20
3651.9974520000001
 30
0.0
  0
POINT
  5
7F1E
  8
DEFPOINTS
  6
CONTINUOUS
 62
     0
 10
5020.0156479999996
 20
2981.9974520000001
 30
0.0
  0
POINT
  5
7F1F
  8
DEFPOINTS
  6
CONTINUOUS
 62
     0
 10
5261.7084620000014
 20
2981.9974519999992
 30
0.0
  0
ENDBLK
  5
7DDF
  8
0
  0
BLOCK
  8
0
  2
*D10
 70
     1
 10
0.0
 20
0.0
 30
0.0
  3
*D10
  1

  0
LINE
  5
7F20
  8
3
  6
CONTINUOUS
 62
     0
 10
4779.0156479999996
 20
4118.2351079999989
 30
0.0
 11
4779.0156479999996
 21
4189.2051679999986
 31
0.0
  0
LINE
  5
7F21
  8
3
  6
CONTINUOUS
 62
     0
 10
4299.0156479999996
 20
3861.9974520000001
 30
0.0
 11
4299.0156479999996
 21
4189.2051679999986
 31
0.0
  0
LINE
  5
7F22
  8
3
  6
CONTINUOUS
 62
     0
 10
4719.0156479999996
 20
4159.2051680000004
 30
0.0
 11
4359.0156479999987
 21
4159.2051680000004
 31
0.0
  0
INSERT
  5
7F23
  8
3
  6
CONTINUOUS
 62
     0
  2
_OPEN
 10
4779.0156479999996
 20
4159.2051680000004
 30
0.0
 41
60.0
 42
60.0
 43
60.0
  0
INSERT
  5
7F24
  8
3
  6
CONTINUOUS
 62
     0
  2
_OPEN
 10
4299.0156479999996
 20
4159.2051680000004
 30
0.0
 41
60.0
 42
60.0
 43
60.0
 50
180.0
  0
TEXT
  8
3
  40
90
  5
7F5D
  62
0
  72
0
  71
0
 10
4359.02
 20
4149.91
 30
0.000000
  1
MAX
  0
TEXT
  8
3
  40
90
  5
7F5E
  62
0
  72
0
  71
0
 10
4359.02
 20
4032.91
 30
0.000000
  1
530
  0
POINT
  5
7F26
  8
DEFPOINTS
  6
CONTINUOUS
 62
     0
 10
4779.0156479999996
 20
4103.2351079999989
 30
0.0
  0
POINT
  5
7F27
  8
DEFPOINTS
  6
CONTINUOUS
 62
     0
 10
4299.0156479999996
 20
3846.9974520000001
 30
0.0
  0
POINT
  5
7F28
  8
DEFPOINTS
  6
CONTINUOUS
 62
     0
 10
4299.0156479999996
 20
4159.2051680000004
 30
0.0
  0
ENDBLK
  5
7DBE
  8
0
  0
BLOCK
  8
0
  2
*D11
 70
     1
 10
0.0
 20
0.0
 30
0.0
  3
*D11
  1

  0
LINE
  5
7DCB
  8
0
  6
BYBLOCK
 62
     0
 10
4419.0156479999996
 20
2731.9974520000001
 30
0.0
 11
4419.0156479999996
 21
2455.3464289999988
 31
0.0
  0
LINE
  5
7DCC
  8
0
  6
BYBLOCK
 62
     0
 10
4779.0156479999996
 20
2616.9316749999998
 30
0.0
 11
4779.0156479999996
 21
2455.3464289999988
 31
0.0
  0
LINE
  5
7DCD
  8
0
  6
BYBLOCK
 62
     0
 10
4479.0156479999987
 20
2485.3464289999988
 30
0.0
 11
4719.0156479999996
 21
2485.3464289999988
 31
0.0
  0
TEXT
  5
7DCE
  8
3
 62
     0
 10
4483.3013622857143
 20
2512.7769377224581
 30
0.0
 40
90.0
  1
360
  0
INSERT
  5
7DCF
  8
0
  6
BYBLOCK
 62
     0
  2
_OPEN
 10
4419.0156479999996
 20
2485.3464289999988
 30
0.0
 41
60.0
 42
60.0
 43
60.0
 50
180.0
  0
INSERT
  5
7DD0
  8
0
  6
BYBLOCK
 62
     0
  2
_OPEN
 10
4779.0156479999996
 20
2485.3464289999988
 30
0.0
 41
60.0
 42
60.0
 43
60.0
  0
POINT
  5
7DD1
  8
DEFPOINTS
  6
BYBLOCK
 62
     0
 10
4419.0156479999996
 20
2746.9974520000001
 30
0.0
  0
POINT
  5
7DD2
  8
DEFPOINTS
  6
BYBLOCK
 62
     0
 10
4779.0156479999996
 20
2631.9316749999998
 30
0.0
  0
POINT
  5
7DD3
  8
DEFPOINTS
  6
BYBLOCK
 62
     0
 10
4779.0156479999996
 20
2485.3464289999988
 30
0.0
  0
ENDBLK
  5
7DD4
  8
0
  0
BLOCK
  8
0
  2
*D12
 70
     1
 10
0.0
 20
0.0
 30
0.0
  3
*D12
  1

  0
LINE
  5
7F29
  8
3
  6
CONTINUOUS
 62
     0
 10
5119.0156479999996
 20
2731.9974520000001
 30
0.0
 11
5119.0156479999996
 21
2455.3464289999988
 31
0.0
  0
LINE
  5
7F2A
  8
3
  6
CONTINUOUS
 62
     0
 10
4839.0156479999996
 20
2485.3464289999988
 30
0.0
 11
5059.0156479999987
 21
2485.3464289999988
 31
0.0
  0
TEXT
  8
3
  40
90
  5
7F5F
  62
0
  72
0
  71
0
 10
4790.37
 20
2402.10
 30
0.000000
  1
340
  0
INSERT
  5
7F2C
  8
3
  6
CONTINUOUS
 62
     0
  2
_OPEN
 10
4779.0156479999996
 20
2485.3464289999988
 30
0.0
 41
60.0
 42
60.0
 43
60.0
 50
180.0
  0
INSERT
  5
7F2D
  8
3
  6
CONTINUOUS
 62
     0
  2
_OPEN
 10
5119.0156479999996
 20
2485.3464289999988
 30
0.0
 41
60.0
 42
60.0
 43
60.0
  0
POINT
  5
7F2E
  8
DEFPOINTS
  6
CONTINUOUS
 62
     0
 10
4779.0156479999996
 20
2631.9316749999998
 30
0.0
  0
POINT
  5
7F2F
  8
DEFPOINTS
  6
CONTINUOUS
 62
     0
 10
5119.0156479999996
 20
2746.9974520000001
 30
0.0
  0
POINT
  5
7F30
  8
DEFPOINTS
  6
CONTINUOUS
 62
     0
 10
5119.0156479999996
 20
2485.3464289999988
 30
0.0
  0
ENDBLK
  5
7CF0
  8
0
  0
BLOCK
  8
0
  2
*D13
 70
     1
 10
0.0
 20
0.0
 30
0.0
  3
*D13
  1

  0
LINE
  5
7F31
  8
3
  6
CONTINUOUS
 62
     0
 10
1470.303107
 20
5973.8675400000002
 30
0.0
 11
1470.303107
 21
6231.9945870000001
 31
0.0
  0
LINE
  5
7F32
  8
3
  6
CONTINUOUS
 62
     0
 10
3070.3031070000002
 20
5973.8675400000002
 30
0.0
 11
3070.3031070000002
 21
6231.9945870000001
 31
0.0
  0
LINE
  5
7F33
  8
3
  6
CONTINUOUS
 62
     0
 10
1530.303106999999
 20
6201.9945870000001
 30
0.0
 11
3010.3031070000002
 21
6201.9945870000001
 31
0.0
  0
INSERT
  5
7F34
  8
3
  6
CONTINUOUS
 62
     0
  2
_OPEN
 10
1470.303107
 20
6201.9945870000001
 30
0.0
 41
60.0
 42
60.0
 43
60.0
 50
180.0
  0
INSERT
  5
7F35
  8
3
  6
CONTINUOUS
 62
     0
  2
_OPEN
 10
3070.3031070000002
 20
6201.9945870000001
 30
0.0
 41
60.0
 42
60.0
 43
60.0
  0
TEXT
  8
3
  40
90
  5
7F60
  62
0
  72
0
  71
0
 10
2069.07
 20
6117.69
 30
0.000000
  1
1600
  0
POINT
  5
7F37
  8
DEFPOINTS
  6
CONTINUOUS
 62
     0
 10
1470.303107
 20
5958.8675399999993
 30
0.0
  0
POINT
  5
7F38
  8
DEFPOINTS
  6
CONTINUOUS
 62
     0
 10
3070.3031070000002
 20
5958.8675399999993
 30
0.0
  0
POINT
  5
7F39
  8
DEFPOINTS
  6
CONTINUOUS
 62
     0
 10
3070.3031070000002
 20
6201.9945870000001
 30
0.0
  0
ENDBLK
  5
7C96
  8
0
  0
BLOCK
  8
0
  2
*D14
 70
     1
 10
0.0
 20
0.0
 30
0.0
  3
*D14
  1

  0
LINE
  5
7F3A
  8
3
  6
CONTINUOUS
 62
     0
 10
3085.3031070000002
 20
5958.8675399999993
 30
0.0
 11
3388.9012980000002
 21
5958.8675399999993
 31
0.0
  0
LINE
  5
7F3B
  8
3
  6
CONTINUOUS
 62
     0
 10
3085.3031070000002
 20
5258.8675400000002
 30
0.0
 11
3388.9012980000002
 21
5258.8675400000002
 31
0.0
  0
LINE
  5
7F3C
  8
3
  6
CONTINUOUS
 62
     0
 10
3358.9012980000011
 20
5898.8675400000011
 30
0.0
 11
3358.9012980000011
 21
5318.8675400000002
 31
0.0
  0
INSERT
  5
7F3D
  8
3
  6
CONTINUOUS
 62
     0
  2
_OPEN
 10
3358.9012980000011
 20
5958.8675399999993
 30
0.0
 41
60.0
 42
60.0
 43
60.0
 50
90.0
  0
INSERT
  5
7F3E
  8
3
  6
CONTINUOUS
 62
     0
  2
_OPEN
 10
3358.9012980000011
 20
5258.8675400000002
 30
0.0
 41
60.0
 42
60.0
 43
60.0
 50
270.0
  0
TEXT
  8
3
  40
90
  5
7F61
  62
0
  72
0
  71
0
 10
3103.90
 20
5480.94
 30
0.000000
  1
700
  0
POINT
  5
7F40
  8
DEFPOINTS
  6
CONTINUOUS
 62
     0
 10
3070.3031070000002
 20
5958.8675399999993
 30
0.0
  0
POINT
  5
7F41
  8
DEFPOINTS
  6
CONTINUOUS
 62
     0
 10
3070.3031070000002
 20
5258.8675400000002
 30
0.0
  0
POINT
  5
7F42
  8
DEFPOINTS
  6
CONTINUOUS
 62
     0
 10
3358.9012980000011
 20
5258.8675400000002
 30
0.0
  0
ENDBLK
  5
7C44
  8
0
  0
BLOCK
  8
0
  2
*D15
 70
     1
 10
0.0
 20
0.0
 30
0.0
  3
*D15
  1

  0
LINE
  5
7F43
  8
3
  6
CONTINUOUS
 62
     0
 10
5020.0156479999996
 20
3666.9974520000001
 30
0.0
 11
5020.0156479999996
 21
4189.2051679999986
 31
0.0
  0
LINE
  5
7F44
  8
3
  6
CONTINUOUS
 62
     0
 10
4839.0156479999996
 20
4159.2051680000004
 30
0.0
 11
4960.0156479999987
 21
4159.2051680000004
 31
0.0
  0
TEXT
  8
3
  40
90
  5
7F62
  62
0
  72
0
  71
0
 10
4710.64
 20
4074.95
 30
0.000000
  1
241
  0
INSERT
  5
7F46
  8
3
  6
CONTINUOUS
 62
     0
  2
_OPEN
 10
4779.0156479999996
 20
4159.2051680000004
 30
0.0
 41
60.0
 42
60.0
 43
60.0
 50
180.0
  0
INSERT
  5
7F47
  8
3
  6
CONTINUOUS
 62
     0
  2
_OPEN
 10
5020.0156479999996
 20
4159.2051680000004
 30
0.0
 41
60.0
 42
60.0
 43
60.0
  0
POINT
  5
7F48
  8
DEFPOINTS
  6
CONTINUOUS
 62
     0
 10
4779.0156479999996
 20
4103.2351079999989
 30
0.0
  0
POINT
  5
7F49
  8
DEFPOINTS
  6
CONTINUOUS
 62
     0
 10
5020.0156479999996
 20
3651.9974520000001
 30
0.0
  0
POINT
  5
7F4A
  8
DEFPOINTS
  6
CONTINUOUS
 62
     0
 10
5020.0156479999996
 20
4159.2051680000004
 30
0.0
  0
ENDBLK
  5
7D84
  8
0
  0
BLOCK
  8
0
  2
*D16
 70
     1
 10
0.0
 20
0.0
 30
0.0
  3
*D16
  1

  0
LINE
  5
7F4B
  8
3
 62
     0
 10
1970.303107
 20
4101.5456510000013
 30
0.0
 11
1970.303107
 21
4237.2662499999997
 31
0.0
  0
LINE
  5
7F4C
  8
3
 62
     0
 10
1517.1142039969959
 20
3304.9974520000001
 30
0.0
 11
1517.1142039969959
 21
4237.2662499999997
 31
0.0
  0
LINE
  5
7F4D
  8
3
 62
     0
 10
1910.303107
 20
4207.2662499999988
 30
0.0
 11
1577.1142039969959
 21
4207.2662499999988
 31
0.0
  0
INSERT
  5
7F4E
  8
3
 62
     0
  2
_OPEN
 10
1970.303107
 20
4207.2662499999988
 30
0.0
 41
60.0
 42
60.0
 43
60.0
  0
INSERT
  5
7F4F
  8
3
 62
     0
  2
_OPEN
 10
1517.1142039969959
 20
4207.2662499999988
 30
0.0
 41
60.0
 42
60.0
 43
60.0
 50
180.0
  0
TEXT
  8
3
  40
90
  5
7F63
  62
0
  72
0
  71
0
 10
1563.71
 20
4122.97
 30
0.000000
  1
452
  0
POINT
  5
7F51
  8
DEFPOINTS
 62
     0
 10
1970.303107
 20
4086.5456509999999
 30
0.0
  0
POINT
  5
7F52
  8
DEFPOINTS
 62
     0
 10
1517.1142039969959
 20
3289.9974520000001
 30
0.0
  0
POINT
  5
7F53
  8
DEFPOINTS
 62
     0
 10
1517.1142039969959
 20
4207.2662499999988
 30
0.0
  0
ENDBLK
  5
7E08
  8
0
  0
ENDSEC
  0
SECTION
  2
ENTITIES
  0
LINE
  5
7AB0
  8
1
  6
CONTINUOUS
 10
2725.9094180000002
 20
3119.052443
 30
0.0
 11
2035.4732690000001
 21
3452.1005599999999
 31
0.0
  0
ARC
  5
7AB1
  8
1
  6
CONTINUOUS
 10
1943.303107
 20
3289.9974520000001
 30
0.0
 40
425.74044800000001
 50
90.403740999999997
 51
172.6476209999999
  0
LINE
  5
7AB2
  8
1
  6
CONTINUOUS
 10
2590.3031070000002
 20
3801.9974520000001
 30
0.0
 11
2574.3031070000002
 21
3316.9974520000001
 31
0.0
  0
LINE
  5
7AB3
  8
2
  6
CENTER
 10
1970.303107
 20
6103.578054999999
 30
0.0
 11
1970.303107
 21
5017.5185330000004
 31
0.0
  0
CIRCLE
  5
7AB4
  8
1
  6
CONTINUOUS
 10
1970.303107
 20
3316.9974520000001
 30
0.0
 40
150.0
  0
LINE
  5
7AB5
  8
1
  6
CONTINUOUS
 10
1630.303107
 20
2846.9974520000001
 30
0.0
 11
1630.303107
 21
3846.9974520000001
 31
0.0
  0
LINE
  5
7AB6
  8
1
  6
CONTINUOUS
 10
2900.3031070000002
 20
3146.9974520000001
 30
0.0
 11
2070.3031070000002
 21
3846.9974520000001
 31
0.0
  0
LINE
  5
7ABB
  8
1
  6
CONTINUOUS
 10
2670.0202199999999
 20
2969.8388620000001
 30
0.0
 11
1930.6810219999991
 21
3172.325096
 31
0.0
  0
ARC
  5
7ABC
  8
1
  6
CONTINUOUS
 10
2011.303107
 20
3357.997452000001
 30
0.0
 40
564.49092099999984
 50
265.48601200000002
 51
355.834836
  0
LINE
  5
7ABD
  8
1
  6
CONTINUOUS
 10
1470.303107
 20
2846.9974520000001
 30
0.0
 11
3070.3031070000002
 21
2846.9974520000001
 31
0.0
  0
LINE
  5
7ABE
  8
1
  6
CONTINUOUS
 10
3070.3031070000002
 20
2746.9974520000001
 30
0.0
 11
1470.303107
 21
2746.9974520000001
 31
0.0
  0
LINE
  5
7ABF
  8
1
  6
CONTINUOUS
 10
1528.303107
 20
2846.9974520000001
 30
0.0
 11
2412.3031070000002
 21
2846.9974520000001
 31
0.0
  0
ARC
  5
7AC0
  8
1
  6
CONTINUOUS
 10
2005.303107
 20
3281.9974520000001
 30
0.0
 40
488.25444700000003
 50
172.6476209999999
 51
265.48601200000002
  0
LINE
  5
7AC1
  8
1
  6
CONTINUOUS
 10
1470.303107
 20
2846.9974520000001
 30
0.0
 11
1470.303107
 21
2746.9974520000001
 31
0.0
  0
LINE
  5
7AC2
  8
2
  6
CENTER
 10
1373.5610879999999
 20
3316.9974520000001
 30
0.0
 11
2962.9655269999998
 21
3316.9974520000001
 31
0.0
  0
CIRCLE
  5
7AC3
  8
1
  6
CONTINUOUS
 10
2691.1519979999998
 20
3046.9974520000001
 30
0.0
 40
80.0
  0
LINE
  5
7AC4
  8
2
  6
CENTER
 10
2611.1519979999989
 20
3046.9974520000001
 30
0.0
 11
2771.1519979999998
 21
3046.9974520000001
 31
0.0
  0
ARC
  5
7AC5
  8
1
  6
CONTINUOUS
 10
2691.1519979999998
 20
3046.9974520000001
 30
0.0
 40
162.0
 50
324.972283
 51
215.02771699999991
  0
LINE
  5
7AC6
  8
1
  6
CONTINUOUS
 10
2537.1519979999998
 20
2886.9974520000001
 30
0.0
 11
2845.1519979999998
 21
2886.9974520000001
 31
0.0
  0
LINE
  5
7AC7
  8
2
  6
CENTER
 10
2691.1519979999998
 20
3126.9974520000001
 30
0.0
 11
2691.1519979999998
 21
2966.9974520000001
 31
0.0
  0
LINE
  5
7AC8
  8
1
  6
CONTINUOUS
 10
2537.1519979999998
 20
2904.9974520000001
 30
0.0
 11
2558.4943330000001
 21
2954.0138849999998
 31
0.0
  0
LINE
  5
7AC9
  8
1
  6
CONTINUOUS
 10
2537.1519979999998
 20
2846.9974520000001
 30
0.0
 11
2537.1519979999998
 21
2904.9974520000001
 31
0.0
  0
LINE
  5
7ACA
  8
1
  6
CONTINUOUS
 10
3070.3031070000002
 20
2846.9974520000001
 30
0.0
 11
3070.3031070000002
 21
2746.9974520000001
 31
0.0
  0
LINE
  5
7ACB
  8
1
  6
CONTINUOUS
 10
2845.1519979999998
 20
2904.9974520000001
 30
0.0
 11
2823.8096639999999
 21
2954.0138849999998
 31
0.0
  0
LINE
  5
7ACC
  8
1
  6
CONTINUOUS
 10
2900.3031070000002
 20
2846.9974520000001
 30
0.0
 11
2900.3031070000002
 21
3146.9974520000001
 31
0.0
  0
LINE
  5
7ACD
  8
1
  6
CONTINUOUS
 10
2845.1519979999998
 20
2886.9974520000001
 30
0.0
 11
2845.1519979999998
 21
2904.9974520000001
 31
0.0
  0
LINE
  5
7ACE
  8
1
  6
CONTINUOUS
 10
2845.1519979999998
 20
2846.9974520000001
 30
0.0
 11
2845.1519979999998
 21
2904.9974520000001
 31
0.0
  0
LINE
  5
7ACF
  8
1
  6
CONTINUOUS
 10
1940.303107
 20
3771.9974520000001
 30
0.0
 11
2589.3134159999991
 21
3771.9974520000001
 31
0.0
  0
LINE
  5
7AD0
  8
1
  6
CONTINUOUS
 10
1900.303107
 20
3801.9974520000001
 30
0.0
 11
2630.3031070000002
 21
3801.9974520000001
 31
0.0
  0
LINE
  5
7AD2
  8
1
  6
CONTINUOUS
 10
1630.303107
 20
3846.9974520000001
 30
0.0
 11
2070.3031070000002
 21
3846.9974520000001
 31
0.0
  0
LINE
  5
7AD3
  8
1
  6
CONTINUOUS
 10
1940.303107
 20
3715.7273299999988
 30
0.0
 11
1940.303107
 21
3801.9974520000001
 31
0.0
  0
LINE
  5
7AEC
  8
1
  6
CONTINUOUS
 10
4419.0156479999996
 20
2846.9974520000001
 30
0.0
 11
5119.0156479999996
 21
2846.9974520000001
 31
0.0
  0
LINE
  5
7AED
  8
1
  6
CONTINUOUS
 10
4419.0156479999996
 20
2746.9974520000001
 30
0.0
 11
5119.0156479999996
 21
2746.9974520000001
 31
0.0
  0
LINE
  5
7AEE
  8
1
  6
CONTINUOUS
 10
4499.0156479999987
 20
3801.9974520000001
 30
0.0
 11
5059.0156479999987
 21
3801.9974520000001
 31
0.0
  0
LINE
  5
7AEF
  8
1
  6
CONTINUOUS
 10
4541.5156479999987
 20
3761.997452000001
 30
0.0
 11
5016.5156479999996
 21
3761.997452000001
 31
0.0
  0
LINE
  5
7AF1
  8
1
  6
CONTINUOUS
 10
4439.0156479999987
 20
3846.9974520000001
 30
0.0
 11
4439.0156479999987
 21
2846.9974520000001
 31
0.0
  0
LINE
  5
7AF2
  8
1
  6
CONTINUOUS
 10
4299.0156479999996
 20
3846.9974520000001
 30
0.0
 11
4299.0156479999996
 21
2846.9974520000001
 31
0.0
  0
LINE
  5
7AF3
  8
1
  6
CONTINUOUS
 10
4541.5156479999987
 20
3801.9974520000001
 30
0.0
 11
4541.5156479999987
 21
2846.9974520000001
 31
0.0
  0
LINE
  5
7AF5
  8
1
  6
CONTINUOUS
 10
4404.0156479999996
 20
3466.9974520000001
 30
0.0
 11
4404.0156479999996
 21
3166.9974520000001
 31
0.0
  0
LINE
  5
7AF6
  8
1
  6
CONTINUOUS
 10
4334.0156479999996
 20
3466.9974520000001
 30
0.0
 11
4334.0156479999996
 21
3166.9974520000001
 31
0.0
  0
LINE
  5
7AF8
  8
1
  6
CONTINUOUS
 10
4404.0156479999996
 20
3337.9974520000001
 30
0.0
 11
4541.5156479999987
 21
3337.9974520000001
 31
0.0
  0
LINE
  5
7AF9
  8
1
  6
CONTINUOUS
 10
4404.0156479999996
 20
3295.9974520000001
 30
0.0
 11
4541.5156479999987
 21
3295.9974520000001
 31
0.0
  0
LINE
  5
7AFA
  8
1
  6
CONTINUOUS
 10
4404.0156479999996
 20
3067.9974520000001
 30
0.0
 11
4541.5156479999987
 21
3067.9974520000001
 31
0.0
  0
LINE
  5
7AFB
  8
1
  6
CONTINUOUS
 10
4404.0156479999996
 20
3025.9974520000001
 30
0.0
 11
4541.5156479999987
 21
3025.9974520000001
 31
0.0
  0
LINE
  5
7AFC
  8
1
  6
CONTINUOUS
 10
4299.0156479999996
 20
2846.9974520000001
 30
0.0
 11
4419.0156479999996
 21
2846.9974520000001
 31
0.0
  0
LINE
  5
7AFD
  8
1
  6
CONTINUOUS
 10
4419.0156479999996
 20
2846.9974520000001
 30
0.0
 11
4419.0156479999996
 21
2746.9974520000001
 31
0.0
  0
LINE
  5
7AFE
  8
1
  6
CONTINUOUS
 10
4334.0156479999996
 20
3166.9974520000001
 30
0.0
 11
4404.0156479999996
 21
3166.9974520000001
 31
0.0
  0
LINE
  5
7AFF
  8
1
  6
CONTINUOUS
 10
4334.0156479999996
 20
3126.9974520000001
 30
0.0
 11
4404.0156479999996
 21
3126.9974520000001
 31
0.0
  0
LINE
  5
7B00
  8
1
  6
CONTINUOUS
 10
4404.0156479999996
 20
3126.9974520000001
 30
0.0
 11
4404.0156479999996
 21
2966.9974520000001
 31
0.0
  0
LINE
  5
7B01
  8
1
  6
CONTINUOUS
 10
4334.0156479999996
 20
3126.9974520000001
 30
0.0
 11
4334.0156479999996
 21
2966.9974520000001
 31
0.0
  0
LINE
  5
7B02
  8
1
  6
CONTINUOUS
 10
4334.0156479999996
 20
2966.9974520000001
 30
0.0
 11
4404.0156479999996
 21
2966.9974520000001
 31
0.0
  0
LINE
  5
7B03
  8
1
  6
CONTINUOUS
 10
4439.0156479999987
 20
3846.9974520000001
 30
0.0
 11
4299.0156479999996
 21
3846.9974520000001
 31
0.0
  0
LINE
  5
7B04
  8
1
  6
CONTINUOUS
 10
4334.0156479999996
 20
3466.9974520000001
 30
0.0
 11
4404.0156479999996
 21
3466.9974520000001
 31
0.0
  0
LINE
  5
7B05
  8
1
  6
CONTINUOUS
 10
5016.5156479999996
 20
3801.9974520000001
 30
0.0
 11
5016.5156479999996
 21
2846.9974520000001
 31
0.0
  0
LINE
  5
7B06
  8
1
  6
CONTINUOUS
 10
5119.0156479999996
 20
2846.9974520000001
 30
0.0
 11
5119.0156479999996
 21
2746.9974520000001
 31
0.0
  0
LINE
  5
7B0D
  8
1
  6
CONTINUOUS
 10
1991.303107
 20
5258.8675400000002
 30
0.0
 11
2670.1519979999998
 21
5258.8675400000002
 31
0.0
  0
LINE
  5
7B0E
  8
1
  6
CONTINUOUS
 10
1470.303107
 20
5958.8675399999993
 30
0.0
 11
3070.3031070000002
 21
5958.8675399999993
 31
0.0
  0
LINE
  5
7B0F
  8
1
  6
CONTINUOUS
 10
2590.3031070000002
 20
5381.3675400000002
 30
0.0
 11
1517.0486599999999
 21
5381.3675400000002
 31
0.0
  0
LINE
  5
7B10
  8
1
  6
CONTINUOUS
 10
2590.3031070000002
 20
5856.3675400000002
 30
0.0
 11
1517.0486599999999
 21
5856.3675400000002
 31
0.0
  0
LINE
  5
7B11
  8
1
  6
CONTINUOUS
 10
2590.3031070000002
 20
5856.3675400000002
 30
0.0
 11
1940.303107
 21
5381.3675400000002
 31
0.0
  0
LINE
  5
7B12
  8
1
  6
CONTINUOUS
 10
2590.3031070000002
 20
5381.3675400000002
 30
0.0
 11
1940.303107
 21
5856.3675400000002
 31
0.0
  0
LINE
  5
7B13
  8
1
  6
CONTINUOUS
 10
1630.303107
 20
5138.8675400000002
 30
0.0
 11
2900.3031070000002
 21
5138.8675400000002
 31
0.0
  0
LINE
  5
7B14
  8
1
  6
CONTINUOUS
 10
1630.303107
 20
5278.8675400000002
 30
0.0
 11
2900.3031070000002
 21
5278.8675400000002
 31
0.0
  0
LINE
  5
7B15
  8
1
  6
CONTINUOUS
 10
1470.303107
 20
5958.8675399999993
 30
0.0
 11
1470.303107
 21
5258.8675400000002
 31
0.0
  0
LINE
  5
7B16
  8
1
  6
CONTINUOUS
 10
1517.0486599999999
 20
5381.3675400000002
 30
0.0
 11
1517.0486599999999
 21
5856.3675400000002
 31
0.0
  0
LINE
  5
7B17
  8
1
  6
CONTINUOUS
 10
1940.303107
 20
5381.3675400000002
 30
0.0
 11
1940.303107
 21
5856.3675400000002
 31
0.0
  0
LINE
  5
7B18
  8
1
  6
CONTINUOUS
 10
1470.303107
 20
5258.8675400000002
 30
0.0
 11
1949.303107
 21
5258.8675400000002
 31
0.0
  0
LINE
  5
7B19
  8
1
  6
CONTINUOUS
 10
1630.303107
 20
5138.8675400000002
 30
0.0
 11
1630.303107
 21
5278.8675400000002
 31
0.0
  0
LINE
  5
7B1A
  8
1
  6
CONTINUOUS
 10
1991.303107
 20
5243.8675400000002
 30
0.0
 11
1991.303107
 21
5381.3675400000002
 31
0.0
  0
LINE
  5
7B1B
  8
1
  6
CONTINUOUS
 10
1949.303107
 20
5243.8675400000002
 30
0.0
 11
1949.303107
 21
5381.3675400000002
 31
0.0
  0
LINE
  5
7B1C
  8
1
  6
CONTINUOUS
 10
2120.3031070000002
 20
5173.8675400000002
 30
0.0
 11
2120.3031070000002
 21
5243.8675400000002
 31
0.0
  0
LINE
  5
7B1D
  8
1
  6
CONTINUOUS
 10
1820.303107
 20
5173.8675400000002
 30
0.0
 11
1820.303107
 21
5243.8675400000002
 31
0.0
  0
LINE
  5
7B1E
  8
1
  6
CONTINUOUS
 10
2120.3031070000002
 20
5243.8675400000002
 30
0.0
 11
1820.303107
 21
5243.8675400000002
 31
0.0
  0
LINE
  5
7B1F
  8
1
  6
CONTINUOUS
 10
2120.3031070000002
 20
5173.8675400000002
 30
0.0
 11
1820.303107
 21
5173.8675400000002
 31
0.0
  0
LINE
  5
7B20
  8
1
  6
CONTINUOUS
 10
3070.3031070000002
 20
5958.8675399999993
 30
0.0
 11
3070.3031070000002
 21
5258.8675400000002
 31
0.0
  0
LINE
  5
7B21
  8
1
  6
CONTINUOUS
 10
2590.3031070000002
 20
5381.3675400000002
 30
0.0
 11
2590.3031070000002
 21
5856.3675400000002
 31
0.0
  0
LINE
  5
7B22
  8
1
  6
CONTINUOUS
 10
2853.1519979999989
 20
5310.5994570000012
 30
0.0
 11
2853.1519979999989
 21
5795.5994570000003
 31
0.0
  0
LINE
  5
7B23
  8
1
  6
CONTINUOUS
 10
2712.1519979999989
 20
5258.8675400000002
 30
0.0
 11
3070.3031070000002
 21
5258.8675400000002
 31
0.0
  0
LINE
  5
7B24
  8
1
  6
CONTINUOUS
 10
2771.1519979999998
 20
5173.8675400000002
 30
0.0
 11
2611.1519979999989
 21
5173.8675400000002
 31
0.0
  0
LINE
  5
7B25
  8
1
  6
CONTINUOUS
 10
2771.1519979999998
 20
5243.8675400000002
 30
0.0
 11
2611.1519979999989
 21
5243.8675400000002
 31
0.0
  0
LINE
  5
7B26
  8
1
  6
CONTINUOUS
 10
2853.1519979999989
 20
5310.5994570000012
 30
0.0
 11
2529.1519979999998
 21
5310.5994570000012
 31
0.0
  0
LINE
  5
7B27
  8
1
  6
CONTINUOUS
 10
2670.1519979999998
 20
5243.8675400000002
 30
0.0
 11
2670.1519979999998
 21
5310.5994570000012
 31
0.0
  0
LINE
  5
7B28
  8
1
  6
CONTINUOUS
 10
2712.1519979999989
 20
5243.8675400000002
 30
0.0
 11
2712.1519979999989
 21
5310.5994570000012
 31
0.0
  0
LINE
  5
7B29
  8
1
  6
CONTINUOUS
 10
2611.1519979999989
 20
5173.8675400000002
 30
0.0
 11
2611.1519979999989
 21
5243.8675400000002
 31
0.0
  0
LINE
  5
7B2A
  8
1
  6
CONTINUOUS
 10
2529.1519979999998
 20
5310.5994570000012
 30
0.0
 11
2529.1519979999998
 21
5381.3675400000002
 31
0.0
  0
LINE
  5
7B2B
  8
1
  6
CONTINUOUS
 10
2771.1519979999998
 20
5173.8675400000002
 30
0.0
 11
2771.1519979999998
 21
5243.8675400000002
 31
0.0
  0
LINE
  5
7B2C
  8
1
  6
CONTINUOUS
 10
2900.3031070000002
 20
5138.8675400000002
 30
0.0
 11
2900.3031070000002
 21
5278.8675400000002
 31
0.0
  0
LINE
  5
7B2D
  8
1
  6
CONTINUOUS
 10
2853.1519979999989
 20
5795.5994570000003
 30
0.0
 11
2590.3031070000002
 21
5795.5994570000003
 31
0.0
  0
LINE
  5
7B49
  8
2
  6
CENTER
 10
4779.0156479999996
 20
3860.4304590000002
 30
0.0
 11
4779.0156479999996
 21
2631.9316749999998
 31
0.0
  0
LINE
  5
7B4A
  8
2
  6
CENTER
 10
3185.9591179999989
 20
5618.8675400000002
 30
0.0
 11
1354.6942639999991
 21
5618.8675400000002
 31
0.0
  0
LINE
  5
7B4B
  8
2
  6
CENTER
 10
1970.303107
 20
4086.5456509999999
 30
0.0
 11
1970.303107
 21
2616.5289309999989
 31
0.0
  0
LINE
  5
7B4C
  8
2
  6
CENTER
 10
4221.8087740000001
 20
3316.9974520000001
 30
0.0
 11
5107.6135080000004
 21
3316.9974520000001
 31
0.0
  0
LINE
  5
7B4D
  8
4
  6
CONTINUOUS
 10
5550.0
 20
1500.0
 30
0.0
 11
5550.0
 21
900.0
 31
0.0
  0
LINE
  5
7B4E
  8
4
  6
CONTINUOUS
 10
3450.0
 20
1500.0
 30
0.0
 11
3450.0
 21
900.0
 31
0.0
  0
LINE
  5
7B4F
  8
4
  6
CONTINUOUS
 10
1950.0
 20
1500.0
 30
0.0
 11
1950.0
 21
900.0
 31
0.0
  0
LINE
  5
7B52
  8
4
  6
CONTINUOUS
 10
1950.0
 20
900.0
 30
0.0
 11
5550.0
 21
900.0
 31
0.0
  0
LINE
  5
7B53
  8
4
  6
CONTINUOUS
 10
1950.0
 20
1200.0
 30
0.0
 11
5550.0
 21
1200.0
 31
0.0
  0
TEXT
  5
7B54
  8
4
  6
CONTINUOUS
 10
2065.5062429999989
 20
1294.6290779999999
 30
0.0
 40
150.0
  1
機器名称
  0
TEXT
  5
7B55
  8
4
  6
CONTINUOUS
 10
2058.7743179999989
 20
964.9354699999999
 30
0.0
 40
150.0
  1
機器型番
  0
TEXT
  5
7B56
  8
4
  6
CONTINUOUS
 10
3533.0362359999999
 20
1267.7153069999999
 30
0.0
 40
150.0
  1
ミツヤ多翼送風機
  0
TEXT
  5
7B57
  8
4
  6
CONTINUOUS
 10
3559.9634869999991
 20
951.47875299999987
 30
0.0
 40
150.0
  1
MF#4-4
  0
TEXT
  5
7B59
  8
4
  6
CONTINUOUS
 10
2520.2661969999999
 20
7150.2865239999992
 30
0.0
 40
162.0
  1
天井吊ベット
  0
TEXT
  5
7B5A
  8
4
  6
CONTINUOUS
 10
948.50278000000014
 20
7601.6429289999996
 30
0.0
 40
216.0
  1
ベルト駆動式片吸込両持多翼ファン
  0
LINE
  5
7B5B
  8
4
  6
CONTINUOUS
 10
750.0
 20
7408.2262629999996
 30
0.0
 11
5550.0
 21
7408.2262629999996
 31
0.0
  0
LINE
  5
7B5C
  8
4
  6
CONTINUOUS
 10
750.0
 20
8008.2262629999996
 30
0.0
 11
5550.0
 21
8008.2262629999996
 31
0.0
  0
LINE
  5
7B5D
  8
4
  6
CONTINUOUS
 10
1950.0
 20
1500.0
 30
0.0
 11
5550.0
 21
1500.0
 31
0.0
  0
LINE
  5
7B5E
  8
4
  6
CONTINUOUS
 10
750.0
 20
8008.2262629999996
 30
0.0
 11
750.0
 21
7408.2262629999996
 31
0.0
  0
TEXT
  5
7B5F
  8
4
  6
CONTINUOUS
 10
1212.689701
 20
7146.9584329999998
 30
0.0
 40
162.0
  1
左回転上向
  0
TEXT
  5
7B60
  8
4
  6
CONTINUOUS
 10
4406.9086779999989
 20
8118.1832439999989
 30
0.0
 40
168.0
  1
No.
  0
TEXT
  5
7B61
  8
4
  6
CONTINUOUS
 10
3933.8881879999999
 20
7150.2865239999992
 30
0.0
 40
162.0
  1
縮尺：1/30
  0
LINE
  5
7B62
  8
4
  6
CONTINUOUS
 10
5550.0
 20
8008.2262629999996
 30
0.0
 11
5550.0
 21
7408.2262629999996
 31
0.0
  0
LINE
  5
7B64
  8
4
  6
CONTINUOUS
 10
4321.8522670000002
 20
8043.7907490000007
 30
0.0
 11
4321.8522670000002
 21
8359.9567849999985
 31
0.0
  0
LINE
  5
7B65
  8
4
  6
CONTINUOUS
 10
4321.8522670000002
 20
8359.9567849999985
 30
0.0
 11
5550.0
 21
8359.9567849999985
 31
0.0
  0
LINE
  5
7B66
  8
4
  6
CONTINUOUS
 10
5550.0
 20
8359.9567849999985
 30
0.0
 11
5550.0
 21
8043.7907490000007
 31
0.0
  0
LINE
  5
7B67
  8
4
  6
CONTINUOUS
 10
5550.0
 20
8043.7907490000007
 30
0.0
 11
4321.8522670000002
 21
8043.7907490000007
 31
0.0
  0
DIMENSION
  5
7B7F
  8
3
  6
CONTINUOUS
  2
*D1
 10
1940.303107
 20
4026.23875
 30
0.0
 11
2237.7491690000002
 21
4026.23875
 31
0.0
 70
   128
 13
2590.3031070000002
 23
3801.9974520000001
 33
0.0
 14
1940.303107
 24
3801.9974520000001
 34
0.0
1001
ACAD
1000
DSTYLE
1002
{
1070
   287
1070
     3
1070
   287
1070
     3
1070
    40
1040
30.0
1070
   143
1040
0.039
1070
   172
1070
     1
1070
   271
1070
     0
1070
   279
1070
     0
1070
   288
1070
     1
1002
}
  0
DIMENSION
  5
7B8C
  8
3
  6
CONTINUOUS
  2
*D2
 10
1970.303107
 20
4207.2662499999988
 30
0.0
 11
2226.4244060000001
 21
4207.2662499999988
 31
0.0
 70
   128
 13
2590.3031070000002
 23
3801.9974520000001
 33
0.0
 14
1970.303107
 24
4086.5456509999999
 34
0.0
1001
ACAD
1000
DSTYLE
1002
{
1070
   287
1070
     3
1070
   287
1070
     3
1070
    40
1040
30.0
1070
   143
1040
0.039
1070
   172
1070
     1
1070
   271
1070
     0
1070
   279
1070
     0
1070
   288
1070
     1
1002
}
  0
DIMENSION
  5
7BA5
  8
3
  6
CONTINUOUS
  2
*D3
 10
1343.0924190000001
 20
3316.9974520000001
 30
0.0
 11
1343.0924189999989
 21
3559.861476
 31
0.0
 70
   128
 13
1900.303107
 23
3801.9974520000001
 33
0.0
 14
1373.5610879999999
 24
3316.9974520000001
 34
0.0
 50
90.0
1001
ACAD
1000
DSTYLE
1002
{
1070
   287
1070
     3
1070
   287
1070
     3
1070
    40
1040
30.0
1070
   143
1040
0.039
1070
   172
1070
     1
1070
   271
1070
     0
1070
   279
1070
     0
1070
   288
1070
     1
1002
}
  0
DIMENSION
  5
7BB1
  8
3
  6
CONTINUOUS
  2
*D4
 10
1343.0924189999989
 20
2746.9974520000001
 30
0.0
 11
1268.0924189999989
 21
3031.9974520000001
 31
0.0
 70
     0
 13
1373.5610879999999
 23
3316.9974520000001
 33
0.0
 14
1470.303107
 24
2746.9974520000001
 34
0.0
 50
90.0
1001
ACAD
1000
DSTYLE
1002
{
1070
   287
1070
     4
1070
   287
1070
     4
1070
    40
1040
30.0
1070
    75
1070
     1
1070
   143
1040
0.039
1070
   172
1070
     1
1070
   271
1070
     0
1070
   279
1070
     1
1070
   288
1070
     1
1002
}
  0
DIMENSION
  5
7BBE
  8
3
  6
CONTINUOUS
  2
*D5
 10
1144.9089670000001
 20
2746.9974520000001
 30
0.0
 11
1144.9089670000001
 21
3220.4349130000001
 31
0.0
 70
   128
 13
1885.303107
 23
3801.9974520000001
 33
0.0
 14
1470.303107
 24
2746.9974520000001
 34
0.0
 50
90.0
1001
ACAD
1000
DSTYLE
1002
{
1070
   287
1070
     3
1070
   287
1070
     3
1070
    40
1040
30.0
1070
   143
1040
0.039
1070
   172
1070
     1
1070
   271
1070
     0
1070
   279
1070
     0
1070
   288
1070
     1
1002
}
  0
DIMENSION
  5
7BCB
  8
3
  6
CONTINUOUS
  2
*D6
 10
1970.303107
 20
2496.1887750000001
 30
0.0
 11
1728.1345590000001
 21
2496.1887750000001
 31
0.0
 70
   128
 13
1470.303107
 23
2746.9974520000001
 33
0.0
 14
1970.303107
 24
2616.5289309999989
 34
0.0
1001
ACAD
1000
DSTYLE
1002
{
1070
   287
1070
     3
1070
   287
1070
     3
1070
    40
1040
30.0
1070
   143
1040
0.039
1070
   172
1070
     1
1070
   271
1070
     0
1070
   279
1070
     0
1070
   288
1070
     1
1002
}
  0
DIMENSION
  5
7BD7
  8
3
  6
CONTINUOUS
  2
*D7
 10
3070.3031070000002
 20
2496.1887750000001
 30
0.0
 11
2520.3031070000002
 21
2571.1887750000001
 31
0.0
 70
     0
 13
1970.303107
 23
2616.5289309999989
 33
0.0
 14
3070.3031070000002
 24
2746.9974520000001
 34
0.0
1001
ACAD
1000
DSTYLE
1002
{
1070
   287
1070
     4
1070
   287
1070
     4
1070
    40
1040
30.0
1070
    75
1070
     1
1070
   143
1040
0.039
1070
   172
1070
     1
1070
   271
1070
     0
1070
   279
1070
     1
1070
   288
1070
     1
1002
}
  0
DIMENSION
  5
7BE4
  8
3
  6
CONTINUOUS
  2
*D8
 10
4541.5156479999987
 20
3961.1805169999998
 30
0.0
 11
4780.4057789999997
 21
3961.1805169999998
 31
0.0
 70
   128
 13
5016.5156479999996
 23
3801.9974520000001
 33
0.0
 14
4541.5156479999987
 24
3801.9974520000001
 34
0.0
1001
ACAD
1000
DSTYLE
1002
{
1070
   287
1070
     3
1070
   287
1070
     3
1070
    40
1040
30.0
1070
   143
1040
0.039
1070
   172
1070
     1
1070
   271
1070
     0
1070
   279
1070
     0
1070
   288
1070
     1
1002
}
  0
LINE
  5
7BE7
  8
1
  6
CONTINUOUS
 10
5020.0156479999996
 20
3651.9974520000001
 30
0.0
 11
5020.0156479999996
 21
2981.9974520000001
 31
0.0
  0
DIMENSION
  5
7BF4
  8
3
  6
CONTINUOUS
  2
*D9
 10
5261.7084620000014
 20
2981.9974519999992
 30
0.0
 11
5261.7084619999996
 21
3344.8913200000002
 31
0.0
 70
   128
 13
5020.0156479999996
 23
3651.9974520000001
 33
0.0
 14
5020.0156479999996
 24
2981.9974520000001
 34
0.0
 50
90.0
1001
ACAD
1000
DSTYLE
1002
{
1070
   287
1070
     3
1070
   287
1070
     3
1070
     3
1000
φ<>
1070
    40
1040
30.0
1070
   143
1040
0.039
1070
   172
1070
     1
1070
   271
1070
     0
1070
   279
1070
     0
1070
   288
1070
     1
1002
}
  0
DIMENSION
  5
7C0E
  8
3
  6
CONTINUOUS
  2
*D10
 10
4299.0156479999996
 20
4159.2051680000004
 30
0.0
 11
4539.0156479999987
 21
4309.2051680000004
 31
0.0
 70
     0
  1
MAX\P530
 13
4779.0156479999996
 23
4103.2351079999989
 33
0.0
 14
4299.0156479999996
 24
3846.9974520000001
 34
0.0
1001
ACAD
1000
DSTYLE
1002
{
1070
   287
1070
     3
1070
   287
1070
     3
1070
    40
1040
30.0
1070
   143
1040
0.039
1070
   172
1070
     1
1070
   271
1070
     0
1070
   279
1070
     0
1070
   288
1070
     1
1002
}
  0
DIMENSION
  5
7C1D
  8
3
  6
CONTINUOUS
  2
*D11
 10
4779.0156479999996
 20
2485.3464289999988
 30
0.0
 11
4599.0156479999987
 21
2557.7769377224572
 31
0.0
 70
   128
 13
4419.0156479999996
 23
2746.9974520000001
 33
0.0
 14
4779.0156479999996
 24
2631.9316749999998
 34
0.0
1001
ACAD
1000
DSTYLE
1002
{
1070
   288
1070
     1
1070
   172
1070
     1
1070
    40
1040
30.0
1070
   271
1070
     0
1070
   143
1040
0.039
1002
}
  0
DIMENSION
  5
7C2B
  8
3
  6
CONTINUOUS
  2
*D12
 10
5119.0156479999996
 20
2485.3464289999988
 30
0.0
 11
4970.3749550000002
 21
2486.3968829999999
 31
0.0
 70
   128
 13
4779.0156479999996
 23
2631.9316749999998
 33
0.0
 14
5119.0156479999996
 24
2746.9974520000001
 34
0.0
1001
ACAD
1000
DSTYLE
1002
{
1070
   287
1070
     4
1070
   287
1070
     4
1070
    40
1040
30.0
1070
    75
1070
     1
1070
   143
1040
0.039
1070
   172
1070
     1
1070
   271
1070
     0
1070
   279
1070
     1
1070
   288
1070
     1
1002
}
  0
DIMENSION
  5
7C38
  8
3
  6
CONTINUOUS
  2
*D13
 10
3070.3031070000002
 20
6201.9945870000001
 30
0.0
 11
2249.0739329999992
 21
6201.9945870000001
 31
0.0
 70
   128
 13
1470.303107
 23
5958.8675399999993
 33
0.0
 14
3070.3031070000002
 24
5958.8675399999993
 34
0.0
1001
ACAD
1000
DSTYLE
1002
{
1070
   287
1070
     3
1070
   287
1070
     3
1070
    40
1040
30.0
1070
   143
1040
0.039
1070
   172
1070
     1
1070
   271
1070
     0
1070
   279
1070
     0
1070
   288
1070
     1
1002
}
  0
DIMENSION
  5
7C45
  8
3
  6
CONTINUOUS
  2
*D14
 10
3358.9012980000011
 20
5258.8675400000002
 30
0.0
 11
3358.9012980000002
 21
5640.2434759999996
 31
0.0
 70
   128
 13
3070.3031070000002
 23
5958.8675399999993
 33
0.0
 14
3070.3031070000002
 24
5258.8675400000002
 34
0.0
 50
90.0
1001
ACAD
1000
DSTYLE
1002
{
1070
   287
1070
     3
1070
   287
1070
     3
1070
    40
1040
30.0
1070
   143
1040
0.039
1070
   172
1070
     1
1070
   271
1070
     0
1070
   279
1070
     0
1070
   288
1070
     1
1002
}
  0
DIMENSION
  5
7D6E
  8
3
  6
CONTINUOUS
  2
*D15
 10
5020.0156479999996
 20
4159.2051680000004
 30
0.0
 11
4890.6419550000001
 21
4159.2539969999989
 31
0.0
 70
   128
 13
4779.0156479999996
 23
4103.2351079999989
 33
0.0
 14
5020.0156479999996
 24
3651.9974520000001
 34
0.0
1001
ACAD
1000
DSTYLE
1002
{
1070
   287
1070
     4
1070
   287
1070
     4
1070
    40
1040
30.0
1070
    75
1070
     1
1070
   143
1040
0.039
1070
   172
1070
     1
1070
   271
1070
     0
1070
   279
1070
     1
1070
   288
1070
     1
1002
}
  0
LINE
  5
7DF8
  8
1
  6
CONTINUOUS
 10
1560.303107
 20
3666.9974520000001
 30
0.0
 11
1560.303107
 21
2846.9974520000001
 31
0.0
  0
LINE
  5
7DF9
  8
1
  6
CONTINUOUS
 10
2380.3031070000002
 20
3666.9974520000001
 30
0.0
 11
2380.3031070000002
 21
2846.9974520000001
 31
0.0
  0
LINE
  5
7DFA
  8
1
  6
CONTINUOUS
 10
1560.303107
 20
3666.9974520000001
 30
0.0
 11
2380.3031069999988
 21
3666.9974520000001
 31
0.0
  0
DIMENSION
  5
7DFC
  8
3
  2
*D16
 10
1517.1142039969959
 20
4207.2662499999988
 30
0.0
 11
1743.708655498498
 21
4282.2662499999997
 31
0.0
 70
     0
  1
452
 13
1970.303107
 23
4086.5456509999999
 33
0.0
 14
1517.1142039969959
 24
3289.9974520000001
 34
0.0
1001
ACAD
1000
DSTYLE
1002
{
1070
   287
1070
     4
1070
   287
1070
     4
1070
    40
1040
30.0
1070
   143
1040
0.039
1070
   172
1070
     1
1070
   271
1070
     0
1070
   279
1070
     1
1070
   288
1070
     1
1002
}
  0
ENDSEC
  0
EOF
