  0
SECTION
  2
HEADER
  9
$ACADVER
  1
AC1009
  9
$INSBASE
 10
0.0
 20
0.0
 30
0.0
  9
$EXTMIN
 10
750.0
 20
900.0
 30
0.0
  9
$EXTMAX
 10
5550.0
 20
8359.9567849999985
 30
0.0
  9
$LIMMIN
 10
0.0
 20
0.0
  9
$LIMMAX
 10
297.0
 20
210.0
  9
$ORTHOMODE
 70
     0
  9
$REGENMODE
 70
     1
  9
$FILLMODE
 70
     0
  9
$QTEXTMODE
 70
     0
  9
$MIRRTEXT
 70
     1
  9
$DRAGMODE
 70
     2
  9
$LTSCALE
 40
100.0
  9
$OSMODE
 70
    37
  9
$ATTMODE
 70
     1
  9
$TEXTSIZE
 40
180.0
  9
$TRACEWID
 40
0.05
  9
$TEXTSTYLE
  7
STANDARD
  9
$CLAYER
  8
3
  9
$CELTYPE
  6
BYLAYER
  9
$CECOLOR
 62
   256
  9
$DIMSCALE
 40
30.0
  9
$DIMASZ
 40
2.0
  9
$DIMEXO
 40
0.5
  9
$DIMDLI
 40
10.0
  9
$DIMRND
 40
0.0
  9
$DIMDLE
 40
0.0
  9
$DIMEXE
 40
1.0
  9
$DIMTP
 40
1.0
  9
$DIMTM
 40
1.0
  9
$DIMTXT
 40
3.0
  9
$DIMCEN
 40
0.0
  9
$DIMTSZ
 40
0.0
  9
$DIMTOL
 70
     0
  9
$DIMLIM
 70
     0
  9
$DIMTIH
 70
     0
  9
$DIMTOH
 70
     0
  9
$DIMSE1
 70
     0
  9
$DIMSE2
 70
     0
  9
$DIMTAD
 70
     1
  9
$DIMZIN
 70
     8
  9
$DIMBLK
  1

  9
$DIMASO
 70
     1
  9
$DIMSHO
 70
     1
  9
$DIMPOST
  1

  9
$DIMAPOST
  1

  9
$DIMALT
 70
     0
  9
$DIMALTD
 70
     2
  9
$DIMALTF
 40
0.039
  9
$DIMLFAC
 40
1.0
  9
$DIMTOFL
 70
     1
  9
$DIMTVP
 40
0.0
  9
$DIMTIX
 70
     0
  9
$DIMSOXD
 70
     0
  9
$DIMSAH
 70
     1
  9
$DIMBLK1
  1
OPEN
  9
$DIMBLK2
  1
OPEN
  9
$DIMSTYLE
  2
IGA
  9
$DIMCLRD
 70
     0
  9
$DIMCLRE
 70
     0
  9
$DIMCLRT
 70
     0
  9
$DIMTFAC
 40
10.0
  9
$DIMGAP
 40
1.0
  9
$LUNITS
 70
     2
  9
$LUPREC
 70
     3
  9
$SKETCHINC
 40
0.1
  9
$FILLETRAD
 40
50.0
  9
$AUNITS
 70
     0
  9
$AUPREC
 70
     0
  9
$MENU
  1
acad
  9
$ELEVATION
 40
0.0
  9
$PELEVATION
 40
0.0
  9
$THICKNESS
 40
0.0
  9
$LIMCHECK
 70
     0
  9
$BLIPMODE
 70
     0
  9
$CHAMFERA
 40
0.5
  9
$CHAMFERB
 40
0.5
  9
$SKPOLY
 70
     0
  9
$TDCREATE
 40
2450766.4793106481
  9
$TDUPDATE
 40
2454953.7703730781
  9
$TDINDWG
 40
0.004973588
  9
$TDUSRTIMER
 40
0.004973588
  9
$USRTIMER
 70
     1
  9
$ANGBASE
 50
0.0
  9
$ANGDIR
 70
     0
  9
$PDMODE
 70
     0
  9
$PDSIZE
 40
0.0
  9
$PLINEWID
 40
0.0
  9
$COORDS
 70
     1
  9
$SPLFRAME
 70
     0
  9
$SPLINETYPE
 70
     6
  9
$SPLINESEGS
 70
     8
  9
$ATTDIA
 70
     0
  9
$ATTREQ
 70
     1
  9
$HANDLING
 70
 10241
  9
$HANDSEED
  5
7FCA
  9
$SURFTAB1
 70
     6
  9
$SURFTAB2
 70
     6
  9
$SURFTYPE
 70
     6
  9
$SURFU
 70
     6
  9
$SURFV
 70
     6
  9
$UCSNAME
  2

  9
$UCSORG
 10
0.0
 20
0.0
 30
0.0
  9
$UCSXDIR
 10
1.0
 20
0.0
 30
0.0
  9
$UCSYDIR
 10
0.0
 20
1.0
 30
0.0
  9
$PUCSNAME
  2

  9
$PUCSORG
 10
0.0
 20
0.0
 30
0.0
  9
$PUCSXDIR
 10
1.0
 20
0.0
 30
0.0
  9
$PUCSYDIR
 10
0.0
 20
1.0
 30
0.0
  9
$USERI1
 70
     0
  9
$USERI2
 70
     0
  9
$USERI3
 70
     0
  9
$USERI4
 70
     0
  9
$USERI5
 70
     0
  9
$USERR1
 40
0.0
  9
$USERR2
 40
0.0
  9
$USERR3
 40
0.0
  9
$USERR4
 40
0.0
  9
$USERR5
 40
0.0
  9
$WORLDVIEW
 70
     1
  9
$SHADEDGE
 70
     3
  9
$SHADEDIF
 70
    70
  9
$TILEMODE
 70
     1
  9
$MAXACTVP
 70
    16
  9
$PLIMCHECK
 70
     0
  9
$PEXTMIN
 10
1.0000000000000000E+020
 20
1.0000000000000000E+020
 30
1.0000000000000000E+020
  9
$PEXTMAX
 10
-1.0000000000000000E+020
 20
-1.0000000000000000E+020
 30
-1.0000000000000000E+020
  9
$PLIMMIN
 10
0.0
 20
0.0
  9
$PLIMMAX
 10
12.0
 20
9.0
  9
$UNITMODE
 70
     0
  9
$VISRETAIN
 70
     0
  9
$PLINEGEN
 70
     0
  9
$PSLTSCALE
 70
     1
  0
ENDSEC
  0
SECTION
  2
TABLES
  0
TABLE
  2
VPORT
 70
     2
  0
VPORT
  2
*ACTIVE
 70
     0
 10
0.0
 20
0.0
 11
1.0
 21
1.0
 12
9438.4567678319436
 22
4630.0975558305709
 13
0.0
 23
0.0
 14
10.0
 24
10.0
 15
10.0
 25
10.0
 16
0.0
 26
0.0
 36
1.0
 17
0.0
 27
0.0
 37
0.0
 40
7517.4747125171307
 41
3.1666666666666661
 42
50.0
 43
0.0
 44
0.0
 50
0.0
 51
0.0
 71
     0
 72
   100
 73
     1
 74
     0
 75
     0
 76
     0
 77
     0
 78
     0
  0
ENDTAB
  0
TABLE
  2
LTYPE
 70
     2
  0
LTYPE
  2
CONTINUOUS
 70
     0
  3
Solid line
 72
    65
 73
     0
 40
0.0
  0
LTYPE
  2
CENTER
 70
     0
  3
____ _ ____ _ ____ _ ____ _ ____ _ ____ _ ____ 
 72
    65
 73
     4
 40
2.0
 49
1.25
 49
-0.25
 49
0.25
 49
-0.25
  0
ENDTAB
  0
TABLE
  2
LAYER
 70
     6
  0
LAYER
  2
0
 70
     0
 62
     7
  6
CONTINUOUS
  0
LAYER
  2
3
 70
     0
 62
     2
  6
CONTINUOUS
  0
LAYER
  2
2
 70
     0
 62
     3
  6
CENTER
  0
LAYER
  2
1
 70
     0
 62
     4
  6
CONTINUOUS
  0
LAYER
  2
4
 70
     0
 62
     7
  6
CONTINUOUS
  0
LAYER
  2
DEFPOINTS
 70
     0
 62
     7
  6
CONTINUOUS
  0
ENDTAB
  0
TABLE
  2
STYLE
 70
     1
  0
STYLE
  2
STANDARD
 70
     0
 40
0.0
 41
1.0
 50
0.0
 71
     0
 42
180.0
  3
simplex.shx
  4
extfont.shx
  0
ENDTAB
  0
TABLE
  2
VIEW
 70
     0
  0
ENDTAB
  0
TABLE
  2
UCS
 70
     0
  0
ENDTAB
  0
TABLE
  2
APPID
 70
     1
  0
APPID
  2
ACAD
 70
     0
  0
ENDTAB
  0
TABLE
  2
DIMSTYLE
 70
     1
  0
DIMSTYLE
  2
IGA
 70
     0
  3

  4

  5

  6
OPEN
  7
OPEN
 40
2.0
 41
2.0
 42
0.5
 43
10.0
 44
1.0
 45
0.0
 46
0.0
 47
1.0
 48
1.0
140
3.0
141
0.0
142
0.0
143
0.03937
144
1.0
145
0.0
146
10.0
147
1.0
 71
     0
 72
     0
 73
     0
 74
     0
 75
     0
 76
     0
 77
     1
 78
     8
170
     0
171
     2
172
     0
173
     1
174
     0
175
     0
176
     0
177
     0
178
     0
  0
ENDTAB
  0
ENDSEC
  0
SECTION
  2
BLOCKS
  0
BLOCK
  8
0
  2
$MODEL_SPACE
 70
     0
 10
0.0
 20
0.0
 30
0.0
  3
$MODEL_SPACE
  1

  0
ENDBLK
  5
1B
  8
0
  0
BLOCK
 67
     1
  8
0
  2
$PAPER_SPACE
 70
     0
 10
0.0
 20
0.0
 30
0.0
  3
$PAPER_SPACE
  1

  0
ENDBLK
  5
18
 67
     1
  8
0
  0
BLOCK
  8
0
  2
_OPEN
 70
     0
 10
0.0
 20
0.0
 30
0.0
  3
_OPEN
  1

  0
LINE
  5
7B6A
  8
0
  6
BYBLOCK
 62
     0
 10
-1.0
 20
0.166667
 30
0.0
 11
0.0
 21
0.0
 31
0.0
  0
LINE
  5
7B6B
  8
0
  6
BYBLOCK
 62
     0
 10
0.0
 20
0.0
 30
0.0
 11
-1.0
 21
-0.166667
 31
0.0
  0
LINE
  5
7B6C
  8
0
  6
BYBLOCK
 62
     0
 10
0.0
 20
0.0
 30
0.0
 11
-1.0
 21
0.0
 31
0.0
  0
ENDBLK
  5
7B6D
  8
0
  0
BLOCK
  8
0
  2
*D1
 70
     1
 10
0.0
 20
0.0
 30
0.0
  3
*D1
  1

  0
LINE
  5
7F2E
  8
3
  6
CONTINUOUS
 62
     0
 10
1685.305494
 20
3864.7166369999991
 30
0.0
 11
1533.8300839999999
 21
3864.7166369999991
 31
0.0
  0
LINE
  5
7F2F
  8
3
  6
CONTINUOUS
 62
     0
 10
1685.305494
 20
3214.716637
 30
0.0
 11
1533.8300839999999
 21
3214.716637
 31
0.0
  0
LINE
  5
7F30
  8
3
  6
CONTINUOUS
 62
     0
 10
1563.8300839999999
 20
3804.716637
 30
0.0
 11
1563.8300839999999
 21
3274.716637
 31
0.0
  0
INSERT
  5
7F31
  8
3
  6
CONTINUOUS
 62
     0
  2
_OPEN
 10
1563.8300839999999
 20
3864.7166369999991
 30
0.0
 41
60.0
 42
60.0
 43
60.0
 50
90.0
  0
INSERT
  5
7F32
  8
3
  6
CONTINUOUS
 62
     0
  2
_OPEN
 10
1563.8300839999999
 20
3214.716637
 30
0.0
 41
60.0
 42
60.0
 43
60.0
 50
270.0
  0
TEXT
  8
3
  40
90
  5
7FB9
  62
0
  72
0
  71
0
 10
1308.83
 20
3373.42
 30
0.000000
  1
650
  0
POINT
  5
7F34
  8
DEFPOINTS
  6
CONTINUOUS
 62
     0
 10
1700.305494
 20
3864.7166369999991
 30
0.0
  0
POINT
  5
7F35
  8
DEFPOINTS
  6
CONTINUOUS
 62
     0
 10
1700.305494
 20
3214.716637
 30
0.0
  0
POINT
  5
7F36
  8
DEFPOINTS
  6
CONTINUOUS
 62
     0
 10
1563.8300839999999
 20
3214.716637
 30
0.0
  0
ENDBLK
  5
7B7A
  8
0
  0
BLOCK
  8
0
  2
*D2
 70
     1
 10
0.0
 20
0.0
 30
0.0
  3
*D2
  1

  0
LINE
  5
7F37
  8
3
  6
CONTINUOUS
 62
     0
 10
1685.305494
 20
3864.7166369999991
 30
0.0
 11
1360.0932829999999
 21
3864.7166369999991
 31
0.0
  0
LINE
  5
7F38
  8
3
  6
CONTINUOUS
 62
     0
 10
1607.1931999999999
 20
3244.7166369999991
 30
0.0
 11
1360.0932829999999
 21
3244.7166369999991
 31
0.0
  0
LINE
  5
7F39
  8
3
  6
CONTINUOUS
 62
     0
 10
1390.0932829999999
 20
3804.716637
 30
0.0
 11
1390.0932829999999
 21
3304.716637
 31
0.0
  0
INSERT
  5
7F3A
  8
3
  6
CONTINUOUS
 62
     0
  2
_OPEN
 10
1390.0932829999999
 20
3864.7166369999991
 30
0.0
 41
60.0
 42
60.0
 43
60.0
 50
90.0
  0
INSERT
  5
7F3B
  8
3
  6
CONTINUOUS
 62
     0
  2
_OPEN
 10
1390.0932829999999
 20
3244.7166369999991
 30
0.0
 41
60.0
 42
60.0
 43
60.0
 50
270.0
  0
TEXT
  8
3
  40
90
  5
7FBA
  62
0
  72
0
  71
0
 10
1135.09
 20
3378.85
 30
0.000000
  1
620
  0
POINT
  5
7F3D
  8
DEFPOINTS
  6
CONTINUOUS
 62
     0
 10
1700.305494
 20
3864.7166369999991
 30
0.0
  0
POINT
  5
7F3E
  8
DEFPOINTS
  6
CONTINUOUS
 62
     0
 10
1622.193199999999
 20
3244.7166369999991
 30
0.0
  0
POINT
  5
7F3F
  8
DEFPOINTS
  6
CONTINUOUS
 62
     0
 10
1390.0932829999999
 20
3244.7166369999991
 30
0.0
  0
ENDBLK
  5
7B94
  8
0
  0
BLOCK
  8
0
  2
*D3
 70
     1
 10
0.0
 20
0.0
 30
0.0
  3
*D3
  1

  0
LINE
  5
7F40
  8
3
  6
CONTINUOUS
 62
     0
 10
1670.305494
 20
2674.716637
 30
0.0
 11
1360.0932829999999
 21
2674.716637
 31
0.0
  0
LINE
  5
7F41
  8
3
  6
CONTINUOUS
 62
     0
 10
1390.0932829999999
 20
3184.716637
 30
0.0
 11
1390.0932829999999
 21
2734.716637
 31
0.0
  0
INSERT
  5
7F42
  8
3
  6
CONTINUOUS
 62
     0
  2
_OPEN
 10
1390.0932829999999
 20
3244.7166369999991
 30
0.0
 41
60.0
 42
60.0
 43
60.0
 50
90.0
  0
INSERT
  5
7F43
  8
3
  6
CONTINUOUS
 62
     0
  2
_OPEN
 10
1390.0932829999999
 20
2674.716637
 30
0.0
 41
60.0
 42
60.0
 43
60.0
 50
270.0
  0
TEXT
  8
3
  40
90
  5
7FBB
  62
0
  72
0
  71
0
 10
1135.09
 20
2800.42
 30
0.000000
  1
570
  0
POINT
  5
7F45
  8
DEFPOINTS
  6
CONTINUOUS
 62
     0
 10
1622.193199999999
 20
3244.7166369999991
 30
0.0
  0
POINT
  5
7F46
  8
DEFPOINTS
  6
CONTINUOUS
 62
     0
 10
1685.305494
 20
2674.716637
 30
0.0
  0
POINT
  5
7F47
  8
DEFPOINTS
  6
CONTINUOUS
 62
     0
 10
1390.0932829999999
 20
2674.716637
 30
0.0
  0
ENDBLK
  5
7BA0
  8
0
  0
BLOCK
  8
0
  2
*D4
 70
     1
 10
0.0
 20
0.0
 30
0.0
  3
*D4
  1

  0
LINE
  5
7F48
  8
3
  6
CONTINUOUS
 62
     0
 10
1685.305494
 20
3904.7166369999991
 30
0.0
 11
1153.7808630000011
 21
3904.7166369999991
 31
0.0
  0
LINE
  5
7F49
  8
3
  6
CONTINUOUS
 62
     0
 10
1670.305494
 20
2674.716637
 30
0.0
 11
1153.780863
 21
2674.716637
 31
0.0
  0
LINE
  5
7F4A
  8
3
  6
CONTINUOUS
 62
     0
 10
1183.780863
 20
3844.7166369999991
 30
0.0
 11
1183.780863
 21
2734.716637
 31
0.0
  0
INSERT
  5
7F4B
  8
3
  6
CONTINUOUS
 62
     0
  2
_OPEN
 10
1183.780863
 20
3904.7166369999991
 30
0.0
 41
60.0
 42
60.0
 43
60.0
 50
90.0
  0
INSERT
  5
7F4C
  8
3
  6
CONTINUOUS
 62
     0
  2
_OPEN
 10
1183.780863
 20
2674.716637
 30
0.0
 41
60.0
 42
60.0
 43
60.0
 50
270.0
  0
TEXT
  8
3
  40
90
  5
7FBC
  62
0
  72
0
  71
0
 10
928.781
 20
3053.28
 30
0.000000
  1
1230
  0
POINT
  5
7F4E
  8
DEFPOINTS
  6
CONTINUOUS
 62
     0
 10
1700.305494
 20
3904.7166369999991
 30
0.0
  0
POINT
  5
7F4F
  8
DEFPOINTS
  6
CONTINUOUS
 62
     0
 10
1685.305494
 20
2674.716637
 30
0.0
  0
POINT
  5
7F50
  8
DEFPOINTS
  6
CONTINUOUS
 62
     0
 10
1183.780863
 20
2674.716637
 30
0.0
  0
ENDBLK
  5
7BAD
  8
0
  0
BLOCK
  8
0
  2
*D5
 70
     1
 10
0.0
 20
0.0
 30
0.0
  3
*D5
  1

  0
LINE
  5
7F51
  8
3
  6
CONTINUOUS
 62
     0
 10
1700.305494
 20
3919.716637
 30
0.0
 11
1700.305494
 21
4105.8270819999998
 31
0.0
  0
LINE
  5
7F52
  8
3
  6
CONTINUOUS
 62
     0
 10
2185.3054940000002
 20
3960.9766540000001
 30
0.0
 11
2185.3054940000002
 21
4105.8270819999998
 31
0.0
  0
LINE
  5
7F53
  8
3
  6
CONTINUOUS
 62
     0
 10
1760.305494
 20
4075.8270819999989
 30
0.0
 11
2125.3054940000002
 21
4075.8270819999989
 31
0.0
  0
INSERT
  5
7F54
  8
3
  6
CONTINUOUS
 62
     0
  2
_OPEN
 10
1700.305494
 20
4075.8270819999989
 30
0.0
 41
60.0
 42
60.0
 43
60.0
 50
180.0
  0
INSERT
  5
7F55
  8
3
  6
CONTINUOUS
 62
     0
  2
_OPEN
 10
2185.3054940000002
 20
4075.8270819999989
 30
0.0
 41
60.0
 42
60.0
 43
60.0
  0
TEXT
  8
3
  40
90
  5
7FBD
  62
0
  72
0
  71
0
 10
1758.45
 20
3991.53
 30
0.000000
  1
485
  0
POINT
  5
7F57
  8
DEFPOINTS
  6
CONTINUOUS
 62
     0
 10
1700.305494
 20
3904.7166369999991
 30
0.0
  0
POINT
  5
7F58
  8
DEFPOINTS
  6
CONTINUOUS
 62
     0
 10
2185.3054940000002
 20
3945.9766540000001
 30
0.0
  0
POINT
  5
7F59
  8
DEFPOINTS
  6
CONTINUOUS
 62
     0
 10
2185.3054940000002
 20
4075.8270819999989
 30
0.0
  0
ENDBLK
  5
7CB0
  8
0
  0
BLOCK
  8
0
  2
*D6
 70
     1
 10
0.0
 20
0.0
 30
0.0
  3
*D6
  1

  0
LINE
  5
7F5A
  8
3
  6
CONTINUOUS
 62
     0
 10
1685.305494
 20
2659.716637
 30
0.0
 11
1685.305494
 21
2361.9770410000001
 31
0.0
  0
LINE
  5
7F5B
  8
3
  6
CONTINUOUS
 62
     0
 10
2185.3054940000002
 20
2567.1954820000001
 30
0.0
 11
2185.3054940000002
 21
2361.9770410000001
 31
0.0
  0
LINE
  5
7F5C
  8
3
  6
CONTINUOUS
 62
     0
 10
1745.305494
 20
2391.9770410000001
 30
0.0
 11
2125.3054940000002
 21
2391.9770410000001
 31
0.0
  0
INSERT
  5
7F5D
  8
3
  6
CONTINUOUS
 62
     0
  2
_OPEN
 10
1685.305494
 20
2391.9770410000001
 30
0.0
 41
60.0
 42
60.0
 43
60.0
 50
180.0
  0
INSERT
  5
7F5E
  8
3
  6
CONTINUOUS
 62
     0
  2
_OPEN
 10
2185.3054940000002
 20
2391.9770410000001
 30
0.0
 41
60.0
 42
60.0
 43
60.0
  0
TEXT
  8
3
  40
90
  5
7FBE
  62
0
  72
0
  71
0
 10
1753.02
 20
2307.68
 30
0.000000
  1
500
  0
POINT
  5
7F60
  8
DEFPOINTS
  6
CONTINUOUS
 62
     0
 10
1685.305494
 20
2674.716637
 30
0.0
  0
POINT
  5
7F61
  8
DEFPOINTS
  6
CONTINUOUS
 62
     0
 10
2185.3054940000002
 20
2582.1954820000001
 30
0.0
  0
POINT
  5
7F62
  8
DEFPOINTS
  6
CONTINUOUS
 62
     0
 10
2185.3054940000002
 20
2391.9770410000001
 30
0.0
  0
ENDBLK
  5
7D45
  8
0
  0
BLOCK
  8
0
  2
*D7
 70
     1
 10
0.0
 20
0.0
 30
0.0
  3
*D7
  1

  0
LINE
  5
7F63
  8
3
  6
CONTINUOUS
 62
     0
 10
3285.3054940000002
 20
2659.716637
 30
0.0
 11
3285.3054940000002
 21
2361.9770410000001
 31
0.0
  0
LINE
  5
7F64
  8
3
  6
CONTINUOUS
 62
     0
 10
2245.3054940000002
 20
2391.9770410000001
 30
0.0
 11
3225.3054940000002
 21
2391.9770410000001
 31
0.0
  0
INSERT
  5
7F65
  8
3
  6
CONTINUOUS
 62
     0
  2
_OPEN
 10
2185.3054940000002
 20
2391.9770410000001
 30
0.0
 41
60.0
 42
60.0
 43
60.0
 50
180.0
  0
INSERT
  5
7F66
  8
3
  6
CONTINUOUS
 62
     0
  2
_OPEN
 10
3285.3054940000002
 20
2391.9770410000001
 30
0.0
 41
60.0
 42
60.0
 43
60.0
  0
TEXT
  8
3
  40
90
  5
7FBF
  62
0
  72
0
  71
0
 10
2555.31
 20
2307.68
 30
0.000000
  1
1100
  0
POINT
  5
7F68
  8
DEFPOINTS
  6
CONTINUOUS
 62
     0
 10
2185.3054940000002
 20
2582.1954820000001
 30
0.0
  0
POINT
  5
7F69
  8
DEFPOINTS
  6
CONTINUOUS
 62
     0
 10
3285.3054940000002
 20
2674.716637
 30
0.0
  0
POINT
  5
7F6A
  8
DEFPOINTS
  6
CONTINUOUS
 62
     0
 10
3285.3054940000002
 20
2391.9770410000001
 30
0.0
  0
ENDBLK
  5
7D3A
  8
0
  0
BLOCK
  8
0
  2
*D8
 70
     1
 10
0.0
 20
0.0
 30
0.0
  3
*D8
  1

  0
LINE
  5
7F6B
  8
3
  6
CONTINUOUS
 62
     0
 10
4631.7162669999998
 20
3879.7166369999991
 30
0.0
 11
4631.7162669999998
 21
4007.6530469999998
 31
0.0
  0
LINE
  5
7F6C
  8
3
  6
CONTINUOUS
 62
     0
 10
5106.7162669999998
 20
3879.7166369999991
 30
0.0
 11
5106.7162669999998
 21
4007.6530469999998
 31
0.0
  0
LINE
  5
7F6D
  8
3
  6
CONTINUOUS
 62
     0
 10
4691.7162669999989
 20
3977.6530469999998
 30
0.0
 11
5046.7162669999998
 21
3977.6530469999998
 31
0.0
  0
INSERT
  5
7F6E
  8
3
  6
CONTINUOUS
 62
     0
  2
_OPEN
 10
4631.7162669999998
 20
3977.6530469999998
 30
0.0
 41
60.0
 42
60.0
 43
60.0
 50
180.0
  0
INSERT
  5
7F6F
  8
3
  6
CONTINUOUS
 62
     0
  2
_OPEN
 10
5106.7162669999998
 20
3977.6530469999998
 30
0.0
 41
60.0
 42
60.0
 43
60.0
  0
TEXT
  8
3
  40
90
  5
7FC0
  62
0
  72
0
  71
0
 10
4690.46
 20
3893.35
 30
0.000000
  1
475
  0
POINT
  5
7F71
  8
DEFPOINTS
  6
CONTINUOUS
 62
     0
 10
4631.7162669999998
 20
3864.7166369999991
 30
0.0
  0
POINT
  5
7F72
  8
DEFPOINTS
  6
CONTINUOUS
 62
     0
 10
5106.7162669999998
 20
3864.7166369999991
 30
0.0
  0
POINT
  5
7F73
  8
DEFPOINTS
  6
CONTINUOUS
 62
     0
 10
5106.7162669999998
 20
3977.6530469999998
 30
0.0
  0
ENDBLK
  5
7BEC
  8
0
  0
BLOCK
  8
0
  2
*D9
 70
     1
 10
0.0
 20
0.0
 30
0.0
  3
*D9
  1

  0
LINE
  5
7F74
  8
3
  6
CONTINUOUS
 62
     0
 10
5125.7162669999998
 20
3579.7166369999991
 30
0.0
 11
5378.2336340000011
 21
3579.7166369999991
 31
0.0
  0
LINE
  5
7F75
  8
3
  6
CONTINUOUS
 62
     0
 10
5125.7162669999998
 20
2909.7166369999991
 30
0.0
 11
5378.2336340000011
 21
2909.7166369999991
 31
0.0
  0
LINE
  5
7F76
  8
3
  6
CONTINUOUS
 62
     0
 10
5348.2336340000011
 20
3519.7166369999991
 30
0.0
 11
5348.2336340000011
 21
2969.7166369999991
 31
0.0
  0
INSERT
  5
7F77
  8
3
  6
CONTINUOUS
 62
     0
  2
_OPEN
 10
5348.2336340000011
 20
3579.7166369999991
 30
0.0
 41
60.0
 42
60.0
 43
60.0
 50
90.0
  0
INSERT
  5
7F78
  8
3
  6
CONTINUOUS
 62
     0
  2
_OPEN
 10
5348.2336340000011
 20
2909.7166369999991
 30
0.0
 41
60.0
 42
60.0
 43
60.0
 50
270.0
  0
TEXT
  8
3
  40
90
  5
7FC1
  62
0
  72
0
  71
0
 10
5093.23
 20
3085.84
 30
0.000000
  1
φ670
  0
POINT
  5
7F7A
  8
DEFPOINTS
  6
CONTINUOUS
 62
     0
 10
5110.7162669999998
 20
3579.716637
 30
0.0
  0
POINT
  5
7F7B
  8
DEFPOINTS
  6
CONTINUOUS
 62
     0
 10
5110.7162669999998
 20
2909.716637
 30
0.0
  0
POINT
  5
7F7C
  8
DEFPOINTS
  6
CONTINUOUS
 62
     0
 10
5348.2336340000011
 20
2909.7166369999991
 30
0.0
  0
ENDBLK
  5
7D93
  8
0
  0
BLOCK
  8
0
  2
*D10
 70
     1
 10
0.0
 20
0.0
 30
0.0
  3
*D10
  1

  0
LINE
  5
7F7D
  8
3
  6
CONTINUOUS
 62
     0
 10
4869.2162669999998
 20
4120.612239
 30
0.0
 11
4869.2162669999998
 21
4218.623818
 31
0.0
  0
LINE
  5
7F7E
  8
3
  6
CONTINUOUS
 62
     0
 10
4389.2162669999998
 20
3789.7166369999991
 30
0.0
 11
4389.2162669999998
 21
4218.623818
 31
0.0
  0
LINE
  5
7F7F
  8
3
  6
CONTINUOUS
 62
     0
 10
4809.2162669999998
 20
4188.6238179999991
 30
0.0
 11
4449.2162669999989
 21
4188.6238179999991
 31
0.0
  0
INSERT
  5
7F80
  8
3
  6
CONTINUOUS
 62
     0
  2
_OPEN
 10
4869.2162669999998
 20
4188.6238179999991
 30
0.0
 41
60.0
 42
60.0
 43
60.0
  0
INSERT
  5
7F81
  8
3
  6
CONTINUOUS
 62
     0
  2
_OPEN
 10
4389.2162669999998
 20
4188.6238179999991
 30
0.0
 41
60.0
 42
60.0
 43
60.0
 50
180.0
  0
TEXT
  8
3
  40
90
  5
7FC2
  62
0
  72
0
  71
0
 10
4449.22
 20
4179.32
 30
0.000000
  1
MAX
  0
TEXT
  8
3
  40
90
  5
7FC3
  62
0
  72
0
  71
0
 10
4449.22
 20
4062.32
 30
0.000000
  1
530
  0
POINT
  5
7F83
  8
DEFPOINTS
  6
CONTINUOUS
 62
     0
 10
4869.2162669999998
 20
4105.612239
 30
0.0
  0
POINT
  5
7F84
  8
DEFPOINTS
  6
CONTINUOUS
 62
     0
 10
4389.2162669999998
 20
3774.7166369999991
 30
0.0
  0
POINT
  5
7F85
  8
DEFPOINTS
  6
CONTINUOUS
 62
     0
 10
4389.2162669999998
 20
4188.6238179999991
 30
0.0
  0
ENDBLK
  5
7D88
  8
0
  0
BLOCK
  8
0
  2
*D11
 70
     1
 10
0.0
 20
0.0
 30
0.0
  3
*D11
  1

  0
LINE
  5
7D69
  8
0
  6
BYBLOCK
 62
     0
 10
4509.2162669999998
 20
2659.716637
 30
0.0
 11
4509.2162669999998
 21
2406.4809220000002
 31
0.0
  0
LINE
  5
7D6A
  8
0
  6
BYBLOCK
 62
     0
 10
4869.2162669999998
 20
2578.4902590000002
 30
0.0
 11
4869.2162669999998
 21
2406.4809220000002
 31
0.0
  0
LINE
  5
7D6B
  8
0
  6
BYBLOCK
 62
     0
 10
4569.2162669999998
 20
2436.4809219999988
 30
0.0
 11
4809.2162669999998
 21
2436.4809219999988
 31
0.0
  0
TEXT
  5
7D6C
  8
3
 62
     0
 10
4573.5019812857154
 20
2464.672246962698
 30
0.0
 40
90.0
  1
360
  0
INSERT
  5
7D6D
  8
0
  6
BYBLOCK
 62
     0
  2
_OPEN
 10
4509.2162669999998
 20
2436.4809219999988
 30
0.0
 41
60.0
 42
60.0
 43
60.0
 50
180.0
  0
INSERT
  5
7D6E
  8
0
  6
BYBLOCK
 62
     0
  2
_OPEN
 10
4869.2162669999998
 20
2436.4809219999988
 30
0.0
 41
60.0
 42
60.0
 43
60.0
  0
POINT
  5
7D6F
  8
DEFPOINTS
  6
BYBLOCK
 62
     0
 10
4509.2162669999998
 20
2674.716637
 30
0.0
  0
POINT
  5
7D70
  8
DEFPOINTS
  6
BYBLOCK
 62
     0
 10
4869.2162669999998
 20
2593.4902590000002
 30
0.0
  0
POINT
  5
7D71
  8
DEFPOINTS
  6
BYBLOCK
 62
     0
 10
4869.2162669999998
 20
2436.4809219999988
 30
0.0
  0
ENDBLK
  5
7D72
  8
0
  0
BLOCK
  8
0
  2
*D12
 70
     1
 10
0.0
 20
0.0
 30
0.0
  3
*D12
  1

  0
LINE
  5
7F86
  8
3
  6
CONTINUOUS
 62
     0
 10
5209.2162669999998
 20
2659.716637
 30
0.0
 11
5209.2162669999998
 21
2406.4809220000002
 31
0.0
  0
LINE
  5
7F87
  8
3
  6
CONTINUOUS
 62
     0
 10
4929.2162669999998
 20
2436.4809219999988
 30
0.0
 11
5149.2162669999989
 21
2436.4809219999988
 31
0.0
  0
TEXT
  8
3
  40
90
  5
7FC4
  62
0
  72
0
  71
0
 10
4864.19
 20
2357.61
 30
0.000000
  1
340
  0
INSERT
  5
7F89
  8
3
  6
CONTINUOUS
 62
     0
  2
_OPEN
 10
4869.2162669999998
 20
2436.4809219999988
 30
0.0
 41
60.0
 42
60.0
 43
60.0
 50
180.0
  0
INSERT
  5
7F8A
  8
3
  6
CONTINUOUS
 62
     0
  2
_OPEN
 10
5209.2162669999998
 20
2436.4809219999988
 30
0.0
 41
60.0
 42
60.0
 43
60.0
  0
POINT
  5
7F8B
  8
DEFPOINTS
  6
CONTINUOUS
 62
     0
 10
4869.2162669999998
 20
2593.4902590000002
 30
0.0
  0
POINT
  5
7F8C
  8
DEFPOINTS
  6
CONTINUOUS
 62
     0
 10
5209.2162669999998
 20
2674.716637
 30
0.0
  0
POINT
  5
7F8D
  8
DEFPOINTS
  6
CONTINUOUS
 62
     0
 10
5209.2162669999998
 20
2436.4809219999988
 30
0.0
  0
ENDBLK
  5
7CDC
  8
0
  0
BLOCK
  8
0
  2
*D13
 70
     1
 10
0.0
 20
0.0
 30
0.0
  3
*D13
  1

  0
LINE
  5
7F8E
  8
3
  6
CONTINUOUS
 62
     0
 10
1685.305494
 20
6038.075707
 30
0.0
 11
1685.305494
 21
6331.9418610000002
 31
0.0
  0
LINE
  5
7F8F
  8
3
  6
CONTINUOUS
 62
     0
 10
3285.3054940000002
 20
6038.075707
 30
0.0
 11
3285.3054940000002
 21
6331.9418610000002
 31
0.0
  0
LINE
  5
7F90
  8
3
  6
CONTINUOUS
 62
     0
 10
1745.305494
 20
6301.9418610000002
 30
0.0
 11
3225.3054940000002
 21
6301.9418610000002
 31
0.0
  0
INSERT
  5
7F91
  8
3
  6
CONTINUOUS
 62
     0
  2
_OPEN
 10
1685.305494
 20
6301.9418610000002
 30
0.0
 41
60.0
 42
60.0
 43
60.0
 50
180.0
  0
INSERT
  5
7F92
  8
3
  6
CONTINUOUS
 62
     0
  2
_OPEN
 10
3285.3054940000002
 20
6301.9418610000002
 30
0.0
 41
60.0
 42
60.0
 43
60.0
  0
TEXT
  8
3
  40
90
  5
7FC5
  62
0
  72
0
  71
0
 10
2209.08
 20
6217.64
 30
0.000000
  1
1600
  0
POINT
  5
7F94
  8
DEFPOINTS
  6
CONTINUOUS
 62
     0
 10
1685.305494
 20
6023.075707
 30
0.0
  0
POINT
  5
7F95
  8
DEFPOINTS
  6
CONTINUOUS
 62
     0
 10
3285.3054940000002
 20
6023.075707
 30
0.0
  0
POINT
  5
7F96
  8
DEFPOINTS
  6
CONTINUOUS
 62
     0
 10
3285.3054940000002
 20
6301.9418610000002
 30
0.0
  0
ENDBLK
  5
7CC5
  8
0
  0
BLOCK
  8
0
  2
*D14
 70
     1
 10
0.0
 20
0.0
 30
0.0
  3
*D14
  1

  0
LINE
  5
7F97
  8
3
  6
CONTINUOUS
 62
     0
 10
3300.3054940000002
 20
6023.075707
 30
0.0
 11
3564.6568390000011
 21
6023.075707
 31
0.0
  0
LINE
  5
7F98
  8
3
  6
CONTINUOUS
 62
     0
 10
3300.3054940000002
 20
5323.075707
 30
0.0
 11
3564.6568390000011
 21
5323.075707
 31
0.0
  0
LINE
  5
7F99
  8
3
  6
CONTINUOUS
 62
     0
 10
3534.6568390000011
 20
5963.075707
 30
0.0
 11
3534.6568390000011
 21
5383.075707
 31
0.0
  0
INSERT
  5
7F9A
  8
3
  6
CONTINUOUS
 62
     0
  2
_OPEN
 10
3534.6568390000011
 20
6023.075707
 30
0.0
 41
60.0
 42
60.0
 43
60.0
 50
90.0
  0
INSERT
  5
7F9B
  8
3
  6
CONTINUOUS
 62
     0
  2
_OPEN
 10
3534.6568390000011
 20
5323.075707
 30
0.0
 41
60.0
 42
60.0
 43
60.0
 50
270.0
  0
TEXT
  8
3
  40
90
  5
7FC6
  62
0
  72
0
  71
0
 10
3279.66
 20
5483.93
 30
0.000000
  1
700
  0
POINT
  5
7F9D
  8
DEFPOINTS
  6
CONTINUOUS
 62
     0
 10
3285.3054940000002
 20
6023.075707
 30
0.0
  0
POINT
  5
7F9E
  8
DEFPOINTS
  6
CONTINUOUS
 62
     0
 10
3285.3054940000002
 20
5323.075707
 30
0.0
  0
POINT
  5
7F9F
  8
DEFPOINTS
  6
CONTINUOUS
 62
     0
 10
3534.6568390000011
 20
5323.075707
 30
0.0
  0
ENDBLK
  5
7C92
  8
0
  0
BLOCK
  8
0
  2
*D15
 70
     1
 10
0.0
 20
0.0
 30
0.0
  3
*D15
  1

  0
LINE
  5
7FA0
  8
3
  6
CONTINUOUS
 62
     0
 10
2707.3054940000002
 20
3259.716637
 30
0.0
 11
2707.3054940000002
 21
4105.8270819999998
 31
0.0
  0
LINE
  5
7FA1
  8
3
  6
CONTINUOUS
 62
     0
 10
2245.3054940000002
 20
4075.8270819999989
 30
0.0
 11
2647.3054940000002
 21
4075.8270819999989
 31
0.0
  0
INSERT
  5
7FA2
  8
3
  6
CONTINUOUS
 62
     0
  2
_OPEN
 10
2185.3054940000002
 20
4075.8270819999989
 30
0.0
 41
60.0
 42
60.0
 43
60.0
 50
180.0
  0
INSERT
  5
7FA3
  8
3
  6
CONTINUOUS
 62
     0
  2
_OPEN
 10
2707.3054940000002
 20
4075.8270819999989
 30
0.0
 41
60.0
 42
60.0
 43
60.0
  0
TEXT
  8
3
  40
90
  5
7FC7
  62
0
  72
0
  71
0
 10
2266.31
 20
3991.53
 30
0.000000
  1
522
  0
POINT
  5
7FA5
  8
DEFPOINTS
  6
CONTINUOUS
 62
     0
 10
2185.3054940000002
 20
3945.9766540000001
 30
0.0
  0
POINT
  5
7FA6
  8
DEFPOINTS
  6
CONTINUOUS
 62
     0
 10
2707.3054940000002
 20
3244.7166369999991
 30
0.0
  0
POINT
  5
7FA7
  8
DEFPOINTS
  6
CONTINUOUS
 62
     0
 10
2707.3054940000002
 20
4075.8270819999989
 30
0.0
  0
ENDBLK
  5
7CBA
  8
0
  0
BLOCK
  8
0
  2
*D16
 70
     1
 10
0.0
 20
0.0
 30
0.0
  3
*D16
  1

  0
LINE
  5
7FA8
  8
3
  6
CONTINUOUS
 62
     0
 10
5109.7162669999989
 20
3594.7166369999991
 30
0.0
 11
5109.7162669999989
 21
4218.623818
 31
0.0
  0
LINE
  5
7FA9
  8
3
  6
CONTINUOUS
 62
     0
 10
4929.2162669999998
 20
4188.6238179999991
 30
0.0
 11
5049.7162669999998
 21
4188.6238179999991
 31
0.0
  0
TEXT
  8
3
  40
90
  5
7FC8
  62
0
  72
0
  71
0
 10
4797.51
 20
4105.56
 30
0.000000
  1
241
  0
INSERT
  5
7FAB
  8
3
  6
CONTINUOUS
 62
     0
  2
_OPEN
 10
4869.2162669999998
 20
4188.6238179999991
 30
0.0
 41
60.0
 42
60.0
 43
60.0
 50
180.0
  0
INSERT
  5
7FAC
  8
3
  6
CONTINUOUS
 62
     0
  2
_OPEN
 10
5109.7162669999989
 20
4188.6238179999991
 30
0.0
 41
60.0
 42
60.0
 43
60.0
  0
POINT
  5
7FAD
  8
DEFPOINTS
  6
CONTINUOUS
 62
     0
 10
4869.2162669999998
 20
4105.612239
 30
0.0
  0
POINT
  5
7FAE
  8
DEFPOINTS
  6
CONTINUOUS
 62
     0
 10
5109.7162669999989
 20
3579.716637
 30
0.0
  0
POINT
  5
7FAF
  8
DEFPOINTS
  6
CONTINUOUS
 62
     0
 10
5109.7162669999989
 20
4188.6238179999991
 30
0.0
  0
ENDBLK
  5
7D30
  8
0
  0
BLOCK
  8
0
  2
*D17
 70
     1
 10
0.0
 20
0.0
 30
0.0
  3
*D17
  1

  0
LINE
  5
7FB0
  8
3
 62
     0
 10
1700.305494
 20
3919.716637
 30
0.0
 11
1700.305494
 21
4293.9334706575464
 31
0.0
  0
LINE
  5
7FB1
  8
3
 62
     0
 10
3285.3054940000002
 20
2789.716637
 30
0.0
 11
3285.3054940000002
 21
4293.9334706575464
 31
0.0
  0
LINE
  5
7FB2
  8
3
 62
     0
 10
1760.305494
 20
4263.9334706575473
 30
0.0
 11
3225.3054940000002
 21
4263.9334706575473
 31
0.0
  0
INSERT
  5
7FB3
  8
3
 62
     0
  2
_OPEN
 10
1700.305494
 20
4263.9334706575473
 30
0.0
 41
60.0
 42
60.0
 43
60.0
 50
180.0
  0
INSERT
  5
7FB4
  8
3
 62
     0
  2
_OPEN
 10
3285.3054940000002
 20
4263.9334706575473
 30
0.0
 41
60.0
 42
60.0
 43
60.0
  0
TEXT
  8
3
  40
90
  5
7FC9
  62
0
  72
0
  71
0
 10
2296.25
 20
4179.63
 30
0.000000
  1
1585
  0
POINT
  5
7FB6
  8
DEFPOINTS
 62
     0
 10
1700.305494
 20
3904.7166369999991
 30
0.0
  0
POINT
  5
7FB7
  8
DEFPOINTS
 62
     0
 10
3285.3054940000002
 20
2774.716637
 30
0.0
  0
POINT
  5
7FB8
  8
DEFPOINTS
 62
     0
 10
3285.3054940000002
 20
4263.9334706575473
 30
0.0
  0
ENDBLK
  5
7D5B
  8
0
  0
ENDSEC
  0
SECTION
  2
ENTITIES
  0
LINE
  5
7AAB
  8
1
  6
CONTINUOUS
 10
2885.022606999999
 20
2897.558047
 30
0.0
 11
2145.6834090000002
 21
3100.044281
 31
0.0
  0
LINE
  5
7AAC
  8
1
  6
CONTINUOUS
 10
2940.9118050000002
 20
3046.771628
 30
0.0
 11
2250.4756560000001
 21
3379.8197449999998
 31
0.0
  0
CIRCLE
  5
7AAD
  8
1
  6
CONTINUOUS
 10
2185.3054940000002
 20
3244.7166369999991
 30
0.0
 40
150.0
  0
LINE
  5
7AAE
  8
2
  6
CENTER
 10
1632.230834
 20
3244.7166369999991
 30
0.0
 11
3061.5084780000002
 21
3244.7166369999991
 31
0.0
  0
ARC
  5
7AAF
  8
1
  6
CONTINUOUS
 10
2220.3054940000002
 20
3279.7166369999991
 30
0.0
 40
488.25444700000003
 50
262.64762100000002
 51
355.48601200000002
  0
ARC
  5
7AB0
  8
1
  6
CONTINUOUS
 10
2144.3054940000002
 20
3285.716637
 30
0.0
 40
564.49092099999984
 50
355.48601200000002
 51
85.834835999999996
  0
LINE
  5
7AB1
  8
1
  6
CONTINUOUS
 10
3115.3054940000002
 20
3074.716637
 30
0.0
 11
2285.3054940000002
 21
3774.7166369999991
 31
0.0
  0
LINE
  5
7AB2
  8
1
  6
CONTINUOUS
 10
3285.3054940000002
 20
2674.716637
 30
0.0
 11
1685.305494
 21
2674.716637
 31
0.0
  0
LINE
  5
7AB3
  8
1
  6
CONTINUOUS
 10
1685.305494
 20
2774.716637
 30
0.0
 11
3285.3054940000002
 21
2774.716637
 31
0.0
  0
LINE
  5
7AB4
  8
1
  6
CONTINUOUS
 10
1743.305494
 20
3686.7166369999991
 30
0.0
 11
2627.3054940000002
 21
3686.7166369999991
 31
0.0
  0
LINE
  5
7AB7
  8
1
  6
CONTINUOUS
 10
1730.305494
 20
3214.716637
 30
0.0
 11
1730.305494
 21
3863.3970490000002
 31
0.0
  0
LINE
  5
7AB8
  8
2
  6
CENTER
 10
2185.3054940000002
 20
6120.794237000001
 30
0.0
 11
2185.3054940000002
 21
5152.6987140000001
 31
0.0
  0
LINE
  5
7AB9
  8
1
  6
CONTINUOUS
 10
1845.305494
 20
2774.716637
 30
0.0
 11
1845.305494
 21
3774.7166369999991
 31
0.0
  0
LINE
  5
7ABA
  8
1
  6
CONTINUOUS
 10
1743.305494
 20
3686.7166369999991
 30
0.0
 11
1743.305494
 21
2774.716637
 31
0.0
  0
LINE
  5
7ABB
  8
1
  6
CONTINUOUS
 10
1700.305494
 20
3174.716637
 30
0.0
 11
1700.305494
 21
3904.7166369999991
 31
0.0
  0
ARC
  5
7ABC
  8
1
  6
CONTINUOUS
 10
2212.3054940000002
 20
3217.716637
 30
0.0
 40
425.74044800000001
 50
180.403741
 51
262.64762100000002
  0
LINE
  5
7ABD
  8
1
  6
CONTINUOUS
 10
1685.305494
 20
2774.716637
 30
0.0
 11
1685.305494
 21
2674.716637
 31
0.0
  0
LINE
  5
7ABE
  8
1
  6
CONTINUOUS
 10
1786.575615
 20
3214.716637
 30
0.0
 11
1700.305494
 21
3214.716637
 31
0.0
  0
LINE
  5
7ABF
  8
1
  6
CONTINUOUS
 10
1700.305494
 20
3864.7166369999991
 30
0.0
 11
2185.3054940000002
 21
3848.7166369999991
 31
0.0
  0
LINE
  5
7AC0
  8
1
  6
CONTINUOUS
 10
1845.305494
 20
3774.7166369999991
 30
0.0
 11
2285.3054940000002
 21
3774.7166369999991
 31
0.0
  0
LINE
  5
7AC1
  8
1
  6
CONTINUOUS
 10
2627.3054940000002
 20
3686.7166369999991
 30
0.0
 11
2627.3054940000002
 21
2774.716637
 31
0.0
  0
LINE
  5
7AC2
  8
1
  6
CONTINUOUS
 10
2752.1543849999998
 20
2814.716637
 30
0.0
 11
3060.1543849999998
 21
2814.716637
 31
0.0
  0
ARC
  5
7AC3
  8
1
  6
CONTINUOUS
 10
2906.1543849999998
 20
2974.716637
 30
0.0
 40
162.0
 50
324.972283
 51
215.02771699999991
  0
LINE
  5
7AC4
  8
1
  6
CONTINUOUS
 10
2752.1543849999998
 20
2774.716637
 30
0.0
 11
2752.1543849999998
 21
2832.716637
 31
0.0
  0
LINE
  5
7AC5
  8
1
  6
CONTINUOUS
 10
2752.1543849999998
 20
2832.716637
 30
0.0
 11
2773.4967200000001
 21
2881.7330700000002
 31
0.0
  0
LINE
  5
7AC6
  8
1
  6
CONTINUOUS
 10
3285.3054940000002
 20
2774.716637
 30
0.0
 11
3285.3054940000002
 21
2674.716637
 31
0.0
  0
LINE
  5
7AC7
  8
2
  6
CENTER
 10
2826.1543849999998
 20
2974.716637
 30
0.0
 11
2986.1543849999998
 21
2974.716637
 31
0.0
  0
LINE
  5
7AC8
  8
2
  6
CENTER
 10
2906.1543849999998
 20
3054.716637
 30
0.0
 11
2906.1543849999998
 21
2894.716637
 31
0.0
  0
LINE
  5
7AC9
  8
1
  6
CONTINUOUS
 10
3060.1543849999998
 20
2774.716637
 30
0.0
 11
3060.1543849999998
 21
2832.716637
 31
0.0
  0
LINE
  5
7ACA
  8
1
  6
CONTINUOUS
 10
3060.1543849999998
 20
2814.716637
 30
0.0
 11
3060.1543849999998
 21
2832.716637
 31
0.0
  0
LINE
  5
7ACB
  8
1
  6
CONTINUOUS
 10
3115.3054940000002
 20
2774.716637
 30
0.0
 11
3115.3054940000002
 21
3074.716637
 31
0.0
  0
LINE
  5
7ACC
  8
1
  6
CONTINUOUS
 10
3060.1543849999998
 20
2832.716637
 30
0.0
 11
3038.8120509999999
 21
2881.7330700000002
 31
0.0
  0
CIRCLE
  5
7ACD
  8
1
  6
CONTINUOUS
 10
2906.1543849999998
 20
2974.716637
 30
0.0
 40
80.0
  0
LINE
  5
7AEB
  8
1
  6
CONTINUOUS
 10
4631.7162669999998
 20
3864.7166369999991
 30
0.0
 11
4631.7162669999998
 21
2774.716637
 31
0.0
  0
LINE
  5
7AEC
  8
1
  6
CONTINUOUS
 10
5106.7162669999998
 20
3864.7166369999991
 30
0.0
 11
5106.7162669999998
 21
2774.716637
 31
0.0
  0
LINE
  5
7AED
  8
1
  6
CONTINUOUS
 10
4389.2162669999998
 20
3774.7166369999991
 30
0.0
 11
4389.2162669999998
 21
2774.716637
 31
0.0
  0
LINE
  5
7AEE
  8
1
  6
CONTINUOUS
 10
5106.7162669999998
 20
3864.7166369999991
 30
0.0
 11
4631.7162669999998
 21
3214.716637
 31
0.0
  0
LINE
  5
7AEF
  8
1
  6
CONTINUOUS
 10
4631.7162669999998
 20
3864.7166369999991
 30
0.0
 11
5106.7162669999998
 21
3214.716637
 31
0.0
  0
LINE
  5
7AF0
  8
1
  6
CONTINUOUS
 10
4529.2162669999989
 20
3774.7166369999991
 30
0.0
 11
4529.2162669999989
 21
2774.716637
 31
0.0
  0
LINE
  5
7AF1
  8
1
  6
CONTINUOUS
 10
4424.2162669999998
 20
3394.716637
 30
0.0
 11
4424.2162669999998
 21
3094.716637
 31
0.0
  0
LINE
  5
7AF2
  8
1
  6
CONTINUOUS
 10
4494.2162669999998
 20
3394.716637
 30
0.0
 11
4494.2162669999998
 21
3094.716637
 31
0.0
  0
LINE
  5
7AF3
  8
1
  6
CONTINUOUS
 10
4509.2162669999998
 20
2674.716637
 30
0.0
 11
5209.2162669999998
 21
2674.716637
 31
0.0
  0
LINE
  5
7AF4
  8
1
  6
CONTINUOUS
 10
4509.2162669999998
 20
2774.716637
 30
0.0
 11
5209.2162669999998
 21
2774.716637
 31
0.0
  0
LINE
  5
7AF5
  8
1
  6
CONTINUOUS
 10
4631.7162669999998
 20
3214.716637
 30
0.0
 11
5106.7162669999998
 21
3214.716637
 31
0.0
  0
LINE
  5
7AF6
  8
1
  6
CONTINUOUS
 10
4389.2162669999998
 20
2774.716637
 30
0.0
 11
4509.2162669999998
 21
2774.716637
 31
0.0
  0
LINE
  5
7AF7
  8
1
  6
CONTINUOUS
 10
4424.2162669999998
 20
3094.716637
 30
0.0
 11
4494.2162669999998
 21
3094.716637
 31
0.0
  0
LINE
  5
7AF8
  8
1
  6
CONTINUOUS
 10
4424.2162669999998
 20
2894.716637
 30
0.0
 11
4494.2162669999998
 21
2894.716637
 31
0.0
  0
LINE
  5
7AF9
  8
1
  6
CONTINUOUS
 10
4424.2162669999998
 20
3054.716637
 30
0.0
 11
4494.2162669999998
 21
3054.716637
 31
0.0
  0
LINE
  5
7AFA
  8
1
  6
CONTINUOUS
 10
4424.2162669999998
 20
3054.716637
 30
0.0
 11
4424.2162669999998
 21
2894.716637
 31
0.0
  0
LINE
  5
7AFB
  8
1
  6
CONTINUOUS
 10
4509.2162669999998
 20
2774.716637
 30
0.0
 11
4509.2162669999998
 21
2674.716637
 31
0.0
  0
LINE
  5
7AFC
  8
1
  6
CONTINUOUS
 10
4494.2162669999998
 20
3223.7166369999991
 30
0.0
 11
4631.7162669999998
 21
3223.7166369999991
 31
0.0
  0
LINE
  5
7AFD
  8
1
  6
CONTINUOUS
 10
4494.2162669999998
 20
3265.716637
 30
0.0
 11
4631.7162669999998
 21
3265.716637
 31
0.0
  0
LINE
  5
7AFE
  8
1
  6
CONTINUOUS
 10
4494.2162669999998
 20
2953.716637
 30
0.0
 11
4631.7162669999998
 21
2953.716637
 31
0.0
  0
LINE
  5
7AFF
  8
1
  6
CONTINUOUS
 10
4494.2162669999998
 20
2995.716637
 30
0.0
 11
4631.7162669999998
 21
2995.716637
 31
0.0
  0
LINE
  5
7B00
  8
1
  6
CONTINUOUS
 10
4494.2162669999998
 20
3054.716637
 30
0.0
 11
4494.2162669999998
 21
2894.716637
 31
0.0
  0
LINE
  5
7B01
  8
1
  6
CONTINUOUS
 10
5209.2162669999998
 20
2774.716637
 30
0.0
 11
5209.2162669999998
 21
2674.716637
 31
0.0
  0
LINE
  5
7B02
  8
1
  6
CONTINUOUS
 10
4631.7162669999998
 20
3864.7166369999991
 30
0.0
 11
5106.7162669999998
 21
3864.7166369999991
 31
0.0
  0
LINE
  5
7B03
  8
1
  6
CONTINUOUS
 10
4529.2162669999989
 20
3774.7166369999991
 30
0.0
 11
4389.2162669999998
 21
3774.7166369999991
 31
0.0
  0
LINE
  5
7B04
  8
1
  6
CONTINUOUS
 10
4424.2162669999998
 20
3394.716637
 30
0.0
 11
4494.2162669999998
 21
3394.716637
 31
0.0
  0
LINE
  5
7B0B
  8
1
  6
CONTINUOUS
 10
2206.3054939999988
 20
5323.075707
 30
0.0
 11
2885.1543849999998
 21
5323.075707
 31
0.0
  0
LINE
  5
7B0C
  8
1
  6
CONTINUOUS
 10
1685.305494
 20
6023.075707
 30
0.0
 11
3285.3054940000002
 21
6023.075707
 31
0.0
  0
LINE
  5
7B0D
  8
1
  6
CONTINUOUS
 10
1700.305494
 20
5445.575707
 30
0.0
 11
2708.7964149999998
 21
5445.575707
 31
0.0
  0
LINE
  5
7B0E
  8
1
  6
CONTINUOUS
 10
1700.305494
 20
5920.5757070000009
 30
0.0
 11
2708.7964149999998
 21
5920.5757070000009
 31
0.0
  0
LINE
  5
7B0F
  8
1
  6
CONTINUOUS
 10
2335.3054940000002
 20
5238.075707
 30
0.0
 11
2035.305494
 21
5238.075707
 31
0.0
  0
LINE
  5
7B10
  8
1
  6
CONTINUOUS
 10
2335.3054940000002
 20
5308.075707
 30
0.0
 11
2035.305494
 21
5308.075707
 31
0.0
  0
LINE
  5
7B11
  8
1
  6
CONTINUOUS
 10
1845.305494
 20
5343.075707
 30
0.0
 11
3115.3054940000002
 21
5343.075707
 31
0.0
  0
LINE
  5
7B12
  8
1
  6
CONTINUOUS
 10
1845.305494
 20
5203.0757069999991
 30
0.0
 11
3115.3054940000002
 21
5203.0757069999991
 31
0.0
  0
LINE
  5
7B13
  8
1
  6
CONTINUOUS
 10
1685.305494
 20
6023.075707
 30
0.0
 11
1685.305494
 21
5323.075707
 31
0.0
  0
LINE
  5
7B14
  8
1
  6
CONTINUOUS
 10
1740.305494
 20
5445.575707
 30
0.0
 11
1740.305494
 21
5920.5757070000009
 31
0.0
  0
LINE
  5
7B15
  8
1
  6
CONTINUOUS
 10
1700.305494
 20
5403.075707
 30
0.0
 11
1700.305494
 21
5963.075707
 31
0.0
  0
LINE
  5
7B16
  8
1
  6
CONTINUOUS
 10
1685.305494
 20
5323.075707
 30
0.0
 11
2164.3054940000002
 21
5323.075707
 31
0.0
  0
LINE
  5
7B17
  8
1
  6
CONTINUOUS
 10
2164.3054940000002
 20
5308.075707
 30
0.0
 11
2164.3054940000002
 21
5445.575707
 31
0.0
  0
LINE
  5
7B18
  8
1
  6
CONTINUOUS
 10
2206.3054939999988
 20
5308.075707
 30
0.0
 11
2206.3054939999988
 21
5445.575707
 31
0.0
  0
LINE
  5
7B19
  8
1
  6
CONTINUOUS
 10
1845.305494
 20
5203.0757069999991
 30
0.0
 11
1845.305494
 21
5343.075707
 31
0.0
  0
LINE
  5
7B1A
  8
1
  6
CONTINUOUS
 10
2035.305494
 20
5238.075707
 30
0.0
 11
2035.305494
 21
5308.075707
 31
0.0
  0
LINE
  5
7B1B
  8
1
  6
CONTINUOUS
 10
3285.3054940000002
 20
6023.075707
 30
0.0
 11
3285.3054940000002
 21
5323.075707
 31
0.0
  0
LINE
  5
7B1C
  8
1
  6
CONTINUOUS
 10
2708.7964149999998
 20
5445.575707
 30
0.0
 11
2708.7964149999998
 21
5920.5757070000009
 31
0.0
  0
LINE
  5
7B1D
  8
1
  6
CONTINUOUS
 10
3068.1543849999998
 20
5374.807624
 30
0.0
 11
3068.1543849999998
 21
5859.807624
 31
0.0
  0
LINE
  5
7B1E
  8
1
  6
CONTINUOUS
 10
2744.1543849999998
 20
5374.807624
 30
0.0
 11
2744.1543849999998
 21
5859.807624
 31
0.0
  0
LINE
  5
7B1F
  8
1
  6
CONTINUOUS
 10
3068.1543849999998
 20
5374.807624
 30
0.0
 11
2744.1543849999998
 21
5374.807624
 31
0.0
  0
LINE
  5
7B20
  8
1
  6
CONTINUOUS
 10
2335.3054940000002
 20
5238.075707
 30
0.0
 11
2335.3054940000002
 21
5308.075707
 31
0.0
  0
LINE
  5
7B21
  8
1
  6
CONTINUOUS
 10
2744.1543849999998
 20
5696.5240720000002
 30
0.0
 11
2744.1543849999998
 21
5454.277032
 31
0.0
  0
LINE
  5
7B22
  8
1
  6
CONTINUOUS
 10
2927.1543849999998
 20
5323.075707
 30
0.0
 11
3285.3054940000002
 21
5323.075707
 31
0.0
  0
LINE
  5
7B23
  8
1
  6
CONTINUOUS
 10
3115.3054940000002
 20
5203.0757069999991
 30
0.0
 11
3115.3054940000002
 21
5343.075707
 31
0.0
  0
LINE
  5
7B24
  8
1
  6
CONTINUOUS
 10
2986.1543849999998
 20
5308.075707
 30
0.0
 11
2826.1543849999998
 21
5308.075707
 31
0.0
  0
LINE
  5
7B25
  8
1
  6
CONTINUOUS
 10
2986.1543849999998
 20
5238.075707
 30
0.0
 11
2826.1543849999998
 21
5238.075707
 31
0.0
  0
LINE
  5
7B26
  8
1
  6
CONTINUOUS
 10
2826.1543849999998
 20
5238.075707
 30
0.0
 11
2826.1543849999998
 21
5308.075707
 31
0.0
  0
LINE
  5
7B27
  8
1
  6
CONTINUOUS
 10
2986.1543849999998
 20
5238.075707
 30
0.0
 11
2986.1543849999998
 21
5308.075707
 31
0.0
  0
LINE
  5
7B28
  8
1
  6
CONTINUOUS
 10
2927.1543849999998
 20
5308.075707
 30
0.0
 11
2927.1543849999998
 21
5374.807624
 31
0.0
  0
LINE
  5
7B29
  8
1
  6
CONTINUOUS
 10
2885.1543849999998
 20
5308.075707
 30
0.0
 11
2885.1543849999998
 21
5374.807624
 31
0.0
  0
LINE
  5
7B2A
  8
1
  6
CONTINUOUS
 10
3068.1543849999998
 20
5859.807624
 30
0.0
 11
2744.1543849999998
 21
5859.807624
 31
0.0
  0
LINE
  5
7B45
  8
2
  6
CENTER
 10
3364.0779990000001
 20
5683.075707
 30
0.0
 11
1598.4551509999999
 21
5683.075707
 31
0.0
  0
LINE
  5
7B46
  8
2
  6
CENTER
 10
4869.2162669999998
 20
3988.90751
 30
0.0
 11
4869.2162669999998
 21
2593.4902590000002
 31
0.0
  0
LINE
  5
7B47
  8
2
  6
CENTER
 10
2185.3054940000002
 20
3945.9766540000001
 30
0.0
 11
2185.3054940000002
 21
2582.1954820000001
 31
0.0
  0
LINE
  5
7B48
  8
2
  6
CENTER
 10
4336.694587
 20
3244.7166369999991
 30
0.0
 11
5191.4096980000004
 21
3244.7166369999991
 31
0.0
  0
LINE
  5
7B49
  8
4
  6
CONTINUOUS
 10
5550.0
 20
1500.0
 30
0.0
 11
5550.0
 21
900.0
 31
0.0
  0
LINE
  5
7B4A
  8
4
  6
CONTINUOUS
 10
3450.0
 20
1500.0
 30
0.0
 11
3450.0
 21
900.0
 31
0.0
  0
LINE
  5
7B4B
  8
4
  6
CONTINUOUS
 10
1950.0
 20
1500.0
 30
0.0
 11
1950.0
 21
900.0
 31
0.0
  0
LINE
  5
7B4E
  8
4
  6
CONTINUOUS
 10
1950.0
 20
900.0
 30
0.0
 11
5550.0
 21
900.0
 31
0.0
  0
LINE
  5
7B4F
  8
4
  6
CONTINUOUS
 10
1950.0
 20
1200.0
 30
0.0
 11
5550.0
 21
1200.0
 31
0.0
  0
TEXT
  5
7B50
  8
4
  6
CONTINUOUS
 10
2065.5062429999989
 20
1294.6290779999999
 30
0.0
 40
150.0
  1
機器名称
  0
TEXT
  5
7B51
  8
4
  6
CONTINUOUS
 10
2058.7743179999989
 20
964.9354699999999
 30
0.0
 40
150.0
  1
機器型番
  0
TEXT
  5
7B52
  8
4
  6
CONTINUOUS
 10
3533.0362359999999
 20
1267.7153069999999
 30
0.0
 40
150.0
  1
ミツヤ多翼送風機
  0
TEXT
  5
7B53
  8
4
  6
CONTINUOUS
 10
3559.9634869999991
 20
951.47875299999987
 30
0.0
 40
150.0
  1
MF#4-4
  0
TEXT
  5
7B55
  8
4
  6
CONTINUOUS
 10
2483.8524010000001
 20
7150.2865239999992
 30
0.0
 40
162.0
  1
天井吊ベット
  0
TEXT
  5
7B56
  8
4
  6
CONTINUOUS
 10
948.50278000000014
 20
7601.6429289999996
 30
0.0
 40
216.0
  1
ベルト駆動式片吸込両持多翼ファン
  0
LINE
  5
7B57
  8
4
  6
CONTINUOUS
 10
750.0
 20
7408.2262629999996
 30
0.0
 11
5550.0
 21
7408.2262629999996
 31
0.0
  0
LINE
  5
7B58
  8
4
  6
CONTINUOUS
 10
750.0
 20
8008.2262629999996
 30
0.0
 11
5550.0
 21
8008.2262629999996
 31
0.0
  0
LINE
  5
7B59
  8
4
  6
CONTINUOUS
 10
1950.0
 20
1500.0
 30
0.0
 11
5550.0
 21
1500.0
 31
0.0
  0
LINE
  5
7B5A
  8
4
  6
CONTINUOUS
 10
750.0
 20
8008.2262629999996
 30
0.0
 11
750.0
 21
7408.2262629999996
 31
0.0
  0
TEXT
  5
7B5B
  8
4
  6
CONTINUOUS
 10
1176.2759039999989
 20
7146.9584329999998
 30
0.0
 40
162.0
  1
左回転左横向
  0
TEXT
  5
7B5C
  8
4
  6
CONTINUOUS
 10
4406.9086779999989
 20
8118.1832439999989
 30
0.0
 40
168.0
  1
No.
  0
TEXT
  5
7B5D
  8
4
  6
CONTINUOUS
 10
3933.8881879999999
 20
7150.2865239999992
 30
0.0
 40
162.0
  1
縮尺：1/30
  0
LINE
  5
7B5E
  8
4
  6
CONTINUOUS
 10
5550.0
 20
8008.2262629999996
 30
0.0
 11
5550.0
 21
7408.2262629999996
 31
0.0
  0
LINE
  5
7B60
  8
4
  6
CONTINUOUS
 10
4321.8522670000002
 20
8043.7907490000007
 30
0.0
 11
4321.8522670000002
 21
8359.9567849999985
 31
0.0
  0
LINE
  5
7B61
  8
4
  6
CONTINUOUS
 10
4321.8522670000002
 20
8359.9567849999985
 30
0.0
 11
5550.0
 21
8359.9567849999985
 31
0.0
  0
LINE
  5
7B62
  8
4
  6
CONTINUOUS
 10
5550.0
 20
8359.9567849999985
 30
0.0
 11
5550.0
 21
8043.7907490000007
 31
0.0
  0
LINE
  5
7B63
  8
4
  6
CONTINUOUS
 10
5550.0
 20
8043.7907490000007
 30
0.0
 11
4321.8522670000002
 21
8043.7907490000007
 31
0.0
  0
DIMENSION
  5
7B7B
  8
3
  6
CONTINUOUS
  2
*D1
 10
1563.8300839999999
 20
3214.716637
 30
0.0
 11
1563.8300839999999
 21
3532.7198129999988
 31
0.0
 70
   128
 13
1700.305494
 23
3864.7166369999991
 33
0.0
 14
1700.305494
 24
3214.716637
 34
0.0
 50
90.0
1001
ACAD
1000
DSTYLE
1002
{
1070
   287
1070
     3
1070
   287
1070
     3
1070
    40
1040
30.0
1070
   143
1040
0.039
1070
   172
1070
     1
1070
   271
1070
     0
1070
   279
1070
     0
1070
   288
1070
     1
1002
}
  0
DIMENSION
  5
7B95
  8
3
  6
CONTINUOUS
  2
*D2
 10
1390.0932829999999
 20
3244.7166369999991
 30
0.0
 11
1390.0932829999999
 21
3538.145822
 31
0.0
 70
   128
 13
1700.305494
 23
3864.7166369999991
 33
0.0
 14
1622.193199999999
 24
3244.7166369999991
 34
0.0
 50
90.0
1001
ACAD
1000
DSTYLE
1002
{
1070
   287
1070
     3
1070
   287
1070
     3
1070
    40
1040
30.0
1070
   143
1040
0.039
1070
   172
1070
     1
1070
   271
1070
     0
1070
   279
1070
     0
1070
   288
1070
     1
1002
}
  0
DIMENSION
  5
7BA1
  8
3
  6
CONTINUOUS
  2
*D3
 10
1390.0932829999999
 20
2674.716637
 30
0.0
 11
1315.093282999999
 21
2959.716637
 31
0.0
 70
     0
 13
1622.193199999999
 23
3244.7166369999991
 33
0.0
 14
1685.305494
 24
2674.716637
 34
0.0
 50
90.0
1001
ACAD
1000
DSTYLE
1002
{
1070
   287
1070
     4
1070
   287
1070
     4
1070
    40
1040
30.0
1070
    75
1070
     1
1070
   143
1040
0.039
1070
   172
1070
     1
1070
   271
1070
     0
1070
   279
1070
     1
1070
   288
1070
     1
1002
}
  0
DIMENSION
  5
7BAE
  8
3
  6
CONTINUOUS
  2
*D4
 10
1183.780863
 20
2674.716637
 30
0.0
 11
1183.780863
 21
3212.5849349999999
 31
0.0
 70
   128
 13
1700.305494
 23
3904.7166369999991
 33
0.0
 14
1685.305494
 24
2674.716637
 34
0.0
 50
90.0
1001
ACAD
1000
DSTYLE
1002
{
1070
   287
1070
     3
1070
   287
1070
     3
1070
    40
1040
30.0
1070
   143
1040
0.039
1070
   172
1070
     1
1070
   271
1070
     0
1070
   279
1070
     0
1070
   288
1070
     1
1002
}
  0
DIMENSION
  5
7BBB
  8
3
  6
CONTINUOUS
  2
*D5
 10
2185.3054940000002
 20
4075.8270819999989
 30
0.0
 11
1938.4500449999989
 21
4075.8270819999989
 31
0.0
 70
   128
 13
1700.305494
 23
3904.7166369999991
 33
0.0
 14
2185.3054940000002
 24
3945.9766540000001
 34
0.0
1001
ACAD
1000
DSTYLE
1002
{
1070
   287
1070
     3
1070
   287
1070
     3
1070
    40
1040
30.0
1070
   143
1040
0.039
1070
   172
1070
     1
1070
   271
1070
     0
1070
   279
1070
     0
1070
   288
1070
     1
1002
}
  0
DIMENSION
  5
7BD4
  8
3
  6
CONTINUOUS
  2
*D6
 10
2185.3054940000002
 20
2391.9770410000001
 30
0.0
 11
1933.0207539999999
 21
2391.9770410000001
 31
0.0
 70
   128
 13
1685.305494
 23
2674.716637
 33
0.0
 14
2185.3054940000002
 24
2582.1954820000001
 34
0.0
1001
ACAD
1000
DSTYLE
1002
{
1070
   287
1070
     3
1070
   287
1070
     3
1070
    40
1040
30.0
1070
   143
1040
0.039
1070
   172
1070
     1
1070
   271
1070
     0
1070
   279
1070
     0
1070
   288
1070
     1
1002
}
  0
DIMENSION
  5
7BE0
  8
3
  6
CONTINUOUS
  2
*D7
 10
3285.3054940000002
 20
2391.9770410000001
 30
0.0
 11
2735.3054940000002
 21
2466.9770410000001
 31
0.0
 70
     0
 13
2185.3054940000002
 23
2582.1954820000001
 33
0.0
 14
3285.3054940000002
 24
2674.716637
 34
0.0
1001
ACAD
1000
DSTYLE
1002
{
1070
   287
1070
     4
1070
   287
1070
     4
1070
    40
1040
30.0
1070
    75
1070
     1
1070
   143
1040
0.039
1070
   172
1070
     1
1070
   271
1070
     0
1070
   279
1070
     1
1070
   288
1070
     1
1002
}
  0
DIMENSION
  5
7BED
  8
3
  6
CONTINUOUS
  2
*D8
 10
5106.7162669999998
 20
3977.6530469999998
 30
0.0
 11
4870.4574630000006
 21
3977.6530469999998
 31
0.0
 70
   128
 13
4631.7162669999998
 23
3864.7166369999991
 33
0.0
 14
5106.7162669999998
 24
3864.7166369999991
 34
0.0
1001
ACAD
1000
DSTYLE
1002
{
1070
   287
1070
     3
1070
   287
1070
     3
1070
    40
1040
30.0
1070
   143
1040
0.039
1070
   172
1070
     1
1070
   271
1070
     0
1070
   279
1070
     0
1070
   288
1070
     1
1002
}
  0
LINE
  5
7BEE
  8
1
  6
CONTINUOUS
 10
5109.7162669999989
 20
3579.716637
 30
0.0
 11
5109.7162669999989
 21
2909.716637
 31
0.0
  0
DIMENSION
  5
7BFE
  8
3
  6
CONTINUOUS
  2
*D9
 10
5348.2336340000011
 20
2909.7166369999991
 30
0.0
 11
5348.2336340000002
 21
3245.1410249999999
 31
0.0
 70
   128
 13
5110.7162669999998
 23
3579.716637
 33
0.0
 14
5110.7162669999998
 24
2909.716637
 34
0.0
 50
90.0
1001
ACAD
1000
DSTYLE
1002
{
1070
   287
1070
     3
1070
   287
1070
     3
1070
     3
1000
φ<>
1070
    40
1040
30.0
1070
   143
1040
0.039
1070
   172
1070
     1
1070
   271
1070
     0
1070
   279
1070
     0
1070
   288
1070
     1
1002
}
  0
DIMENSION
  5
7C18
  8
3
  6
CONTINUOUS
  2
*D10
 10
4389.2162669999998
 20
4188.6238179999991
 30
0.0
 11
4629.2162669999989
 21
4338.623818
 31
0.0
 70
     0
  1
MAX\P530
 13
4869.2162669999998
 23
4105.612239
 33
0.0
 14
4389.2162669999998
 24
3774.7166369999991
 34
0.0
1001
ACAD
1000
DSTYLE
1002
{
1070
   287
1070
     3
1070
   287
1070
     3
1070
    40
1040
30.0
1070
   143
1040
0.039
1070
   172
1070
     1
1070
   271
1070
     0
1070
   279
1070
     0
1070
   288
1070
     1
1002
}
  0
DIMENSION
  5
7C27
  8
3
  6
CONTINUOUS
  2
*D11
 10
4869.2162669999998
 20
2436.4809219999988
 30
0.0
 11
4689.2162669999989
 21
2509.672246962698
 31
0.0
 70
   128
 13
4509.2162669999998
 23
2674.716637
 33
0.0
 14
4869.2162669999998
 24
2593.4902590000002
 34
0.0
1001
ACAD
1000
DSTYLE
1002
{
1070
   288
1070
     1
1070
   172
1070
     1
1070
    40
1040
30.0
1070
   271
1070
     0
1070
   143
1040
0.039
1002
}
  0
DIMENSION
  5
7C35
  8
3
  6
CONTINUOUS
  2
*D12
 10
5209.2162669999998
 20
2436.4809219999988
 30
0.0
 11
5044.1942330000002
 21
2441.906931
 31
0.0
 70
   128
 13
4869.2162669999998
 23
2593.4902590000002
 33
0.0
 14
5209.2162669999998
 24
2674.716637
 34
0.0
1001
ACAD
1000
DSTYLE
1002
{
1070
   287
1070
     4
1070
   287
1070
     4
1070
    40
1040
30.0
1070
    75
1070
     1
1070
   143
1040
0.039
1070
   172
1070
     1
1070
   271
1070
     0
1070
   279
1070
     1
1070
   288
1070
     1
1002
}
  0
DIMENSION
  5
7C86
  8
3
  6
CONTINUOUS
  2
*D13
 10
3285.3054940000002
 20
6301.9418610000002
 30
0.0
 11
2389.0798559999989
 21
6301.9418610000002
 31
0.0
 70
   128
 13
1685.305494
 23
6023.075707
 33
0.0
 14
3285.3054940000002
 24
6023.075707
 34
0.0
1001
ACAD
1000
DSTYLE
1002
{
1070
   287
1070
     3
1070
   287
1070
     3
1070
    40
1040
30.0
1070
   143
1040
0.039
1070
   172
1070
     1
1070
   271
1070
     0
1070
   279
1070
     0
1070
   288
1070
     1
1002
}
  0
DIMENSION
  5
7C93
  8
3
  6
CONTINUOUS
  2
*D14
 10
3534.6568390000011
 20
5323.075707
 30
0.0
 11
3534.6568390000002
 21
5643.232911000001
 31
0.0
 70
   128
 13
3285.3054940000002
 23
6023.075707
 33
0.0
 14
3285.3054940000002
 24
5323.075707
 34
0.0
 50
90.0
1001
ACAD
1000
DSTYLE
1002
{
1070
   287
1070
     3
1070
   287
1070
     3
1070
    40
1040
30.0
1070
   143
1040
0.039
1070
   172
1070
     1
1070
   271
1070
     0
1070
   279
1070
     0
1070
   288
1070
     1
1002
}
  0
DIMENSION
  5
7CA5
  8
3
  6
CONTINUOUS
  2
*D15
 10
2707.3054940000002
 20
4075.8270819999989
 30
0.0
 11
2446.3054940000002
 21
4150.8270819999998
 31
0.0
 70
     0
 13
2185.3054940000002
 23
3945.9766540000001
 33
0.0
 14
2707.3054940000002
 24
3244.7166369999991
 34
0.0
1001
ACAD
1000
DSTYLE
1002
{
1070
   287
1070
     4
1070
   287
1070
     4
1070
    40
1040
30.0
1070
    75
1070
     1
1070
   143
1040
0.039
1070
   172
1070
     1
1070
   271
1070
     0
1070
   279
1070
     1
1070
   288
1070
     1
1002
}
  0
DIMENSION
  5
7D1A
  8
3
  6
CONTINUOUS
  2
*D16
 10
5109.7162669999989
 20
4188.6238179999991
 30
0.0
 11
4977.5098259999986
 21
4189.8569129999996
 31
0.0
 70
   128
 13
4869.2162669999998
 23
4105.612239
 33
0.0
 14
5109.7162669999989
 24
3579.716637
 34
0.0
1001
ACAD
1000
DSTYLE
1002
{
1070
   287
1070
     4
1070
   287
1070
     4
1070
    40
1040
30.0
1070
    75
1070
     1
1070
   143
1040
0.039
1070
   172
1070
     1
1070
   271
1070
     0
1070
   279
1070
     1
1070
   288
1070
     1
1002
}
  0
DIMENSION
  5
7D5C
  8
3
  2
*D17
 10
3285.3054940000002
 20
4263.9334706575473
 30
0.0
 11
2476.2518289890859
 21
4263.9334706575473
 31
0.0
 70
   128
 13
1700.305494
 23
3904.7166369999991
 33
0.0
 14
3285.3054940000002
 24
2774.716637
 34
0.0
1001
ACAD
1000
DSTYLE
1002
{
1070
   287
1070
     3
1070
   287
1070
     3
1070
    40
1040
30.0
1070
   143
1040
0.039
1070
   172
1070
     1
1070
   271
1070
     0
1070
   279
1070
     0
1070
   288
1070
     1
1002
}
  0
ENDSEC
  0
EOF
