  0
SECTION
  2
HEADER
  9
$ACADVER
  1
AC1009
  9
$INSBASE
 10
0.0
 20
0.0
 30
0.0
  9
$EXTMIN
 10
0.0
 20
0.0
 30
0.0
  9
$EXTMAX
 10
5250.0
 20
7375.0
 30
0.0
  9
$LIMMIN
 10
0.0
 20
0.0
  9
$LIMMAX
 10
297.0
 20
210.0
  9
$ORTHOMODE
 70
     0
  9
$REGENMODE
 70
     1
  9
$FILLMODE
 70
     0
  9
$QTEXTMODE
 70
     0
  9
$MIRRTEXT
 70
     1
  9
$DRAGMODE
 70
     2
  9
$LTSCALE
 40
100.0
  9
$OSMODE
 70
    37
  9
$ATTMODE
 70
     1
  9
$TEXTSIZE
 40
180.0
  9
$TRACEWID
 40
0.05
  9
$TEXTSTYLE
  7
STANDARD
  9
$CLAYER
  8
3
  9
$CELTYPE
  6
BYLAYER
  9
$CECOLOR
 62
   256
  9
$DIMSCALE
 40
25.0
  9
$DIMASZ
 40
2.0
  9
$DIMEXO
 40
0.5
  9
$DIMDLI
 40
10.0
  9
$DIMRND
 40
0.0
  9
$DIMDLE
 40
0.0
  9
$DIMEXE
 40
1.0
  9
$DIMTP
 40
1.0
  9
$DIMTM
 40
1.0
  9
$DIMTXT
 40
3.0
  9
$DIMCEN
 40
0.0
  9
$DIMTSZ
 40
0.0
  9
$DIMTOL
 70
     0
  9
$DIMLIM
 70
     0
  9
$DIMTIH
 70
     0
  9
$DIMTOH
 70
     0
  9
$DIMSE1
 70
     0
  9
$DIMSE2
 70
     0
  9
$DIMTAD
 70
     1
  9
$DIMZIN
 70
     8
  9
$DIMBLK
  1

  9
$DIMASO
 70
     1
  9
$DIMSHO
 70
     1
  9
$DIMPOST
  1

  9
$DIMAPOST
  1

  9
$DIMALT
 70
     0
  9
$DIMALTD
 70
     2
  9
$DIMALTF
 40
0.039
  9
$DIMLFAC
 40
1.0
  9
$DIMTOFL
 70
     1
  9
$DIMTVP
 40
0.0
  9
$DIMTIX
 70
     0
  9
$DIMSOXD
 70
     0
  9
$DIMSAH
 70
     1
  9
$DIMBLK1
  1
OPEN
  9
$DIMBLK2
  1
OPEN
  9
$DIMSTYLE
  2
IGA
  9
$DIMCLRD
 70
     0
  9
$DIMCLRE
 70
     0
  9
$DIMCLRT
 70
     0
  9
$DIMTFAC
 40
10.0
  9
$DIMGAP
 40
1.0
  9
$LUNITS
 70
     2
  9
$LUPREC
 70
     3
  9
$SKETCHINC
 40
0.1
  9
$FILLETRAD
 40
50.0
  9
$AUNITS
 70
     0
  9
$AUPREC
 70
     0
  9
$MENU
  1
acad
  9
$ELEVATION
 40
0.0
  9
$PELEVATION
 40
0.0
  9
$THICKNESS
 40
0.0
  9
$LIMCHECK
 70
     0
  9
$BLIPMODE
 70
     0
  9
$CHAMFERA
 40
0.5
  9
$CHAMFERB
 40
0.5
  9
$SKPOLY
 70
     0
  9
$TDCREATE
 40
2451004.4569724528
  9
$TDUPDATE
 40
2454953.756801574
  9
$TDINDWG
 40
0.0359799653
  9
$TDUSRTIMER
 40
0.0359799653
  9
$USRTIMER
 70
     1
  9
$ANGBASE
 50
0.0
  9
$ANGDIR
 70
     0
  9
$PDMODE
 70
     0
  9
$PDSIZE
 40
0.0
  9
$PLINEWID
 40
0.0
  9
$COORDS
 70
     1
  9
$SPLFRAME
 70
     0
  9
$SPLINETYPE
 70
     6
  9
$SPLINESEGS
 70
     8
  9
$ATTDIA
 70
     0
  9
$ATTREQ
 70
     1
  9
$HANDLING
 70
 10241
  9
$HANDSEED
  5
8428
  9
$SURFTAB1
 70
     6
  9
$SURFTAB2
 70
     6
  9
$SURFTYPE
 70
     6
  9
$SURFU
 70
     6
  9
$SURFV
 70
     6
  9
$UCSNAME
  2

  9
$UCSORG
 10
0.0
 20
0.0
 30
0.0
  9
$UCSXDIR
 10
1.0
 20
0.0
 30
0.0
  9
$UCSYDIR
 10
0.0
 20
1.0
 30
0.0
  9
$PUCSNAME
  2

  9
$PUCSORG
 10
0.0
 20
0.0
 30
0.0
  9
$PUCSXDIR
 10
1.0
 20
0.0
 30
0.0
  9
$PUCSYDIR
 10
0.0
 20
1.0
 30
0.0
  9
$USERI1
 70
     0
  9
$USERI2
 70
     0
  9
$USERI3
 70
     0
  9
$USERI4
 70
     0
  9
$USERI5
 70
     0
  9
$USERR1
 40
0.0
  9
$USERR2
 40
0.0
  9
$USERR3
 40
0.0
  9
$USERR4
 40
0.0
  9
$USERR5
 40
0.0
  9
$WORLDVIEW
 70
     1
  9
$SHADEDGE
 70
     3
  9
$SHADEDIF
 70
    70
  9
$TILEMODE
 70
     1
  9
$MAXACTVP
 70
    16
  9
$PLIMCHECK
 70
     0
  9
$PEXTMIN
 10
1.0000000000000000E+020
 20
1.0000000000000000E+020
 30
1.0000000000000000E+020
  9
$PEXTMAX
 10
-1.0000000000000000E+020
 20
-1.0000000000000000E+020
 30
-1.0000000000000000E+020
  9
$PLIMMIN
 10
0.0
 20
0.0
  9
$PLIMMAX
 10
12.0
 20
9.0
  9
$UNITMODE
 70
     0
  9
$VISRETAIN
 70
     0
  9
$PLINEGEN
 70
     0
  9
$PSLTSCALE
 70
     1
  0
ENDSEC
  0
SECTION
  2
TABLES
  0
TABLE
  2
VPORT
 70
     2
  0
VPORT
  2
*ACTIVE
 70
     0
 10
0.0
 20
0.0
 11
1.0
 21
1.0
 12
8841.5248971284218
 22
3687.5000171712591
 13
0.0
 23
0.0
 14
10.0
 24
10.0
 15
10.0
 25
10.0
 16
0.0
 26
0.0
 36
1.0
 17
0.0
 27
0.0
 37
0.0
 40
7431.5372075423384
 41
3.1666666666666661
 42
50.0
 43
0.0
 44
0.0
 50
0.0
 51
0.0
 71
     0
 72
   100
 73
     1
 74
     0
 75
     0
 76
     0
 77
     0
 78
     0
  0
ENDTAB
  0
TABLE
  2
LTYPE
 70
     2
  0
LTYPE
  2
CONTINUOUS
 70
     0
  3
Solid line
 72
    65
 73
     0
 40
0.0
  0
LTYPE
  2
CENTER
 70
     0
  3
____ _ ____ _ ____ _ ____ _ ____ _ ____ _ ____ 
 72
    65
 73
     4
 40
2.0
 49
1.25
 49
-0.25
 49
0.25
 49
-0.25
  0
ENDTAB
  0
TABLE
  2
LAYER
 70
     6
  0
LAYER
  2
0
 70
     0
 62
     7
  6
CONTINUOUS
  0
LAYER
  2
3
 70
     0
 62
     2
  6
CONTINUOUS
  0
LAYER
  2
2
 70
     0
 62
     3
  6
CENTER
  0
LAYER
  2
1
 70
     0
 62
     4
  6
CONTINUOUS
  0
LAYER
  2
4
 70
     0
 62
     7
  6
CONTINUOUS
  0
LAYER
  2
DEFPOINTS
 70
     0
 62
     7
  6
CONTINUOUS
  0
ENDTAB
  0
TABLE
  2
STYLE
 70
     1
  0
STYLE
  2
STANDARD
 70
     0
 40
0.0
 41
1.0
 50
0.0
 71
     0
 42
180.0
  3
simplex.shx
  4
extfont.shx
  0
ENDTAB
  0
TABLE
  2
VIEW
 70
     0
  0
ENDTAB
  0
TABLE
  2
UCS
 70
     0
  0
ENDTAB
  0
TABLE
  2
APPID
 70
     1
  0
APPID
  2
ACAD
 70
     0
  0
ENDTAB
  0
TABLE
  2
DIMSTYLE
 70
     1
  0
DIMSTYLE
  2
IGA
 70
     0
  3

  4

  5

  6
OPEN
  7
OPEN
 40
2.0
 41
2.0
 42
0.5
 43
10.0
 44
1.0
 45
0.0
 46
0.0
 47
1.0
 48
1.0
140
3.0
141
0.0
142
0.0
143
0.03937
144
1.0
145
0.0
146
10.0
147
1.0
 71
     0
 72
     0
 73
     0
 74
     0
 75
     0
 76
     0
 77
     1
 78
     8
170
     0
171
     2
172
     0
173
     1
174
     0
175
     0
176
     0
177
     0
178
     0
  0
ENDTAB
  0
ENDSEC
  0
SECTION
  2
BLOCKS
  0
BLOCK
  8
0
  2
$MODEL_SPACE
 70
     0
 10
0.0
 20
0.0
 30
0.0
  3
$MODEL_SPACE
  1

  0
ENDBLK
  5
1B
  8
0
  0
BLOCK
 67
     1
  8
0
  2
$PAPER_SPACE
 70
     0
 10
0.0
 20
0.0
 30
0.0
  3
$PAPER_SPACE
  1

  0
ENDBLK
  5
18
 67
     1
  8
0
  0
BLOCK
  8
0
  2
ARROW
 70
     0
 10
0.0
 20
0.0
 30
0.0
  3
ARROW
  1

  0
LINE
  5
79FD
  8
0
 10
-0.9999999999999991
 20
0.1666666667000003
 30
0.0
 11
0.0
 21
0.0
 31
0.0
  0
LINE
  5
79FE
  8
0
 10
-0.9999999999999991
 20
0.0
 30
0.0
 11
0.0
 21
0.0
 31
0.0
  0
LINE
  5
79FF
  8
0
 10
-0.9999999999999991
 20
-0.1666666667000003
 30
0.0
 11
0.0
 21
0.0
 31
0.0
  0
ENDBLK
  5
7A01
  8
0
  0
BLOCK
  8
0
  2
*D1
 70
     1
 10
0.0
 20
0.0
 30
0.0
  3
*D1
  1

  0
LINE
  5
834E
  8
3
 62
     0
 10
2350.7740913472139
 20
2030.5063805585651
 30
0.0
 11
2350.7740913472139
 21
3455.8085783532752
 31
0.0
  0
LINE
  5
834F
  8
3
 62
     0
 10
1190.7740913472139
 20
2705.0063805585651
 30
0.0
 11
1190.7740913472139
 21
3455.8085783532752
 31
0.0
  0
LINE
  5
8350
  8
3
 62
     0
 10
2300.7740913472139
 20
3430.8085783532752
 30
0.0
 11
1240.7740913472139
 21
3430.8085783532752
 31
0.0
  0
INSERT
  5
8351
  8
3
 62
     0
  2
_OPEN
 10
2350.7740913472139
 20
3430.8085783532752
 30
0.0
 41
50.0
 42
50.0
 43
50.0
  0
INSERT
  5
8352
  8
3
 62
     0
  2
_OPEN
 10
1190.7740913472139
 20
3430.8085783532752
 30
0.0
 41
50.0
 42
50.0
 43
50.0
 50
180.0
  0
TEXT
  8
3
  40
75
  5
8412
  62
0
  72
0
  71
0
 10
1620.77
 20
3360.56
 30
0.000000
  1
1160
  0
POINT
  5
8354
  8
DEFPOINTS
 62
     0
 10
2350.7740913472139
 20
2018.0063805585651
 30
0.0
  0
POINT
  5
8355
  8
DEFPOINTS
 62
     0
 10
1190.7740913472139
 20
2692.5063805585651
 30
0.0
  0
POINT
  5
8356
  8
DEFPOINTS
 62
     0
 10
1190.7740913472139
 20
3430.8085783532752
 30
0.0
  0
ENDBLK
  5
7F2A
  8
0
  0
BLOCK
  8
0
  2
*D2
 70
     1
 10
0.0
 20
0.0
 30
0.0
  3
*D2
  1

  0
LINE
  5
8357
  8
3
 62
     0
 10
2330.7740913472139
 20
1670.5063805585651
 30
0.0
 11
2330.7740913472139
 21
1488.24819860202
 31
0.0
  0
LINE
  5
8358
  8
3
 62
     0
 10
1650.7740913472139
 20
1670.5063805585651
 30
0.0
 11
1650.7740913472139
 21
1488.24819860202
 31
0.0
  0
LINE
  5
8359
  8
3
 62
     0
 10
2280.7740913472139
 20
1513.24819860202
 30
0.0
 11
1700.7740913472139
 21
1513.24819860202
 31
0.0
  0
INSERT
  5
835A
  8
3
 62
     0
  2
_OPEN
 10
2330.7740913472139
 20
1513.24819860202
 30
0.0
 41
50.0
 42
50.0
 43
50.0
  0
INSERT
  5
835B
  8
3
 62
     0
  2
_OPEN
 10
1650.7740913472139
 20
1513.24819860202
 30
0.0
 41
50.0
 42
50.0
 43
50.0
 50
180.0
  0
TEXT
  8
3
  40
75
  5
8413
  62
0
  72
0
  71
0
 10
1840.77
 20
1443.00
 30
0.000000
  1
680
  0
POINT
  5
835D
  8
DEFPOINTS
 62
     0
 10
2330.7740913472139
 20
1683.0063805585651
 30
0.0
  0
POINT
  5
835E
  8
DEFPOINTS
 62
     0
 10
1650.7740913472139
 20
1683.0063805585651
 30
0.0
  0
POINT
  5
835F
  8
DEFPOINTS
 62
     0
 10
1650.7740913472139
 20
1513.24819860202
 30
0.0
  0
ENDBLK
  5
82B8
  8
0
  0
BLOCK
  8
0
  2
*D3
 70
     1
 10
0.0
 20
0.0
 30
0.0
  3
*D3
  1

  0
LINE
  5
8360
  8
3
 62
     0
 10
1638.2740913472139
 20
3129.7969177583
 30
0.0
 11
508.24213450432921
 21
3129.7969177583
 31
0.0
  0
LINE
  5
8361
  8
3
 62
     0
 10
1238.2740913472139
 20
1683.0063805585651
 30
0.0
 11
508.24213450432882
 21
1683.0063805585651
 31
0.0
  0
LINE
  5
8362
  8
3
 62
     0
 10
533.24213450432899
 20
3079.7969177583
 30
0.0
 11
533.24213450432865
 21
1733.0063805585651
 31
0.0
  0
INSERT
  5
8363
  8
3
 62
     0
  2
_OPEN
 10
533.24213450432899
 20
3129.7969177583
 30
0.0
 41
50.0
 42
50.0
 43
50.0
 50
90.0
  0
INSERT
  5
8364
  8
3
 62
     0
  2
_OPEN
 10
533.24213450432865
 20
1683.0063805585651
 30
0.0
 41
50.0
 42
50.0
 43
50.0
 50
270.0
  0
TEXT
  8
3
  40
75
  5
8414
  62
0
  72
0
  71
0
 10
320.742
 20
2273.65
 30
0.000000
  1
1392
  0
POINT
  5
8366
  8
DEFPOINTS
 62
     0
 10
1650.7740913472139
 20
3129.7969177583
 30
0.0
  0
POINT
  5
8367
  8
DEFPOINTS
 62
     0
 10
1250.7740913472139
 20
1683.0063805585651
 30
0.0
  0
POINT
  5
8368
  8
DEFPOINTS
 62
     0
 10
533.24213450432865
 20
1683.0063805585651
 30
0.0
  0
ENDBLK
  5
8309
  8
0
  0
BLOCK
  8
0
  2
*D4
 70
     1
 10
0.0
 20
0.0
 30
0.0
  3
*D4
  1

  0
LINE
  5
8369
  8
3
 62
     0
 10
1124.631530789711
 20
2678.0063805585651
 30
0.0
 11
717.31205207151595
 21
2678.0063805585651
 31
0.0
  0
LINE
  5
836A
  8
3
 62
     0
 10
1238.2740913472139
 20
1878.0063805585651
 30
0.0
 11
717.31205207151584
 21
1878.0063805585651
 31
0.0
  0
LINE
  5
836B
  8
3
 62
     0
 10
742.31205207151595
 20
2628.0063805585651
 30
0.0
 11
742.31205207151584
 21
1928.0063805585651
 31
0.0
  0
INSERT
  5
836C
  8
3
 62
     0
  2
_OPEN
 10
742.31205207151595
 20
2678.0063805585651
 30
0.0
 41
50.0
 42
50.0
 43
50.0
 50
90.0
  0
INSERT
  5
836D
  8
3
 62
     0
  2
_OPEN
 10
742.31205207151584
 20
1878.0063805585651
 30
0.0
 41
50.0
 42
50.0
 43
50.0
 50
270.0
  0
TEXT
  8
3
  40
75
  5
8415
  62
0
  72
0
  71
0
 10
529.812
 20
2145.26
 30
0.000000
  1
800
  0
POINT
  5
836F
  8
DEFPOINTS
 62
     0
 10
1137.131530789711
 20
2678.0063805585651
 30
0.0
  0
POINT
  5
8370
  8
DEFPOINTS
 62
     0
 10
1250.7740913472139
 20
1878.0063805585651
 30
0.0
  0
POINT
  5
8371
  8
DEFPOINTS
 62
     0
 10
742.31205207151584
 20
1878.0063805585651
 30
0.0
  0
ENDBLK
  5
7F09
  8
0
  0
BLOCK
  8
0
  2
*D5
 70
     1
 10
0.0
 20
0.0
 30
0.0
  3
*D5
  1

  0
LINE
  5
8372
  8
3
 62
     0
 10
1178.2740913472139
 20
2000.0063805585651
 30
0.0
 11
865.29694326867786
 21
2000.0063805585651
 31
0.0
  0
LINE
  5
8373
  8
3
 62
     0
 10
1124.631530789711
 20
2678.0063805585651
 30
0.0
 11
865.29694326867786
 21
2678.0063805585651
 31
0.0
  0
LINE
  5
8374
  8
3
 62
     0
 10
890.29694326867786
 20
2050.0063805585651
 30
0.0
 11
890.29694326867786
 21
2628.0063805585651
 31
0.0
  0
INSERT
  5
8375
  8
3
 62
     0
  2
_OPEN
 10
890.29694326867786
 20
2000.0063805585651
 30
0.0
 41
50.0
 42
50.0
 43
50.0
 50
270.0
  0
INSERT
  5
8376
  8
3
 62
     0
  2
_OPEN
 10
890.29694326867786
 20
2678.0063805585651
 30
0.0
 41
50.0
 42
50.0
 43
50.0
 50
90.0
  0
TEXT
  8
3
  40
75
  5
8416
  62
0
  72
0
  71
0
 10
677.797
 20
2206.26
 30
0.000000
  1
678
  0
POINT
  5
8378
  8
DEFPOINTS
 62
     0
 10
1190.7740913472139
 20
2000.0063805585651
 30
0.0
  0
POINT
  5
8379
  8
DEFPOINTS
 62
     0
 10
1137.131530789711
 20
2678.0063805585651
 30
0.0
  0
POINT
  5
837A
  8
DEFPOINTS
 62
     0
 10
890.29694326867786
 20
2678.0063805585651
 30
0.0
  0
ENDBLK
  5
7EFE
  8
0
  0
BLOCK
  8
0
  2
*D6
 70
     1
 10
0.0
 20
0.0
 30
0.0
  3
*D6
  1

  0
LINE
  5
837B
  8
3
 62
     0
 10
1178.2740913472139
 20
2000.0063805585651
 30
0.0
 11
1016.824567180993
 21
2000.0063805585651
 31
0.0
  0
LINE
  5
837C
  8
3
 62
     0
 10
1178.2740913472139
 20
2650.0063805585651
 30
0.0
 11
1016.824567180993
 21
2650.0063805585651
 31
0.0
  0
LINE
  5
837D
  8
3
 62
     0
 10
1041.824567180993
 20
2050.0063805585642
 30
0.0
 11
1041.8245671809941
 21
2600.0063805585651
 31
0.0
  0
INSERT
  5
837E
  8
3
 62
     0
  2
_OPEN
 10
1041.824567180993
 20
2000.0063805585651
 30
0.0
 41
50.0
 42
50.0
 43
50.0
 50
270.0
  0
INSERT
  5
837F
  8
3
 62
     0
  2
_OPEN
 10
1041.8245671809941
 20
2650.0063805585651
 30
0.0
 41
50.0
 42
50.0
 43
50.0
 50
90.0
  0
TEXT
  8
3
  40
75
  5
8417
  62
0
  72
0
  71
0
 10
829.325
 20
2192.26
 30
0.000000
  1
650
  0
POINT
  5
8381
  8
DEFPOINTS
 62
     0
 10
1190.7740913472139
 20
2000.0063805585651
 30
0.0
  0
POINT
  5
8382
  8
DEFPOINTS
 62
     0
 10
1190.7740913472139
 20
2650.0063805585651
 30
0.0
  0
POINT
  5
8383
  8
DEFPOINTS
 62
     0
 10
1041.8245671809941
 20
2650.0063805585651
 30
0.0
  0
ENDBLK
  5
7EF3
  8
0
  0
BLOCK
  8
0
  2
*D7
 70
     1
 10
0.0
 20
0.0
 30
0.0
  3
*D7
  1

  0
LINE
  5
8384
  8
3
 62
     0
 10
1650.7740913472139
 20
1670.5063805585651
 30
0.0
 11
1650.7740913472139
 21
1488.24819860202
 31
0.0
  0
LINE
  5
8385
  8
3
 62
     0
 10
1250.7740913472139
 20
1670.5063805585651
 30
0.0
 11
1250.7740913472139
 21
1488.24819860202
 31
0.0
  0
LINE
  5
8386
  8
3
 62
     0
 10
1600.7740913472139
 20
1513.24819860202
 30
0.0
 11
1300.7740913472139
 21
1513.24819860202
 31
0.0
  0
INSERT
  5
8387
  8
3
 62
     0
  2
_OPEN
 10
1650.7740913472139
 20
1513.24819860202
 30
0.0
 41
50.0
 42
50.0
 43
50.0
  0
INSERT
  5
8388
  8
3
 62
     0
  2
_OPEN
 10
1250.7740913472139
 20
1513.24819860202
 30
0.0
 41
50.0
 42
50.0
 43
50.0
 50
180.0
  0
TEXT
  8
3
  40
75
  5
8418
  62
0
  72
0
  71
0
 10
1300.77
 20
1443.00
 30
0.000000
  1
400
  0
POINT
  5
838A
  8
DEFPOINTS
 62
     0
 10
1650.7740913472139
 20
1683.0063805585651
 30
0.0
  0
POINT
  5
838B
  8
DEFPOINTS
 62
     0
 10
1250.7740913472139
 20
1683.0063805585651
 30
0.0
  0
POINT
  5
838C
  8
DEFPOINTS
 62
     0
 10
1250.7740913472139
 20
1513.24819860202
 30
0.0
  0
ENDBLK
  5
82C3
  8
0
  0
BLOCK
  8
0
  2
*D8
 70
     1
 10
0.0
 20
0.0
 30
0.0
  3
*D8
  1

  0
LINE
  5
838D
  8
3
 62
     0
 10
1638.2740913472139
 20
3129.7969177583
 30
0.0
 11
717.31205207151595
 21
3129.7969177583
 31
0.0
  0
LINE
  5
838E
  8
3
 62
     0
 10
1124.631530789711
 20
2678.0063805585651
 30
0.0
 11
717.31205207151584
 21
2678.0063805585651
 31
0.0
  0
LINE
  5
838F
  8
3
 62
     0
 10
742.31205207151595
 20
3079.7969177583
 30
0.0
 11
742.31205207151584
 21
2728.0063805585651
 31
0.0
  0
INSERT
  5
8390
  8
3
 62
     0
  2
_OPEN
 10
742.31205207151595
 20
3129.7969177583
 30
0.0
 41
50.0
 42
50.0
 43
50.0
 50
90.0
  0
INSERT
  5
8391
  8
3
 62
     0
  2
_OPEN
 10
742.31205207151584
 20
2678.0063805585651
 30
0.0
 41
50.0
 42
50.0
 43
50.0
 50
270.0
  0
TEXT
  8
3
  40
75
  5
8419
  62
0
  72
0
  71
0
 10
529.812
 20
2771.15
 30
0.000000
  1
454
  0
POINT
  5
8393
  8
DEFPOINTS
 62
     0
 10
1650.7740913472139
 20
3129.7969177583
 30
0.0
  0
POINT
  5
8394
  8
DEFPOINTS
 62
     0
 10
1137.131530789711
 20
2678.0063805585651
 30
0.0
  0
POINT
  5
8395
  8
DEFPOINTS
 62
     0
 10
742.31205207151584
 20
2678.0063805585651
 30
0.0
  0
ENDBLK
  5
82D3
  8
0
  0
BLOCK
  8
0
  2
*D9
 70
     1
 10
0.0
 20
0.0
 30
0.0
  3
*D9
  1

  0
LINE
  5
8396
  8
3
 62
     0
 10
1650.7740913472139
 20
3247.0836615953231
 30
0.0
 11
1650.7740913472139
 21
3304.7806587970231
 31
0.0
  0
LINE
  5
8397
  8
3
 62
     0
 10
1190.7740913472139
 20
2705.0063805585651
 30
0.0
 11
1190.7740913472139
 21
3304.7806587970231
 31
0.0
  0
LINE
  5
8398
  8
3
 62
     0
 10
1600.7740913472139
 20
3279.7806587970222
 30
0.0
 11
1240.7740913472139
 21
3279.7806587970222
 31
0.0
  0
INSERT
  5
8399
  8
3
 62
     0
  2
_OPEN
 10
1650.7740913472139
 20
3279.7806587970222
 30
0.0
 41
50.0
 42
50.0
 43
50.0
  0
INSERT
  5
839A
  8
3
 62
     0
  2
_OPEN
 10
1190.7740913472139
 20
3279.7806587970222
 30
0.0
 41
50.0
 42
50.0
 43
50.0
 50
180.0
  0
TEXT
  8
3
  40
75
  5
841A
  62
0
  72
0
  71
0
 10
1270.77
 20
3209.53
 30
0.000000
  1
460
  0
POINT
  5
839C
  8
DEFPOINTS
 62
     0
 10
1650.7740913472139
 20
3234.5836615953231
 30
0.0
  0
POINT
  5
839D
  8
DEFPOINTS
 62
     0
 10
1190.7740913472139
 20
2692.5063805585651
 30
0.0
  0
POINT
  5
839E
  8
DEFPOINTS
 62
     0
 10
1190.7740913472139
 20
3279.7806587970222
 30
0.0
  0
ENDBLK
  5
7F61
  8
0
  0
BLOCK
  8
0
  2
*D10
 70
     1
 10
0.0
 20
0.0
 30
0.0
  3
*D10
  1

  0
LINE
  5
839F
  8
3
 62
     0
 10
2196.5646285469488
 20
2690.5063805585651
 30
0.0
 11
2196.5646285469488
 21
3304.7806587970231
 31
0.0
  0
LINE
  5
83A0
  8
3
 62
     0
 10
1650.7740913472139
 20
3247.0836615953231
 30
0.0
 11
1650.7740913472139
 21
3304.7806587970231
 31
0.0
  0
LINE
  5
83A1
  8
3
 62
     0
 10
2146.5646285469488
 20
3279.7806587970222
 30
0.0
 11
1700.7740913472139
 21
3279.7806587970222
 31
0.0
  0
INSERT
  5
83A2
  8
3
 62
     0
  2
_OPEN
 10
2196.5646285469488
 20
3279.7806587970222
 30
0.0
 41
50.0
 42
50.0
 43
50.0
  0
INSERT
  5
83A3
  8
3
 62
     0
  2
_OPEN
 10
1650.7740913472139
 20
3279.7806587970222
 30
0.0
 41
50.0
 42
50.0
 43
50.0
 50
180.0
  0
TEXT
  8
3
  40
75
  5
841B
  62
0
  72
0
  71
0
 10
1773.67
 20
3209.53
 30
0.000000
  1
548
  0
POINT
  5
83A5
  8
DEFPOINTS
 62
     0
 10
2196.5646285469488
 20
2678.0063805585651
 30
0.0
  0
POINT
  5
83A6
  8
DEFPOINTS
 62
     0
 10
1650.7740913472139
 20
3234.5836615953231
 30
0.0
  0
POINT
  5
83A7
  8
DEFPOINTS
 62
     0
 10
1650.7740913472139
 20
3279.7806587970222
 30
0.0
  0
ENDBLK
  5
7F56
  8
0
  0
BLOCK
  8
0
  2
*D11
 70
     1
 10
0.0
 20
0.0
 30
0.0
  3
*D11
  1

  0
LINE
  5
83A8
  8
3
 62
     0
 10
3131.9298834539832
 20
1670.5063805585651
 30
0.0
 11
3131.9298834539832
 21
1493.441293767371
 31
0.0
  0
LINE
  5
83A9
  8
3
 62
     0
 10
4038.9298834539832
 20
1670.5063805585651
 30
0.0
 11
4038.9298834539832
 21
1493.441293767371
 31
0.0
  0
LINE
  5
83AA
  8
3
 62
     0
 10
3181.9298834539832
 20
1518.441293767371
 30
0.0
 11
3988.9298834539818
 21
1518.441293767371
 31
0.0
  0
INSERT
  5
83AB
  8
3
 62
     0
  2
_OPEN
 10
3131.9298834539832
 20
1518.441293767371
 30
0.0
 41
50.0
 42
50.0
 43
50.0
 50
180.0
  0
INSERT
  5
83AC
  8
3
 62
     0
  2
_OPEN
 10
4038.9298834539832
 20
1518.441293767371
 30
0.0
 41
50.0
 42
50.0
 43
50.0
  0
TEXT
  8
3
  40
75
  5
841C
  62
0
  72
0
  71
0
 10
3435.43
 20
1448.19
 30
0.000000
  1
907
  0
POINT
  5
83AE
  8
DEFPOINTS
 62
     0
 10
3131.9298834539832
 20
1683.0063805585651
 30
0.0
  0
POINT
  5
83AF
  8
DEFPOINTS
 62
     0
 10
4038.9298834539832
 20
1683.0063805585651
 30
0.0
  0
POINT
  5
83B0
  8
DEFPOINTS
 62
     0
 10
4038.9298834539832
 20
1518.441293767371
 30
0.0
  0
ENDBLK
  5
82AD
  8
0
  0
BLOCK
  8
0
  2
*D12
 70
     1
 10
0.0
 20
0.0
 30
0.0
  3
*D12
  1

  0
LINE
  5
8299
  8
0
  6
BYBLOCK
 62
     0
 10
4038.9298834539832
 20
1727.5063805585651
 30
0.0
 11
4038.9298834539832
 21
1550.441293767371
 31
0.0
  0
LINE
  5
829A
  8
0
  6
BYBLOCK
 62
     0
 10
4331.9298834539832
 20
1727.5063805585651
 30
0.0
 11
4331.9298834539832
 21
1550.441293767371
 31
0.0
  0
LINE
  5
829B
  8
0
  6
BYBLOCK
 62
     0
 10
4088.9298834539832
 20
1575.441293767371
 30
0.0
 11
4281.9298834539823
 21
1575.441293767371
 31
0.0
  0
TEXT
  5
829C
  8
3
 62
     0
 10
4089.0013120254121
 20
1598.9897118580841
 30
0.0
 40
75.0
  1
293
  0
INSERT
  5
829D
  8
0
  6
BYBLOCK
 62
     0
  2
_OPEN
 10
4038.9298834539832
 20
1575.441293767371
 30
0.0
 41
50.0
 42
50.0
 43
50.0
 50
180.0
  0
INSERT
  5
829E
  8
0
  6
BYBLOCK
 62
     0
  2
_OPEN
 10
4331.9298834539832
 20
1575.441293767371
 30
0.0
 41
50.0
 42
50.0
 43
50.0
  0
POINT
  5
829F
  8
DEFPOINTS
  6
BYBLOCK
 62
     0
 10
4038.9298834539832
 20
1740.0063805585651
 30
0.0
  0
POINT
  5
82A0
  8
DEFPOINTS
  6
BYBLOCK
 62
     0
 10
4331.9298834539832
 20
1740.0063805585651
 30
0.0
  0
POINT
  5
82A1
  8
DEFPOINTS
  6
BYBLOCK
 62
     0
 10
4331.9298834539832
 20
1575.441293767371
 30
0.0
  0
ENDBLK
  5
82A2
  8
0
  0
BLOCK
  8
0
  2
*D13
 70
     1
 10
0.0
 20
0.0
 30
0.0
  3
*D13
  1

  0
LINE
  5
83B1
  8
3
 62
     0
 10
2993.9298834539832
 20
2840.5063805585651
 30
0.0
 11
2993.9298834539832
 21
3482.2533118111528
 31
0.0
  0
LINE
  5
83B2
  8
3
 62
     0
 10
4038.9298834539832
 20
3403.6699256900388
 30
0.0
 11
4038.9298834539832
 21
3482.2533118111528
 31
0.0
  0
LINE
  5
83B3
  8
3
 62
     0
 10
3043.9298834539832
 20
3457.2533118111528
 30
0.0
 11
3988.9298834539818
 21
3457.2533118111528
 31
0.0
  0
INSERT
  5
83B4
  8
3
 62
     0
  2
_OPEN
 10
2993.9298834539832
 20
3457.2533118111528
 30
0.0
 41
50.0
 42
50.0
 43
50.0
 50
180.0
  0
INSERT
  5
83B5
  8
3
 62
     0
  2
_OPEN
 10
4038.9298834539832
 20
3457.2533118111528
 30
0.0
 41
50.0
 42
50.0
 43
50.0
  0
TEXT
  8
3
  40
75
  5
841D
  62
0
  72
0
  71
0
 10
3366.43
 20
3449.50
 30
0.000000
  1
MAX
  0
TEXT
  8
3
  40
75
  5
841E
  62
0
  72
0
  71
0
 10
3366.43
 20
3352.00
 30
0.000000
  1
1070
  0
POINT
  5
83B7
  8
DEFPOINTS
 62
     0
 10
2993.9298834539832
 20
2828.006380558566
 30
0.0
  0
POINT
  5
83B8
  8
DEFPOINTS
 62
     0
 10
4038.9298834539832
 20
3391.1699256900388
 30
0.0
  0
POINT
  5
83B9
  8
DEFPOINTS
 62
     0
 10
4038.9298834539832
 20
3457.2533118111528
 30
0.0
  0
ENDBLK
  5
8297
  8
0
  0
BLOCK
  8
0
  2
*D14
 70
     1
 10
0.0
 20
0.0
 30
0.0
  3
*D14
  1

  0
LINE
  5
83BA
  8
3
 62
     0
 10
3801.4298834539818
 20
3144.5063805585651
 30
0.0
 11
3801.4298834539818
 21
3306.6388786606758
 31
0.0
  0
LINE
  5
83BB
  8
3
 62
     0
 10
4276.4298834539823
 20
3144.5063805585651
 30
0.0
 11
4276.4298834539823
 21
3306.6388786606758
 31
0.0
  0
LINE
  5
83BC
  8
3
 62
     0
 10
3851.4298834539832
 20
3281.6388786606758
 30
0.0
 11
4226.4298834539823
 21
3281.6388786606758
 31
0.0
  0
INSERT
  5
83BD
  8
3
 62
     0
  2
_OPEN
 10
3801.4298834539818
 20
3281.6388786606758
 30
0.0
 41
50.0
 42
50.0
 43
50.0
 50
180.0
  0
INSERT
  5
83BE
  8
3
 62
     0
  2
_OPEN
 10
4276.4298834539823
 20
3281.6388786606758
 30
0.0
 41
50.0
 42
50.0
 43
50.0
  0
TEXT
  8
3
  40
75
  5
841F
  62
0
  72
0
  71
0
 10
3888.93
 20
3211.39
 30
0.000000
  1
475
  0
POINT
  5
83C0
  8
DEFPOINTS
 62
     0
 10
3801.4298834539818
 20
3132.0063805585651
 30
0.0
  0
POINT
  5
83C1
  8
DEFPOINTS
 62
     0
 10
4276.4298834539823
 20
3132.0063805585651
 30
0.0
  0
POINT
  5
83C2
  8
DEFPOINTS
 62
     0
 10
4276.4298834539823
 20
3281.6388786606758
 30
0.0
  0
ENDBLK
  5
7FE0
  8
0
  0
BLOCK
  8
0
  2
*D15
 70
     1
 10
0.0
 20
0.0
 30
0.0
  3
*D15
  1

  0
LINE
  5
8200
  8
0
  6
BYBLOCK
 62
     0
 10
1905.1904144647001
 20
5527.2228692047711
 30
0.0
 11
1905.1904144647001
 21
5685.2967558085229
 31
0.0
  0
LINE
  5
8201
  8
0
  6
BYBLOCK
 62
     0
 10
2185.1904144647001
 20
4991.2228692047702
 30
0.0
 11
2185.1904144647001
 21
5685.2967558085229
 31
0.0
  0
LINE
  5
8202
  8
0
  6
BYBLOCK
 62
     0
 10
1955.1904144647001
 20
5660.2967558085229
 30
0.0
 11
2135.1904144647001
 21
5660.2967558085229
 31
0.0
  0
TEXT
  5
8203
  8
3
 62
     0
 10
1948.761843036129
 20
5686.4174302133497
 30
0.0
 40
75.0
  1
280
  0
INSERT
  5
8204
  8
0
  6
BYBLOCK
 62
     0
  2
_OPEN
 10
1905.1904144647001
 20
5660.2967558085229
 30
0.0
 41
50.0
 42
50.0
 43
50.0
 50
180.0
  0
INSERT
  5
8205
  8
0
  6
BYBLOCK
 62
     0
  2
_OPEN
 10
2185.1904144647001
 20
5660.2967558085229
 30
0.0
 41
50.0
 42
50.0
 43
50.0
  0
POINT
  5
8206
  8
DEFPOINTS
  6
BYBLOCK
 62
     0
 10
1905.1904144647001
 20
5514.7228692047711
 30
0.0
  0
POINT
  5
8207
  8
DEFPOINTS
  6
BYBLOCK
 62
     0
 10
2185.1904144647001
 20
4978.7228692047702
 30
0.0
  0
POINT
  5
8208
  8
DEFPOINTS
  6
BYBLOCK
 62
     0
 10
2185.1904144647001
 20
5660.2967558085229
 30
0.0
  0
ENDBLK
  5
8209
  8
0
  0
BLOCK
  8
0
  2
*D16
 70
     1
 10
0.0
 20
0.0
 30
0.0
  3
*D16
  1

  0
LINE
  5
83C3
  8
3
 62
     0
 10
1400.7740913472139
 20
4127.6666571827463
 30
0.0
 11
1400.7740913472139
 21
3823.2859808967132
 31
0.0
  0
LINE
  5
83C4
  8
3
 62
     0
 10
2330.7740913472139
 20
4127.6666571827463
 30
0.0
 11
2330.7740913472139
 21
3823.2859808967132
 31
0.0
  0
LINE
  5
83C5
  8
3
 62
     0
 10
1450.7740913472139
 20
3848.2859808967132
 30
0.0
 11
2280.7740913472139
 21
3848.2859808967132
 31
0.0
  0
INSERT
  5
83C6
  8
3
 62
     0
  2
_OPEN
 10
1400.7740913472139
 20
3848.2859808967132
 30
0.0
 41
50.0
 42
50.0
 43
50.0
 50
180.0
  0
INSERT
  5
83C7
  8
3
 62
     0
  2
_OPEN
 10
2330.7740913472139
 20
3848.2859808967132
 30
0.0
 41
50.0
 42
50.0
 43
50.0
  0
TEXT
  8
3
  40
75
  5
8420
  62
0
  72
0
  71
0
 10
1715.77
 20
3778.04
 30
0.000000
  1
930
  0
POINT
  5
83C9
  8
DEFPOINTS
 62
     0
 10
1400.7740913472139
 20
4140.1666571827463
 30
0.0
  0
POINT
  5
83CA
  8
DEFPOINTS
 62
     0
 10
2330.7740913472139
 20
4140.1666571827463
 30
0.0
  0
POINT
  5
83CB
  8
DEFPOINTS
 62
     0
 10
2330.7740913472139
 20
3848.2859808967132
 30
0.0
  0
ENDBLK
  5
81BE
  8
0
  0
BLOCK
  8
0
  2
*D17
 70
     1
 10
0.0
 20
0.0
 30
0.0
  3
*D17
  1

  0
LINE
  5
83CC
  8
3
 62
     0
 10
1400.7740913472139
 20
4127.6666571827463
 30
0.0
 11
1400.7740913472139
 21
3823.2859808967132
 31
0.0
  0
LINE
  5
83CD
  8
3
 62
     0
 10
1250.7740913472139
 20
4741.6666571827463
 30
0.0
 11
1250.7740913472139
 21
3823.2859808967132
 31
0.0
  0
LINE
  5
83CE
  8
3
 62
     0
 10
1350.7740913472139
 20
3848.2859808967132
 30
0.0
 11
1300.7740913472139
 21
3848.2859808967132
 31
0.0
  0
LINE
  5
83CF
  8
3
 62
     0
 10
1250.7740913472139
 20
3848.2859808967132
 30
0.0
 11
972.20266277578605
 21
3848.2859808967132
 31
0.0
  0
INSERT
  5
83D0
  8
3
 62
     0
  2
_OPEN
 10
1400.7740913472139
 20
3848.2859808967132
 30
0.0
 41
50.0
 42
50.0
 43
50.0
  0
INSERT
  5
83D1
  8
3
 62
     0
  2
_OPEN
 10
1250.7740913472139
 20
3848.2859808967132
 30
0.0
 41
50.0
 42
50.0
 43
50.0
 50
180.0
  0
TEXT
  8
3
  40
75
  5
8421
  62
0
  72
0
  71
0
 10
936.488
 20
3778.04
 30
0.000000
  1
150
  0
POINT
  5
83D3
  8
DEFPOINTS
 62
     0
 10
1400.7740913472139
 20
4140.1666571827463
 30
0.0
  0
POINT
  5
83D4
  8
DEFPOINTS
 62
     0
 10
1250.7740913472139
 20
4754.1666571827463
 30
0.0
  0
POINT
  5
83D5
  8
DEFPOINTS
 62
     0
 10
1250.7740913472139
 20
3848.2859808967132
 30
0.0
  0
ENDBLK
  5
81B3
  8
0
  0
BLOCK
  8
0
  2
*D18
 70
     1
 10
0.0
 20
0.0
 30
0.0
  3
*D18
  1

  0
LINE
  5
83D6
  8
3
 62
     0
 10
1238.2740913472139
 20
5340.1666571827482
 30
0.0
 11
1016.32028848649
 21
5340.1666571827482
 31
0.0
  0
LINE
  5
83D7
  8
3
 62
     0
 10
1388.2740913472139
 20
4140.1666571827463
 30
0.0
 11
1016.32028848649
 21
4140.1666571827463
 31
0.0
  0
LINE
  5
83D8
  8
3
 62
     0
 10
1041.32028848649
 20
5290.1666571827482
 30
0.0
 11
1041.32028848649
 21
4190.1666571827463
 31
0.0
  0
INSERT
  5
83D9
  8
3
 62
     0
  2
_OPEN
 10
1041.32028848649
 20
5340.1666571827482
 30
0.0
 41
50.0
 42
50.0
 43
50.0
 50
90.0
  0
INSERT
  5
83DA
  8
3
 62
     0
  2
_OPEN
 10
1041.32028848649
 20
4140.1666571827463
 30
0.0
 41
50.0
 42
50.0
 43
50.0
 50
270.0
  0
TEXT
  8
3
  40
75
  5
8422
  62
0
  72
0
  71
0
 10
828.820
 20
4607.42
 30
0.000000
  1
1200
  0
POINT
  5
83DC
  8
DEFPOINTS
 62
     0
 10
1250.7740913472139
 20
5340.1666571827482
 30
0.0
  0
POINT
  5
83DD
  8
DEFPOINTS
 62
     0
 10
1400.7740913472139
 20
4140.1666571827463
 30
0.0
  0
POINT
  5
83DE
  8
DEFPOINTS
 62
     0
 10
1041.32028848649
 20
4140.1666571827463
 30
0.0
  0
ENDBLK
  5
81D4
  8
0
  0
BLOCK
  8
0
  2
*D19
 70
     1
 10
0.0
 20
0.0
 30
0.0
  3
*D19
  1

  0
LINE
  5
83DF
  8
3
 62
     0
 10
2050.7740913472139
 20
5352.6666571827482
 30
0.0
 11
2050.7740913472139
 21
5510.7405437864991
 31
0.0
  0
LINE
  5
83E0
  8
3
 62
     0
 10
1250.7740913472139
 20
5352.6666571827482
 30
0.0
 11
1250.7740913472139
 21
5510.7405437864991
 31
0.0
  0
LINE
  5
83E1
  8
3
 62
     0
 10
2000.7740913472139
 20
5485.7405437864991
 30
0.0
 11
1300.7740913472139
 21
5485.7405437864991
 31
0.0
  0
INSERT
  5
83E2
  8
3
 62
     0
  2
_OPEN
 10
2050.7740913472139
 20
5485.7405437864991
 30
0.0
 41
50.0
 42
50.0
 43
50.0
  0
INSERT
  5
83E3
  8
3
 62
     0
  2
_OPEN
 10
1250.7740913472139
 20
5485.7405437864991
 30
0.0
 41
50.0
 42
50.0
 43
50.0
 50
180.0
  0
TEXT
  8
3
  40
75
  5
8423
  62
0
  72
0
  71
0
 10
1500.77
 20
5415.49
 30
0.000000
  1
800
  0
POINT
  5
83E5
  8
DEFPOINTS
 62
     0
 10
2050.7740913472139
 20
5340.1666571827482
 30
0.0
  0
POINT
  5
83E6
  8
DEFPOINTS
 62
     0
 10
1250.7740913472139
 20
5340.1666571827482
 30
0.0
  0
POINT
  5
83E7
  8
DEFPOINTS
 62
     0
 10
1250.7740913472139
 20
5485.7405437864991
 30
0.0
  0
ENDBLK
  5
81DF
  8
0
  0
BLOCK
  8
0
  2
*D20
 70
     1
 10
0.0
 20
0.0
 30
0.0
  3
*D20
  1

  0
LINE
  5
83E8
  8
3
 62
     0
 10
2343.2740913472139
 20
4140.1666571827463
 30
0.0
 11
2504.2032629586561
 21
4140.1666571827463
 31
0.0
  0
LINE
  5
83E9
  8
3
 62
     0
 10
2343.2740913472139
 20
4804.1666571827463
 30
0.0
 11
2504.2032629586561
 21
4804.1666571827463
 31
0.0
  0
LINE
  5
83EA
  8
3
 62
     0
 10
2479.2032629586561
 20
4190.1666571827463
 30
0.0
 11
2479.2032629586561
 21
4754.1666571827463
 31
0.0
  0
INSERT
  5
83EB
  8
3
 62
     0
  2
_OPEN
 10
2479.2032629586561
 20
4140.1666571827463
 30
0.0
 41
50.0
 42
50.0
 43
50.0
 50
270.0
  0
INSERT
  5
83EC
  8
3
 62
     0
  2
_OPEN
 10
2479.2032629586561
 20
4804.1666571827463
 30
0.0
 41
50.0
 42
50.0
 43
50.0
 50
90.0
  0
TEXT
  8
3
  40
75
  5
8424
  62
0
  72
0
  71
0
 10
2266.70
 20
4339.42
 30
0.000000
  1
664
  0
POINT
  5
83EE
  8
DEFPOINTS
 62
     0
 10
2330.7740913472139
 20
4140.1666571827463
 30
0.0
  0
POINT
  5
83EF
  8
DEFPOINTS
 62
     0
 10
2330.7740913472139
 20
4804.1666571827463
 30
0.0
  0
POINT
  5
83F0
  8
DEFPOINTS
 62
     0
 10
2479.2032629586561
 20
4804.1666571827463
 30
0.0
  0
ENDBLK
  5
81C9
  8
0
  0
BLOCK
  8
0
  2
_OPEN
 70
     0
 10
0.0
 20
0.0
 30
0.0
  3
_OPEN
  1

  0
LINE
  5
7EDA
  8
0
  6
BYBLOCK
 62
     0
 10
-1.0
 20
0.1666666666666666
 30
0.0
 11
0.0
 21
0.0
 31
0.0
  0
LINE
  5
7EDB
  8
0
  6
BYBLOCK
 62
     0
 10
0.0
 20
0.0
 30
0.0
 11
-1.0
 21
-0.1666666666666666
 31
0.0
  0
LINE
  5
7EDC
  8
0
  6
BYBLOCK
 62
     0
 10
0.0
 20
0.0
 30
0.0
 11
-1.0
 21
0.0
 31
0.0
  0
ENDBLK
  5
7EDD
  8
0
  0
BLOCK
  8
0
  2
*D22
 70
     1
 10
0.0
 20
0.0
 30
0.0
  3
*D22
  1

  0
LINE
  5
83F1
  8
3
 62
     0
 10
1238.2740913472139
 20
1783.0063805585651
 30
0.0
 11
717.31205207151584
 21
1783.0063805585651
 31
0.0
  0
LINE
  5
83F2
  8
3
 62
     0
 10
742.31205207151595
 20
1928.0063805585651
 30
0.0
 11
742.31205207151595
 21
1978.0063805585651
 31
0.0
  0
LINE
  5
83F3
  8
3
 62
     0
 10
742.31205207151584
 20
1733.0063805585651
 30
0.0
 11
742.31205207151584
 21
1683.0063805585651
 31
0.0
  0
TEXT
  8
3
  40
75
  5
8425
  62
0
  72
0
  71
0
 10
490.218
 20
1736.46
 30
0.000000
  1
(95)
  0
LINE
  5
83F5
  8
3
 62
     0
 10
742.31205207151595
 20
1878.0063805585651
 30
0.0
 11
742.31205207151584
 21
1783.0063805585651
 31
0.0
  0
INSERT
  5
83F6
  8
3
 62
     0
  2
_OPEN
 10
742.31205207151595
 20
1878.0063805585651
 30
0.0
 41
50.0
 42
50.0
 43
50.0
 50
270.0
  0
INSERT
  5
83F7
  8
3
 62
     0
  2
_DOT
 10
742.31205207151584
 20
1783.0063805585651
 30
0.0
 41
50.0
 42
50.0
 43
50.0
 50
90.0
  0
POINT
  5
83F8
  8
DEFPOINTS
 62
     0
 10
1250.7740913472139
 20
1878.0063805585651
 30
0.0
  0
POINT
  5
83F9
  8
DEFPOINTS
 62
     0
 10
1250.7740913472139
 20
1783.0063805585651
 30
0.0
  0
POINT
  5
83FA
  8
DEFPOINTS
 62
     0
 10
742.31205207151584
 20
1783.0063805585651
 30
0.0
  0
ENDBLK
  5
82FE
  8
0
  0
BLOCK
  8
0
  2
*D23
 70
     1
 10
0.0
 20
0.0
 30
0.0
  3
*D23
  1

  0
LINE
  5
83FB
  8
3
 62
     0
 10
1238.2740913472139
 20
1783.0063805585651
 30
0.0
 11
717.31205207151584
 21
1783.0063805585651
 31
0.0
  0
LINE
  5
83FC
  8
3
 62
     0
 10
1238.2740913472139
 20
1683.0063805585651
 30
0.0
 11
717.31205207151584
 21
1683.0063805585651
 31
0.0
  0
LINE
  5
83FD
  8
3
 62
     0
 10
742.31205207151595
 20
1833.0063805585651
 30
0.0
 11
742.31205207151595
 21
1883.0063805585651
 31
0.0
  0
LINE
  5
83FE
  8
3
 62
     0
 10
742.31205207151584
 20
1633.0063805585651
 30
0.0
 11
742.31205207151584
 21
1354.4349519871359
 31
0.0
  0
LINE
  5
83FF
  8
3
 62
     0
 10
742.31205207151584
 20
1783.0063805585651
 30
0.0
 11
742.31205207151584
 21
1683.0063805585651
 31
0.0
  0
INSERT
  5
8400
  8
3
 62
     0
  2
_DOT
 10
742.31205207151584
 20
1783.0063805585651
 30
0.0
 41
50.0
 42
50.0
 43
50.0
 50
270.0
  0
INSERT
  5
8401
  8
3
 62
     0
  2
_OPEN
 10
742.31205207151584
 20
1683.0063805585651
 30
0.0
 41
50.0
 42
50.0
 43
50.0
 50
90.0
  0
TEXT
  8
3
  40
75
  5
8426
  62
0
  72
0
  71
0
 10
529.812
 20
1335.97
 30
0.000000
  1
100
  0
POINT
  5
8403
  8
DEFPOINTS
 62
     0
 10
1250.7740913472139
 20
1783.0063805585651
 30
0.0
  0
POINT
  5
8404
  8
DEFPOINTS
 62
     0
 10
1250.7740913472139
 20
1683.0063805585651
 30
0.0
  0
POINT
  5
8405
  8
DEFPOINTS
 62
     0
 10
742.31205207151584
 20
1683.0063805585651
 30
0.0
  0
ENDBLK
  5
82F2
  8
0
  0
BLOCK
  8
0
  2
_DOT
 70
     0
 10
0.0
 20
0.0
 30
0.0
  3
_DOT
  1

  0
LINE
  5
8230
  8
0
  6
BYBLOCK
 62
     0
 10
0.0
 20
0.0
 30
0.0
 11
-1.0
 21
-0.0000000000000284
 31
0.0
  0
POLYLINE
  5
8231
  8
0
  6
BYBLOCK
 62
     0
 66
     1
 10
0.0
 20
0.0
 30
0.0
 70
     1
 40
0.1666666666666666
 41
0.1666666666666666
  0
VERTEX
  5
8406
  8
0
  6
BYBLOCK
 62
     0
 10
-0.0833333333333286
 20
-0.0000000000000284
 30
0.0
 42
1.0
  0
VERTEX
  5
8407
  8
0
  6
BYBLOCK
 62
     0
 10
0.0833333333333286
 20
-0.0000000000000284
 30
0.0
 42
1.0
  0
SEQEND
  5
8408
  8
0
  6
BYBLOCK
 62
     0
  0
ENDBLK
  5
8044
  8
0
  0
BLOCK
  8
0
  2
*D25
 70
     1
 10
0.0
 20
0.0
 30
0.0
  3
*D25
  1

  0
LINE
  5
8284
  8
0
  6
BYBLOCK
 62
     0
 10
4279.9298834539832
 20
3005.3866027264239
 30
0.0
 11
4279.9298834539832
 21
3482.2533118111528
 31
0.0
  0
LINE
  5
8285
  8
0
  6
BYBLOCK
 62
     0
 10
4088.9298834539832
 20
3457.2533118111528
 30
0.0
 11
4229.9298834539832
 21
3457.2533118111528
 31
0.0
  0
TEXT
  5
8286
  8
3
 62
     0
 10
4079.07274059684
 20
3485.8471246246208
 30
0.0
 40
75.0
  1
241
  0
INSERT
  5
8287
  8
0
  6
BYBLOCK
 62
     0
  2
_OPEN
 10
4038.9298834539832
 20
3457.2533118111528
 30
0.0
 41
50.0
 42
50.0
 43
50.0
 50
180.0
  0
INSERT
  5
8288
  8
0
  6
BYBLOCK
 62
     0
  2
_OPEN
 10
4279.9298834539832
 20
3457.2533118111528
 30
0.0
 41
50.0
 42
50.0
 43
50.0
  0
POINT
  5
8289
  8
DEFPOINTS
  6
BYBLOCK
 62
     0
 10
4038.9298834539832
 20
3391.1699256900388
 30
0.0
  0
POINT
  5
828A
  8
DEFPOINTS
  6
BYBLOCK
 62
     0
 10
4279.9298834539832
 20
2992.8866027264248
 30
0.0
  0
POINT
  5
828B
  8
DEFPOINTS
  6
BYBLOCK
 62
     0
 10
4279.9298834539832
 20
3457.2533118111528
 30
0.0
  0
ENDBLK
  5
828C
  8
0
  0
BLOCK
  8
0
  2
*D26
 70
     1
 10
0.0
 20
0.0
 30
0.0
  3
*D26
  1

  0
LINE
  5
8409
  8
3
 62
     0
 10
4288.9298834539832
 20
3013.0063805585651
 30
0.0
 11
4522.433205307957
 21
3013.0063805585651
 31
0.0
  0
LINE
  5
840A
  8
3
 62
     0
 10
4288.9298834539832
 20
2343.0063805585651
 30
0.0
 11
4522.433205307957
 21
2343.0063805585651
 31
0.0
  0
LINE
  5
840B
  8
3
 62
     0
 10
4497.433205307957
 20
2963.006380558566
 30
0.0
 11
4497.433205307957
 21
2393.0063805585651
 31
0.0
  0
INSERT
  5
840C
  8
3
 62
     0
  2
_OPEN
 10
4497.433205307957
 20
3013.0063805585651
 30
0.0
 41
50.0
 42
50.0
 43
50.0
 50
90.0
  0
INSERT
  5
840D
  8
3
 62
     0
  2
_OPEN
 10
4497.433205307957
 20
2343.0063805585651
 30
0.0
 41
50.0
 42
50.0
 43
50.0
 50
270.0
  0
TEXT
  8
3
  40
75
  5
8427
  62
0
  72
0
  71
0
 10
4284.93
 20
2545.91
 30
0.000000
  1
670
  0
POINT
  5
840F
  8
DEFPOINTS
 62
     0
 10
4276.4298834539832
 20
3013.0063805585651
 30
0.0
  0
POINT
  5
8410
  8
DEFPOINTS
 62
     0
 10
4276.4298834539832
 20
2343.0063805585651
 30
0.0
  0
POINT
  5
8411
  8
DEFPOINTS
 62
     0
 10
4497.433205307957
 20
2343.0063805585651
 30
0.0
  0
ENDBLK
  5
8332
  8
0
  0
ENDSEC
  0
SECTION
  2
ENTITIES
  0
ARC
  5
7BF3
  8
1
 10
2150.7740913472139
 20
2195.0063805585642
 30
0.0
 40
150.0
 50
225.99077432782579
 51
45.990774327825882
  0
DIMENSION
  5
7BF4
  8
3
  2
*D1
 10
1190.7740913472139
 20
3430.8085783532752
 30
0.0
 11
1770.7740913472139
 21
3493.3085783532752
 31
0.0
 70
     0
 13
2350.7740913472139
 23
2018.0063805585651
 33
0.0
 14
1190.7740913472139
 24
2692.5063805585651
 34
0.0
1001
ACAD
1000
DSTYLE
1002
{
1070
   287
1070
     3
1070
    40
1040
25.0
1070
   143
1040
0.039
1070
   172
1070
     1
1070
   271
1070
     0
1070
   279
1070
     0
1070
   288
1070
     1
1002
}
  0
DIMENSION
  5
7BF6
  8
3
  2
*D2
 10
1650.7740913472139
 20
1513.24819860202
 30
0.0
 11
1990.7740913472139
 21
1575.74819860202
 31
0.0
 70
     0
 13
2330.7740913472139
 23
1683.0063805585651
 33
0.0
 14
1650.7740913472139
 24
1683.0063805585651
 34
0.0
1001
ACAD
1000
DSTYLE
1002
{
1070
   287
1070
     3
1070
    40
1040
25.0
1070
   143
1040
0.039
1070
   172
1070
     1
1070
   271
1070
     0
1070
   279
1070
     0
1070
   288
1070
     1
1002
}
  0
LINE
  5
7BF7
  8
1
 10
2313.9282608826929
 20
2063.0063805585651
 30
0.0
 11
1987.8071778638571
 21
2063.0063805585651
 31
0.0
  0
LINE
  5
7BF8
  8
2
 10
2316.3108666091639
 20
2195.0063805585642
 30
0.0
 11
1985.193063873664
 21
2195.0063805585642
 31
0.0
  0
ARC
  5
7BF9
  8
1
 10
2150.7740913472139
 20
2195.0063805585642
 30
0.0
 40
142.5
 50
326.96613161763833
 51
180.0
  0
LINE
  5
7BFA
  8
1
 10
2330.7740913472139
 20
1783.0063805585651
 30
0.0
 11
1250.7740913472139
 21
1783.0063805585651
 31
0.0
1001
ACAD
1000
ASC_BOUNDS
1002
{
1070
    19
1002
}
  0
LINE
  5
7BFB
  8
1
 10
2330.7740913472139
 20
1683.0063805585651
 30
0.0
 11
1250.7740913472139
 21
1683.0063805585651
 31
0.0
  0
LINE
  5
7BFC
  8
1
 10
2350.7740913472139
 20
1978.0063805585651
 30
0.0
 11
1250.7740913472139
 21
1978.0063805585651
 31
0.0
  0
LINE
  5
7BFD
  8
1
 10
2330.7740913472139
 20
1878.0063805585651
 30
0.0
 11
1250.7740913472139
 21
1878.0063805585651
 31
0.0
1001
ACAD
1000
ASC_BOUNDS
1002
{
1070
    19
1002
}
  0
ARC
  5
7BFE
  8
1
 10
1697.7740913472139
 20
2631.0063805585651
 30
0.0
 40
501.0
 50
5.382968649881315
 51
95.382968649881306
  0
DIMENSION
  5
7BFF
  8
3
  2
*D3
 10
533.24213450432865
 20
1683.0063805585651
 30
0.0
 11
470.74213450432848
 21
2406.401649158433
 31
0.0
 70
     0
  1
1392
 13
1650.7740913472139
 23
3129.7969177583
 33
0.0
 14
1250.7740913472139
 24
1683.0063805585651
 34
0.0
 50
270.0
1001
ACAD
1000
DSTYLE
1002
{
1070
   287
1070
     3
1070
    40
1040
25.0
1070
   143
1040
0.039
1070
   172
1070
     1
1070
   271
1070
     0
1070
   279
1070
     0
1070
   288
1070
     1
1002
}
  0
DIMENSION
  5
7C00
  8
3
  2
*D4
 10
742.31205207151584
 20
1878.0063805585651
 30
0.0
 11
679.8120520715155
 21
2278.0063805585651
 31
0.0
 70
     0
 13
1137.131530789711
 23
2678.0063805585651
 33
0.0
 14
1250.7740913472139
 24
1878.0063805585651
 34
0.0
 50
270.0
1001
ACAD
1000
DSTYLE
1002
{
1070
   287
1070
     3
1070
    40
1040
25.0
1070
   143
1040
0.039
1070
   172
1070
     1
1070
   271
1070
     0
1070
   279
1070
     0
1070
   288
1070
     1
1002
}
  0
LINE
  5
7C01
  8
1
 10
1595.8869304663981
 20
2621.1873734355659
 30
0.0
 11
2095.8869304663981
 21
2138.1873734355659
 31
0.0
  0
LINE
  5
7C02
  8
1
 10
1546.557963092499
 20
2570.122189818695
 30
0.0
 11
2046.557963092499
 21
2087.1221898186941
 31
0.0
  0
DIMENSION
  5
7C03
  8
3
  2
*D5
 10
890.29694326867786
 20
2678.0063805585651
 30
0.0
 11
827.79694326867752
 21
2339.0063805585651
 31
0.0
 70
     0
 13
1190.7740913472139
 23
2000.0063805585651
 33
0.0
 14
1137.131530789711
 24
2678.0063805585651
 34
0.0
 50
270.0
1001
ACAD
1000
DSTYLE
1002
{
1070
   287
1070
     3
1070
    40
1040
25.0
1070
   143
1040
0.039
1070
   172
1070
     1
1070
   271
1070
     0
1070
   279
1070
     0
1070
   288
1070
     1
1002
}
  0
DIMENSION
  5
7C04
  8
3
  2
*D6
 10
1041.8245671809941
 20
2650.0063805585651
 30
0.0
 11
979.3245671809932
 21
2325.0063805585651
 31
0.0
 70
     0
 13
1190.7740913472139
 23
2000.0063805585651
 33
0.0
 14
1190.7740913472139
 24
2650.0063805585651
 34
0.0
 50
270.0
1001
ACAD
1000
DSTYLE
1002
{
1070
   287
1070
     3
1070
    40
1040
25.0
1070
   143
1040
0.039
1070
   172
1070
     1
1070
   271
1070
     0
1070
   279
1070
     0
1070
   288
1070
     1
1002
}
  0
CIRCLE
  5
7C05
  8
1
 10
2150.7740913472139
 20
2195.0063805585642
 30
0.0
 40
79.0
  0
LINE
  5
7C06
  8
2
 10
2150.7740913472139
 20
2349.2054330788719
 30
0.0
 11
2150.7740913472139
 21
1926.5451244616791
 31
0.0
  0
LINE
  5
7C09
  8
1
 10
1193.7740913472139
 20
1958.0063805585651
 30
0.0
 11
1193.7740913472139
 21
2692.5063805585651
 31
0.0
  0
LINE
  5
7C0A
  8
1
 10
1230.7740913472139
 20
2003.2984855385921
 30
0.0
 11
1230.7740913472139
 21
2650.0063805585651
 31
0.0
  0
LINE
  5
7C0B
  8
1
 10
1190.7740913472139
 20
1958.0063805585651
 30
0.0
 11
1190.7740913472139
 21
2692.5063805585651
 31
0.0
  0
LINE
  5
7C0C
  8
2
 10
1650.7740913472139
 20
3234.5836615953231
 30
0.0
 11
1650.7740913472139
 21
1683.0063805585651
 31
0.0
  0
LINE
  5
7C0F
  8
3
 10
1250.7740913472139
 20
1878.0063805585651
 30
0.0
 11
722.31205207151584
 21
1878.0063805585651
 31
0.0
  0
LINE
  5
7C13
  8
3
 10
742.31205207151584
 20
1880.0063805585651
 30
0.0
 11
742.31205207151584
 21
1920.0063805585639
 31
0.0
  0
INSERT
  5
7C15
  8
3
  2
ARROW
 10
742.31205207151584
 20
1878.0063805585651
 30
0.0
 41
-40.0
 42
40.0
 43
40.0
 50
90.0
  0
POINT
  5
7C18
  8
3
 10
742.31205207151584
 20
1740.0063805585651
 30
0.0
  0
POINT
  5
7C1A
  8
3
 10
742.31205207151584
 20
1878.0063805585651
 30
0.0
  0
LINE
  5
7C1F
  8
3
 10
742.31205207151584
 20
1918.0063805585651
 30
0.0
 11
742.31205207151584
 21
2085.5094488776981
 31
0.0
  0
DIMENSION
  5
7C20
  8
3
  2
*D7
 10
1250.7740913472139
 20
1513.24819860202
 30
0.0
 11
1450.7740913472139
 21
1575.74819860202
 31
0.0
 70
     0
 13
1650.7740913472139
 23
1683.0063805585651
 33
0.0
 14
1250.7740913472139
 24
1683.0063805585651
 34
0.0
1001
ACAD
1000
DSTYLE
1002
{
1070
   287
1070
     3
1070
    40
1040
25.0
1070
   143
1040
0.039
1070
   172
1070
     1
1070
   271
1070
     0
1070
   279
1070
     0
1070
   288
1070
     1
1002
}
  0
LINE
  5
7C21
  8
1
 10
1400.7740913472139
 20
1978.0063805585651
 30
0.0
 11
1400.7740913472139
 21
1878.0063805585651
 31
0.0
  0
LINE
  5
7C22
  8
1
 10
1250.7740913472139
 20
1978.0063805585651
 30
0.0
 11
1250.7740913472139
 21
1878.0063805585651
 31
0.0
  0
LINE
  5
7C23
  8
1
 10
1250.7740913472139
 20
1783.0063805585651
 30
0.0
 11
1250.7740913472139
 21
1683.0063805585651
 31
0.0
  0
POINT
  5
7C24
  8
1
 10
1250.7740913472139
 20
1683.0063805585651
 30
0.0
  0
POINT
  5
7C25
  8
1
 10
1250.7740913472139
 20
1783.0063805585651
 30
0.0
  0
POINT
  5
7C26
  8
1
 10
1250.7740913472139
 20
1878.0063805585651
 30
0.0
  0
POINT
  5
7C27
  8
1
 10
1250.7740913472139
 20
1783.0063805585651
 30
0.0
  0
LINE
  5
7C28
  8
1
 10
1400.7740913472139
 20
1783.0063805585651
 30
0.0
 11
1400.7740913472139
 21
1683.0063805585651
 31
0.0
  0
LINE
  5
7C29
  8
1
 10
1190.7740913472139
 20
2000.0063805585651
 30
0.0
 11
1405.6967203620991
 21
2017.6950769910759
 31
0.0
  0
LINE
  5
7C2A
  8
1
 10
1193.7740913472139
 20
1958.0063805585651
 30
0.0
 11
1190.7740913472139
 21
1958.0063805585651
 31
0.0
  0
ARC
  5
7C2B
  8
1
 10
1603.7740913472139
 20
2631.0063805585651
 30
0.0
 40
595.0
 50
298.18759113336
 51
312.83056865327222
  0
LINE
  5
7C2C
  8
1
 10
1975.7740913472139
 20
2018.0063805585651
 30
0.0
 11
1987.8071778638571
 21
2063.0063805585651
 31
0.0
  0
LINE
  5
7C2D
  8
1
 10
1975.7740913472139
 20
2018.0063805585651
 30
0.0
 11
1950.7740913472139
 21
2018.0063805585651
 31
0.0
  0
LINE
  5
7C2E
  8
1
 10
1950.7740913472139
 20
2018.0063805585651
 30
0.0
 11
1950.7740913472139
 21
1978.0063805585651
 31
0.0
  0
ARC
  5
7C2F
  8
1
 10
2150.7740913472139
 20
2195.0063805585642
 30
0.0
 40
142.5
 50
180.0
 51
213.0338076719878
  0
LINE
  5
7C30
  8
1
 10
2020.7740913472139
 20
2077.808980558566
 30
0.0
 11
2020.7740913472139
 21
2063.006380558566
 31
0.0
  0
LINE
  5
7C31
  8
1
 10
2031.3093510271531
 20
2117.3248137601249
 30
0.0
 11
2020.7740913472139
 21
2078.0063805585651
 31
0.0
  0
DIMENSION
  5
7C32
  8
3
  2
*D8
 10
742.31205207151584
 20
2678.0063805585651
 30
0.0
 11
679.8120520715155
 21
2903.901649158433
 31
0.0
 70
     0
  1
454
 13
1650.7740913472139
 23
3129.7969177583
 33
0.0
 14
1137.131530789711
 24
2678.0063805585651
 34
0.0
 50
270.0
1001
ACAD
1000
DSTYLE
1002
{
1070
   287
1070
     3
1070
    40
1040
25.0
1070
   143
1040
0.039
1070
   172
1070
     1
1070
   271
1070
     0
1070
   279
1070
     0
1070
   288
1070
     1
1002
}
  0
DIMENSION
  5
7C33
  8
3
  2
*D9
 10
1190.7740913472139
 20
3279.7806587970222
 30
0.0
 11
1420.7740913472139
 21
3342.2806587970222
 31
0.0
 70
     0
 13
1650.7740913472139
 23
3234.5836615953231
 33
0.0
 14
1190.7740913472139
 24
2692.5063805585651
 34
0.0
1001
ACAD
1000
DSTYLE
1002
{
1070
   287
1070
     3
1070
    40
1040
25.0
1070
   143
1040
0.039
1070
   172
1070
     1
1070
   271
1070
     0
1070
   279
1070
     0
1070
   288
1070
     1
1002
}
  0
DIMENSION
  5
7C34
  8
3
  2
*D10
 10
1650.7740913472139
 20
3279.7806587970222
 30
0.0
 11
1923.6693599470821
 21
3342.2806587970222
 31
0.0
 70
     0
  1
548
 13
2196.5646285469488
 23
2678.0063805585651
 33
0.0
 14
1650.7740913472139
 24
3234.5836615953231
 34
0.0
1001
ACAD
1000
DSTYLE
1002
{
1070
   287
1070
     3
1070
    40
1040
25.0
1070
   143
1040
0.039
1070
   172
1070
     1
1070
   271
1070
     0
1070
   279
1070
     0
1070
   288
1070
     1
1002
}
  0
ARC
  5
7C35
  8
1
 10
1688.7740913472139
 20
2716.0063805585651
 30
0.0
 40
416.0
 50
95.241055061296706
 51
185.24105506129669
  0
ARC
  5
7C36
  8
1
 10
1650.7740913472139
 20
2678.0063805585651
 30
0.0
 40
150.0
 50
45.990774327825889
 51
225.99077432782579
  0
LINE
  5
7C38
  8
2
 10
2256.2539772385549
 20
2678.0063805585651
 30
0.0
 11
1137.131530789711
 21
2678.0063805585651
 31
0.0
  0
LINE
  5
7C39
  8
1
 10
1279.2414842456001
 20
2650.0063805585651
 30
0.0
 11
1190.7740913472139
 21
2650.0063805585651
 31
0.0
  0
LINE
  5
7C3A
  8
1
 10
1193.7740913472139
 20
2692.5063805585651
 30
0.0
 11
1190.7740913472139
 21
2692.5063805585651
 31
0.0
  0
ARC
  5
7C3B
  8
1
 10
1612.7740913472139
 20
2716.0063805585651
 30
0.0
 40
340.0
 50
186.4170531430286
 51
191.1931836056838
  0
LINE
  5
7C3C
  8
1
 10
1705.6612522280309
 20
2734.8253876815638
 30
0.0
 11
2205.6612522280302
 21
2251.8253876815629
 31
0.0
  0
LINE
  5
7C3D
  8
1
 10
2254.9902196019289
 20
2302.890571298436
 30
0.0
 11
1754.9902196019291
 21
2785.890571298436
 31
0.0
  0
ARC
  5
7C3E
  8
1
 10
1603.7740913472139
 20
2631.0063805585651
 30
0.0
 40
595.0
 50
330.05448809091592
 51
4.5306050426826081
  0
CIRCLE
  5
7C3F
  8
1
 10
1650.7740913472139
 20
2678.0063805585651
 30
0.0
 40
79.0
  0
LINE
  5
7C40
  8
1
 10
3165.9298834539832
 20
2337.5063805585642
 30
0.0
 11
3165.9298834539832
 21
2052.5063805585651
 31
0.0
  0
LINE
  5
7C41
  8
1
 10
3555.9298834539832
 20
2337.5063805585642
 30
0.0
 11
3555.9298834539832
 21
2052.5063805585651
 31
0.0
  0
LINE
  5
7C42
  8
1
 10
3801.4298834539818
 20
2000.0063805585651
 30
0.0
 11
4276.4298834539832
 21
2649.5063805585651
 31
0.0
  0
LINE
  5
7C43
  8
1
 10
4276.4298834539832
 20
1999.5063805585651
 30
0.0
 11
3801.4298834539818
 21
2649.5063805585651
 31
0.0
  0
LINE
  5
7C44
  8
2
 10
4038.9298834539832
 20
3260.2604448293928
 30
0.0
 11
4038.9298834539832
 21
1683.0063805585651
 31
0.0
  0
LINE
  5
7C45
  8
1
 10
2993.9298834539832
 20
2828.006380558566
 30
0.0
 11
2993.9298834539832
 21
2045.0063805585639
 31
0.0
  0
LINE
  5
7C46
  8
1
 10
3118.9298834539832
 20
2757.0063805585651
 30
0.0
 11
3118.9298834539832
 21
2116.0063805585651
 31
0.0
  0
LINE
  5
7C47
  8
1
 10
3036.9298834539832
 20
2757.0063805585651
 30
0.0
 11
3036.9298834539832
 21
2116.0063805585651
 31
0.0
  0
LINE
  5
7C48
  8
1
 10
3713.9298834539832
 20
2623.0063805585651
 30
0.0
 11
3713.9298834539832
 21
1978.0063805585651
 31
0.0
  0
LINE
  5
7C49
  8
1
 10
3801.4298834539818
 20
1999.5063805585651
 30
0.0
 11
3801.4298834539818
 21
3132.0063805585651
 31
0.0
  0
LINE
  5
7C4A
  8
1
 10
4276.4298834539841
 20
1999.5063805585651
 30
0.0
 11
4276.4298834539823
 21
3132.0063805585651
 31
0.0
  0
DIMENSION
  5
7C4C
  8
3
  2
*D11
 10
4038.9298834539832
 20
1518.441293767371
 30
0.0
 11
3585.4298834539832
 21
1580.941293767371
 31
0.0
 70
     0
 13
3131.9298834539832
 23
1683.0063805585651
 33
0.0
 14
4038.9298834539832
 24
1683.0063805585651
 34
0.0
1001
ACAD
1000
DSTYLE
1002
{
1070
   287
1070
     3
1070
    40
1040
25.0
1070
   143
1040
0.039
1070
   172
1070
     1
1070
   271
1070
     0
1070
   279
1070
     0
1070
   288
1070
     1
1002
}
  0
LINE
  5
7C4D
  8
2
 10
3016.3447064094312
 20
2195.0063805585642
 30
0.0
 11
3594.1621761644619
 21
2195.0063805585642
 31
0.0
  0
LINE
  5
7C4E
  8
1
 10
3131.9298834539832
 20
1683.0063805585651
 30
0.0
 11
4331.9298834539832
 21
1683.0063805585651
 31
0.0
  0
LINE
  5
7C4F
  8
1
 10
3131.9298834539832
 20
1783.006380558566
 30
0.0
 11
4331.9298834539832
 21
1783.0063805585651
 31
0.0
  0
LINE
  5
7C50
  8
1
 10
3131.9298834539832
 20
1978.0063805585651
 30
0.0
 11
4331.9298834539832
 21
1978.0063805585651
 31
0.0
  0
LINE
  5
7C51
  8
1
 10
3131.9298834539832
 20
1878.0063805585651
 30
0.0
 11
4331.9298834539832
 21
1878.0063805585651
 31
0.0
  0
LINE
  5
7C52
  8
1
 10
2330.7740913472139
 20
1978.0063805585651
 30
0.0
 11
2330.7740913472139
 21
1878.0063805585651
 31
0.0
  0
LINE
  5
7C53
  8
1
 10
2330.7740913472139
 20
1783.0063805585651
 30
0.0
 11
2330.7740913472139
 21
1683.0063805585651
 31
0.0
  0
LINE
  5
7C54
  8
1
 10
2325.7740913472139
 20
2018.0063805585651
 30
0.0
 11
2313.9282608826929
 21
2063.0063805585651
 31
0.0
  0
LINE
  5
7C55
  8
1
 10
2350.7740913472139
 20
2018.0063805585651
 30
0.0
 11
2350.7740913472139
 21
1978.0063805585651
 31
0.0
  0
LINE
  5
7C56
  8
1
 10
2350.7740913472139
 20
2018.0063805585651
 30
0.0
 11
2325.7740913472139
 21
2018.0063805585651
 31
0.0
  0
LINE
  5
7C57
  8
1
 10
2280.7740913472139
 20
2077.808980558566
 30
0.0
 11
2280.7740913472139
 21
2063.006380558566
 31
0.0
  0
LINE
  5
7C58
  8
1
 10
2270.2387493561369
 20
2117.3246871758179
 30
0.0
 11
2280.7740913472139
 21
2078.0063805585651
 31
0.0
  0
LINE
  5
7C59
  8
1
 10
3131.9298834539832
 20
1978.0063805585651
 30
0.0
 11
3131.9298834539832
 21
1878.0063805585651
 31
0.0
  0
LINE
  5
7C5A
  8
1
 10
3131.9298834539832
 20
1783.006380558566
 30
0.0
 11
3131.9298834539832
 21
1683.0063805585651
 31
0.0
  0
LINE
  5
7C5B
  8
1
 10
3171.9298834539832
 20
2018.006380558566
 30
0.0
 11
3481.9298834539818
 21
2018.0063805585651
 31
0.0
  0
LINE
  5
7C5C
  8
1
 10
3165.9298834539832
 20
2052.5063805585651
 30
0.0
 11
3555.9298834539832
 21
2052.5063805585651
 31
0.0
  0
LINE
  5
7C5D
  8
1
 10
3153.9298834539832
 20
2065.0063805585651
 30
0.0
 11
3153.9298834539832
 21
2045.006380558566
 31
0.0
  0
LINE
  5
7C5E
  8
1
 10
2993.9298834539832
 20
2045.0063805585639
 30
0.0
 11
3153.9298834539832
 21
2045.0063805585639
 31
0.0
  0
LINE
  5
7C5F
  8
1
 10
3171.9298834539832
 20
2052.5063805585651
 30
0.0
 11
3171.9298834539832
 21
1978.0063805585651
 31
0.0
  0
LINE
  5
7C60
  8
1
 10
3036.9298834539832
 20
2116.0063805585651
 30
0.0
 11
3118.9298834539832
 21
2116.0063805585651
 31
0.0
  0
LINE
  5
7C61
  8
1
 10
3118.9298834539832
 20
2176.0063805585651
 30
0.0
 11
3165.9298834539832
 21
2176.0063805585651
 31
0.0
  0
LINE
  5
7C62
  8
1
 10
3118.9298834539832
 20
2214.0063805585651
 30
0.0
 11
3165.9298834539832
 21
2214.0063805585651
 31
0.0
  0
LINE
  5
7C63
  8
1
 10
3481.9298834539818
 20
2052.5063805585651
 30
0.0
 11
3481.9298834539818
 21
1978.0063805585651
 31
0.0
  0
DIMENSION
  5
7C64
  8
3
  2
*D12
 10
4331.9298834539832
 20
1518.441293767371
 30
0.0
 11
4185.4298834539832
 21
1579.489711858085
 31
0.0
 12
0.0
 22
-57.0
 32
0.0
 70
   128
 13
4038.9298834539832
 23
1683.0063805585651
 33
0.0
 14
4331.9298834539832
 24
1683.0063805585651
 34
0.0
1001
ACAD
1000
DSTYLE
1002
{
1070
   288
1070
     1
1070
   172
1070
     1
1070
    40
1040
25.0
1070
   271
1070
     0
1070
   143
1040
0.039
1002
}
  0
LINE
  5
7C65
  8
1
 10
3801.4298834539818
 20
1999.5063805585651
 30
0.0
 11
4276.4298834539832
 21
1999.5063805585651
 31
0.0
  0
LINE
  5
7C66
  8
1
 10
4331.9298834539832
 20
1978.0063805585651
 30
0.0
 11
4331.9298834539832
 21
1878.0063805585651
 31
0.0
  0
LINE
  5
7C67
  8
1
 10
4331.9298834539832
 20
1783.0063805585651
 30
0.0
 11
4331.9298834539832
 21
1683.0063805585651
 31
0.0
  0
DIMENSION
  5
7C68
  8
3
  2
*D13
 10
4038.9298834539832
 20
3457.2533118111528
 30
0.0
 11
3516.4298834539832
 21
3582.2533118111528
 31
0.0
 70
     0
  1
MAX\P1070
 13
2993.9298834539832
 23
2828.006380558566
 33
0.0
 14
4038.9298834539832
 24
3391.1699256900388
 34
0.0
1001
ACAD
1000
DSTYLE
1002
{
1070
   287
1070
     3
1070
    40
1040
25.0
1070
   143
1040
0.039
1070
   172
1070
     1
1070
   271
1070
     0
1070
   279
1070
     0
1070
   288
1070
     1
1002
}
  0
LINE
  5
7C69
  8
1
 10
3118.9298834539832
 20
2653.0063805585651
 30
0.0
 11
3801.4298834539841
 21
2653.0063805585651
 31
0.0
  0
LINE
  5
7C6A
  8
1
 10
3118.9298834539832
 20
2703.0063805585651
 30
0.0
 11
3801.4298834539818
 21
2703.0063805585651
 31
0.0
  0
LINE
  5
7C6B
  8
1
 10
3173.9298834539832
 20
2623.0063805585651
 30
0.0
 11
3713.9298834539832
 21
2623.0063805585651
 31
0.0
  0
LINE
  5
7C6C
  8
2
 10
3016.3447064094312
 20
2678.0063805585651
 30
0.0
 11
4314.2293166720447
 21
2678.0063805585651
 31
0.0
  0
LINE
  5
7C6D
  8
1
 10
3173.9298834539832
 20
2623.0063805585651
 30
0.0
 11
3173.9298834539832
 21
2337.5063805585642
 31
0.0
  0
LINE
  5
7C6E
  8
1
 10
3165.9298834539832
 20
2337.5063805585642
 30
0.0
 11
3555.9298834539832
 21
2337.5063805585642
 31
0.0
  0
LINE
  5
7C6F
  8
1
 10
3036.9298834539832
 20
2274.0063805585651
 30
0.0
 11
3118.9298834539832
 21
2274.0063805585651
 31
0.0
  0
LINE
  5
7C70
  8
1
 10
3036.9298834539832
 20
2599.0063805585651
 30
0.0
 11
3118.9298834539832
 21
2599.0063805585651
 31
0.0
  0
LINE
  5
7C71
  8
1
 10
2993.9298834539832
 20
2828.0063805585651
 30
0.0
 11
3153.9298834539832
 21
2828.0063805585651
 31
0.0
  0
LINE
  5
7C72
  8
1
 10
3153.9298834539832
 20
2828.0063805585651
 30
0.0
 11
3153.9298834539832
 21
2808.0063805585651
 31
0.0
  0
LINE
  5
7C73
  8
1
 10
3036.9298834539832
 20
2757.0063805585651
 30
0.0
 11
3118.9298834539832
 21
2757.0063805585651
 31
0.0
  0
DIMENSION
  5
7C76
  8
3
  2
*D14
 10
4276.4298834539823
 20
3281.6388786606758
 30
0.0
 11
4038.9298834539832
 21
3344.1388786606758
 31
0.0
 70
     0
 13
3801.4298834539818
 23
3132.0063805585651
 33
0.0
 14
4276.4298834539823
 24
3132.0063805585651
 34
0.0
1001
ACAD
1000
DSTYLE
1002
{
1070
   287
1070
     3
1070
    40
1040
25.0
1070
   143
1040
0.039
1070
   172
1070
     1
1070
   271
1070
     0
1070
   279
1070
     0
1070
   288
1070
     1
1002
}
  0
LINE
  5
7C77
  8
1
 10
3801.4298834539818
 20
3132.0063805585651
 30
0.0
 11
4276.4298834539823
 21
3132.0063805585651
 31
0.0
  0
LINE
  5
7C79
  8
1
 10
2169.7740913472139
 20
4159.1666571827473
 30
0.0
 11
2300.7740913472139
 21
4159.1666571827473
 31
0.0
  0
LINE
  5
7C7A
  8
1
 10
2350.7740913472139
 20
4162.1666571827463
 30
0.0
 11
2169.7740913472139
 21
4162.1666571827473
 31
0.0
  0
DIMENSION
  5
7C7B
  8
3
  2
*D15
 10
2330.7740913472139
 20
5485.7405437864991
 30
0.0
 11
2190.7740913472139
 21
5549.3612181913268
 31
0.0
 12
145.5836768825138
 22
-174.5562120220238
 32
0.0
 70
   128
 13
2050.7740913472139
 23
5340.1666571827482
 33
0.0
 14
2330.7740913472139
 24
4804.1666571827463
 34
0.0
1001
ACAD
1000
DSTYLE
1002
{
1070
   288
1070
     1
1070
   172
1070
     1
1070
    40
1040
25.0
1070
   271
1070
     0
1070
   143
1040
0.039
1002
}
  0
DIMENSION
  5
7C7C
  8
3
  2
*D16
 10
2330.7740913472139
 20
3848.2859808967132
 30
0.0
 11
1865.7740913472139
 21
3910.7859808967132
 31
0.0
 70
     0
 13
1400.7740913472139
 23
4140.1666571827463
 33
0.0
 14
2330.7740913472139
 24
4140.1666571827463
 34
0.0
1001
ACAD
1000
DSTYLE
1002
{
1070
   287
1070
     3
1070
    40
1040
25.0
1070
   143
1040
0.039
1070
   172
1070
     1
1070
   271
1070
     0
1070
   279
1070
     0
1070
   288
1070
     1
1002
}
  0
LINE
  5
7C7D
  8
1
 10
2293.2740913472139
 20
4171.1666571827463
 30
0.0
 11
2008.2740913472139
 21
4171.1666571827463
 31
0.0
  0
LINE
  5
7C7E
  8
1
 10
2293.2740913472139
 20
4561.1666571827473
 30
0.0
 11
2008.2740913472139
 21
4561.1666571827473
 31
0.0
  0
LINE
  5
7C7F
  8
1
 10
1500.7740913472139
 20
3999.1666571827459
 30
0.0
 11
2300.7740913472139
 21
3999.1666571827459
 31
0.0
  0
LINE
  5
7C80
  8
1
 10
2330.7740913472139
 20
4804.1666571827463
 30
0.0
 11
2050.7740913472139
 21
4804.1666571827463
 31
0.0
  0
LINE
  5
7C81
  8
1
 10
2330.7740913472139
 20
4140.1666571827463
 30
0.0
 11
2169.7740913472139
 21
4140.1666571827463
 31
0.0
  0
DIMENSION
  5
7C82
  8
3
  2
*D17
 10
1250.7740913472139
 20
3848.2859808967132
 30
0.0
 11
1086.4883770614999
 21
3910.7859808967132
 31
0.0
 70
     0
 13
1400.7740913472139
 23
4140.1666571827463
 33
0.0
 14
1250.7740913472139
 24
4754.1666571827463
 34
0.0
1001
ACAD
1000
DSTYLE
1002
{
1070
   287
1070
     3
1070
    40
1040
25.0
1070
   143
1040
0.039
1070
   172
1070
     1
1070
   271
1070
     0
1070
   279
1070
     0
1070
   288
1070
     1
1002
}
  0
DIMENSION
  5
7C83
  8
3
  2
*D18
 10
1041.32028848649
 20
4140.1666571827463
 30
0.0
 11
978.82028848648986
 21
4740.1666571827463
 31
0.0
 70
     0
 13
1250.7740913472139
 23
5340.1666571827482
 33
0.0
 14
1400.7740913472139
 24
4140.1666571827463
 34
0.0
 50
270.0
1001
ACAD
1000
DSTYLE
1002
{
1070
   287
1070
     3
1070
    40
1040
25.0
1070
   143
1040
0.039
1070
   172
1070
     1
1070
   271
1070
     0
1070
   279
1070
     0
1070
   288
1070
     1
1002
}
  0
LINE
  5
7C84
  8
1
 10
1675.7740913472139
 20
4124.1666571827473
 30
0.0
 11
1675.7740913472139
 21
4806.6666571827463
 31
0.0
  0
LINE
  5
7C85
  8
1
 10
1625.7740913472139
 20
4124.1666571827473
 30
0.0
 11
1625.7740913472139
 21
4806.6666571827463
 31
0.0
  0
LINE
  5
7C86
  8
1
 10
1400.7740913472139
 20
4754.1666571827463
 30
0.0
 11
1400.7740913472139
 21
4140.1666571827463
 31
0.0
  0
LINE
  5
7C87
  8
2
 10
1650.7740913472139
 20
5312.2262563775294
 30
0.0
 11
1650.7740913472139
 21
3991.7328906225162
 31
0.0
  0
LINE
  5
7C88
  8
1
 10
1500.7740913472139
 20
3999.1666571827459
 30
0.0
 11
1500.7740913472139
 21
4159.1666571827473
 31
0.0
  0
LINE
  5
7C89
  8
1
 10
2229.7740913472139
 20
4124.1666571827473
 30
0.0
 11
2229.7740913472139
 21
4042.1666571827459
 31
0.0
  0
LINE
  5
7C8A
  8
1
 10
2071.7740913472139
 20
4124.1666571827473
 30
0.0
 11
2071.7740913472139
 21
4042.1666571827459
 31
0.0
  0
LINE
  5
7C8B
  8
1
 10
1729.7740913472139
 20
4042.1666571827459
 30
0.0
 11
1729.7740913472139
 21
4124.1666571827473
 31
0.0
  0
LINE
  5
7C8C
  8
1
 10
1571.7740913472139
 20
4042.1666571827459
 30
0.0
 11
1571.7740913472139
 21
4124.1666571827473
 31
0.0
  0
LINE
  5
7C8D
  8
2
 10
2150.7740913472139
 20
4616.9510942238212
 30
0.0
 11
2150.7740913472139
 21
3991.7328906225162
 31
0.0
  0
LINE
  5
7C8E
  8
1
 10
2229.7740913472139
 20
4042.1666571827459
 30
0.0
 11
1571.7740913472139
 21
4042.1666571827459
 31
0.0
  0
LINE
  5
7C8F
  8
1
 10
1625.7740913472139
 20
4719.1666571827454
 30
0.0
 11
1480.7740913472139
 21
4719.1666571827454
 31
0.0
  0
LINE
  5
7C90
  8
1
 10
1625.7740913472139
 20
4179.1666571827463
 30
0.0
 11
1480.7740913472139
 21
4179.1666571827463
 31
0.0
  0
LINE
  5
7C91
  8
1
 10
1625.7740913472139
 20
4140.1666571827463
 30
0.0
 11
1400.7740913472139
 21
4140.1666571827463
 31
0.0
  0
LINE
  5
7C92
  8
1
 10
1500.7740913472139
 20
4159.1666571827473
 30
0.0
 11
1625.7740913472139
 21
4159.1666571827473
 31
0.0
  0
POINT
  5
7C94
  8
1
 10
1400.7740913472139
 20
4140.1666571827463
 30
0.0
  0
LINE
  5
7C95
  8
1
 10
2008.2740913472139
 20
4561.1666571827473
 30
0.0
 11
2008.2740913472139
 21
4171.1666571827463
 31
0.0
  0
LINE
  5
7C97
  8
1
 10
1675.7740913472139
 20
4159.1666571827473
 30
0.0
 11
2131.7740913472139
 21
4159.1666571827473
 31
0.0
  0
LINE
  5
7C98
  8
1
 10
2131.7740913472139
 20
4140.1666571827463
 30
0.0
 11
1675.7740913472139
 21
4140.1666571827463
 31
0.0
  0
LINE
  5
7C99
  8
1
 10
2229.7740913472139
 20
4124.1666571827473
 30
0.0
 11
1571.7740913472139
 21
4124.1666571827473
 31
0.0
  0
LINE
  5
7C9A
  8
1
 10
1820.7740913472139
 20
4179.1666571827463
 30
0.0
 11
1675.7740913472139
 21
4179.1666571827463
 31
0.0
  0
LINE
  5
7C9B
  8
1
 10
2131.7740913472139
 20
4162.1666571827473
 30
0.0
 11
1950.7740913472139
 21
4162.1666571827463
 31
0.0
  0
LINE
  5
7C9C
  8
1
 10
2008.2740913472139
 20
4222.1666571827463
 30
0.0
 11
1950.7740913472139
 21
4222.1666571827463
 31
0.0
  0
LINE
  5
7C9D
  8
1
 10
1950.7740913472139
 20
4222.1666571827463
 30
0.0
 11
1950.7740913472139
 21
4162.1666571827463
 31
0.0
  0
LINE
  5
7C9E
  8
1
 10
2169.7740913472139
 20
4171.1666571827463
 30
0.0
 11
2169.7740913472139
 21
4124.1666571827473
 31
0.0
  0
LINE
  5
7C9F
  8
1
 10
2131.7740913472139
 20
4171.1666571827463
 30
0.0
 11
2131.7740913472139
 21
4124.1666571827473
 31
0.0
  0
LINE
  5
7CA0
  8
1
 10
1820.7740913472139
 20
4719.1666571827454
 30
0.0
 11
1675.7740913472139
 21
4719.1666571827454
 31
0.0
  0
LINE
  5
7CA1
  8
1
 10
1950.7740913472139
 20
4502.1666571827473
 30
0.0
 11
1950.7740913472139
 21
4442.1666571827463
 31
0.0
  0
LINE
  5
7CA2
  8
1
 10
2008.2740913472139
 20
4442.1666571827463
 30
0.0
 11
1950.7740913472139
 21
4442.1666571827463
 31
0.0
  0
LINE
  5
7CA3
  8
1
 10
2008.2740913472139
 20
4502.1666571827473
 30
0.0
 11
1950.7740913472139
 21
4502.1666571827473
 31
0.0
  0
DIMENSION
  5
7CA4
  8
3
  2
*D19
 10
1250.7740913472139
 20
5485.7405437864991
 30
0.0
 11
1650.7740913472139
 21
5548.2405437864991
 31
0.0
 70
     0
 13
2050.7740913472139
 23
5340.1666571827482
 33
0.0
 14
1250.7740913472139
 24
5340.1666571827482
 34
0.0
1001
ACAD
1000
DSTYLE
1002
{
1070
   287
1070
     3
1070
    40
1040
25.0
1070
   143
1040
0.039
1070
   172
1070
     1
1070
   271
1070
     0
1070
   279
1070
     0
1070
   288
1070
     1
1002
}
  0
LINE
  5
7CA5
  8
1
 10
2196.9148840768999
 20
4806.6666571827463
 30
0.0
 11
1190.7740913472139
 21
4806.6666571827463
 31
0.0
  0
LINE
  5
7CA6
  8
1
 10
2196.9148840768999
 20
5281.6666571827463
 30
0.0
 11
1190.7740913472139
 21
5281.6666571827463
 31
0.0
  0
LINE
  5
7CA7
  8
2
 10
2229.6084751194999
 20
5044.1666571827463
 30
0.0
 11
1151.4301829028941
 21
5044.1666571827473
 31
0.0
  0
LINE
  5
7CA8
  8
1
 10
2050.7740913472139
 20
5340.1666571827482
 30
0.0
 11
1250.7740913472139
 21
5340.1666571827482
 31
0.0
  0
LINE
  5
7CA9
  8
1
 10
1193.7740913472139
 20
5324.1666571827473
 30
0.0
 11
1193.7740913472139
 21
4764.1666571827463
 31
0.0
  0
LINE
  5
7CAA
  8
1
 10
1230.7740913472139
 20
5281.6666571827463
 30
0.0
 11
1230.7740913472139
 21
4806.6666571827463
 31
0.0
  0
LINE
  5
7CAB
  8
1
 10
1190.7740913472139
 20
5324.1666571827473
 30
0.0
 11
1190.7740913472139
 21
4764.1666571827463
 31
0.0
  0
LINE
  5
7CAC
  8
1
 10
1400.7740913472139
 20
4754.1666571827463
 30
0.0
 11
1250.7740913472139
 21
4754.1666571827463
 31
0.0
  0
LINE
  5
7CAD
  8
1
 10
1250.7740913472139
 20
4806.6666571827463
 30
0.0
 11
1250.7740913472139
 21
4754.1666571827473
 31
0.0
  0
LINE
  5
7CAE
  8
1
 10
1193.7740913472139
 20
4764.1666571827463
 30
0.0
 11
1190.7740913472139
 21
4764.1666571827463
 31
0.0
  0
POINT
  5
7CAF
  8
1
 10
1250.7740913472139
 20
4754.1666571827463
 30
0.0
  0
LINE
  5
7CB0
  8
1
 10
1193.7740913472139
 20
5324.1666571827473
 30
0.0
 11
1190.7740913472139
 21
5324.1666571827473
 31
0.0
  0
LINE
  5
7CB1
  8
1
 10
1250.7740913472139
 20
5340.1666571827482
 30
0.0
 11
1250.7740913472139
 21
5281.6666571827463
 31
0.0
  0
LINE
  5
7CB2
  8
1
 10
2196.9148840768999
 20
4806.6666571827463
 30
0.0
 11
2196.9148840768999
 21
5281.6666571827463
 31
0.0
  0
LINE
  5
7CB3
  8
1
 10
2050.7740913472139
 20
4806.6666571827463
 30
0.0
 11
2050.7740913472139
 21
4804.1666571827463
 31
0.0
  0
LINE
  5
7CB4
  8
1
 10
2050.7740913472139
 20
5340.1666571827482
 30
0.0
 11
2050.7740913472139
 21
5281.6666571827463
 31
0.0
  0
DIMENSION
  5
7CB5
  8
3
  2
*D20
 10
2479.2032629586561
 20
4804.1666571827463
 30
0.0
 11
2416.7032629586561
 21
4472.1666571827473
 31
0.0
 70
     0
 13
2330.7740913472139
 23
4140.1666571827463
 33
0.0
 14
2330.7740913472139
 24
4804.1666571827463
 34
0.0
 50
270.0
1001
ACAD
1000
DSTYLE
1002
{
1070
   287
1070
     3
1070
    40
1040
25.0
1070
   143
1040
0.039
1070
   172
1070
     1
1070
   271
1070
     0
1070
   279
1070
     0
1070
   288
1070
     1
1002
}
  0
LINE
  5
7CB6
  8
1
 10
2330.7740913472139
 20
4804.1666571827463
 30
0.0
 11
2330.7740913472139
 21
4502.1666571827473
 31
0.0
  0
LINE
  5
7CB9
  8
1
 10
2300.7740913472139
 20
4159.1666571827473
 30
0.0
 11
2300.7740913472139
 21
3999.1666571827459
 31
0.0
  0
LINE
  5
7CBA
  8
1
 10
2330.7740913472139
 20
4442.1666571827463
 30
0.0
 11
2330.7740913472139
 21
4222.1666571827473
 31
0.0
  0
LINE
  5
7CBB
  8
1
 10
2293.2740913472139
 20
4561.1666571827473
 30
0.0
 11
2293.2740913472139
 21
4171.1666571827463
 31
0.0
  0
LINE
  5
7CBC
  8
1
 10
2330.7740913472139
 20
4162.1666571827463
 30
0.0
 11
2330.7740913472139
 21
4140.1666571827463
 31
0.0
  0
LINE
  5
7CBD
  8
1
 10
2350.7740913472139
 20
4222.1666571827463
 30
0.0
 11
2350.7740913472139
 21
4162.1666571827463
 31
0.0
  0
LINE
  5
7CBE
  8
1
 10
2350.7740913472139
 20
4222.1666571827463
 30
0.0
 11
2293.2740913472139
 21
4222.1666571827473
 31
0.0
  0
LINE
  5
7CBF
  8
1
 10
2350.7740913472139
 20
4502.1666571827473
 30
0.0
 11
2350.7740913472139
 21
4442.1666571827463
 31
0.0
  0
LINE
  5
7CC0
  8
1
 10
2350.7740913472139
 20
4442.1666571827463
 30
0.0
 11
2293.2740913472139
 21
4442.1666571827463
 31
0.0
  0
LINE
  5
7CC1
  8
1
 10
2350.7740913472139
 20
4502.1666571827473
 30
0.0
 11
2293.2740913472139
 21
4502.1666571827473
 31
0.0
  0
DIMENSION
  5
7FF0
  8
3
  2
*D22
 10
742.31205207151584
 20
1783.0063805585651
 30
0.0
 11
722.36055543619466
 21
1869.205588513948
 31
0.0
 70
   128
  1
(<>)
 13
1250.7740913472139
 23
1878.0063805585651
 33
0.0
 14
1250.7740913472139
 24
1783.0063805585651
 34
0.0
 50
90.0
1001
ACAD
1000
DSTYLE
1002
{
1070
   287
1070
     4
1070
    40
1040
25.0
1070
    75
1070
     1
1070
   143
1040
0.039
1070
   172
1070
     1
1070
   271
1070
     0
1070
   279
1070
     1
1070
   288
1070
     1
1070
     7
1000
DOT
1002
}
  0
DIMENSION
  5
8000
  8
3
  2
*D23
 10
742.31205207151584
 20
1683.0063805585651
 30
0.0
 11
679.81205207151561
 21
1468.7206662728511
 31
0.0
 70
     0
 13
1250.7740913472139
 23
1783.0063805585651
 33
0.0
 14
1250.7740913472139
 24
1683.0063805585651
 34
0.0
 50
90.0
1001
ACAD
1000
DSTYLE
1002
{
1070
   287
1070
     3
1070
    40
1040
25.0
1070
   143
1040
0.039
1070
   172
1070
     1
1070
   271
1070
     0
1070
   279
1070
     0
1070
   288
1070
     1
1070
     6
1000
DOT
1002
}
  0
LINE
  5
80B6
  8
4
 10
4625.0
 20
1250.0
 30
0.0
 11
4625.0
 21
750.0
 31
0.0
  0
LINE
  5
80B7
  8
4
 10
2875.0
 20
1250.0
 30
0.0
 11
2875.0
 21
750.0
 31
0.0
  0
LINE
  5
80B8
  8
4
 10
1625.0
 20
1250.0
 30
0.0
 11
1625.0
 21
750.0
 31
0.0
  0
LINE
  5
80BB
  8
4
 10
1625.0
 20
750.0
 30
0.0
 11
4625.0
 21
750.0
 31
0.0
  0
LINE
  5
80BC
  8
4
 10
1625.0
 20
1000.0
 30
0.0
 11
4625.0
 21
1000.0
 31
0.0
  0
TEXT
  5
80BD
  8
4
 10
1721.2552021172539
 20
1078.857564666532
 30
0.0
 40
125.0
  1
機器名称
  0
TEXT
  5
80BE
  8
4
 10
1715.6452650619931
 20
804.11289183002725
 30
0.0
 40
125.0
  1
機器型番
  0
TEXT
  5
80BF
  8
4
 10
2877.4960343522262
 20
1055.6724359106031
 30
0.0
 40
112.5
  1
ミツヤ多翼送風機
  0
TEXT
  5
80C0
  8
4
 10
2966.6362389637011
 20
792.89896069985843
 30
0.0
 40
125.0
  1
MF#4-1
  0
TEXT
  5
80C2
  8
4
 10
1971.5403507268741
 20
5958.5721033312893
 30
0.0
 40
135.0
  1
床置防振ベット
  0
TEXT
  5
80C3
  8
4
 10
724.41350040804173
 20
6334.7024404982449
 30
0.0
 40
180.0
  1
遠心式片吸込片持多翼ファン
  0
LINE
  5
80C4
  8
4
 10
625.0
 20
6173.5218856620122
 30
0.0
 11
4625.0
 21
6173.5218856620122
 31
0.0
  0
LINE
  5
80C5
  8
4
 10
625.0
 20
6673.5218856620122
 30
0.0
 11
4625.0
 21
6673.5218856620122
 31
0.0
  0
LINE
  5
80C6
  8
4
 10
1625.0
 20
1250.0
 30
0.0
 11
4625.0
 21
1250.0
 31
0.0
  0
LINE
  5
80C7
  8
4
 10
625.0
 20
6673.5218856620122
 30
0.0
 11
625.0
 21
6173.5218856620122
 31
0.0
  0
TEXT
  5
80C8
  8
4
 10
881.89327012011927
 20
5955.7986938658578
 30
0.0
 40
135.0
  1
右回転左横向
  0
TEXT
  5
80C9
  8
4
 10
3672.4238981232238
 20
6765.1527037382721
 30
0.0
 40
140.0
  1
No.
  0
TEXT
  5
80CA
  8
4
 10
3278.2401565000318
 20
5958.5721033312893
 30
0.0
 40
135.0
  1
縮尺：1/25
  0
LINE
  5
80CB
  8
4
 10
4625.0
 20
6673.5218856620122
 30
0.0
 11
4625.0
 21
6173.5218856620122
 31
0.0
  0
LINE
  5
80CC
  8
4
 10
5250.0
 20
7375.0
 30
0.0
 11
5250.0
 21
7375.0
 31
0.0
  0
LINE
  5
80CD
  8
4
 10
3601.543555899661
 20
6703.1589578135026
 30
0.0
 11
3601.543555899661
 21
6966.6306538743811
 31
0.0
  0
LINE
  5
80CE
  8
4
 10
3601.543555899661
 20
6966.6306538743811
 30
0.0
 11
4625.0
 21
6966.6306538743811
 31
0.0
  0
LINE
  5
80CF
  8
4
 10
4625.0
 20
6966.6306538743811
 30
0.0
 11
4625.0
 21
6703.1589578135026
 31
0.0
  0
LINE
  5
80D0
  8
4
 10
4625.0
 20
6703.1589578135026
 30
0.0
 11
3601.543555899661
 21
6703.1589578135026
 31
0.0
  0
LINE
  5
80D1
  8
4
 10
0.0
 20
0.0
 30
0.0
 11
0.0
 21
7375.0
 31
0.0
  0
LINE
  5
80D2
  8
4
 10
0.0
 20
7375.0
 30
0.0
 11
5250.0
 21
7375.0
 31
0.0
  0
LINE
  5
80D3
  8
4
 10
5250.0
 20
7375.0
 30
0.0
 11
5250.0
 21
0.0
 31
0.0
  0
LINE
  5
80D4
  8
4
 10
5250.0
 20
0.0
 30
0.0
 11
0.0
 21
0.0
 31
0.0
  0
DIMENSION
  5
8259
  8
3
  2
*D25
 10
4279.9298834539832
 20
3457.2533118111528
 30
0.0
 11
4159.4298834539841
 21
3523.3471246246208
 31
0.0
 70
   128
 13
4038.9298834539832
 23
3391.1699256900388
 33
0.0
 14
4279.9298834539832
 24
2992.8866027264248
 34
0.0
1001
ACAD
1000
DSTYLE
1002
{
1070
   288
1070
     1
1070
   172
1070
     1
1070
    75
1070
     1
1070
    40
1040
25.0
1070
   271
1070
     0
1070
   143
1040
0.039
1002
}
  0
LINE
  5
82D8
  8
1
 10
3761.4298834539832
 20
1978.0063805585651
 30
0.0
 11
3761.4298834539832
 21
2653.0063805585651
 31
0.0
  0
LINE
  5
82DA
  8
1
 10
4316.4298834539841
 20
1978.0063805585651
 30
0.0
 11
4316.4298834539841
 21
2689.5063805585642
 31
0.0
  0
LINE
  5
82DB
  8
1
 10
3801.4298834539818
 20
2649.5063805585651
 30
0.0
 11
4276.4298834539832
 21
2649.5063805585651
 31
0.0
  0
LINE
  5
82DC
  8
1
 10
4276.4298834539832
 20
2689.5063805585642
 30
0.0
 11
4316.4298834539841
 21
2689.5063805585651
 31
0.0
  0
LINE
  5
831B
  8
1
 10
1480.7740913472139
 20
2623.0063805585651
 30
0.0
 11
1820.7740913472139
 21
2623.0063805585651
 31
0.0
  0
LINE
  5
831D
  8
1
 10
1480.7740913472139
 20
2623.0063805585651
 30
0.0
 11
1400.7740913472139
 21
1978.0063805585651
 31
0.0
  0
LINE
  5
831E
  8
1
 10
1820.7740913472139
 20
2623.0063805585651
 30
0.0
 11
1900.7740913472139
 21
1978.0063805585651
 31
0.0
  0
LINE
  5
831F
  8
1
 10
1480.7740913472139
 20
4719.1666571827454
 30
0.0
 11
1480.7740913472139
 21
4179.1666571827463
 31
0.0
  0
LINE
  5
8320
  8
1
 10
1820.7740913472139
 20
4719.1666571827454
 30
0.0
 11
1820.7740913472139
 21
4179.1666571827463
 31
0.0
  0
DIMENSION
  5
8333
  8
3
  2
*D26
 10
4497.433205307957
 20
2343.0063805585651
 30
0.0
 11
4497.4332053079561
 21
2678.6611134511468
 31
0.0
 70
   128
 13
4276.4298834539832
 23
3013.0063805585651
 33
0.0
 14
4276.4298834539832
 24
2343.0063805585651
 34
0.0
 50
90.0
1001
ACAD
1000
DSTYLE
1002
{
1070
   287
1070
     3
1070
    40
1040
25.0
1070
   143
1040
0.039
1070
   172
1070
     1
1070
   271
1070
     0
1070
   279
1070
     0
1070
   288
1070
     1
1002
}
  0
ENDSEC
  0
EOF
