  0
SECTION
  2
HEADER
  9
$ACADVER
  1
AC1009
  9
$INSBASE
 10
0.0
 20
0.0
 30
0.0
  9
$EXTMIN
 10
0.0
 20
0.0
 30
0.0
  9
$EXTMAX
 10
5250.0
 20
7375.0
 30
0.0
  9
$LIMMIN
 10
0.0
 20
0.0
  9
$LIMMAX
 10
297.0
 20
210.0
  9
$ORTHOMODE
 70
     0
  9
$REGENMODE
 70
     1
  9
$FILLMODE
 70
     0
  9
$QTEXTMODE
 70
     0
  9
$MIRRTEXT
 70
     1
  9
$DRAGMODE
 70
     2
  9
$LTSCALE
 40
100.0
  9
$OSMODE
 70
    37
  9
$ATTMODE
 70
     1
  9
$TEXTSIZE
 40
180.0
  9
$TRACEWID
 40
0.05
  9
$TEXTSTYLE
  7
STANDARD
  9
$CLAYER
  8
3
  9
$CELTYPE
  6
BYLAYER
  9
$CECOLOR
 62
   256
  9
$DIMSCALE
 40
25.0
  9
$DIMASZ
 40
2.0
  9
$DIMEXO
 40
0.5
  9
$DIMDLI
 40
10.0
  9
$DIMRND
 40
0.0
  9
$DIMDLE
 40
0.0
  9
$DIMEXE
 40
1.0
  9
$DIMTP
 40
1.0
  9
$DIMTM
 40
1.0
  9
$DIMTXT
 40
3.0
  9
$DIMCEN
 40
0.0
  9
$DIMTSZ
 40
0.0
  9
$DIMTOL
 70
     0
  9
$DIMLIM
 70
     0
  9
$DIMTIH
 70
     0
  9
$DIMTOH
 70
     0
  9
$DIMSE1
 70
     0
  9
$DIMSE2
 70
     0
  9
$DIMTAD
 70
     1
  9
$DIMZIN
 70
     8
  9
$DIMBLK
  1

  9
$DIMASO
 70
     1
  9
$DIMSHO
 70
     1
  9
$DIMPOST
  1

  9
$DIMAPOST
  1

  9
$DIMALT
 70
     0
  9
$DIMALTD
 70
     2
  9
$DIMALTF
 40
0.039
  9
$DIMLFAC
 40
1.0
  9
$DIMTOFL
 70
     1
  9
$DIMTVP
 40
0.0
  9
$DIMTIX
 70
     0
  9
$DIMSOXD
 70
     0
  9
$DIMSAH
 70
     1
  9
$DIMBLK1
  1
OPEN
  9
$DIMBLK2
  1
OPEN
  9
$DIMSTYLE
  2
IGA
  9
$DIMCLRD
 70
     0
  9
$DIMCLRE
 70
     0
  9
$DIMCLRT
 70
     0
  9
$DIMTFAC
 40
10.0
  9
$DIMGAP
 40
1.0
  9
$LUNITS
 70
     2
  9
$LUPREC
 70
     3
  9
$SKETCHINC
 40
0.1
  9
$FILLETRAD
 40
50.0
  9
$AUNITS
 70
     0
  9
$AUPREC
 70
     0
  9
$MENU
  1
acad
  9
$ELEVATION
 40
0.0
  9
$PELEVATION
 40
0.0
  9
$THICKNESS
 40
0.0
  9
$LIMCHECK
 70
     0
  9
$BLIPMODE
 70
     0
  9
$CHAMFERA
 40
0.5
  9
$CHAMFERB
 40
0.5
  9
$SKPOLY
 70
     0
  9
$TDCREATE
 40
2451004.4186167819
  9
$TDUPDATE
 40
2454953.7566945129
  9
$TDINDWG
 40
0.0568780787
  9
$TDUSRTIMER
 40
0.0568780787
  9
$USRTIMER
 70
     1
  9
$ANGBASE
 50
0.0
  9
$ANGDIR
 70
     0
  9
$PDMODE
 70
     0
  9
$PDSIZE
 40
0.0
  9
$PLINEWID
 40
0.0
  9
$COORDS
 70
     1
  9
$SPLFRAME
 70
     0
  9
$SPLINETYPE
 70
     6
  9
$SPLINESEGS
 70
     8
  9
$ATTDIA
 70
     0
  9
$ATTREQ
 70
     1
  9
$HANDLING
 70
 10241
  9
$HANDSEED
  5
83C8
  9
$SURFTAB1
 70
     6
  9
$SURFTAB2
 70
     6
  9
$SURFTYPE
 70
     6
  9
$SURFU
 70
     6
  9
$SURFV
 70
     6
  9
$UCSNAME
  2

  9
$UCSORG
 10
0.0
 20
0.0
 30
0.0
  9
$UCSXDIR
 10
1.0
 20
0.0
 30
0.0
  9
$UCSYDIR
 10
0.0
 20
1.0
 30
0.0
  9
$PUCSNAME
  2

  9
$PUCSORG
 10
0.0
 20
0.0
 30
0.0
  9
$PUCSXDIR
 10
1.0
 20
0.0
 30
0.0
  9
$PUCSYDIR
 10
0.0
 20
1.0
 30
0.0
  9
$USERI1
 70
     0
  9
$USERI2
 70
     0
  9
$USERI3
 70
     0
  9
$USERI4
 70
     0
  9
$USERI5
 70
     0
  9
$USERR1
 40
0.0
  9
$USERR2
 40
0.0
  9
$USERR3
 40
0.0
  9
$USERR4
 40
0.0
  9
$USERR5
 40
0.0
  9
$WORLDVIEW
 70
     1
  9
$SHADEDGE
 70
     3
  9
$SHADEDIF
 70
    70
  9
$TILEMODE
 70
     1
  9
$MAXACTVP
 70
    16
  9
$PLIMCHECK
 70
     0
  9
$PEXTMIN
 10
1.0000000000000000E+020
 20
1.0000000000000000E+020
 30
1.0000000000000000E+020
  9
$PEXTMAX
 10
-1.0000000000000000E+020
 20
-1.0000000000000000E+020
 30
-1.0000000000000000E+020
  9
$PLIMMIN
 10
0.0
 20
0.0
  9
$PLIMMAX
 10
12.0
 20
9.0
  9
$UNITMODE
 70
     0
  9
$VISRETAIN
 70
     0
  9
$PLINEGEN
 70
     0
  9
$PSLTSCALE
 70
     1
  0
ENDSEC
  0
SECTION
  2
TABLES
  0
TABLE
  2
VPORT
 70
     2
  0
VPORT
  2
*ACTIVE
 70
     0
 10
0.0
 20
0.0
 11
1.0
 21
1.0
 12
8841.5248971284218
 22
3687.5000171712591
 13
0.0
 23
0.0
 14
10.0
 24
10.0
 15
10.0
 25
10.0
 16
0.0
 26
0.0
 36
1.0
 17
0.0
 27
0.0
 37
0.0
 40
7431.5372075423384
 41
3.1666666666666661
 42
50.0
 43
0.0
 44
0.0
 50
0.0
 51
0.0
 71
     0
 72
   100
 73
     1
 74
     0
 75
     0
 76
     0
 77
     0
 78
     0
  0
ENDTAB
  0
TABLE
  2
LTYPE
 70
     2
  0
LTYPE
  2
CONTINUOUS
 70
     0
  3
Solid line
 72
    65
 73
     0
 40
0.0
  0
LTYPE
  2
CENTER
 70
     0
  3
____ _ ____ _ ____ _ ____ _ ____ _ ____ _ ____ 
 72
    65
 73
     4
 40
2.0
 49
1.25
 49
-0.25
 49
0.25
 49
-0.25
  0
ENDTAB
  0
TABLE
  2
LAYER
 70
     6
  0
LAYER
  2
0
 70
     0
 62
     7
  6
CONTINUOUS
  0
LAYER
  2
3
 70
     0
 62
     2
  6
CONTINUOUS
  0
LAYER
  2
2
 70
     0
 62
     3
  6
CENTER
  0
LAYER
  2
1
 70
     0
 62
     4
  6
CONTINUOUS
  0
LAYER
  2
4
 70
     0
 62
     7
  6
CONTINUOUS
  0
LAYER
  2
DEFPOINTS
 70
     0
 62
     7
  6
CONTINUOUS
  0
ENDTAB
  0
TABLE
  2
STYLE
 70
     1
  0
STYLE
  2
STANDARD
 70
     0
 40
0.0
 41
1.0
 50
0.0
 71
     0
 42
180.0
  3
simplex.shx
  4
extfont.shx
  0
ENDTAB
  0
TABLE
  2
VIEW
 70
     0
  0
ENDTAB
  0
TABLE
  2
UCS
 70
     0
  0
ENDTAB
  0
TABLE
  2
APPID
 70
     1
  0
APPID
  2
ACAD
 70
     0
  0
ENDTAB
  0
TABLE
  2
DIMSTYLE
 70
     1
  0
DIMSTYLE
  2
IGA
 70
     0
  3

  4

  5

  6
OPEN
  7
OPEN
 40
2.0
 41
2.0
 42
0.5
 43
10.0
 44
1.0
 45
0.0
 46
0.0
 47
1.0
 48
1.0
140
3.0
141
0.0
142
0.0
143
0.03937
144
1.0
145
0.0
146
10.0
147
1.0
 71
     0
 72
     0
 73
     0
 74
     0
 75
     0
 76
     0
 77
     1
 78
     8
170
     0
171
     2
172
     0
173
     1
174
     0
175
     0
176
     0
177
     0
178
     0
  0
ENDTAB
  0
ENDSEC
  0
SECTION
  2
BLOCKS
  0
BLOCK
  8
0
  2
$MODEL_SPACE
 70
     0
 10
0.0
 20
0.0
 30
0.0
  3
$MODEL_SPACE
  1

  0
ENDBLK
  5
1B
  8
0
  0
BLOCK
 67
     1
  8
0
  2
$PAPER_SPACE
 70
     0
 10
0.0
 20
0.0
 30
0.0
  3
$PAPER_SPACE
  1

  0
ENDBLK
  5
18
 67
     1
  8
0
  0
BLOCK
  8
0
  2
*D0
 70
     1
 10
0.0
 20
0.0
 30
0.0
  3
*D0
  1

  0
LINE
  5
8303
  8
3
 62
     0
 10
2035.3713110461169
 20
3246.295595788592
 30
0.0
 11
2035.3713110461169
 21
3559.3410748066581
 31
0.0
  0
LINE
  5
8304
  8
3
 62
     0
 10
875.37131104611751
 20
2161.295595788592
 30
0.0
 11
875.37131104611774
 21
3559.3410748066581
 31
0.0
  0
LINE
  5
8305
  8
3
 62
     0
 10
1985.3713110461169
 20
3534.341074806659
 30
0.0
 11
925.37131104611774
 21
3534.341074806659
 31
0.0
  0
INSERT
  5
8306
  8
3
 62
     0
  2
_OPEN
 10
2035.3713110461169
 20
3534.341074806659
 30
0.0
 41
50.0
 42
50.0
 43
50.0
  0
INSERT
  5
8307
  8
3
 62
     0
  2
_OPEN
 10
875.37131104611774
 20
3534.341074806659
 30
0.0
 41
50.0
 42
50.0
 43
50.0
 50
180.0
  0
TEXT
  8
3
  40
75
  5
83B4
  62
0
  72
0
  71
0
 10
1305.37
 20
3464.09
 30
0.000000
  1
1160
  0
POINT
  5
8309
  8
DEFPOINTS
 62
     0
 10
2035.3713110461169
 20
3233.795595788592
 30
0.0
  0
POINT
  5
830A
  8
DEFPOINTS
 62
     0
 10
875.37131104611751
 20
2148.795595788592
 30
0.0
  0
POINT
  5
830B
  8
DEFPOINTS
 62
     0
 10
875.37131104611774
 20
3534.341074806659
 30
0.0
  0
ENDBLK
  5
7EB1
  8
0
  0
BLOCK
  8
0
  2
*D1
 70
     1
 10
0.0
 20
0.0
 30
0.0
  3
*D1
  1

  0
LINE
  5
830C
  8
3
 62
     0
 10
1575.3713110461169
 20
3269.8464800564739
 30
0.0
 11
1575.3713110461169
 21
3408.6693209045789
 31
0.0
  0
LINE
  5
830D
  8
3
 62
     0
 10
1029.580773846382
 20
2526.295595788592
 30
0.0
 11
1029.580773846382
 21
3408.6693209045789
 31
0.0
  0
LINE
  5
830E
  8
3
 62
     0
 10
1525.3713110461169
 20
3383.6693209045789
 30
0.0
 11
1079.580773846382
 21
3383.6693209045789
 31
0.0
  0
INSERT
  5
830F
  8
3
 62
     0
  2
_OPEN
 10
1575.3713110461169
 20
3383.6693209045789
 30
0.0
 41
50.0
 42
50.0
 43
50.0
  0
INSERT
  5
8310
  8
3
 62
     0
  2
_OPEN
 10
1029.580773846382
 20
3383.6693209045789
 30
0.0
 41
50.0
 42
50.0
 43
50.0
 50
180.0
  0
TEXT
  8
3
  40
75
  5
83B5
  62
0
  72
0
  71
0
 10
1152.48
 20
3313.42
 30
0.000000
  1
548
  0
POINT
  5
8312
  8
DEFPOINTS
 62
     0
 10
1575.3713110461169
 20
3257.3464800564739
 30
0.0
  0
POINT
  5
8313
  8
DEFPOINTS
 62
     0
 10
1029.580773846382
 20
2513.795595788592
 30
0.0
  0
POINT
  5
8314
  8
DEFPOINTS
 62
     0
 10
1029.580773846382
 20
3383.6693209045789
 30
0.0
  0
ENDBLK
  5
7EC7
  8
0
  0
BLOCK
  8
0
  2
*D2
 70
     1
 10
0.0
 20
0.0
 30
0.0
  3
*D2
  1

  0
LINE
  5
8315
  8
3
 62
     0
 10
895.37131104611763
 20
1801.295595788592
 30
0.0
 11
895.37131104611763
 21
1610.75042639298
 31
0.0
  0
LINE
  5
8316
  8
3
 62
     0
 10
1575.3713110461169
 20
1801.295595788592
 30
0.0
 11
1575.3713110461169
 21
1610.75042639298
 31
0.0
  0
LINE
  5
8317
  8
3
 62
     0
 10
945.37131104611763
 20
1635.75042639298
 30
0.0
 11
1525.3713110461169
 21
1635.75042639298
 31
0.0
  0
INSERT
  5
8318
  8
3
 62
     0
  2
_OPEN
 10
895.37131104611763
 20
1635.75042639298
 30
0.0
 41
50.0
 42
50.0
 43
50.0
 50
180.0
  0
INSERT
  5
8319
  8
3
 62
     0
  2
_OPEN
 10
1575.3713110461169
 20
1635.75042639298
 30
0.0
 41
50.0
 42
50.0
 43
50.0
  0
TEXT
  8
3
  40
75
  5
83B6
  62
0
  72
0
  71
0
 10
1085.37
 20
1565.50
 30
0.000000
  1
680
  0
POINT
  5
831B
  8
DEFPOINTS
 62
     0
 10
895.37131104611763
 20
1813.795595788592
 30
0.0
  0
POINT
  5
831C
  8
DEFPOINTS
 62
     0
 10
1575.3713110461169
 20
1813.795595788592
 30
0.0
  0
POINT
  5
831D
  8
DEFPOINTS
 62
     0
 10
1575.3713110461169
 20
1635.75042639298
 30
0.0
  0
ENDBLK
  5
8242
  8
0
  0
BLOCK
  8
0
  2
*D3
 70
     1
 10
0.0
 20
0.0
 30
0.0
  3
*D3
  1

  0
LINE
  5
831E
  8
3
 62
     0
 10
1987.8713110461169
 20
1813.795595788592
 30
0.0
 11
2582.7113444981392
 21
1813.795595788592
 31
0.0
  0
LINE
  5
831F
  8
3
 62
     0
 10
2047.8713110461169
 20
3233.795595788592
 30
0.0
 11
2582.7113444981401
 21
3233.795595788592
 31
0.0
  0
LINE
  5
8320
  8
3
 62
     0
 10
2557.7113444981401
 20
1863.795595788592
 30
0.0
 11
2557.7113444981401
 21
3183.795595788592
 31
0.0
  0
INSERT
  5
8321
  8
3
 62
     0
  2
_OPEN
 10
2557.7113444981401
 20
1813.795595788592
 30
0.0
 41
50.0
 42
50.0
 43
50.0
 50
270.0
  0
INSERT
  5
8322
  8
3
 62
     0
  2
_OPEN
 10
2557.7113444981401
 20
3233.795595788592
 30
0.0
 41
50.0
 42
50.0
 43
50.0
 50
90.0
  0
TEXT
  8
3
  40
75
  5
83B7
  62
0
  72
0
  71
0
 10
2345.21
 20
2391.05
 30
0.000000
  1
1420
  0
POINT
  5
8324
  8
DEFPOINTS
 62
     0
 10
1975.3713110461169
 20
1813.795595788592
 30
0.0
  0
POINT
  5
8325
  8
DEFPOINTS
 62
     0
 10
2035.3713110461169
 20
3233.795595788592
 30
0.0
  0
POINT
  5
8326
  8
DEFPOINTS
 62
     0
 10
2557.7113444981401
 20
3233.795595788592
 30
0.0
  0
ENDBLK
  5
827B
  8
0
  0
BLOCK
  8
0
  2
*D4
 70
     1
 10
0.0
 20
0.0
 30
0.0
  3
*D4
  1

  0
LINE
  5
8327
  8
3
 62
     0
 10
2101.5138716036208
 20
2513.795595788592
 30
0.0
 11
2360.8484591246538
 21
2513.795595788592
 31
0.0
  0
LINE
  5
8328
  8
3
 62
     0
 10
1987.8713110461169
 20
2008.795595788592
 30
0.0
 11
2360.8484591246538
 21
2008.795595788592
 31
0.0
  0
LINE
  5
8329
  8
3
 62
     0
 10
2335.8484591246538
 20
2463.795595788592
 30
0.0
 11
2335.8484591246538
 21
2058.795595788592
 31
0.0
  0
INSERT
  5
832A
  8
3
 62
     0
  2
_OPEN
 10
2335.8484591246538
 20
2513.795595788592
 30
0.0
 41
50.0
 42
50.0
 43
50.0
 50
90.0
  0
INSERT
  5
832B
  8
3
 62
     0
  2
_OPEN
 10
2335.8484591246538
 20
2008.795595788592
 30
0.0
 41
50.0
 42
50.0
 43
50.0
 50
270.0
  0
TEXT
  8
3
  40
75
  5
83B8
  62
0
  72
0
  71
0
 10
2123.35
 20
2128.55
 30
0.000000
  1
505
  0
POINT
  5
832D
  8
DEFPOINTS
 62
     0
 10
2089.0138716036199
 20
2513.795595788592
 30
0.0
  0
POINT
  5
832E
  8
DEFPOINTS
 62
     0
 10
1975.3713110461169
 20
2008.795595788592
 30
0.0
  0
POINT
  5
832F
  8
DEFPOINTS
 62
     0
 10
2335.8484591246538
 20
2008.795595788592
 30
0.0
  0
ENDBLK
  5
7EDD
  8
0
  0
BLOCK
  8
0
  2
*D5
 70
     1
 10
0.0
 20
0.0
 30
0.0
  3
*D5
  1

  0
LINE
  5
8330
  8
3
 62
     0
 10
1575.3713110461169
 20
1801.295595788592
 30
0.0
 11
1575.3713110461169
 21
1610.75042639298
 31
0.0
  0
LINE
  5
8331
  8
3
 62
     0
 10
1975.3713110461169
 20
1801.295595788592
 30
0.0
 11
1975.3713110461169
 21
1610.75042639298
 31
0.0
  0
LINE
  5
8332
  8
3
 62
     0
 10
1625.3713110461169
 20
1635.75042639298
 30
0.0
 11
1925.3713110461169
 21
1635.75042639298
 31
0.0
  0
INSERT
  5
8333
  8
3
 62
     0
  2
_OPEN
 10
1575.3713110461169
 20
1635.75042639298
 30
0.0
 41
50.0
 42
50.0
 43
50.0
 50
180.0
  0
INSERT
  5
8334
  8
3
 62
     0
  2
_OPEN
 10
1975.3713110461169
 20
1635.75042639298
 30
0.0
 41
50.0
 42
50.0
 43
50.0
  0
TEXT
  8
3
  40
75
  5
83B9
  62
0
  72
0
  71
0
 10
1625.37
 20
1565.50
 30
0.000000
  1
400
  0
POINT
  5
8336
  8
DEFPOINTS
 62
     0
 10
1575.3713110461169
 20
1813.795595788592
 30
0.0
  0
POINT
  5
8337
  8
DEFPOINTS
 62
     0
 10
1975.3713110461169
 20
1813.795595788592
 30
0.0
  0
POINT
  5
8338
  8
DEFPOINTS
 62
     0
 10
1975.3713110461169
 20
1635.75042639298
 30
0.0
  0
ENDBLK
  5
824D
  8
0
  0
BLOCK
  8
0
  2
*D6
 70
     1
 10
0.0
 20
0.0
 30
0.0
  3
*D6
  1

  0
LINE
  5
8339
  8
3
 62
     0
 10
2035.3713110461169
 20
3246.295595788592
 30
0.0
 11
2035.3713110461169
 21
3408.6693209045789
 31
0.0
  0
LINE
  5
833A
  8
3
 62
     0
 10
1575.3713110461169
 20
3269.8464800564739
 30
0.0
 11
1575.3713110461169
 21
3408.6693209045789
 31
0.0
  0
LINE
  5
833B
  8
3
 62
     0
 10
1985.3713110461169
 20
3383.6693209045789
 30
0.0
 11
1625.3713110461169
 21
3383.6693209045789
 31
0.0
  0
INSERT
  5
833C
  8
3
 62
     0
  2
_OPEN
 10
2035.3713110461169
 20
3383.6693209045789
 30
0.0
 41
50.0
 42
50.0
 43
50.0
  0
INSERT
  5
833D
  8
3
 62
     0
  2
_OPEN
 10
1575.3713110461169
 20
3383.6693209045789
 30
0.0
 41
50.0
 42
50.0
 43
50.0
 50
180.0
  0
TEXT
  8
3
  40
75
  5
83BA
  62
0
  72
0
  71
0
 10
1655.37
 20
3313.42
 30
0.000000
  1
460
  0
POINT
  5
833F
  8
DEFPOINTS
 62
     0
 10
2035.3713110461169
 20
3233.795595788592
 30
0.0
  0
POINT
  5
8340
  8
DEFPOINTS
 62
     0
 10
1575.3713110461169
 20
3257.3464800564739
 30
0.0
  0
POINT
  5
8341
  8
DEFPOINTS
 62
     0
 10
1575.3713110461169
 20
3383.6693209045789
 30
0.0
  0
ENDBLK
  5
7EF3
  8
0
  0
BLOCK
  8
0
  2
*D7
 70
     1
 10
0.0
 20
0.0
 30
0.0
  3
*D7
  1

  0
LINE
  5
8342
  8
3
 62
     0
 10
2047.8713110461169
 20
3191.795595788592
 30
0.0
 11
2360.8484591246552
 21
3191.795595788592
 31
0.0
  0
LINE
  5
8343
  8
3
 62
     0
 10
2101.5138716036208
 20
2513.795595788592
 30
0.0
 11
2360.8484591246538
 21
2513.795595788592
 31
0.0
  0
LINE
  5
8344
  8
3
 62
     0
 10
2335.8484591246538
 20
3141.795595788592
 30
0.0
 11
2335.8484591246538
 21
2563.795595788592
 31
0.0
  0
INSERT
  5
8345
  8
3
 62
     0
  2
_OPEN
 10
2335.8484591246538
 20
3191.795595788592
 30
0.0
 41
50.0
 42
50.0
 43
50.0
 50
90.0
  0
INSERT
  5
8346
  8
3
 62
     0
  2
_OPEN
 10
2335.8484591246538
 20
2513.795595788592
 30
0.0
 41
50.0
 42
50.0
 43
50.0
 50
270.0
  0
TEXT
  8
3
  40
75
  5
83BB
  62
0
  72
0
  71
0
 10
2123.35
 20
2720.05
 30
0.000000
  1
678
  0
POINT
  5
8348
  8
DEFPOINTS
 62
     0
 10
2035.3713110461169
 20
3191.795595788592
 30
0.0
  0
POINT
  5
8349
  8
DEFPOINTS
 62
     0
 10
2089.0138716036199
 20
2513.795595788592
 30
0.0
  0
POINT
  5
834A
  8
DEFPOINTS
 62
     0
 10
2335.8484591246538
 20
2513.795595788592
 30
0.0
  0
ENDBLK
  5
7F09
  8
0
  0
BLOCK
  8
0
  2
*D8
 70
     1
 10
0.0
 20
0.0
 30
0.0
  3
*D8
  1

  0
LINE
  5
834B
  8
3
 62
     0
 10
2047.8713110461169
 20
3191.795595788592
 30
0.0
 11
2209.3208352123379
 21
3191.795595788592
 31
0.0
  0
LINE
  5
834C
  8
3
 62
     0
 10
2047.8713110461169
 20
2541.795595788592
 30
0.0
 11
2209.3208352123379
 21
2541.795595788592
 31
0.0
  0
LINE
  5
834D
  8
3
 62
     0
 10
2184.3208352123379
 20
3141.795595788592
 30
0.0
 11
2184.3208352123379
 21
2591.795595788592
 31
0.0
  0
INSERT
  5
834E
  8
3
 62
     0
  2
_OPEN
 10
2184.3208352123379
 20
3191.795595788592
 30
0.0
 41
50.0
 42
50.0
 43
50.0
 50
90.0
  0
INSERT
  5
834F
  8
3
 62
     0
  2
_OPEN
 10
2184.3208352123379
 20
2541.795595788592
 30
0.0
 41
50.0
 42
50.0
 43
50.0
 50
270.0
  0
TEXT
  8
3
  40
75
  5
83BC
  62
0
  72
0
  71
0
 10
1971.82
 20
2734.05
 30
0.000000
  1
650
  0
POINT
  5
8351
  8
DEFPOINTS
 62
     0
 10
2035.3713110461169
 20
3191.795595788592
 30
0.0
  0
POINT
  5
8352
  8
DEFPOINTS
 62
     0
 10
2035.3713110461169
 20
2541.795595788592
 30
0.0
  0
POINT
  5
8353
  8
DEFPOINTS
 62
     0
 10
2184.3208352123379
 20
2541.795595788592
 30
0.0
  0
ENDBLK
  5
7EFE
  8
0
  0
BLOCK
  8
0
  2
*D9
 70
     1
 10
0.0
 20
0.0
 30
0.0
  3
*D9
  1

  0
LINE
  5
8354
  8
3
 62
     0
 10
1825.3713110461169
 20
4138.0120844347966
 30
0.0
 11
1825.3713110461169
 21
3833.631408148764
 31
0.0
  0
LINE
  5
8355
  8
3
 62
     0
 10
895.37131104611763
 20
4138.0120844347966
 30
0.0
 11
895.37131104611763
 21
3833.631408148764
 31
0.0
  0
LINE
  5
8356
  8
3
 62
     0
 10
1775.3713110461169
 20
3858.631408148764
 30
0.0
 11
945.37131104611763
 21
3858.631408148764
 31
0.0
  0
INSERT
  5
8357
  8
3
 62
     0
  2
_OPEN
 10
1825.3713110461169
 20
3858.631408148764
 30
0.0
 41
50.0
 42
50.0
 43
50.0
  0
INSERT
  5
8358
  8
3
 62
     0
  2
_OPEN
 10
895.37131104611763
 20
3858.631408148764
 30
0.0
 41
50.0
 42
50.0
 43
50.0
 50
180.0
  0
TEXT
  8
3
  40
75
  5
83BD
  62
0
  72
0
  71
0
 10
1210.37
 20
3788.38
 30
0.000000
  1
930
  0
POINT
  5
835A
  8
DEFPOINTS
 62
     0
 10
1825.3713110461169
 20
4150.5120844347966
 30
0.0
  0
POINT
  5
835B
  8
DEFPOINTS
 62
     0
 10
895.37131104611763
 20
4150.5120844347966
 30
0.0
  0
POINT
  5
835C
  8
DEFPOINTS
 62
     0
 10
895.37131104611763
 20
3858.631408148764
 30
0.0
  0
ENDBLK
  5
817C
  8
0
  0
BLOCK
  8
0
  2
*D10
 70
     1
 10
0.0
 20
0.0
 30
0.0
  3
*D10
  1

  0
LINE
  5
835D
  8
3
 62
     0
 10
1175.3713110461169
 20
5363.0120844347985
 30
0.0
 11
1175.3713110461169
 21
5521.0859710385494
 31
0.0
  0
LINE
  5
835E
  8
3
 62
     0
 10
1975.3713110461169
 20
5363.0120844347985
 30
0.0
 11
1975.3713110461169
 21
5521.0859710385494
 31
0.0
  0
LINE
  5
835F
  8
3
 62
     0
 10
1225.3713110461169
 20
5496.0859710385494
 30
0.0
 11
1925.3713110461169
 21
5496.0859710385494
 31
0.0
  0
INSERT
  5
8360
  8
3
 62
     0
  2
_OPEN
 10
1175.3713110461169
 20
5496.0859710385494
 30
0.0
 41
50.0
 42
50.0
 43
50.0
 50
180.0
  0
INSERT
  5
8361
  8
3
 62
     0
  2
_OPEN
 10
1975.3713110461169
 20
5496.0859710385494
 30
0.0
 41
50.0
 42
50.0
 43
50.0
  0
TEXT
  8
3
  40
75
  5
83BE
  62
0
  72
0
  71
0
 10
1425.37
 20
5425.84
 30
0.000000
  1
800
  0
POINT
  5
8363
  8
DEFPOINTS
 62
     0
 10
1175.3713110461169
 20
5350.5120844347966
 30
0.0
  0
POINT
  5
8364
  8
DEFPOINTS
 62
     0
 10
1975.3713110461169
 20
5350.5120844347966
 30
0.0
  0
POINT
  5
8365
  8
DEFPOINTS
 62
     0
 10
1975.3713110461169
 20
5496.0859710385494
 30
0.0
  0
ENDBLK
  5
814E
  8
0
  0
BLOCK
  8
0
  2
*D11
 70
     1
 10
0.0
 20
0.0
 30
0.0
  3
*D11
  1

  0
LINE
  5
8366
  8
3
 62
     0
 10
882.87131104611763
 20
4150.5120844347966
 30
0.0
 11
721.94213943467537
 21
4150.5120844347966
 31
0.0
  0
LINE
  5
8367
  8
3
 62
     0
 10
882.87131104611763
 20
4814.5120844347985
 30
0.0
 11
721.94213943467537
 21
4814.5120844347985
 31
0.0
  0
LINE
  5
8368
  8
3
 62
     0
 10
746.94213943467537
 20
4200.5120844347966
 30
0.0
 11
746.94213943467537
 21
4764.5120844347966
 31
0.0
  0
INSERT
  5
8369
  8
3
 62
     0
  2
_OPEN
 10
746.94213943467537
 20
4150.5120844347966
 30
0.0
 41
50.0
 42
50.0
 43
50.0
 50
270.0
  0
INSERT
  5
836A
  8
3
 62
     0
  2
_OPEN
 10
746.94213943467537
 20
4814.5120844347985
 30
0.0
 41
50.0
 42
50.0
 43
50.0
 50
90.0
  0
TEXT
  8
3
  40
75
  5
83BF
  62
0
  72
0
  71
0
 10
534.442
 20
4349.76
 30
0.000000
  1
664
  0
POINT
  5
836C
  8
DEFPOINTS
 62
     0
 10
895.37131104611763
 20
4150.5120844347966
 30
0.0
  0
POINT
  5
836D
  8
DEFPOINTS
 62
     0
 10
895.37131104611763
 20
4814.5120844347985
 30
0.0
  0
POINT
  5
836E
  8
DEFPOINTS
 62
     0
 10
746.94213943467537
 20
4814.5120844347985
 30
0.0
  0
ENDBLK
  5
8171
  8
0
  0
BLOCK
  8
0
  2
*D12
 70
     1
 10
0.0
 20
0.0
 30
0.0
  3
*D12
  1

  0
LINE
  5
81A8
  8
0
  6
BYBLOCK
 62
     0
 10
825.97053967076124
 20
5363.0120844347985
 30
0.0
 11
825.97053967076124
 21
5521.0859710385494
 31
0.0
  0
LINE
  5
81A9
  8
0
  6
BYBLOCK
 62
     0
 10
545.97053967076135
 20
4827.0120844347985
 30
0.0
 11
545.97053967076135
 21
5521.0859710385494
 31
0.0
  0
LINE
  5
81AA
  8
0
  6
BYBLOCK
 62
     0
 10
775.97053967076135
 20
5496.0859710385494
 30
0.0
 11
595.97053967076135
 21
5496.0859710385494
 31
0.0
  0
TEXT
  5
81AB
  8
3
 62
     0
 10
588.14854661439051
 20
5519.206121622552
 30
0.0
 40
75.0
  1
280
  0
INSERT
  5
81AC
  8
0
  6
BYBLOCK
 62
     0
  2
_OPEN
 10
825.97053967076124
 20
5496.0859710385494
 30
0.0
 41
50.0
 42
50.0
 43
50.0
  0
INSERT
  5
81AD
  8
0
  6
BYBLOCK
 62
     0
  2
_OPEN
 10
545.97053967076135
 20
5496.0859710385494
 30
0.0
 41
50.0
 42
50.0
 43
50.0
 50
180.0
  0
POINT
  5
81AE
  8
DEFPOINTS
  6
BYBLOCK
 62
     0
 10
825.97053967076124
 20
5350.5120844347966
 30
0.0
  0
POINT
  5
81AF
  8
DEFPOINTS
  6
BYBLOCK
 62
     0
 10
545.97053967076135
 20
4814.5120844347985
 30
0.0
  0
POINT
  5
81B0
  8
DEFPOINTS
  6
BYBLOCK
 62
     0
 10
545.97053967076135
 20
5496.0859710385494
 30
0.0
  0
ENDBLK
  5
81B1
  8
0
  0
BLOCK
  8
0
  2
*D13
 70
     1
 10
0.0
 20
0.0
 30
0.0
  3
*D13
  1

  0
LINE
  5
836F
  8
3
 62
     0
 10
1987.8713110461169
 20
5350.5120844347966
 30
0.0
 11
2209.825113906842
 21
5350.5120844347966
 31
0.0
  0
LINE
  5
8370
  8
3
 62
     0
 10
1837.8713110461169
 20
4150.5120844347966
 30
0.0
 11
2209.8251139068411
 21
4150.5120844347957
 31
0.0
  0
LINE
  5
8371
  8
3
 62
     0
 10
2184.825113906842
 20
5300.5120844347966
 30
0.0
 11
2184.8251139068411
 21
4200.5120844347957
 31
0.0
  0
INSERT
  5
8372
  8
3
 62
     0
  2
_OPEN
 10
2184.825113906842
 20
5350.5120844347966
 30
0.0
 41
50.0
 42
50.0
 43
50.0
 50
90.0
  0
INSERT
  5
8373
  8
3
 62
     0
  2
_OPEN
 10
2184.8251139068411
 20
4150.5120844347957
 30
0.0
 41
50.0
 42
50.0
 43
50.0
 50
270.0
  0
TEXT
  8
3
  40
75
  5
83C0
  62
0
  72
0
  71
0
 10
1972.33
 20
4617.76
 30
0.000000
  1
1200
  0
POINT
  5
8375
  8
DEFPOINTS
 62
     0
 10
1975.3713110461169
 20
5350.5120844347966
 30
0.0
  0
POINT
  5
8376
  8
DEFPOINTS
 62
     0
 10
1825.3713110461169
 20
4150.5120844347966
 30
0.0
  0
POINT
  5
8377
  8
DEFPOINTS
 62
     0
 10
2184.8251139068411
 20
4150.5120844347957
 30
0.0
  0
ENDBLK
  5
8187
  8
0
  0
BLOCK
  8
0
  2
*D14
 70
     1
 10
0.0
 20
0.0
 30
0.0
  3
*D14
  1

  0
LINE
  5
8378
  8
3
 62
     0
 10
1825.3713110461169
 20
4138.0120844347966
 30
0.0
 11
1825.3713110461169
 21
3833.631408148764
 31
0.0
  0
LINE
  5
8379
  8
3
 62
     0
 10
1975.3713110461169
 20
4752.0120844347985
 30
0.0
 11
1975.3713110461169
 21
3833.631408148764
 31
0.0
  0
LINE
  5
837A
  8
3
 62
     0
 10
1875.3713110461169
 20
3858.631408148764
 30
0.0
 11
1925.3713110461169
 21
3858.631408148764
 31
0.0
  0
LINE
  5
837B
  8
3
 62
     0
 10
1975.3713110461169
 20
3858.631408148764
 30
0.0
 11
2253.9427396175461
 21
3858.631408148764
 31
0.0
  0
INSERT
  5
837C
  8
3
 62
     0
  2
_OPEN
 10
1825.3713110461169
 20
3858.631408148764
 30
0.0
 41
50.0
 42
50.0
 43
50.0
 50
180.0
  0
INSERT
  5
837D
  8
3
 62
     0
  2
_OPEN
 10
1975.3713110461169
 20
3858.631408148764
 30
0.0
 41
50.0
 42
50.0
 43
50.0
  0
TEXT
  8
3
  40
75
  5
83C1
  62
0
  72
0
  71
0
 10
1989.66
 20
3788.38
 30
0.000000
  1
150
  0
POINT
  5
837F
  8
DEFPOINTS
 62
     0
 10
1825.3713110461169
 20
4150.5120844347966
 30
0.0
  0
POINT
  5
8380
  8
DEFPOINTS
 62
     0
 10
1975.3713110461169
 20
4764.5120844347966
 30
0.0
  0
POINT
  5
8381
  8
DEFPOINTS
 62
     0
 10
1975.3713110461169
 20
3858.631408148764
 30
0.0
  0
ENDBLK
  5
8194
  8
0
  0
BLOCK
  8
0
  2
*D15
 70
     1
 10
0.0
 20
0.0
 30
0.0
  3
*D15
  1

  0
LINE
  5
8382
  8
3
 62
     0
 10
2976.7605798106342
 20
2676.2955957885929
 30
0.0
 11
2976.7605798106342
 21
3611.3572101312411
 31
0.0
  0
LINE
  5
8383
  8
3
 62
     0
 10
4021.7605798106342
 20
3481.1745734818642
 30
0.0
 11
4021.7605798106342
 21
3611.3572101312411
 31
0.0
  0
LINE
  5
8384
  8
3
 62
     0
 10
3026.7605798106342
 20
3586.3572101312411
 30
0.0
 11
3971.7605798106342
 21
3586.3572101312411
 31
0.0
  0
INSERT
  5
8385
  8
3
 62
     0
  2
_OPEN
 10
2976.7605798106342
 20
3586.3572101312411
 30
0.0
 41
50.0
 42
50.0
 43
50.0
 50
180.0
  0
INSERT
  5
8386
  8
3
 62
     0
  2
_OPEN
 10
4021.7605798106342
 20
3586.3572101312411
 30
0.0
 41
50.0
 42
50.0
 43
50.0
  0
TEXT
  8
3
  40
75
  5
83C2
  62
0
  72
0
  71
0
 10
3349.26
 20
3578.61
 30
0.000000
  1
MAX
  0
TEXT
  8
3
  40
75
  5
83C3
  62
0
  72
0
  71
0
 10
3349.26
 20
3481.11
 30
0.000000
  1
1070
  0
POINT
  5
8388
  8
DEFPOINTS
 62
     0
 10
2976.7605798106342
 20
2663.7955957885929
 30
0.0
  0
POINT
  5
8389
  8
DEFPOINTS
 62
     0
 10
4021.7605798106342
 20
3468.6745734818642
 30
0.0
  0
POINT
  5
838A
  8
DEFPOINTS
 62
     0
 10
4021.7605798106342
 20
3586.3572101312411
 30
0.0
  0
ENDBLK
  5
81ED
  8
0
  0
BLOCK
  8
0
  2
*D16
 70
     1
 10
0.0
 20
0.0
 30
0.0
  3
*D16
  1

  0
LINE
  5
838B
  8
3
 62
     0
 10
3114.7605798106342
 20
1801.295595788592
 30
0.0
 11
3114.7605798106342
 21
1598.724182044908
 31
0.0
  0
LINE
  5
838C
  8
3
 62
     0
 10
4021.7605798106342
 20
1801.295595788592
 30
0.0
 11
4021.7605798106342
 21
1598.724182044908
 31
0.0
  0
LINE
  5
838D
  8
3
 62
     0
 10
3164.7605798106342
 20
1623.724182044908
 30
0.0
 11
3971.7605798106342
 21
1623.724182044908
 31
0.0
  0
INSERT
  5
838E
  8
3
 62
     0
  2
_OPEN
 10
3114.7605798106342
 20
1623.724182044908
 30
0.0
 41
50.0
 42
50.0
 43
50.0
 50
180.0
  0
INSERT
  5
838F
  8
3
 62
     0
  2
_OPEN
 10
4021.7605798106342
 20
1623.724182044908
 30
0.0
 41
50.0
 42
50.0
 43
50.0
  0
TEXT
  8
3
  40
75
  5
83C4
  62
0
  72
0
  71
0
 10
3418.26
 20
1553.47
 30
0.000000
  1
907
  0
POINT
  5
8391
  8
DEFPOINTS
 62
     0
 10
3114.7605798106342
 20
1813.795595788592
 30
0.0
  0
POINT
  5
8392
  8
DEFPOINTS
 62
     0
 10
4021.7605798106342
 20
1813.795595788592
 30
0.0
  0
POINT
  5
8393
  8
DEFPOINTS
 62
     0
 10
4021.7605798106342
 20
1623.724182044908
 30
0.0
  0
ENDBLK
  5
822C
  8
0
  0
BLOCK
  8
0
  2
*D17
 70
     1
 10
0.0
 20
0.0
 30
0.0
  3
*D17
  1

  0
LINE
  5
822E
  8
0
  6
BYBLOCK
 62
     0
 10
3759.710008660044
 20
1858.295595788592
 30
0.0
 11
3759.710008660044
 21
1655.724182044908
 31
0.0
  0
LINE
  5
822F
  8
0
  6
BYBLOCK
 62
     0
 10
4052.710008660044
 20
1858.295595788592
 30
0.0
 11
4052.710008660044
 21
1655.724182044908
 31
0.0
  0
LINE
  5
8230
  8
0
  6
BYBLOCK
 62
     0
 10
3809.710008660044
 20
1680.724182044908
 30
0.0
 11
4002.710008660044
 21
1680.724182044908
 31
0.0
  0
TEXT
  5
8231
  8
3
 62
     0
 10
3807.5230127346481
 20
1705.267825628641
 30
0.0
 40
75.0
  1
293
  0
INSERT
  5
8232
  8
0
  6
BYBLOCK
 62
     0
  2
_OPEN
 10
3759.710008660044
 20
1680.724182044908
 30
0.0
 41
50.0
 42
50.0
 43
50.0
 50
180.0
  0
INSERT
  5
8233
  8
0
  6
BYBLOCK
 62
     0
  2
_OPEN
 10
4052.710008660044
 20
1680.724182044908
 30
0.0
 41
50.0
 42
50.0
 43
50.0
  0
POINT
  5
8234
  8
DEFPOINTS
  6
BYBLOCK
 62
     0
 10
3759.710008660044
 20
1870.795595788592
 30
0.0
  0
POINT
  5
8235
  8
DEFPOINTS
  6
BYBLOCK
 62
     0
 10
4052.710008660044
 20
1870.795595788592
 30
0.0
  0
POINT
  5
8236
  8
DEFPOINTS
  6
BYBLOCK
 62
     0
 10
4052.710008660044
 20
1680.724182044908
 30
0.0
  0
ENDBLK
  5
8237
  8
0
  0
BLOCK
  8
0
  2
*D18
 70
     1
 10
0.0
 20
0.0
 30
0.0
  3
*D18
  1

  0
LINE
  5
8394
  8
3
 62
     0
 10
3784.2605798106342
 20
3204.795595788592
 30
0.0
 11
3784.2605798106342
 21
3381.0333875568199
 31
0.0
  0
LINE
  5
8395
  8
3
 62
     0
 10
4259.2605798106342
 20
3204.795595788592
 30
0.0
 11
4259.2605798106342
 21
3381.0333875568199
 31
0.0
  0
LINE
  5
8396
  8
3
 62
     0
 10
3834.2605798106342
 20
3356.0333875568199
 30
0.0
 11
4209.2605798106342
 21
3356.0333875568199
 31
0.0
  0
INSERT
  5
8397
  8
3
 62
     0
  2
_OPEN
 10
3784.2605798106342
 20
3356.0333875568199
 30
0.0
 41
50.0
 42
50.0
 43
50.0
 50
180.0
  0
INSERT
  5
8398
  8
3
 62
     0
  2
_OPEN
 10
4259.2605798106342
 20
3356.0333875568199
 30
0.0
 41
50.0
 42
50.0
 43
50.0
  0
TEXT
  8
3
  40
75
  5
83C5
  62
0
  72
0
  71
0
 10
3871.76
 20
3285.78
 30
0.000000
  1
475
  0
POINT
  5
839A
  8
DEFPOINTS
 62
     0
 10
3784.2605798106342
 20
3192.295595788592
 30
0.0
  0
POINT
  5
839B
  8
DEFPOINTS
 62
     0
 10
4259.2605798106342
 20
3192.295595788592
 30
0.0
  0
POINT
  5
839C
  8
DEFPOINTS
 62
     0
 10
4259.2605798106342
 20
3356.0333875568199
 30
0.0
  0
ENDBLK
  5
7FB4
  8
0
  0
BLOCK
  8
0
  2
_OPEN
 70
     0
 10
0.0
 20
0.0
 30
0.0
  3
_OPEN
  1

  0
LINE
  5
7E98
  8
0
  6
BYBLOCK
 62
     0
 10
-1.0
 20
0.1666666666666666
 30
0.0
 11
0.0
 21
0.0
 31
0.0
  0
LINE
  5
7E99
  8
0
  6
BYBLOCK
 62
     0
 10
0.0
 20
0.0
 30
0.0
 11
-1.0
 21
-0.1666666666666666
 31
0.0
  0
LINE
  5
7E9A
  8
0
  6
BYBLOCK
 62
     0
 10
0.0
 20
0.0
 30
0.0
 11
-1.0
 21
0.0
 31
0.0
  0
ENDBLK
  5
7E9B
  8
0
  0
BLOCK
  8
0
  2
*D20
 70
     1
 10
0.0
 20
0.0
 30
0.0
  3
*D20
  1

  0
LINE
  5
839D
  8
3
 62
     0
 10
1987.8713110461169
 20
1913.795595788592
 30
0.0
 11
2360.8484591246538
 21
1913.795595788592
 31
0.0
  0
LINE
  5
839E
  8
3
 62
     0
 10
1987.8713110461169
 20
1813.795595788592
 30
0.0
 11
2360.8484591246538
 21
1813.795595788592
 31
0.0
  0
LINE
  5
839F
  8
3
 62
     0
 10
2335.8484591246538
 20
1963.795595788592
 30
0.0
 11
2335.8484591246538
 21
2013.795595788592
 31
0.0
  0
LINE
  5
83A0
  8
3
 62
     0
 10
2335.8484591246538
 20
1763.795595788592
 30
0.0
 11
2335.8484591246538
 21
1485.224167217164
 31
0.0
  0
LINE
  5
83A1
  8
3
 62
     0
 10
2335.8484591246538
 20
1913.795595788592
 30
0.0
 11
2335.8484591246538
 21
1813.795595788592
 31
0.0
  0
INSERT
  5
83A2
  8
3
 62
     0
  2
_DOT
 10
2335.8484591246538
 20
1913.795595788592
 30
0.0
 41
50.0
 42
50.0
 43
50.0
 50
270.0
  0
INSERT
  5
83A3
  8
3
 62
     0
  2
_OPEN
 10
2335.8484591246538
 20
1813.795595788592
 30
0.0
 41
50.0
 42
50.0
 43
50.0
 50
90.0
  0
TEXT
  8
3
  40
75
  5
83C6
  62
0
  72
0
  71
0
 10
2123.35
 20
1466.76
 30
0.000000
  1
100
  0
POINT
  5
83A5
  8
DEFPOINTS
 62
     0
 10
1975.3713110461169
 20
1913.795595788592
 30
0.0
  0
POINT
  5
83A6
  8
DEFPOINTS
 62
     0
 10
1975.3713110461169
 20
1813.795595788592
 30
0.0
  0
POINT
  5
83A7
  8
DEFPOINTS
 62
     0
 10
2335.8484591246538
 20
1813.795595788592
 30
0.0
  0
ENDBLK
  5
8270
  8
0
  0
BLOCK
  8
0
  2
_DOT
 70
     0
 10
0.0
 20
0.0
 30
0.0
  3
_DOT
  1

  0
LINE
  5
81B2
  8
0
  6
BYBLOCK
 62
     0
 10
0.0
 20
0.0
 30
0.0
 11
-1.0
 21
-0.0000000000000284
 31
0.0
  0
POLYLINE
  5
81B3
  8
0
  6
BYBLOCK
 62
     0
 66
     1
 10
0.0
 20
0.0
 30
0.0
 70
     1
 40
0.1666666666666666
 41
0.1666666666666666
  0
VERTEX
  5
83A8
  8
0
  6
BYBLOCK
 62
     0
 10
-0.0833333333333286
 20
-0.0000000000000284
 30
0.0
 42
1.0
  0
VERTEX
  5
83A9
  8
0
  6
BYBLOCK
 62
     0
 10
0.0833333333333286
 20
-0.0000000000000284
 30
0.0
 42
1.0
  0
SEQEND
  5
83AA
  8
0
  6
BYBLOCK
 62
     0
  0
ENDBLK
  5
8009
  8
0
  0
BLOCK
  8
0
  2
*D22
 70
     1
 10
0.0
 20
0.0
 30
0.0
  3
*D22
  1

  0
LINE
  5
8217
  8
0
  6
BYBLOCK
 62
     0
 10
4000.6676053061901
 20
2840.4812226390732
 30
0.0
 11
4000.6676053061901
 21
3611.3572101312411
 31
0.0
  0
LINE
  5
8218
  8
0
  6
BYBLOCK
 62
     0
 10
3809.710008660044
 20
3586.3572101312411
 30
0.0
 11
3950.6676053061892
 21
3586.3572101312411
 31
0.0
  0
TEXT
  5
8219
  8
3
 62
     0
 10
3799.8316641259739
 20
3648.8572101312411
 30
0.0
 40
75.0
  1
241
  0
INSERT
  5
821A
  8
0
  6
BYBLOCK
 62
     0
  2
_OPEN
 10
3759.710008660044
 20
3586.3572101312411
 30
0.0
 41
50.0
 42
50.0
 43
50.0
 50
180.0
  0
INSERT
  5
821B
  8
0
  6
BYBLOCK
 62
     0
  2
_OPEN
 10
4000.6676053061901
 20
3586.3572101312411
 30
0.0
 41
50.0
 42
50.0
 43
50.0
  0
POINT
  5
821C
  8
DEFPOINTS
  6
BYBLOCK
 62
     0
 10
3759.710008660044
 20
3468.6745734818642
 30
0.0
  0
POINT
  5
821D
  8
DEFPOINTS
  6
BYBLOCK
 62
     0
 10
4000.6676053061901
 20
2827.9812226390732
 30
0.0
  0
POINT
  5
821E
  8
DEFPOINTS
  6
BYBLOCK
 62
     0
 10
4000.6676053061901
 20
3586.3572101312411
 30
0.0
  0
ENDBLK
  5
821F
  8
0
  0
BLOCK
  8
0
  2
*D23
 70
     1
 10
0.0
 20
0.0
 30
0.0
  3
*D23
  1

  0
LINE
  5
82B3
  8
0
  6
BYBLOCK
 62
     0
 10
1638.4705396707609
 20
1913.795595788592
 30
0.0
 11
2011.4476877492971
 21
1913.795595788592
 31
0.0
  0
LINE
  5
82B4
  8
0
  6
BYBLOCK
 62
     0
 10
1986.4476877492971
 20
2058.795595788592
 30
0.0
 11
1986.4476877492971
 21
2108.795595788592
 31
0.0
  0
LINE
  5
82B5
  8
0
  6
BYBLOCK
 62
     0
 10
1986.4476877492971
 20
1863.795595788592
 30
0.0
 11
1986.4476877492971
 21
1813.795595788592
 31
0.0
  0
TEXT
  5
82B6
  8
3
 62
     0
 10
2131.0905448921549
 20
1852.3670243600211
 30
0.0
 40
75.0
  1
(95)
 50
90.0
  0
LINE
  5
82B7
  8
0
  6
BYBLOCK
 62
     0
 10
1986.4476877492971
 20
2008.795595788592
 30
0.0
 11
1986.4476877492971
 21
1913.795595788592
 31
0.0
  0
INSERT
  5
82B8
  8
0
  6
BYBLOCK
 62
     0
  2
_OPEN
 10
1986.4476877492971
 20
2008.795595788592
 30
0.0
 41
50.0
 42
50.0
 43
50.0
 50
270.0
  0
INSERT
  5
82B9
  8
0
  6
BYBLOCK
 62
     0
  2
_DOT
 10
1986.4476877492971
 20
1913.795595788592
 30
0.0
 41
50.0
 42
50.0
 43
50.0
 50
90.0
  0
POINT
  5
82BA
  8
DEFPOINTS
  6
BYBLOCK
 62
     0
 10
1625.9705396707609
 20
2008.795595788592
 30
0.0
  0
POINT
  5
82BB
  8
DEFPOINTS
  6
BYBLOCK
 62
     0
 10
1625.9705396707609
 20
1913.795595788592
 30
0.0
  0
POINT
  5
82BC
  8
DEFPOINTS
  6
BYBLOCK
 62
     0
 10
1986.4476877492971
 20
1913.795595788592
 30
0.0
  0
ENDBLK
  5
82BD
  8
0
  0
BLOCK
  8
0
  2
*D24
 70
     1
 10
0.0
 20
0.0
 30
0.0
  3
*D24
  1

  0
LINE
  5
83AB
  8
3
 62
     0
 10
4271.7605798106342
 20
2848.795595788592
 30
0.0
 11
4507.8813581273444
 21
2848.795595788592
 31
0.0
  0
LINE
  5
83AC
  8
3
 62
     0
 10
4271.7605798106342
 20
2178.795595788592
 30
0.0
 11
4507.8813581273444
 21
2178.795595788592
 31
0.0
  0
LINE
  5
83AD
  8
3
 62
     0
 10
4482.8813581273434
 20
2798.7955957885911
 30
0.0
 11
4482.8813581273434
 21
2228.795595788592
 31
0.0
  0
INSERT
  5
83AE
  8
3
 62
     0
  2
_OPEN
 10
4482.8813581273434
 20
2848.795595788592
 30
0.0
 41
50.0
 42
50.0
 43
50.0
 50
90.0
  0
INSERT
  5
83AF
  8
3
 62
     0
  2
_OPEN
 10
4482.8813581273434
 20
2178.795595788592
 30
0.0
 41
50.0
 42
50.0
 43
50.0
 50
270.0
  0
TEXT
  8
3
  40
75
  5
83C7
  62
0
  72
0
  71
0
 10
4270.38
 20
2380.67
 30
0.000000
  1
670
  0
POINT
  5
83B1
  8
DEFPOINTS
 62
     0
 10
4259.2605798106342
 20
2848.795595788592
 30
0.0
  0
POINT
  5
83B2
  8
DEFPOINTS
 62
     0
 10
4259.2605798106342
 20
2178.795595788592
 30
0.0
  0
POINT
  5
83B3
  8
DEFPOINTS
 62
     0
 10
4482.8813581273434
 20
2178.795595788592
 30
0.0
  0
ENDBLK
  5
82E7
  8
0
  0
ENDSEC
  0
SECTION
  2
ENTITIES
  0
DIMENSION
  5
7BD7
  8
3
  2
*D0
 10
875.37131104611774
 20
3534.341074806659
 30
0.0
 11
1455.3713110461169
 21
3596.841074806659
 31
0.0
 70
     0
 13
2035.3713110461169
 23
3233.795595788592
 33
0.0
 14
875.37131104611751
 24
2148.795595788592
 34
0.0
1001
ACAD
1000
DSTYLE
1002
{
1070
   287
1070
     3
1070
    40
1040
25.0
1070
   143
1040
0.039
1070
   172
1070
     1
1070
   271
1070
     0
1070
   279
1070
     0
1070
   288
1070
     1
1002
}
  0
DIMENSION
  5
7BD9
  8
3
  2
*D1
 10
1029.580773846382
 20
3383.6693209045789
 30
0.0
 11
1302.4760424462499
 21
3446.1693209045789
 31
0.0
 70
     0
  1
548
 13
1575.3713110461169
 23
3257.3464800564739
 33
0.0
 14
1029.580773846382
 24
2513.795595788592
 34
0.0
1001
ACAD
1000
DSTYLE
1002
{
1070
   287
1070
     3
1070
    40
1040
25.0
1070
   143
1040
0.039
1070
   172
1070
     1
1070
   271
1070
     0
1070
   279
1070
     0
1070
   288
1070
     1
1002
}
  0
DIMENSION
  5
7BDA
  8
3
  2
*D2
 10
1575.3713110461169
 20
1635.75042639298
 30
0.0
 11
1235.3713110461169
 21
1698.25042639298
 31
0.0
 70
     0
 13
895.37131104611763
 23
1813.795595788592
 33
0.0
 14
1575.3713110461169
 24
1813.795595788592
 34
0.0
1001
ACAD
1000
DSTYLE
1002
{
1070
   287
1070
     3
1070
    40
1040
25.0
1070
   143
1040
0.039
1070
   172
1070
     1
1070
   271
1070
     0
1070
   279
1070
     0
1070
   288
1070
     1
1002
}
  0
LINE
  5
7BDB
  8
1
 10
1628.1629002403149
 20
2373.3924330380651
 30
0.0
 11
1128.1629002403149
 21
2185.3924330380651
 31
0.0
  0
LINE
  5
7BDC
  8
1
 10
1522.579721851919
 20
2654.1987585391198
 30
0.0
 11
1022.579721851919
 21
2466.1987585391189
 31
0.0
  0
LINE
  5
7BDD
  8
1
 10
1603.1748813550621
 20
2439.8499300733142
 30
0.0
 11
1103.1748813550621
 21
2251.8499300733151
 31
0.0
  0
LINE
  5
7BDE
  8
1
 10
1547.5677407371729
 20
2587.7412615038702
 30
0.0
 11
1047.5677407371729
 21
2399.7412615038702
 31
0.0
  0
LINE
  5
7BDF
  8
1
 10
895.37131104611763
 20
1913.795595788592
 30
0.0
 11
1975.3713110461169
 21
1913.795595788592
 31
0.0
1001
ACAD
1000
ASC_BOUNDS
1002
{
1070
    19
1002
}
  0
LINE
  5
7BE0
  8
1
 10
895.37131104611763
 20
1813.795595788592
 30
0.0
 11
1975.3713110461169
 21
1813.795595788592
 31
0.0
  0
LINE
  5
7BE2
  8
1
 10
875.37131104611751
 20
2108.795595788592
 30
0.0
 11
1975.3713110461169
 21
2108.795595788592
 31
0.0
  0
LINE
  5
7BE3
  8
1
 10
895.37131104611763
 20
2008.795595788592
 30
0.0
 11
1975.3713110461169
 21
2008.795595788592
 31
0.0
1001
ACAD
1000
ASC_BOUNDS
1002
{
1070
    19
1002
}
  0
ARC
  5
7BE4
  8
1
 10
1622.3713110461169
 20
2560.795595788592
 30
0.0
 40
595.0
 50
94.530605042682623
 51
184.53060504268259
  0
LINE
  5
7BE5
  8
2
 10
969.8914251547767
 20
2513.795595788592
 30
0.0
 11
2089.0138716036199
 21
2513.795595788592
 31
0.0
  0
ARC
  5
7BE6
  8
1
 10
1075.3713110461169
 20
2325.795595788592
 30
0.0
 40
150.0
 50
110.6062606138368
 51
290.60626061383681
  0
CIRCLE
  5
7BE7
  8
1
 10
1075.3713110461169
 20
2325.795595788592
 30
0.0
 40
79.0
  0
LINE
  5
7BE8
  8
2
 10
1075.3713110461169
 20
2479.9946483088988
 30
0.0
 11
1075.3713110461169
 21
1813.795595788592
 31
0.0
  0
ARC
  5
7BE9
  8
1
 10
1075.3713110461169
 20
2325.795595788592
 30
0.0
 40
142.5
 50
0.0
 51
213.03386838236159
  0
ARC
  5
7BEA
  8
1
 10
1075.3713110461169
 20
2325.795595788592
 30
0.0
 40
142.5
 50
326.96619232801208
 51
0.0
  0
LINE
  5
7BEC
  8
1
 10
912.21714151063861
 20
2193.795595788592
 30
0.0
 11
1238.3382245294749
 21
2193.795595788592
 31
0.0
  0
LINE
  5
7BED
  8
1
 10
895.37131104611763
 20
1913.795595788592
 30
0.0
 11
895.37131104611763
 21
1813.795595788592
 31
0.0
  0
LINE
  5
7BEE
  8
1
 10
955.90665303719459
 20
2248.1139024058448
 30
0.0
 11
945.37131104611763
 21
2208.795595788592
 31
0.0
  0
LINE
  5
7BEF
  8
1
 10
875.37131104611751
 20
2148.795595788592
 30
0.0
 11
875.37131104611751
 21
2108.795595788592
 31
0.0
  0
LINE
  5
7BF0
  8
1
 10
895.37131104611763
 20
2108.795595788592
 30
0.0
 11
895.37131104611763
 21
2008.795595788592
 31
0.0
  0
LINE
  5
7BF1
  8
1
 10
900.37131104611751
 20
2148.795595788592
 30
0.0
 11
912.21714151063861
 21
2193.795595788592
 31
0.0
  0
LINE
  5
7BF2
  8
1
 10
875.37131104611751
 20
2148.795595788592
 30
0.0
 11
900.37131104611751
 21
2148.795595788592
 31
0.0
  0
LINE
  5
7BF3
  8
1
 10
945.37131104611763
 20
2208.5981957885929
 30
0.0
 11
945.37131104611763
 21
2193.795595788592
 31
0.0
  0
LINE
  5
7BF4
  8
1
 10
1250.3713110461169
 20
2148.795595788592
 30
0.0
 11
1275.3713110461169
 21
2148.795595788592
 31
0.0
  0
LINE
  5
7BF5
  8
1
 10
1194.836051366178
 20
2248.1140289901518
 30
0.0
 11
1205.3713110461169
 21
2208.795595788592
 31
0.0
  0
LINE
  5
7BF6
  8
1
 10
1205.3713110461169
 20
2208.5981957885929
 30
0.0
 11
1205.3713110461169
 21
2193.795595788592
 31
0.0
  0
LINE
  5
7BF7
  8
1
 10
1250.3713110461169
 20
2148.795595788592
 30
0.0
 11
1238.3382245294749
 21
2193.795595788592
 31
0.0
  0
LINE
  5
7BF8
  8
1
 10
1275.3713110461169
 20
2148.795595788592
 30
0.0
 11
1275.3713110461169
 21
2108.795595788592
 31
0.0
  0
ARC
  5
7BF9
  8
1
 10
1528.3713110461169
 20
2560.795595788592
 30
0.0
 40
501.0
 50
239.66931013170949
 51
244.44818803932199
  0
LINE
  5
7BFA
  8
2
 10
909.83453578416811
 20
2325.795595788592
 30
0.0
 11
1240.952338519668
 21
2325.795595788592
 31
0.0
  0
ARC
  5
7BFB
  8
1
 10
1528.3713110461169
 20
2560.795595788592
 30
0.0
 40
501.0
 50
185.38296864988129
 51
191.25261904015011
  0
DIMENSION
  5
7BFC
  8
3
  2
*D3
 10
2557.7113444981401
 20
3233.795595788592
 30
0.0
 11
2495.2113444981392
 21
2523.7955957885929
 31
0.0
 70
     0
 13
1975.3713110461169
 23
1813.795595788592
 33
0.0
 14
2035.3713110461169
 24
3233.795595788592
 34
0.0
 50
90.0
1001
ACAD
1000
DSTYLE
1002
{
1070
   287
1070
     3
1070
    40
1040
25.0
1070
   143
1040
0.039
1070
   172
1070
     1
1070
   271
1070
     0
1070
   279
1070
     0
1070
   288
1070
     1
1002
}
  0
DIMENSION
  5
7BFD
  8
3
  2
*D4
 10
2335.8484591246538
 20
2008.795595788592
 30
0.0
 11
2273.3484591246529
 21
2261.2955957885929
 31
0.0
 70
     0
 13
2089.0138716036199
 23
2513.795595788592
 33
0.0
 14
1975.3713110461169
 24
2008.795595788592
 34
0.0
 50
90.0
1001
ACAD
1000
DSTYLE
1002
{
1070
   287
1070
     3
1070
    40
1040
25.0
1070
   143
1040
0.039
1070
   172
1070
     1
1070
   271
1070
     0
1070
   279
1070
     0
1070
   288
1070
     1
1002
}
  0
ARC
  5
7BFF
  8
1
 10
1537.3713110461169
 20
2475.795595788592
 30
0.0
 40
416.0
 50
311.45096141943219
 51
5.2410550612967093
  0
LINE
  5
7C00
  8
2
 10
1575.3713110461169
 20
3257.3464800564739
 30
0.0
 11
1575.3713110461169
 21
1813.795595788592
 31
0.0
  0
DIMENSION
  5
7C05
  8
3
  2
*D5
 10
1975.3713110461169
 20
1635.75042639298
 30
0.0
 11
1775.3713110461169
 21
1698.25042639298
 31
0.0
 70
     0
 13
1575.3713110461169
 23
1813.795595788592
 33
0.0
 14
1975.3713110461169
 24
1813.795595788592
 34
0.0
1001
ACAD
1000
DSTYLE
1002
{
1070
   287
1070
     3
1070
    40
1040
25.0
1070
   143
1040
0.039
1070
   172
1070
     1
1070
   271
1070
     0
1070
   279
1070
     0
1070
   288
1070
     1
1002
}
  0
LINE
  5
7C06
  8
1
 10
1825.3713110461169
 20
1913.795595788592
 30
0.0
 11
1825.3713110461169
 21
1813.795595788592
 31
0.0
  0
LINE
  5
7C07
  8
1
 10
1975.3713110461169
 20
1913.795595788592
 30
0.0
 11
1975.3713110461169
 21
1813.795595788592
 31
0.0
  0
POINT
  5
7C08
  8
1
 10
1975.3713110461169
 20
1813.795595788592
 30
0.0
  0
LINE
  5
7C09
  8
1
 10
1825.3713110461169
 20
2108.795595788592
 30
0.0
 11
1825.3713110461169
 21
2008.795595788592
 31
0.0
  0
LINE
  5
7C0A
  8
1
 10
1975.3713110461169
 20
2108.795595788592
 30
0.0
 11
1975.3713110461169
 21
2008.795595788592
 31
0.0
  0
DIMENSION
  5
7C16
  8
3
  2
*D6
 10
1575.3713110461169
 20
3383.6693209045789
 30
0.0
 11
1805.3713110461169
 21
3446.1693209045789
 31
0.0
 70
     0
 13
2035.3713110461169
 23
3233.795595788592
 33
0.0
 14
1575.3713110461169
 24
3257.3464800564739
 34
0.0
1001
ACAD
1000
DSTYLE
1002
{
1070
   287
1070
     3
1070
    40
1040
25.0
1070
   143
1040
0.039
1070
   172
1070
     1
1070
   271
1070
     0
1070
   279
1070
     0
1070
   288
1070
     1
1002
}
  0
LINE
  5
7C17
  8
1
 10
1946.9039181477319
 20
2541.795595788592
 30
0.0
 11
2035.3713110461169
 21
2541.795595788592
 31
0.0
  0
LINE
  5
7C18
  8
1
 10
2035.3713110461169
 20
3191.795595788592
 30
0.0
 11
1575.3713110461169
 21
3153.9363885182779
 31
0.0
  0
LINE
  5
7C19
  8
1
 10
1995.3713110461169
 20
3188.5034908085649
 30
0.0
 11
1995.3713110461169
 21
2541.795595788592
 31
0.0
  0
ARC
  5
7C1A
  8
1
 10
1575.3713110461169
 20
2513.795595788592
 30
0.0
 40
150.0
 50
290.60626061383681
 51
110.6062606138368
  0
CIRCLE
  5
7C1B
  8
1
 10
1575.3713110461169
 20
2513.795595788592
 30
0.0
 40
79.0
  0
ARC
  5
7C1C
  8
1
 10
1613.3713110461169
 20
2475.795595788592
 30
0.0
 40
340.0
 50
6.4170531430286752
 51
11.193183605683821
  0
DIMENSION
  5
7C1D
  8
3
  2
*D7
 10
2335.8484591246538
 20
2513.795595788592
 30
0.0
 11
2273.3484591246529
 21
2852.7955957885929
 31
0.0
 70
     0
 13
2035.3713110461169
 23
3191.795595788592
 33
0.0
 14
2089.0138716036199
 24
2513.795595788592
 34
0.0
 50
90.0
1001
ACAD
1000
DSTYLE
1002
{
1070
   287
1070
     3
1070
    40
1040
25.0
1070
   143
1040
0.039
1070
   172
1070
     1
1070
   271
1070
     0
1070
   279
1070
     0
1070
   288
1070
     1
1002
}
  0
DIMENSION
  5
7C1E
  8
3
  2
*D8
 10
2184.3208352123379
 20
2541.795595788592
 30
0.0
 11
2121.820835212337
 21
2866.7955957885929
 31
0.0
 70
     0
 13
2035.3713110461169
 23
3191.795595788592
 33
0.0
 14
2035.3713110461169
 24
2541.795595788592
 34
0.0
 50
90.0
1001
ACAD
1000
DSTYLE
1002
{
1070
   287
1070
     3
1070
    40
1040
25.0
1070
   143
1040
0.039
1070
   172
1070
     1
1070
   271
1070
     0
1070
   279
1070
     0
1070
   288
1070
     1
1002
}
  0
LINE
  5
7C1F
  8
1
 10
2032.3713110461169
 20
3233.795595788592
 30
0.0
 11
2032.3713110461169
 21
2499.295595788592
 31
0.0
  0
LINE
  5
7C20
  8
1
 10
2035.3713110461169
 20
3233.795595788592
 30
0.0
 11
2035.3713110461169
 21
2499.295595788592
 31
0.0
  0
LINE
  5
7C21
  8
1
 10
2032.3713110461169
 20
2499.295595788592
 30
0.0
 11
2035.3713110461169
 21
2499.295595788592
 31
0.0
  0
LINE
  5
7C22
  8
1
 10
2032.3713110461169
 20
3233.795595788592
 30
0.0
 11
2035.3713110461169
 21
3233.795595788592
 31
0.0
  0
LINE
  5
7C23
  8
1
 10
1550.3713110461169
 20
4169.5120844347966
 30
0.0
 11
1094.3713110461169
 21
4169.5120844347985
 31
0.0
  0
DIMENSION
  5
7C24
  8
3
  2
*D9
 10
895.37131104611763
 20
3858.631408148764
 30
0.0
 11
1360.3713110461169
 21
3921.131408148764
 31
0.0
 70
     0
 13
1825.3713110461169
 23
4150.5120844347966
 33
0.0
 14
895.37131104611763
 24
4150.5120844347966
 34
0.0
1001
ACAD
1000
DSTYLE
1002
{
1070
   287
1070
     3
1070
    40
1040
25.0
1070
   143
1040
0.039
1070
   172
1070
     1
1070
   271
1070
     0
1070
   279
1070
     0
1070
   288
1070
     1
1002
}
  0
DIMENSION
  5
7C25
  8
3
  2
*D10
 10
1975.3713110461169
 20
5496.0859710385494
 30
0.0
 11
1575.3713110461169
 21
5558.5859710385494
 31
0.0
 70
     0
 13
1175.3713110461169
 23
5350.5120844347966
 33
0.0
 14
1975.3713110461169
 24
5350.5120844347966
 34
0.0
1001
ACAD
1000
DSTYLE
1002
{
1070
   287
1070
     3
1070
    40
1040
25.0
1070
   143
1040
0.039
1070
   172
1070
     1
1070
   271
1070
     0
1070
   279
1070
     0
1070
   288
1070
     1
1002
}
  0
LINE
  5
7C26
  8
1
 10
1094.3713110461169
 20
4150.5120844347966
 30
0.0
 11
1550.3713110461169
 21
4150.5120844347966
 31
0.0
  0
LINE
  5
7C27
  8
1
 10
1725.3713110461169
 20
4009.5120844347971
 30
0.0
 11
925.37131104611751
 21
4009.5120844347971
 31
0.0
  0
LINE
  5
7C28
  8
1
 10
996.37131104611763
 20
4052.5120844347971
 30
0.0
 11
1654.3713110461169
 21
4052.5120844347971
 31
0.0
  0
LINE
  5
7C29
  8
1
 10
996.37131104611763
 20
4134.5120844347957
 30
0.0
 11
1654.3713110461169
 21
4134.5120844347966
 31
0.0
  0
LINE
  5
7C2A
  8
1
 10
1405.3713110461169
 20
4729.5120844347966
 30
0.0
 11
1550.3713110461169
 21
4729.5120844347966
 31
0.0
  0
LINE
  5
7C2B
  8
1
 10
1405.3713110461169
 20
4189.5120844347957
 30
0.0
 11
1550.3713110461169
 21
4189.5120844347957
 31
0.0
  0
LINE
  5
7C2C
  8
1
 10
1029.230518316431
 20
4817.0120844347966
 30
0.0
 11
2035.3713110461169
 21
4817.0120844347966
 31
0.0
  0
LINE
  5
7C2D
  8
1
 10
1029.230518316431
 20
5292.0120844347985
 30
0.0
 11
2035.3713110461169
 21
5292.0120844347985
 31
0.0
  0
LINE
  5
7C2E
  8
2
 10
996.53692727383157
 20
5054.5120844347966
 30
0.0
 11
2074.715219490437
 21
5054.5120844347985
 31
0.0
  0
LINE
  5
7C2F
  8
1
 10
1175.3713110461169
 20
5350.5120844347966
 30
0.0
 11
1975.3713110461169
 21
5350.5120844347966
 31
0.0
  0
DIMENSION
  5
7C30
  8
3
  2
*D11
 10
746.94213943467537
 20
4814.5120844347985
 30
0.0
 11
684.44213943467457
 21
4482.5120844347966
 31
0.0
 70
     0
 13
895.37131104611763
 23
4150.5120844347966
 33
0.0
 14
895.37131104611763
 24
4814.5120844347985
 34
0.0
 50
90.0
1001
ACAD
1000
DSTYLE
1002
{
1070
   287
1070
     3
1070
    40
1040
25.0
1070
   143
1040
0.039
1070
   172
1070
     1
1070
   271
1070
     0
1070
   279
1070
     0
1070
   288
1070
     1
1002
}
  0
LINE
  5
7C31
  8
1
 10
895.37131104611763
 20
4814.5120844347985
 30
0.0
 11
895.37131104611763
 21
4512.5120844347966
 31
0.0
  0
LINE
  5
7C32
  8
1
 10
875.37131104611751
 20
4232.5120844347966
 30
0.0
 11
875.37131104611751
 21
4172.5120844347966
 31
0.0
  0
LINE
  5
7C33
  8
1
 10
1275.3713110461169
 20
4232.5120844347966
 30
0.0
 11
1275.3713110461169
 21
4172.5120844347966
 31
0.0
  0
LINE
  5
7C34
  8
1
 10
932.87131104611763
 20
4571.5120844347985
 30
0.0
 11
932.87131104611763
 21
4181.5120844347957
 31
0.0
  0
LINE
  5
7C35
  8
1
 10
1217.8713110461169
 20
4571.5120844347985
 30
0.0
 11
1217.8713110461169
 21
4181.5120844347957
 31
0.0
  0
LINE
  5
7C36
  8
2
 10
1075.3713110461169
 20
4627.2965214758733
 30
0.0
 11
1075.3713110461169
 21
4002.078317874566
 31
0.0
  0
LINE
  5
7C37
  8
1
 10
1094.3713110461169
 20
4172.5120844347985
 30
0.0
 11
1275.3713110461169
 21
4172.5120844347985
 31
0.0
  0
LINE
  5
7C38
  8
1
 10
932.87131104611763
 20
4181.5120844347957
 30
0.0
 11
1217.8713110461169
 21
4181.5120844347966
 31
0.0
  0
LINE
  5
7C39
  8
1
 10
1056.3713110461169
 20
4169.5120844347985
 30
0.0
 11
925.37131104611751
 21
4169.5120844347966
 31
0.0
  0
LINE
  5
7C3A
  8
1
 10
875.37131104611751
 20
4172.5120844347966
 30
0.0
 11
1056.3713110461169
 21
4172.5120844347985
 31
0.0
  0
LINE
  5
7C3B
  8
1
 10
895.37131104611763
 20
4150.5120844347966
 30
0.0
 11
1056.3713110461169
 21
4150.5120844347966
 31
0.0
  0
LINE
  5
7C3C
  8
1
 10
925.37131104611751
 20
4169.5120844347966
 30
0.0
 11
925.37131104611751
 21
4009.5120844347971
 31
0.0
  0
LINE
  5
7C3D
  8
1
 10
895.37131104611763
 20
4172.5120844347985
 30
0.0
 11
895.37131104611763
 21
4150.5120844347966
 31
0.0
  0
LINE
  5
7C3E
  8
1
 10
996.37131104611763
 20
4134.5120844347957
 30
0.0
 11
996.37131104611763
 21
4052.5120844347971
 31
0.0
  0
LINE
  5
7C3F
  8
1
 10
1056.3713110461169
 20
4181.5120844347957
 30
0.0
 11
1056.3713110461169
 21
4134.5120844347957
 31
0.0
  0
LINE
  5
7C40
  8
1
 10
1094.3713110461169
 20
4181.5120844347957
 30
0.0
 11
1094.3713110461169
 21
4134.5120844347957
 31
0.0
  0
LINE
  5
7C41
  8
1
 10
1154.3713110461169
 20
4134.5120844347957
 30
0.0
 11
1154.3713110461169
 21
4052.5120844347971
 31
0.0
  0
LINE
  5
7C42
  8
1
 10
932.87131104611763
 20
4571.5120844347985
 30
0.0
 11
1217.8713110461169
 21
4571.5120844347985
 31
0.0
  0
LINE
  5
7C43
  8
1
 10
875.37131104611751
 20
4512.5120844347966
 30
0.0
 11
875.37131104611751
 21
4452.5120844347966
 31
0.0
  0
LINE
  5
7C44
  8
1
 10
895.37131104611763
 20
4452.5120844347957
 30
0.0
 11
895.37131104611763
 21
4232.5120844347985
 31
0.0
  0
LINE
  5
7C45
  8
1
 10
875.37131104611751
 20
4232.5120844347966
 30
0.0
 11
932.87131104611763
 21
4232.5120844347985
 31
0.0
  0
LINE
  5
7C46
  8
1
 10
875.37131104611751
 20
4452.5120844347966
 30
0.0
 11
932.87131104611763
 21
4452.5120844347966
 31
0.0
  0
LINE
  5
7C47
  8
1
 10
875.37131104611751
 20
4512.5120844347966
 30
0.0
 11
932.87131104611763
 21
4512.5120844347966
 31
0.0
  0
LINE
  5
7C48
  8
1
 10
1275.3713110461169
 20
4512.5120844347966
 30
0.0
 11
1275.3713110461169
 21
4452.5120844347966
 31
0.0
  0
LINE
  5
7C4A
  8
1
 10
1217.8713110461169
 20
4232.5120844347966
 30
0.0
 11
1275.3713110461169
 21
4232.5120844347966
 31
0.0
  0
LINE
  5
7C4B
  8
1
 10
1217.8713110461169
 20
4452.5120844347957
 30
0.0
 11
1275.3713110461169
 21
4452.5120844347966
 31
0.0
  0
LINE
  5
7C4C
  8
1
 10
1217.8713110461169
 20
4512.5120844347985
 30
0.0
 11
1275.3713110461169
 21
4512.5120844347985
 31
0.0
  0
DIMENSION
  5
7C4D
  8
3
  2
*D12
 10
895.37131104611763
 20
5496.0859710385494
 30
0.0
 11
1033.977889418318
 21
5556.706121622552
 31
0.0
 12
349.40077137535621
 22
0.0
 32
0.0
 70
   128
 13
1175.3713110461169
 23
5350.5120844347966
 33
0.0
 14
895.37131104611763
 24
4814.5120844347985
 34
0.0
1001
ACAD
1000
DSTYLE
1002
{
1070
   288
1070
     1
1070
   172
1070
     1
1070
    40
1040
25.0
1070
   271
1070
     0
1070
   143
1040
0.039
1002
}
  0
LINE
  5
7C4E
  8
1
 10
895.37131104611763
 20
4814.5120844347985
 30
0.0
 11
1175.3713110461169
 21
4814.5120844347985
 31
0.0
  0
LINE
  5
7C4F
  8
1
 10
1029.230518316431
 20
4817.0120844347966
 30
0.0
 11
1029.230518316431
 21
5292.0120844347966
 31
0.0
  0
LINE
  5
7C50
  8
1
 10
1175.3713110461169
 20
4817.0120844347966
 30
0.0
 11
1175.3713110461169
 21
4814.5120844347985
 31
0.0
  0
LINE
  5
7C51
  8
1
 10
1175.3713110461169
 20
5350.5120844347966
 30
0.0
 11
1175.3713110461169
 21
5292.0120844347966
 31
0.0
  0
DIMENSION
  5
7C52
  8
3
  2
*D13
 10
2184.8251139068411
 20
4150.5120844347957
 30
0.0
 11
2122.3251139068411
 21
4750.5120844347985
 31
0.0
 70
     0
 13
1975.3713110461169
 23
5350.5120844347966
 33
0.0
 14
1825.3713110461169
 24
4150.5120844347966
 34
0.0
 50
90.0
1001
ACAD
1000
DSTYLE
1002
{
1070
   287
1070
     3
1070
    40
1040
25.0
1070
   143
1040
0.039
1070
   172
1070
     1
1070
   271
1070
     0
1070
   279
1070
     0
1070
   288
1070
     1
1002
}
  0
LINE
  5
7C53
  8
1
 10
1550.3713110461169
 20
4134.5120844347966
 30
0.0
 11
1550.3713110461169
 21
4817.0120844347966
 31
0.0
  0
LINE
  5
7C54
  8
1
 10
1600.3713110461169
 20
4134.5120844347966
 30
0.0
 11
1600.3713110461169
 21
4817.0120844347966
 31
0.0
  0
LINE
  5
7C55
  8
1
 10
1975.3713110461169
 20
4817.0120844347966
 30
0.0
 11
1975.3713110461169
 21
4764.5120844347985
 31
0.0
  0
LINE
  5
7C56
  8
1
 10
2032.3713110461169
 20
5334.5120844347966
 30
0.0
 11
2032.3713110461169
 21
4774.5120844347966
 31
0.0
  0
LINE
  5
7C57
  8
1
 10
2035.3713110461169
 20
5334.5120844347966
 30
0.0
 11
2035.3713110461169
 21
4774.5120844347966
 31
0.0
  0
LINE
  5
7C58
  8
2
 10
1575.3713110461169
 20
5322.5716836295805
 30
0.0
 11
1575.3713110461169
 21
4002.078317874566
 31
0.0
  0
DIMENSION
  5
7C59
  8
3
  2
*D14
 10
1975.3713110461169
 20
3858.631408148764
 30
0.0
 11
2139.6570253318309
 21
3921.131408148764
 31
0.0
 70
     0
 13
1825.3713110461169
 23
4150.5120844347966
 33
0.0
 14
1975.3713110461169
 24
4764.5120844347966
 34
0.0
1001
ACAD
1000
DSTYLE
1002
{
1070
   287
1070
     3
1070
    40
1040
25.0
1070
   143
1040
0.039
1070
   172
1070
     1
1070
   271
1070
     0
1070
   279
1070
     0
1070
   288
1070
     1
1002
}
  0
LINE
  5
7C5A
  8
1
 10
1825.3713110461169
 20
4764.5120844347957
 30
0.0
 11
1825.3713110461169
 21
4150.5120844347966
 31
0.0
  0
LINE
  5
7C5B
  8
1
 10
1600.3713110461169
 20
4150.5120844347957
 30
0.0
 11
1825.3713110461169
 21
4150.5120844347966
 31
0.0
  0
LINE
  5
7C5C
  8
1
 10
1725.3713110461169
 20
4169.5120844347966
 30
0.0
 11
1600.3713110461169
 21
4169.5120844347966
 31
0.0
  0
LINE
  5
7C5D
  8
1
 10
1496.3713110461169
 20
4052.5120844347971
 30
0.0
 11
1496.3713110461169
 21
4134.5120844347966
 31
0.0
  0
LINE
  5
7C5E
  8
1
 10
1654.3713110461169
 20
4052.5120844347971
 30
0.0
 11
1654.3713110461169
 21
4134.5120844347966
 31
0.0
  0
LINE
  5
7C5F
  8
1
 10
1725.3713110461169
 20
4009.5120844347971
 30
0.0
 11
1725.3713110461169
 21
4169.5120844347966
 31
0.0
  0
POINT
  5
7C60
  8
1
 10
1825.3713110461169
 20
4150.5120844347966
 30
0.0
  0
LINE
  5
7C61
  8
1
 10
1600.3713110461169
 20
4729.5120844347966
 30
0.0
 11
1745.3713110461169
 21
4729.5120844347966
 31
0.0
  0
LINE
  5
7C62
  8
1
 10
1600.3713110461169
 20
4189.5120844347957
 30
0.0
 11
1745.3713110461169
 21
4189.5120844347957
 31
0.0
  0
LINE
  5
7C64
  8
1
 10
1825.3713110461169
 20
4764.5120844347966
 30
0.0
 11
1975.3713110461169
 21
4764.5120844347966
 31
0.0
  0
POINT
  5
7C65
  8
1
 10
1975.3713110461169
 20
4764.5120844347966
 30
0.0
  0
LINE
  5
7C66
  8
1
 10
2032.3713110461169
 20
4774.5120844347966
 30
0.0
 11
2035.3713110461169
 21
4774.5120844347966
 31
0.0
  0
LINE
  5
7C67
  8
1
 10
1995.3713110461169
 20
5292.0120844347985
 30
0.0
 11
1995.3713110461169
 21
4817.0120844347966
 31
0.0
  0
LINE
  5
7C68
  8
1
 10
1975.3713110461169
 20
5350.5120844347966
 30
0.0
 11
1975.3713110461169
 21
5292.0120844347985
 31
0.0
  0
LINE
  5
7C69
  8
1
 10
2032.3713110461169
 20
5334.5120844347966
 30
0.0
 11
2035.3713110461169
 21
5334.5120844347966
 31
0.0
  0
DIMENSION
  5
7C6A
  8
3
  2
*D15
 10
4021.7605798106342
 20
3586.3572101312411
 30
0.0
 11
3499.2605798106342
 21
3711.3572101312411
 31
0.0
 70
     0
  1
MAX\P1070
 13
2976.7605798106342
 23
2663.7955957885929
 33
0.0
 14
4021.7605798106342
 24
3468.6745734818642
 34
0.0
1001
ACAD
1000
DSTYLE
1002
{
1070
   287
1070
     3
1070
    40
1040
25.0
1070
   143
1040
0.039
1070
   172
1070
     1
1070
   271
1070
     0
1070
   279
1070
     0
1070
   288
1070
     1
1002
}
  0
DIMENSION
  5
7C6C
  8
3
  2
*D16
 10
4021.7605798106342
 20
1623.724182044908
 30
0.0
 11
3568.2605798106342
 21
1686.224182044908
 31
0.0
 70
     0
 13
3114.7605798106342
 23
1813.795595788592
 33
0.0
 14
4021.7605798106342
 24
1813.795595788592
 34
0.0
1001
ACAD
1000
DSTYLE
1002
{
1070
   287
1070
     3
1070
    40
1040
25.0
1070
   143
1040
0.039
1070
   172
1070
     1
1070
   271
1070
     0
1070
   279
1070
     0
1070
   288
1070
     1
1002
}
  0
LINE
  5
7C6D
  8
1
 10
3101.7605798106342
 20
2488.795595788592
 30
0.0
 11
3784.2605798106329
 21
2488.795595788592
 31
0.0
  0
LINE
  5
7C6E
  8
1
 10
3101.7605798106342
 20
2538.795595788592
 30
0.0
 11
3744.2605798106342
 21
2538.795595788592
 31
0.0
  0
LINE
  5
7C6F
  8
1
 10
3114.7605798106342
 20
1813.795595788592
 30
0.0
 11
4314.7605798106333
 21
1813.795595788592
 31
0.0
  0
LINE
  5
7C70
  8
1
 10
3114.7605798106342
 20
1913.7955957885929
 30
0.0
 11
4314.7605798106333
 21
1913.795595788592
 31
0.0
  0
LINE
  5
7C71
  8
1
 10
3114.7605798106342
 20
2108.795595788592
 30
0.0
 11
4314.7605798106333
 21
2108.795595788592
 31
0.0
  0
LINE
  5
7C72
  8
1
 10
3114.7605798106342
 20
2008.795595788592
 30
0.0
 11
4314.7605798106333
 21
2008.795595788592
 31
0.0
  0
LINE
  5
7C73
  8
2
 10
2999.1754027660818
 20
2513.795595788592
 30
0.0
 11
4337.0470717958524
 21
2513.795595788592
 31
0.0
  0
LINE
  5
7C74
  8
1
 10
2976.7605798106342
 20
2663.7955957885929
 30
0.0
 11
2976.7605798106342
 21
2175.7955957885929
 31
0.0
  0
LINE
  5
7C75
  8
1
 10
3101.7605798106342
 20
2592.795595788592
 30
0.0
 11
3101.7605798106342
 21
2246.795595788592
 31
0.0
  0
LINE
  5
7C76
  8
1
 10
3019.7605798106342
 20
2592.795595788592
 30
0.0
 11
3019.7605798106342
 21
2246.795595788592
 31
0.0
  0
LINE
  5
7C77
  8
1
 10
3696.7605798106342
 20
2458.795595788592
 30
0.0
 11
3696.7605798106342
 21
2108.795595788592
 31
0.0
  0
LINE
  5
7C78
  8
1
 10
3156.7605798106342
 20
2458.795595788592
 30
0.0
 11
3156.7605798106342
 21
2108.795595788592
 31
0.0
  0
LINE
  5
7C79
  8
1
 10
3114.7605798106342
 20
1913.7955957885929
 30
0.0
 11
3114.7605798106342
 21
1813.795595788592
 31
0.0
  0
LINE
  5
7C7A
  8
1
 10
2976.7605798106342
 20
2175.795595788592
 30
0.0
 11
3136.7605798106342
 21
2175.795595788592
 31
0.0
  0
LINE
  5
7C7B
  8
1
 10
3114.7605798106342
 20
2108.795595788592
 30
0.0
 11
3114.7605798106342
 21
2008.795595788592
 31
0.0
  0
LINE
  5
7C7C
  8
1
 10
3019.7605798106342
 20
2246.795595788592
 30
0.0
 11
3101.7605798106342
 21
2246.795595788592
 31
0.0
  0
LINE
  5
7C7D
  8
1
 10
3136.7605798106342
 20
2195.795595788592
 30
0.0
 11
3136.7605798106342
 21
2175.7955957885929
 31
0.0
  0
LINE
  5
7C7E
  8
1
 10
3101.7605798106342
 20
2306.795595788592
 30
0.0
 11
3156.7605798106342
 21
2306.795595788592
 31
0.0
  0
LINE
  5
7C7F
  8
1
 10
3101.7605798106342
 20
2344.795595788592
 30
0.0
 11
3156.7605798106342
 21
2344.795595788592
 31
0.0
  0
LINE
  5
7C80
  8
2
 10
2999.1754027660818
 20
2325.795595788592
 30
0.0
 11
3156.7605798106342
 21
2325.795595788592
 31
0.0
  0
LINE
  5
7C81
  8
1
 10
3019.7605798106342
 20
2404.795595788592
 30
0.0
 11
3101.7605798106342
 21
2404.795595788592
 31
0.0
  0
LINE
  5
7C82
  8
1
 10
3019.7605798106342
 20
2434.795595788592
 30
0.0
 11
3101.7605798106342
 21
2434.795595788592
 31
0.0
  0
LINE
  5
7C83
  8
1
 10
3019.7605798106342
 20
2592.795595788592
 30
0.0
 11
3101.7605798106342
 21
2592.795595788592
 31
0.0
  0
LINE
  5
7C84
  8
1
 10
2976.7605798106342
 20
2663.795595788592
 30
0.0
 11
3136.7605798106342
 21
2663.795595788592
 31
0.0
  0
LINE
  5
7C85
  8
1
 10
3136.7605798106342
 20
2663.795595788592
 30
0.0
 11
3136.7605798106342
 21
2643.795595788592
 31
0.0
  0
LINE
  5
7C86
  8
1
 10
3156.7605798106342
 20
2458.795595788592
 30
0.0
 11
3696.7605798106342
 21
2458.795595788592
 31
0.0
  0
LINE
  5
7C88
  8
2
 10
4021.7605798106342
 20
3329.6560255097738
 30
0.0
 11
4021.7605798106342
 21
1813.795595788592
 31
0.0
  0
LINE
  5
7C89
  8
1
 10
3784.2605798106342
 20
3192.295595788592
 30
0.0
 11
3784.2605798106342
 21
2542.295595788592
 31
0.0
  0
LINE
  5
7C8A
  8
1
 10
4259.2605798106351
 20
3192.295595788592
 30
0.0
 11
4259.2605798106342
 21
2542.295595788592
 31
0.0
  0
DIMENSION
  5
7C8B
  8
3
  2
*D17
 10
4314.7605798106333
 20
1623.724182044908
 30
0.0
 11
4166.0021553138104
 21
1685.767825628641
 31
0.0
 12
262.0505711505902
 22
-57.0
 32
0.0
 70
   128
 13
4021.7605798106342
 23
1813.795595788592
 33
0.0
 14
4314.7605798106333
 24
1813.795595788592
 34
0.0
1001
ACAD
1000
DSTYLE
1002
{
1070
   288
1070
     1
1070
   172
1070
     1
1070
    40
1040
25.0
1070
   271
1070
     0
1070
   143
1040
0.039
1002
}
  0
LINE
  5
7C8C
  8
1
 10
4314.7605798106333
 20
1913.795595788592
 30
0.0
 11
4314.7605798106333
 21
1813.795595788592
 31
0.0
  0
LINE
  5
7C8D
  8
1
 10
4314.7605798106333
 20
2108.795595788592
 30
0.0
 11
4314.7605798106333
 21
2008.795595788592
 31
0.0
  0
LINE
  5
7C8E
  8
1
 10
3784.2605798106342
 20
3191.7955957885929
 30
0.0
 11
4259.2605798106342
 21
2542.295595788592
 31
0.0
  0
LINE
  5
7C8F
  8
1
 10
4259.2605798106342
 20
3192.295595788592
 30
0.0
 11
3784.2605798106342
 21
2542.295595788592
 31
0.0
  0
LINE
  5
7C90
  8
1
 10
3784.2605798106342
 20
2542.295595788592
 30
0.0
 11
4259.2605798106342
 21
2542.295595788592
 31
0.0
  0
DIMENSION
  5
7C91
  8
3
  2
*D18
 10
4259.2605798106342
 20
3356.0333875568199
 30
0.0
 11
4021.7605798106342
 21
3418.5333875568199
 31
0.0
 70
     0
 13
3784.2605798106342
 23
3192.295595788592
 33
0.0
 14
4259.2605798106342
 24
3192.295595788592
 34
0.0
1001
ACAD
1000
DSTYLE
1002
{
1070
   287
1070
     3
1070
    40
1040
25.0
1070
   143
1040
0.039
1070
   172
1070
     1
1070
   271
1070
     0
1070
   279
1070
     0
1070
   288
1070
     1
1002
}
  0
LINE
  5
7C92
  8
1
 10
3784.2605798106342
 20
3192.295595788592
 30
0.0
 11
4259.2605798106342
 21
3192.295595788592
 31
0.0
  0
LINE
  5
7FB5
  8
4
 10
4625.0
 20
1250.0
 30
0.0
 11
4625.0
 21
750.0
 31
0.0
  0
LINE
  5
7FB6
  8
4
 10
2875.0
 20
1250.0
 30
0.0
 11
2875.0
 21
750.0
 31
0.0
  0
LINE
  5
7FB7
  8
4
 10
1625.0
 20
1250.0
 30
0.0
 11
1625.0
 21
750.0
 31
0.0
  0
LINE
  5
7FBA
  8
4
 10
1625.0
 20
750.0
 30
0.0
 11
4625.0
 21
750.0
 31
0.0
  0
LINE
  5
7FBB
  8
4
 10
1625.0
 20
1000.0
 30
0.0
 11
4625.0
 21
1000.0
 31
0.0
  0
TEXT
  5
7FBC
  8
4
 10
1721.2552021172539
 20
1078.857564666532
 30
0.0
 40
125.0
  1
機器名称
  0
TEXT
  5
7FBD
  8
4
 10
1715.6452650619931
 20
804.11289183002725
 30
0.0
 40
125.0
  1
機器型番
  0
TEXT
  5
7FBE
  8
4
 10
2881.990037462489
 20
1055.6724359106031
 30
0.0
 40
112.5
  1
ミツヤ多翼送風機
  0
TEXT
  5
7FBF
  8
4
 10
2966.6362389637011
 20
792.89896069985843
 30
0.0
 40
125.0
  1
MF#4-1
  0
TEXT
  5
7FC1
  8
4
 10
2011.143650791284
 20
5958.5721033312893
 30
0.0
 40
135.0
  1
床置防振ベット
  0
TEXT
  5
7FC2
  8
4
 10
750.81568325920659
 20
6334.7024404982449
 30
0.0
 40
180.0
  1
遠心式片吸込片持多翼ファン
  0
LINE
  5
7FC3
  8
4
 10
625.0
 20
6173.5218856620122
 30
0.0
 11
4625.0
 21
6173.5218856620122
 31
0.0
  0
LINE
  5
7FC4
  8
4
 10
625.0
 20
6673.5218856620122
 30
0.0
 11
4625.0
 21
6673.5218856620122
 31
0.0
  0
LINE
  5
7FC5
  8
4
 10
1625.0
 20
1250.0
 30
0.0
 11
4625.0
 21
1250.0
 31
0.0
  0
LINE
  5
7FC6
  8
4
 10
625.0
 20
6673.5218856620122
 30
0.0
 11
625.0
 21
6173.5218856620122
 31
0.0
  0
TEXT
  5
7FC7
  8
4
 10
921.49657018452854
 20
5955.7986938658578
 30
0.0
 40
135.0
  1
右回転右横向
  0
TEXT
  5
7FC8
  8
4
 10
3672.4238981232238
 20
6765.1527037382721
 30
0.0
 40
140.0
  1
No.
  0
TEXT
  5
7FC9
  8
4
 10
3278.2401565000318
 20
5958.5721033312893
 30
0.0
 40
135.0
  1
縮尺：1/25
  0
LINE
  5
7FCA
  8
4
 10
4625.0
 20
6673.5218856620122
 30
0.0
 11
4625.0
 21
6173.5218856620122
 31
0.0
  0
LINE
  5
7FCB
  8
4
 10
5250.0
 20
7375.0
 30
0.0
 11
5250.0
 21
7375.0
 31
0.0
  0
LINE
  5
7FCC
  8
4
 10
3601.543555899661
 20
6703.1589578135026
 30
0.0
 11
3601.543555899661
 21
6966.6306538743811
 31
0.0
  0
LINE
  5
7FCD
  8
4
 10
3601.543555899661
 20
6966.6306538743811
 30
0.0
 11
4625.0
 21
6966.6306538743811
 31
0.0
  0
LINE
  5
7FCE
  8
4
 10
4625.0
 20
6966.6306538743811
 30
0.0
 11
4625.0
 21
6703.1589578135026
 31
0.0
  0
LINE
  5
7FCF
  8
4
 10
4625.0
 20
6703.1589578135026
 30
0.0
 11
3601.543555899661
 21
6703.1589578135026
 31
0.0
  0
LINE
  5
7FD0
  8
4
 10
0.0
 20
0.0
 30
0.0
 11
0.0
 21
7375.0
 31
0.0
  0
LINE
  5
7FD1
  8
4
 10
0.0
 20
7375.0
 30
0.0
 11
5250.0
 21
7375.0
 31
0.0
  0
LINE
  5
7FD2
  8
4
 10
5250.0
 20
7375.0
 30
0.0
 11
5250.0
 21
0.0
 31
0.0
  0
LINE
  5
7FD3
  8
4
 10
5250.0
 20
0.0
 30
0.0
 11
0.0
 21
0.0
 31
0.0
  0
DIMENSION
  5
7FF4
  8
3
  2
*D20
 10
2335.8484591246538
 20
1813.795595788592
 30
0.0
 11
2273.3484591246529
 21
1599.509881502878
 31
0.0
 70
     0
 13
1975.3713110461169
 23
1913.795595788592
 33
0.0
 14
1975.3713110461169
 24
1813.795595788592
 34
0.0
 50
90.0
1001
ACAD
1000
DSTYLE
1002
{
1070
   287
1070
     3
1070
    40
1040
25.0
1070
   143
1040
0.039
1070
   172
1070
     1
1070
   271
1070
     0
1070
   279
1070
     0
1070
   288
1070
     1
1070
     6
1000
DOT
1002
}
  0
POINT
  5
8073
  8
DEFPOINTS
  6
BYBLOCK
 62
     0
 10
1975.3713110461169
 20
2008.795595788592
 30
0.0
  0
POINT
  5
8074
  8
DEFPOINTS
  6
BYBLOCK
 62
     0
 10
1975.3713110461169
 20
1913.795595788592
 30
0.0
  0
DIMENSION
  5
820B
  8
3
  2
*D22
 10
4262.7181764567786
 20
3586.3572101312411
 30
0.0
 11
4142.2393781337069
 21
3686.3572101312411
 31
0.0
 12
262.0505711505902
 22
0.0
 32
0.0
 70
     0
 13
4021.7605798106342
 23
3468.6745734818642
 33
0.0
 14
4262.7181764567786
 24
2827.9812226390732
 34
0.0
1001
ACAD
1000
DSTYLE
1002
{
1070
   288
1070
     1
1070
   172
1070
     1
1070
    75
1070
     1
1070
    40
1040
25.0
1070
   271
1070
     0
1070
   143
1040
0.039
1002
}
  0
LINE
  5
8252
  8
1
 10
3744.2605798106342
 20
3232.2955957885929
 30
0.0
 11
3744.2605798106342
 21
2502.295595788592
 31
0.0
  0
LINE
  5
8253
  8
1
 10
3744.2605798106342
 20
3232.2955957885929
 30
0.0
 11
4299.260579810636
 21
3232.2955957885929
 31
0.0
  0
LINE
  5
8254
  8
1
 10
4299.2605798106351
 20
3232.2955957885929
 30
0.0
 11
4299.2605798106342
 21
2502.2955957885929
 31
0.0
  0
LINE
  5
8255
  8
1
 10
3744.2605798106342
 20
2502.295595788592
 30
0.0
 11
4299.2605798106342
 21
2502.2955957885929
 31
0.0
  0
LINE
  5
8256
  8
1
 10
3784.2605798106342
 20
2502.295595788592
 30
0.0
 11
3784.2605798106342
 21
2108.795595788592
 31
0.0
  0
LINE
  5
8257
  8
1
 10
4259.2605798106342
 20
2502.2955957885929
 30
0.0
 11
4259.2605798106333
 21
2108.795595788592
 31
0.0
  0
DIMENSION
  5
828B
  8
3
  2
*D23
 10
2335.8484591246538
 20
1913.795595788592
 30
0.0
 11
2455.491316267512
 21
1961.295595788592
 31
0.0
 12
349.40077137535621
 22
0.0
 32
0.0
 70
     0
  1
(<>)
 13
1975.3713110461169
 23
2008.795595788592
 33
0.0
 14
1975.3713110461169
 24
1913.795595788592
 34
0.0
 50
90.0
1001
ACAD
1000
DSTYLE
1002
{
1070
   288
1070
     1
1070
   172
1070
     1
1070
    75
1070
     1
1070
    40
1040
25.0
1070
   271
1070
     0
1070
     7
1000
_DOT
1070
   143
1040
0.039
1002
}
  0
LINE
  5
82D0
  8
1
 10
1405.3713110461169
 20
2458.795595788592
 30
0.0
 11
1745.3713110461169
 21
2458.795595788592
 31
0.0
  0
LINE
  5
82D2
  8
1
 10
1745.3713110461169
 20
2458.795595788592
 30
0.0
 11
1825.3713110461169
 21
2108.795595788592
 31
0.0
  0
LINE
  5
82D3
  8
1
 10
1405.3713110461169
 20
2458.795595788592
 30
0.0
 11
1325.3713110461169
 21
2108.795595788592
 31
0.0
  0
LINE
  5
82D4
  8
1
 10
1405.3713110461169
 20
4729.5120844347966
 30
0.0
 11
1405.3713110461169
 21
4189.5120844347957
 31
0.0
  0
LINE
  5
82D5
  8
1
 10
1745.3713110461169
 20
4729.5120844347966
 30
0.0
 11
1745.3713110461169
 21
4189.5120844347957
 31
0.0
  0
DIMENSION
  5
82E8
  8
3
  2
*D24
 10
4482.8813581273434
 20
2178.795595788592
 30
0.0
 11
4482.8813581273416
 21
2513.4187130440619
 31
0.0
 70
   128
 13
4259.2605798106342
 23
2848.795595788592
 33
0.0
 14
4259.2605798106342
 24
2178.795595788592
 34
0.0
 50
90.0
1001
ACAD
1000
DSTYLE
1002
{
1070
   287
1070
     3
1070
    40
1040
25.0
1070
   143
1040
0.039
1070
   172
1070
     1
1070
   271
1070
     0
1070
   279
1070
     0
1070
   288
1070
     1
1002
}
  0
ENDSEC
  0
EOF
