  0
SECTION
  2
HEADER
  9
$ACADVER
  1
AC1009
  9
$INSBASE
 10
0.0
 20
0.0
 30
0.0
  9
$EXTMIN
 10
0.0
 20
0.0
 30
0.0
  9
$EXTMAX
 10
5250.0
 20
7375.0
 30
0.0
  9
$LIMMIN
 10
0.0
 20
0.0
  9
$LIMMAX
 10
297.0
 20
210.0
  9
$ORTHOMODE
 70
     0
  9
$REGENMODE
 70
     1
  9
$FILLMODE
 70
     0
  9
$QTEXTMODE
 70
     0
  9
$MIRRTEXT
 70
     1
  9
$DRAGMODE
 70
     2
  9
$LTSCALE
 40
100.0
  9
$OSMODE
 70
    37
  9
$ATTMODE
 70
     1
  9
$TEXTSIZE
 40
180.0
  9
$TRACEWID
 40
0.05
  9
$TEXTSTYLE
  7
STANDARD
  9
$CLAYER
  8
3
  9
$CELTYPE
  6
BYLAYER
  9
$CECOLOR
 62
   256
  9
$DIMSCALE
 40
25.0
  9
$DIMASZ
 40
2.0
  9
$DIMEXO
 40
0.5
  9
$DIMDLI
 40
10.0
  9
$DIMRND
 40
0.0
  9
$DIMDLE
 40
0.0
  9
$DIMEXE
 40
1.0
  9
$DIMTP
 40
1.0
  9
$DIMTM
 40
1.0
  9
$DIMTXT
 40
3.0
  9
$DIMCEN
 40
0.0
  9
$DIMTSZ
 40
0.0
  9
$DIMTOL
 70
     0
  9
$DIMLIM
 70
     0
  9
$DIMTIH
 70
     0
  9
$DIMTOH
 70
     0
  9
$DIMSE1
 70
     0
  9
$DIMSE2
 70
     0
  9
$DIMTAD
 70
     1
  9
$DIMZIN
 70
     8
  9
$DIMBLK
  1

  9
$DIMASO
 70
     1
  9
$DIMSHO
 70
     1
  9
$DIMPOST
  1

  9
$DIMAPOST
  1

  9
$DIMALT
 70
     0
  9
$DIMALTD
 70
     2
  9
$DIMALTF
 40
0.039
  9
$DIMLFAC
 40
1.0
  9
$DIMTOFL
 70
     1
  9
$DIMTVP
 40
0.0
  9
$DIMTIX
 70
     0
  9
$DIMSOXD
 70
     0
  9
$DIMSAH
 70
     1
  9
$DIMBLK1
  1
OPEN
  9
$DIMBLK2
  1
OPEN
  9
$DIMSTYLE
  2
IGA
  9
$DIMCLRD
 70
     0
  9
$DIMCLRE
 70
     0
  9
$DIMCLRT
 70
     0
  9
$DIMTFAC
 40
10.0
  9
$DIMGAP
 40
1.0
  9
$LUNITS
 70
     2
  9
$LUPREC
 70
     3
  9
$SKETCHINC
 40
0.1
  9
$FILLETRAD
 40
50.0
  9
$AUNITS
 70
     0
  9
$AUPREC
 70
     0
  9
$MENU
  1
acad
  9
$ELEVATION
 40
0.0
  9
$PELEVATION
 40
0.0
  9
$THICKNESS
 40
0.0
  9
$LIMCHECK
 70
     0
  9
$BLIPMODE
 70
     0
  9
$CHAMFERA
 40
0.5
  9
$CHAMFERB
 40
0.5
  9
$SKPOLY
 70
     0
  9
$TDCREATE
 40
2451004.5478238421
  9
$TDUPDATE
 40
2454953.75632721
  9
$TDINDWG
 40
0.0313825231
  9
$TDUSRTIMER
 40
0.0313825231
  9
$USRTIMER
 70
     1
  9
$ANGBASE
 50
0.0
  9
$ANGDIR
 70
     0
  9
$PDMODE
 70
     0
  9
$PDSIZE
 40
0.0
  9
$PLINEWID
 40
0.0
  9
$COORDS
 70
     1
  9
$SPLFRAME
 70
     0
  9
$SPLINETYPE
 70
     6
  9
$SPLINESEGS
 70
     8
  9
$ATTDIA
 70
     0
  9
$ATTREQ
 70
     1
  9
$HANDLING
 70
 10241
  9
$HANDSEED
  5
83AC
  9
$SURFTAB1
 70
     6
  9
$SURFTAB2
 70
     6
  9
$SURFTYPE
 70
     6
  9
$SURFU
 70
     6
  9
$SURFV
 70
     6
  9
$UCSNAME
  2

  9
$UCSORG
 10
0.0
 20
0.0
 30
0.0
  9
$UCSXDIR
 10
1.0
 20
0.0
 30
0.0
  9
$UCSYDIR
 10
0.0
 20
1.0
 30
0.0
  9
$PUCSNAME
  2

  9
$PUCSORG
 10
0.0
 20
0.0
 30
0.0
  9
$PUCSXDIR
 10
1.0
 20
0.0
 30
0.0
  9
$PUCSYDIR
 10
0.0
 20
1.0
 30
0.0
  9
$USERI1
 70
     0
  9
$USERI2
 70
     0
  9
$USERI3
 70
     0
  9
$USERI4
 70
     0
  9
$USERI5
 70
     0
  9
$USERR1
 40
0.0
  9
$USERR2
 40
0.0
  9
$USERR3
 40
0.0
  9
$USERR4
 40
0.0
  9
$USERR5
 40
0.0
  9
$WORLDVIEW
 70
     1
  9
$SHADEDGE
 70
     3
  9
$SHADEDIF
 70
    70
  9
$TILEMODE
 70
     1
  9
$MAXACTVP
 70
    16
  9
$PLIMCHECK
 70
     0
  9
$PEXTMIN
 10
1.0000000000000000E+020
 20
1.0000000000000000E+020
 30
1.0000000000000000E+020
  9
$PEXTMAX
 10
-1.0000000000000000E+020
 20
-1.0000000000000000E+020
 30
-1.0000000000000000E+020
  9
$PLIMMIN
 10
0.0
 20
0.0
  9
$PLIMMAX
 10
12.0
 20
9.0
  9
$UNITMODE
 70
     0
  9
$VISRETAIN
 70
     0
  9
$PLINEGEN
 70
     0
  9
$PSLTSCALE
 70
     1
  0
ENDSEC
  0
SECTION
  2
TABLES
  0
TABLE
  2
VPORT
 70
     2
  0
VPORT
  2
*ACTIVE
 70
     0
 10
0.0
 20
0.0
 11
1.0
 21
1.0
 12
8841.9043359208972
 22
3687.5000343435672
 13
0.0
 23
0.0
 14
10.0
 24
10.0
 15
10.0
 25
10.0
 16
0.0
 26
0.0
 36
1.0
 17
0.0
 27
0.0
 37
0.0
 40
7431.9907925775051
 41
3.1666666666666661
 42
50.0
 43
0.0
 44
0.0
 50
0.0
 51
0.0
 71
     0
 72
   100
 73
     1
 74
     0
 75
     0
 76
     0
 77
     0
 78
     0
  0
ENDTAB
  0
TABLE
  2
LTYPE
 70
     2
  0
LTYPE
  2
CONTINUOUS
 70
     0
  3
Solid line
 72
    65
 73
     0
 40
0.0
  0
LTYPE
  2
CENTER
 70
     0
  3
____ _ ____ _ ____ _ ____ _ ____ _ ____ _ ____ 
 72
    65
 73
     4
 40
2.0
 49
1.25
 49
-0.25
 49
0.25
 49
-0.25
  0
ENDTAB
  0
TABLE
  2
LAYER
 70
     6
  0
LAYER
  2
0
 70
     0
 62
     7
  6
CONTINUOUS
  0
LAYER
  2
3
 70
     0
 62
     2
  6
CONTINUOUS
  0
LAYER
  2
2
 70
     0
 62
     3
  6
CENTER
  0
LAYER
  2
1
 70
     0
 62
     4
  6
CONTINUOUS
  0
LAYER
  2
4
 70
     0
 62
     7
  6
CONTINUOUS
  0
LAYER
  2
DEFPOINTS
 70
     0
 62
     7
  6
CONTINUOUS
  0
ENDTAB
  0
TABLE
  2
STYLE
 70
     1
  0
STYLE
  2
STANDARD
 70
     0
 40
0.0
 41
1.0
 50
0.0
 71
     0
 42
180.0
  3
simplex.shx
  4
extfont.shx
  0
ENDTAB
  0
TABLE
  2
VIEW
 70
     0
  0
ENDTAB
  0
TABLE
  2
UCS
 70
     0
  0
ENDTAB
  0
TABLE
  2
APPID
 70
     1
  0
APPID
  2
ACAD
 70
     0
  0
ENDTAB
  0
TABLE
  2
DIMSTYLE
 70
     1
  0
DIMSTYLE
  2
IGA
 70
     0
  3

  4

  5

  6
OPEN
  7
OPEN
 40
2.0
 41
2.0
 42
0.5
 43
10.0
 44
1.0
 45
0.0
 46
0.0
 47
1.0
 48
1.0
140
3.0
141
0.0
142
0.0
143
0.03937
144
1.0
145
0.0
146
10.0
147
1.0
 71
     0
 72
     0
 73
     0
 74
     0
 75
     0
 76
     0
 77
     1
 78
     8
170
     0
171
     2
172
     0
173
     1
174
     0
175
     0
176
     0
177
     0
178
     0
  0
ENDTAB
  0
ENDSEC
  0
SECTION
  2
BLOCKS
  0
BLOCK
  8
0
  2
$MODEL_SPACE
 70
     0
 10
0.0
 20
0.0
 30
0.0
  3
$MODEL_SPACE
  1

  0
ENDBLK
  5
1B
  8
0
  0
BLOCK
 67
     1
  8
0
  2
$PAPER_SPACE
 70
     0
 10
0.0
 20
0.0
 30
0.0
  3
$PAPER_SPACE
  1

  0
ENDBLK
  5
18
 67
     1
  8
0
  0
BLOCK
  8
0
  2
ARROW
 70
     0
 10
0.0
 20
0.0
 30
0.0
  3
ARROW
  1

  0
LINE
  5
79FD
  8
0
 10
-0.9999999999999991
 20
0.1666666667000003
 30
0.0
 11
0.0
 21
0.0
 31
0.0
  0
LINE
  5
79FE
  8
0
 10
-0.9999999999999991
 20
0.0
 30
0.0
 11
0.0
 21
0.0
 31
0.0
  0
LINE
  5
79FF
  8
0
 10
-0.9999999999999991
 20
-0.1666666667000003
 30
0.0
 11
0.0
 21
0.0
 31
0.0
  0
ENDBLK
  5
7A01
  8
0
  0
BLOCK
  8
0
  2
*D1
 70
     1
 10
0.0
 20
0.0
 30
0.0
  3
*D1
  1

  0
LINE
  5
82C4
  8
3
 62
     0
 10
1337.62211874493
 20
3096.0295044088612
 30
0.0
 11
2443.0455336429732
 21
3096.0295044088612
 31
0.0
  0
LINE
  5
82C5
  8
3
 62
     0
 10
1737.62211874493
 20
1706.238967209126
 30
0.0
 11
2443.0455336429732
 21
1706.238967209126
 31
0.0
  0
LINE
  5
82C6
  8
3
 62
     0
 10
2418.0455336429732
 20
3046.0295044088621
 30
0.0
 11
2418.0455336429732
 21
1756.238967209126
 31
0.0
  0
INSERT
  5
82C7
  8
3
 62
     0
  2
_OPEN
 10
2418.0455336429741
 20
3096.0295044088612
 30
0.0
 41
50.0
 42
50.0
 43
50.0
 50
90.0
  0
INSERT
  5
82C8
  8
3
 62
     0
  2
_OPEN
 10
2418.0455336429732
 20
1706.238967209126
 30
0.0
 41
50.0
 42
50.0
 43
50.0
 50
270.0
  0
TEXT
  8
3
  40
75
  5
8395
  62
0
  72
0
  71
0
 10
2205.55
 20
2268.38
 30
0.000000
  1
1392
  0
POINT
  5
82CA
  8
DEFPOINTS
 62
     0
 10
1325.12211874493
 20
3096.0295044088612
 30
0.0
  0
POINT
  5
82CB
  8
DEFPOINTS
 62
     0
 10
1725.12211874493
 20
1706.238967209126
 30
0.0
  0
POINT
  5
82CC
  8
DEFPOINTS
 62
     0
 10
2418.0455336429732
 20
1706.238967209126
 30
0.0
  0
ENDBLK
  5
810A
  8
0
  0
BLOCK
  8
0
  2
*D2
 70
     1
 10
0.0
 20
0.0
 30
0.0
  3
*D2
  1

  0
LINE
  5
82CD
  8
3
 62
     0
 10
625.12211874493005
 20
1996.738967209126
 30
0.0
 11
625.12211874493005
 21
3422.0411650038368
 31
0.0
  0
LINE
  5
82CE
  8
3
 62
     0
 10
1785.12211874493
 20
2671.2389672091258
 30
0.0
 11
1785.12211874493
 21
3422.0411650038368
 31
0.0
  0
LINE
  5
82CF
  8
3
 62
     0
 10
675.12211874493005
 20
3397.0411650038368
 30
0.0
 11
1735.12211874493
 21
3397.0411650038368
 31
0.0
  0
INSERT
  5
82D0
  8
3
 62
     0
  2
_OPEN
 10
625.12211874493005
 20
3397.0411650038368
 30
0.0
 41
50.0
 42
50.0
 43
50.0
 50
180.0
  0
INSERT
  5
82D1
  8
3
 62
     0
  2
_OPEN
 10
1785.12211874493
 20
3397.0411650038368
 30
0.0
 41
50.0
 42
50.0
 43
50.0
  0
TEXT
  8
3
  40
75
  5
8396
  62
0
  72
0
  71
0
 10
1055.12
 20
3326.79
 30
0.000000
  1
1160
  0
POINT
  5
82D3
  8
DEFPOINTS
 62
     0
 10
625.12211874493005
 20
1984.238967209126
 30
0.0
  0
POINT
  5
82D4
  8
DEFPOINTS
 62
     0
 10
1785.12211874493
 20
2658.7389672091258
 30
0.0
  0
POINT
  5
82D5
  8
DEFPOINTS
 62
     0
 10
1785.12211874493
 20
3397.0411650038368
 30
0.0
  0
ENDBLK
  5
7F11
  8
0
  0
BLOCK
  8
0
  2
*D3
 70
     1
 10
0.0
 20
0.0
 30
0.0
  3
*D3
  1

  0
LINE
  5
82D6
  8
3
 62
     0
 10
779.33158154519595
 20
2656.7389672091258
 30
0.0
 11
779.33158154519595
 21
3271.0132454475829
 31
0.0
  0
LINE
  5
82D7
  8
3
 62
     0
 10
1325.12211874493
 20
3213.3162482458852
 30
0.0
 11
1325.12211874493
 21
3271.0132454475829
 31
0.0
  0
LINE
  5
82D8
  8
3
 62
     0
 10
829.33158154519595
 20
3246.0132454475838
 30
0.0
 11
1275.12211874493
 21
3246.0132454475838
 31
0.0
  0
INSERT
  5
82D9
  8
3
 62
     0
  2
_OPEN
 10
779.33158154519595
 20
3246.0132454475838
 30
0.0
 41
50.0
 42
50.0
 43
50.0
 50
180.0
  0
INSERT
  5
82DA
  8
3
 62
     0
  2
_OPEN
 10
1325.12211874493
 20
3246.0132454475838
 30
0.0
 41
50.0
 42
50.0
 43
50.0
  0
TEXT
  8
3
  40
75
  5
8397
  62
0
  72
0
  71
0
 10
902.227
 20
3175.76
 30
0.000000
  1
548
  0
POINT
  5
82DC
  8
DEFPOINTS
 62
     0
 10
779.33158154519595
 20
2644.2389672091258
 30
0.0
  0
POINT
  5
82DD
  8
DEFPOINTS
 62
     0
 10
1325.12211874493
 20
3200.8162482458852
 30
0.0
  0
POINT
  5
82DE
  8
DEFPOINTS
 62
     0
 10
1325.12211874493
 20
3246.0132454475838
 30
0.0
  0
ENDBLK
  5
7F06
  8
0
  0
BLOCK
  8
0
  2
*D4
 70
     1
 10
0.0
 20
0.0
 30
0.0
  3
*D4
  1

  0
LINE
  5
82DF
  8
3
 62
     0
 10
645.12211874493005
 20
1693.738967209126
 30
0.0
 11
645.12211874493005
 21
1381.1247907536381
 31
0.0
  0
LINE
  5
82E0
  8
3
 62
     0
 10
1725.12211874493
 20
1693.738967209126
 30
0.0
 11
1725.12211874493
 21
1381.1247907536381
 31
0.0
  0
LINE
  5
82E1
  8
3
 62
     0
 10
695.12211874493005
 20
1406.1247907536381
 30
0.0
 11
1675.12211874493
 21
1406.1247907536381
 31
0.0
  0
INSERT
  5
82E2
  8
3
 62
     0
  2
_OPEN
 10
645.12211874493005
 20
1406.1247907536381
 30
0.0
 41
50.0
 42
50.0
 43
50.0
 50
180.0
  0
INSERT
  5
82E3
  8
3
 62
     0
  2
_OPEN
 10
1725.12211874493
 20
1406.1247907536381
 30
0.0
 41
50.0
 42
50.0
 43
50.0
  0
TEXT
  8
3
  40
75
  5
8398
  62
0
  72
0
  71
0
 10
1035.12
 20
1335.87
 30
0.000000
  1
1080
  0
POINT
  5
82E5
  8
DEFPOINTS
 62
     0
 10
645.12211874493005
 20
1706.238967209126
 30
0.0
  0
POINT
  5
82E6
  8
DEFPOINTS
 62
     0
 10
1725.12211874493
 20
1706.238967209126
 30
0.0
  0
POINT
  5
82E7
  8
DEFPOINTS
 62
     0
 10
1725.12211874493
 20
1406.1247907536381
 30
0.0
  0
ENDBLK
  5
7EF0
  8
0
  0
BLOCK
  8
0
  2
*D5
 70
     1
 10
0.0
 20
0.0
 30
0.0
  3
*D5
  1

  0
LINE
  5
82E8
  8
3
 62
     0
 10
645.12211874493005
 20
1693.738967209126
 30
0.0
 11
645.12211874493005
 21
1532.2530988546359
 31
0.0
  0
LINE
  5
82E9
  8
3
 62
     0
 10
1325.12211874493
 20
1693.738967209126
 30
0.0
 11
1325.12211874493
 21
1532.2530988546359
 31
0.0
  0
LINE
  5
82EA
  8
3
 62
     0
 10
695.12211874493005
 20
1557.253098854635
 30
0.0
 11
1275.12211874493
 21
1557.253098854635
 31
0.0
  0
INSERT
  5
82EB
  8
3
 62
     0
  2
_OPEN
 10
645.12211874493005
 20
1557.253098854635
 30
0.0
 41
50.0
 42
50.0
 43
50.0
 50
180.0
  0
INSERT
  5
82EC
  8
3
 62
     0
  2
_OPEN
 10
1325.12211874493
 20
1557.253098854635
 30
0.0
 41
50.0
 42
50.0
 43
50.0
  0
TEXT
  8
3
  40
75
  5
8399
  62
0
  72
0
  71
0
 10
835.122
 20
1487.00
 30
0.000000
  1
680
  0
POINT
  5
82EE
  8
DEFPOINTS
 62
     0
 10
645.12211874493005
 20
1706.238967209126
 30
0.0
  0
POINT
  5
82EF
  8
DEFPOINTS
 62
     0
 10
1325.12211874493
 20
1706.238967209126
 30
0.0
  0
POINT
  5
82F0
  8
DEFPOINTS
 62
     0
 10
1325.12211874493
 20
1557.253098854635
 30
0.0
  0
ENDBLK
  5
7EFB
  8
0
  0
BLOCK
  8
0
  2
*D6
 70
     1
 10
0.0
 20
0.0
 30
0.0
  3
*D6
  1

  0
LINE
  5
82F1
  8
3
 62
     0
 10
1851.2646793024339
 20
2644.2389672091258
 30
0.0
 11
2258.5841580206279
 21
2644.2389672091258
 31
0.0
  0
LINE
  5
82F2
  8
3
 62
     0
 10
1737.62211874493
 20
1844.238967209126
 30
0.0
 11
2258.5841580206279
 21
1844.238967209126
 31
0.0
  0
LINE
  5
82F3
  8
3
 62
     0
 10
2233.5841580206288
 20
2594.2389672091258
 30
0.0
 11
2233.5841580206288
 21
1894.238967209126
 31
0.0
  0
INSERT
  5
82F4
  8
3
 62
     0
  2
_OPEN
 10
2233.5841580206288
 20
2644.2389672091258
 30
0.0
 41
50.0
 42
50.0
 43
50.0
 50
90.0
  0
INSERT
  5
82F5
  8
3
 62
     0
  2
_OPEN
 10
2233.5841580206288
 20
1844.238967209126
 30
0.0
 41
50.0
 42
50.0
 43
50.0
 50
270.0
  0
TEXT
  8
3
  40
75
  5
839A
  62
0
  72
0
  71
0
 10
2021.08
 20
2111.49
 30
0.000000
  1
800
  0
POINT
  5
82F7
  8
DEFPOINTS
 62
     0
 10
1838.7646793024339
 20
2644.2389672091258
 30
0.0
  0
POINT
  5
82F8
  8
DEFPOINTS
 62
     0
 10
1725.12211874493
 20
1844.238967209126
 30
0.0
  0
POINT
  5
82F9
  8
DEFPOINTS
 62
     0
 10
2233.5841580206288
 20
1844.238967209126
 30
0.0
  0
ENDBLK
  5
7EDA
  8
0
  0
BLOCK
  8
0
  2
*D7
 70
     1
 10
0.0
 20
0.0
 30
0.0
  3
*D7
  1

  0
LINE
  5
82FA
  8
3
 62
     0
 10
1797.62211874493
 20
1966.238967209126
 30
0.0
 11
2110.5992668234662
 21
1966.238967209126
 31
0.0
  0
LINE
  5
82FB
  8
3
 62
     0
 10
1851.2646793024339
 20
2644.2389672091258
 30
0.0
 11
2110.5992668234662
 21
2644.2389672091258
 31
0.0
  0
LINE
  5
82FC
  8
3
 62
     0
 10
2085.5992668234662
 20
2016.238967209126
 30
0.0
 11
2085.5992668234662
 21
2594.2389672091258
 31
0.0
  0
INSERT
  5
82FD
  8
3
 62
     0
  2
_OPEN
 10
2085.5992668234662
 20
1966.238967209126
 30
0.0
 41
50.0
 42
50.0
 43
50.0
 50
270.0
  0
INSERT
  5
82FE
  8
3
 62
     0
  2
_OPEN
 10
2085.5992668234662
 20
2644.2389672091258
 30
0.0
 41
50.0
 42
50.0
 43
50.0
 50
90.0
  0
TEXT
  8
3
  40
75
  5
839B
  62
0
  72
0
  71
0
 10
1873.10
 20
2172.49
 30
0.000000
  1
678
  0
POINT
  5
8300
  8
DEFPOINTS
 62
     0
 10
1785.12211874493
 20
1966.238967209126
 30
0.0
  0
POINT
  5
8301
  8
DEFPOINTS
 62
     0
 10
1838.7646793024339
 20
2644.2389672091258
 30
0.0
  0
POINT
  5
8302
  8
DEFPOINTS
 62
     0
 10
2085.5992668234662
 20
2644.2389672091258
 30
0.0
  0
ENDBLK
  5
7F27
  8
0
  0
BLOCK
  8
0
  2
*D8
 70
     1
 10
0.0
 20
0.0
 30
0.0
  3
*D8
  1

  0
LINE
  5
8303
  8
3
 62
     0
 10
1797.62211874493
 20
1966.238967209126
 30
0.0
 11
1959.0716429111501
 21
1966.238967209126
 31
0.0
  0
LINE
  5
8304
  8
3
 62
     0
 10
1797.62211874493
 20
2616.2389672091272
 30
0.0
 11
1959.0716429111501
 21
2616.2389672091272
 31
0.0
  0
LINE
  5
8305
  8
3
 62
     0
 10
1934.0716429111501
 20
2016.238967209126
 30
0.0
 11
1934.071642911151
 21
2566.2389672091272
 31
0.0
  0
INSERT
  5
8306
  8
3
 62
     0
  2
_OPEN
 10
1934.0716429111501
 20
1966.238967209126
 30
0.0
 41
50.0
 42
50.0
 43
50.0
 50
270.0
  0
INSERT
  5
8307
  8
3
 62
     0
  2
_OPEN
 10
1934.071642911151
 20
2616.2389672091272
 30
0.0
 41
50.0
 42
50.0
 43
50.0
 50
90.0
  0
TEXT
  8
3
  40
75
  5
839C
  62
0
  72
0
  71
0
 10
1721.57
 20
2158.49
 30
0.000000
  1
650
  0
POINT
  5
8309
  8
DEFPOINTS
 62
     0
 10
1785.12211874493
 20
1966.238967209126
 30
0.0
  0
POINT
  5
830A
  8
DEFPOINTS
 62
     0
 10
1785.12211874493
 20
2616.2389672091272
 30
0.0
  0
POINT
  5
830B
  8
DEFPOINTS
 62
     0
 10
1934.071642911151
 20
2616.2389672091272
 30
0.0
  0
ENDBLK
  5
7F1C
  8
0
  0
BLOCK
  8
0
  2
*D9
 70
     1
 10
0.0
 20
0.0
 30
0.0
  3
*D9
  1

  0
LINE
  5
830C
  8
3
 62
     0
 10
1325.12211874493
 20
1693.738967209126
 30
0.0
 11
1325.12211874493
 21
1532.2530988546359
 31
0.0
  0
LINE
  5
830D
  8
3
 62
     0
 10
1725.12211874493
 20
1693.738967209126
 30
0.0
 11
1725.12211874493
 21
1532.2530988546359
 31
0.0
  0
LINE
  5
830E
  8
3
 62
     0
 10
1375.12211874493
 20
1557.253098854635
 30
0.0
 11
1675.12211874493
 21
1557.253098854635
 31
0.0
  0
INSERT
  5
830F
  8
3
 62
     0
  2
_OPEN
 10
1325.12211874493
 20
1557.253098854635
 30
0.0
 41
50.0
 42
50.0
 43
50.0
 50
180.0
  0
INSERT
  5
8310
  8
3
 62
     0
  2
_OPEN
 10
1725.12211874493
 20
1557.253098854635
 30
0.0
 41
50.0
 42
50.0
 43
50.0
  0
TEXT
  8
3
  40
75
  5
839D
  62
0
  72
0
  71
0
 10
1375.12
 20
1487.00
 30
0.000000
  1
400
  0
POINT
  5
8312
  8
DEFPOINTS
 62
     0
 10
1325.12211874493
 20
1706.238967209126
 30
0.0
  0
POINT
  5
8313
  8
DEFPOINTS
 62
     0
 10
1725.12211874493
 20
1706.238967209126
 30
0.0
  0
POINT
  5
8314
  8
DEFPOINTS
 62
     0
 10
1725.12211874493
 20
1557.253098854635
 30
0.0
  0
ENDBLK
  5
7F32
  8
0
  0
BLOCK
  8
0
  2
*D10
 70
     1
 10
0.0
 20
0.0
 30
0.0
  3
*D10
  1

  0
LINE
  5
8315
  8
3
 62
     0
 10
1337.62211874493
 20
3096.0295044088612
 30
0.0
 11
2258.5841580206288
 21
3096.0295044088612
 31
0.0
  0
LINE
  5
8316
  8
3
 62
     0
 10
1851.2646793024339
 20
2644.2389672091258
 30
0.0
 11
2258.5841580206288
 21
2644.2389672091258
 31
0.0
  0
LINE
  5
8317
  8
3
 62
     0
 10
2233.5841580206288
 20
3046.0295044088621
 30
0.0
 11
2233.5841580206288
 21
2694.2389672091258
 31
0.0
  0
INSERT
  5
8318
  8
3
 62
     0
  2
_OPEN
 10
2233.5841580206288
 20
3096.0295044088612
 30
0.0
 41
50.0
 42
50.0
 43
50.0
 50
90.0
  0
INSERT
  5
8319
  8
3
 62
     0
  2
_OPEN
 10
2233.5841580206288
 20
2644.2389672091258
 30
0.0
 41
50.0
 42
50.0
 43
50.0
 50
270.0
  0
TEXT
  8
3
  40
75
  5
839E
  62
0
  72
0
  71
0
 10
2021.08
 20
2737.38
 30
0.000000
  1
454
  0
POINT
  5
831B
  8
DEFPOINTS
 62
     0
 10
1325.12211874493
 20
3096.0295044088612
 30
0.0
  0
POINT
  5
831C
  8
DEFPOINTS
 62
     0
 10
1838.7646793024339
 20
2644.2389672091258
 30
0.0
  0
POINT
  5
831D
  8
DEFPOINTS
 62
     0
 10
2233.5841580206288
 20
2644.2389672091258
 30
0.0
  0
ENDBLK
  5
816F
  8
0
  0
BLOCK
  8
0
  2
*D11
 70
     1
 10
0.0
 20
0.0
 30
0.0
  3
*D11
  1

  0
LINE
  5
831E
  8
3
 62
     0
 10
1325.12211874493
 20
3213.3162482458852
 30
0.0
 11
1325.12211874493
 21
3271.0132454475829
 31
0.0
  0
LINE
  5
831F
  8
3
 62
     0
 10
1785.12211874493
 20
2671.2389672091258
 30
0.0
 11
1785.12211874493
 21
3271.0132454475829
 31
0.0
  0
LINE
  5
8320
  8
3
 62
     0
 10
1375.12211874493
 20
3246.0132454475838
 30
0.0
 11
1735.12211874493
 21
3246.0132454475838
 31
0.0
  0
INSERT
  5
8321
  8
3
 62
     0
  2
_OPEN
 10
1325.12211874493
 20
3246.0132454475838
 30
0.0
 41
50.0
 42
50.0
 43
50.0
 50
180.0
  0
INSERT
  5
8322
  8
3
 62
     0
  2
_OPEN
 10
1785.12211874493
 20
3246.0132454475838
 30
0.0
 41
50.0
 42
50.0
 43
50.0
  0
TEXT
  8
3
  40
75
  5
839F
  62
0
  72
0
  71
0
 10
1405.12
 20
3175.76
 30
0.000000
  1
460
  0
POINT
  5
8324
  8
DEFPOINTS
 62
     0
 10
1325.12211874493
 20
3200.8162482458852
 30
0.0
  0
POINT
  5
8325
  8
DEFPOINTS
 62
     0
 10
1785.12211874493
 20
2658.7389672091258
 30
0.0
  0
POINT
  5
8326
  8
DEFPOINTS
 62
     0
 10
1785.12211874493
 20
3246.0132454475838
 30
0.0
  0
ENDBLK
  5
7F48
  8
0
  0
BLOCK
  8
0
  2
*D12
 70
     1
 10
0.0
 20
0.0
 30
0.0
  3
*D12
  1

  0
LINE
  5
8327
  8
3
 62
     0
 10
1575.12211874493
 20
4268.4554558553309
 30
0.0
 11
1575.12211874493
 21
3964.0747795692978
 31
0.0
  0
LINE
  5
8328
  8
3
 62
     0
 10
645.12211874493005
 20
4268.4554558553309
 30
0.0
 11
645.12211874493005
 21
3964.0747795692978
 31
0.0
  0
LINE
  5
8329
  8
3
 62
     0
 10
1525.12211874493
 20
3989.0747795692978
 30
0.0
 11
695.12211874493005
 21
3989.0747795692978
 31
0.0
  0
INSERT
  5
832A
  8
3
 62
     0
  2
_OPEN
 10
1575.12211874493
 20
3989.0747795692978
 30
0.0
 41
50.0
 42
50.0
 43
50.0
  0
INSERT
  5
832B
  8
3
 62
     0
  2
_OPEN
 10
645.12211874493005
 20
3989.0747795692978
 30
0.0
 41
50.0
 42
50.0
 43
50.0
 50
180.0
  0
TEXT
  8
3
  40
75
  5
83A0
  62
0
  72
0
  71
0
 10
960.122
 20
3918.82
 30
0.000000
  1
930
  0
POINT
  5
832D
  8
DEFPOINTS
 62
     0
 10
1575.12211874493
 20
4280.9554558553309
 30
0.0
  0
POINT
  5
832E
  8
DEFPOINTS
 62
     0
 10
645.12211874493005
 20
4280.9554558553309
 30
0.0
  0
POINT
  5
832F
  8
DEFPOINTS
 62
     0
 10
645.12211874493005
 20
3989.0747795692978
 30
0.0
  0
ENDBLK
  5
8097
  8
0
  0
BLOCK
  8
0
  2
*D13
 70
     1
 10
0.0
 20
0.0
 30
0.0
  3
*D13
  1

  0
LINE
  5
8330
  8
3
 62
     0
 10
925.12211874493005
 20
5493.4554558553318
 30
0.0
 11
925.12211874493005
 21
5651.5293424590836
 31
0.0
  0
LINE
  5
8331
  8
3
 62
     0
 10
1725.12211874493
 20
5493.4554558553318
 30
0.0
 11
1725.12211874493
 21
5651.5293424590836
 31
0.0
  0
LINE
  5
8332
  8
3
 62
     0
 10
975.12211874493005
 20
5626.5293424590827
 30
0.0
 11
1675.12211874493
 21
5626.5293424590827
 31
0.0
  0
INSERT
  5
8333
  8
3
 62
     0
  2
_OPEN
 10
925.12211874493005
 20
5626.5293424590827
 30
0.0
 41
50.0
 42
50.0
 43
50.0
 50
180.0
  0
INSERT
  5
8334
  8
3
 62
     0
  2
_OPEN
 10
1725.12211874493
 20
5626.5293424590827
 30
0.0
 41
50.0
 42
50.0
 43
50.0
  0
TEXT
  8
3
  40
75
  5
83A1
  62
0
  72
0
  71
0
 10
1175.12
 20
5556.28
 30
0.000000
  1
800
  0
POINT
  5
8336
  8
DEFPOINTS
 62
     0
 10
925.12211874493005
 20
5480.9554558553309
 30
0.0
  0
POINT
  5
8337
  8
DEFPOINTS
 62
     0
 10
1725.12211874493
 20
5480.9554558553309
 30
0.0
  0
POINT
  5
8338
  8
DEFPOINTS
 62
     0
 10
1725.12211874493
 20
5626.5293424590827
 30
0.0
  0
ENDBLK
  5
80D2
  8
0
  0
BLOCK
  8
0
  2
*D14
 70
     1
 10
0.0
 20
0.0
 30
0.0
  3
*D14
  1

  0
LINE
  5
8339
  8
3
 62
     0
 10
632.62211874493005
 20
4280.9554558553309
 30
0.0
 11
471.69294713348779
 21
4280.9554558553309
 31
0.0
  0
LINE
  5
833A
  8
3
 62
     0
 10
632.62211874493005
 20
4944.9554558553318
 30
0.0
 11
471.69294713348791
 21
4944.9554558553318
 31
0.0
  0
LINE
  5
833B
  8
3
 62
     0
 10
496.69294713348779
 20
4330.9554558553309
 30
0.0
 11
496.69294713348791
 21
4894.9554558553309
 31
0.0
  0
INSERT
  5
833C
  8
3
 62
     0
  2
_OPEN
 10
496.69294713348779
 20
4280.9554558553309
 30
0.0
 41
50.0
 42
50.0
 43
50.0
 50
270.0
  0
INSERT
  5
833D
  8
3
 62
     0
  2
_OPEN
 10
496.69294713348791
 20
4944.9554558553318
 30
0.0
 41
50.0
 42
50.0
 43
50.0
 50
90.0
  0
TEXT
  8
3
  40
75
  5
83A2
  62
0
  72
0
  71
0
 10
284.193
 20
4480.21
 30
0.000000
  1
664
  0
POINT
  5
833F
  8
DEFPOINTS
 62
     0
 10
645.12211874493005
 20
4280.9554558553309
 30
0.0
  0
POINT
  5
8340
  8
DEFPOINTS
 62
     0
 10
645.12211874493005
 20
4944.9554558553318
 30
0.0
  0
POINT
  5
8341
  8
DEFPOINTS
 62
     0
 10
496.69294713348791
 20
4944.9554558553318
 30
0.0
  0
ENDBLK
  5
80A2
  8
0
  0
BLOCK
  8
0
  2
*D15
 70
     1
 10
0.0
 20
0.0
 30
0.0
  3
*D15
  1

  0
LINE
  5
80F1
  8
0
  6
BYBLOCK
 62
     0
 10
925.12211874493005
 20
5493.4554558553318
 30
0.0
 11
925.12211874493005
 21
5651.5293424590836
 31
0.0
  0
LINE
  5
80F2
  8
0
  6
BYBLOCK
 62
     0
 10
645.12211874493005
 20
4957.4554558553309
 30
0.0
 11
645.12211874493005
 21
5651.5293424590836
 31
0.0
  0
LINE
  5
80F3
  8
0
  6
BYBLOCK
 62
     0
 10
875.12211874493005
 20
5626.5293424590827
 30
0.0
 11
695.12211874493005
 21
5626.5293424590827
 31
0.0
  0
TEXT
  5
80F4
  8
3
 62
     0
 10
688.69354731635849
 20
5642.8500972679913
 30
0.0
 40
75.0
  1
280
  0
INSERT
  5
80F5
  8
0
  6
BYBLOCK
 62
     0
  2
_OPEN
 10
925.12211874493005
 20
5626.5293424590827
 30
0.0
 41
50.0
 42
50.0
 43
50.0
  0
INSERT
  5
80F6
  8
0
  6
BYBLOCK
 62
     0
  2
_OPEN
 10
645.12211874493005
 20
5626.5293424590827
 30
0.0
 41
50.0
 42
50.0
 43
50.0
 50
180.0
  0
POINT
  5
80F7
  8
DEFPOINTS
  6
BYBLOCK
 62
     0
 10
925.12211874493005
 20
5480.9554558553309
 30
0.0
  0
POINT
  5
80F8
  8
DEFPOINTS
  6
BYBLOCK
 62
     0
 10
645.12211874493005
 20
4944.9554558553318
 30
0.0
  0
POINT
  5
80F9
  8
DEFPOINTS
  6
BYBLOCK
 62
     0
 10
645.12211874493005
 20
5626.5293424590827
 30
0.0
  0
ENDBLK
  5
80FA
  8
0
  0
BLOCK
  8
0
  2
*D16
 70
     1
 10
0.0
 20
0.0
 30
0.0
  3
*D16
  1

  0
LINE
  5
8342
  8
3
 62
     0
 10
1575.12211874493
 20
4268.4554558553309
 30
0.0
 11
1575.12211874493
 21
3964.0747795692978
 31
0.0
  0
LINE
  5
8343
  8
3
 62
     0
 10
1725.12211874493
 20
4882.4554558553318
 30
0.0
 11
1725.12211874493
 21
3964.0747795692978
 31
0.0
  0
LINE
  5
8344
  8
3
 62
     0
 10
1625.12211874493
 20
3989.0747795692978
 30
0.0
 11
1675.12211874493
 21
3989.0747795692978
 31
0.0
  0
LINE
  5
8345
  8
3
 62
     0
 10
1725.12211874493
 20
3989.0747795692978
 30
0.0
 11
2003.6935473163589
 21
3989.0747795692978
 31
0.0
  0
INSERT
  5
8346
  8
3
 62
     0
  2
_OPEN
 10
1575.12211874493
 20
3989.0747795692978
 30
0.0
 41
50.0
 42
50.0
 43
50.0
 50
180.0
  0
INSERT
  5
8347
  8
3
 62
     0
  2
_OPEN
 10
1725.12211874493
 20
3989.0747795692978
 30
0.0
 41
50.0
 42
50.0
 43
50.0
  0
TEXT
  8
3
  40
75
  5
83A3
  62
0
  72
0
  71
0
 10
1739.41
 20
3918.82
 30
0.000000
  1
150
  0
POINT
  5
8349
  8
DEFPOINTS
 62
     0
 10
1575.12211874493
 20
4280.9554558553309
 30
0.0
  0
POINT
  5
834A
  8
DEFPOINTS
 62
     0
 10
1725.12211874493
 20
4894.9554558553309
 30
0.0
  0
POINT
  5
834B
  8
DEFPOINTS
 62
     0
 10
1725.12211874493
 20
3989.0747795692978
 30
0.0
  0
ENDBLK
  5
80BA
  8
0
  0
BLOCK
  8
0
  2
*D17
 70
     1
 10
0.0
 20
0.0
 30
0.0
  3
*D17
  1

  0
LINE
  5
834C
  8
3
 62
     0
 10
1737.62211874493
 20
5480.9554558553309
 30
0.0
 11
1959.575921605654
 21
5480.9554558553309
 31
0.0
  0
LINE
  5
834D
  8
3
 62
     0
 10
1587.62211874493
 20
4280.9554558553309
 30
0.0
 11
1959.575921605654
 21
4280.9554558553309
 31
0.0
  0
LINE
  5
834E
  8
3
 62
     0
 10
1934.575921605654
 20
5430.9554558553318
 30
0.0
 11
1934.5759216056531
 21
4330.9554558553309
 31
0.0
  0
INSERT
  5
834F
  8
3
 62
     0
  2
_OPEN
 10
1934.575921605654
 20
5480.9554558553309
 30
0.0
 41
50.0
 42
50.0
 43
50.0
 50
90.0
  0
INSERT
  5
8350
  8
3
 62
     0
  2
_OPEN
 10
1934.5759216056531
 20
4280.9554558553309
 30
0.0
 41
50.0
 42
50.0
 43
50.0
 50
270.0
  0
TEXT
  8
3
  40
75
  5
83A4
  62
0
  72
0
  71
0
 10
1722.08
 20
4748.21
 30
0.000000
  1
1200
  0
POINT
  5
8352
  8
DEFPOINTS
 62
     0
 10
1725.12211874493
 20
5480.9554558553309
 30
0.0
  0
POINT
  5
8353
  8
DEFPOINTS
 62
     0
 10
1575.12211874493
 20
4280.9554558553309
 30
0.0
  0
POINT
  5
8354
  8
DEFPOINTS
 62
     0
 10
1934.5759216056531
 20
4280.9554558553309
 30
0.0
  0
ENDBLK
  5
80DD
  8
0
  0
BLOCK
  8
0
  2
*D18
 70
     1
 10
0.0
 20
0.0
 30
0.0
  3
*D18
  1

  0
LINE
  5
8355
  8
3
 62
     0
 10
2813.8615877342131
 20
2806.7389672091272
 30
0.0
 11
2813.8615877342131
 21
3438.7883435286221
 31
0.0
  0
LINE
  5
8356
  8
3
 62
     0
 10
3858.8615877342122
 20
3369.9025123406009
 30
0.0
 11
3858.8615877342122
 21
3438.7883435286221
 31
0.0
  0
LINE
  5
8357
  8
3
 62
     0
 10
2863.8615877342131
 20
3413.7883435286221
 30
0.0
 11
3808.8615877342131
 21
3413.7883435286221
 31
0.0
  0
INSERT
  5
8358
  8
3
 62
     0
  2
_OPEN
 10
2813.8615877342131
 20
3413.7883435286221
 30
0.0
 41
50.0
 42
50.0
 43
50.0
 50
180.0
  0
INSERT
  5
8359
  8
3
 62
     0
  2
_OPEN
 10
3858.8615877342122
 20
3413.7883435286221
 30
0.0
 41
50.0
 42
50.0
 43
50.0
  0
TEXT
  8
3
  40
75
  5
83A5
  62
0
  72
0
  71
0
 10
3186.36
 20
3406.04
 30
0.000000
  1
MAX
  0
TEXT
  8
3
  40
75
  5
83A6
  62
0
  72
0
  71
0
 10
3186.36
 20
3308.54
 30
0.000000
  1
1070
  0
POINT
  5
835B
  8
DEFPOINTS
 62
     0
 10
2813.8615877342131
 20
2794.2389672091272
 30
0.0
  0
POINT
  5
835C
  8
DEFPOINTS
 62
     0
 10
3858.8615877342122
 20
3357.4025123406009
 30
0.0
  0
POINT
  5
835D
  8
DEFPOINTS
 62
     0
 10
3858.8615877342122
 20
3413.7883435286221
 30
0.0
  0
ENDBLK
  5
8164
  8
0
  0
BLOCK
  8
0
  2
*D19
 70
     1
 10
0.0
 20
0.0
 30
0.0
  3
*D19
  1

  0
LINE
  5
835E
  8
3
 62
     0
 10
2951.8615877342131
 20
1693.738967209126
 30
0.0
 11
2951.8615877342131
 21
1380.8476755958959
 31
0.0
  0
LINE
  5
835F
  8
3
 62
     0
 10
4151.8615877342118
 20
1693.738967209126
 30
0.0
 11
4151.8615877342118
 21
1380.8476755958959
 31
0.0
  0
LINE
  5
8360
  8
3
 62
     0
 10
3001.8615877342131
 20
1405.8476755958959
 30
0.0
 11
4101.8615877342118
 21
1405.8476755958959
 31
0.0
  0
INSERT
  5
8361
  8
3
 62
     0
  2
_OPEN
 10
2951.8615877342131
 20
1405.8476755958959
 30
0.0
 41
50.0
 42
50.0
 43
50.0
 50
180.0
  0
INSERT
  5
8362
  8
3
 62
     0
  2
_OPEN
 10
4151.8615877342118
 20
1405.8476755958959
 30
0.0
 41
50.0
 42
50.0
 43
50.0
  0
TEXT
  8
3
  40
75
  5
83A7
  62
0
  72
0
  71
0
 10
3401.86
 20
1335.60
 30
0.000000
  1
1200
  0
POINT
  5
8364
  8
DEFPOINTS
 62
     0
 10
2951.8615877342131
 20
1706.238967209126
 30
0.0
  0
POINT
  5
8365
  8
DEFPOINTS
 62
     0
 10
4151.8615877342118
 20
1706.238967209126
 30
0.0
  0
POINT
  5
8366
  8
DEFPOINTS
 62
     0
 10
4151.8615877342118
 20
1405.8476755958959
 30
0.0
  0
ENDBLK
  5
8069
  8
0
  0
BLOCK
  8
0
  2
*D20
 70
     1
 10
0.0
 20
0.0
 30
0.0
  3
*D20
  1

  0
LINE
  5
8367
  8
3
 62
     0
 10
2951.8615877342131
 20
1693.738967209126
 30
0.0
 11
2951.8615877342131
 21
1532.2531070338439
 31
0.0
  0
LINE
  5
8368
  8
3
 62
     0
 10
3858.8615877342122
 20
1693.738967209126
 30
0.0
 11
3858.8615877342122
 21
1532.2531070338439
 31
0.0
  0
LINE
  5
8369
  8
3
 62
     0
 10
3001.8615877342131
 20
1557.2531070338439
 30
0.0
 11
3808.8615877342131
 21
1557.2531070338439
 31
0.0
  0
INSERT
  5
836A
  8
3
 62
     0
  2
_OPEN
 10
2951.8615877342131
 20
1557.2531070338439
 30
0.0
 41
50.0
 42
50.0
 43
50.0
 50
180.0
  0
INSERT
  5
836B
  8
3
 62
     0
  2
_OPEN
 10
3858.8615877342122
 20
1557.2531070338439
 30
0.0
 41
50.0
 42
50.0
 43
50.0
  0
TEXT
  8
3
  40
75
  5
83A8
  62
0
  72
0
  71
0
 10
3255.36
 20
1487.00
 30
0.000000
  1
907
  0
POINT
  5
836D
  8
DEFPOINTS
 62
     0
 10
2951.8615877342131
 20
1706.238967209126
 30
0.0
  0
POINT
  5
836E
  8
DEFPOINTS
 62
     0
 10
3858.8615877342122
 20
1706.238967209126
 30
0.0
  0
POINT
  5
836F
  8
DEFPOINTS
 62
     0
 10
3858.8615877342122
 20
1557.2531070338439
 30
0.0
  0
ENDBLK
  5
805E
  8
0
  0
BLOCK
  8
0
  2
*D21
 70
     1
 10
0.0
 20
0.0
 30
0.0
  3
*D21
  1

  0
LINE
  5
8083
  8
0
  6
BYBLOCK
 62
     0
 10
3858.8615877342122
 20
1693.738967209126
 30
0.0
 11
3858.8615877342122
 21
1532.2531070338439
 31
0.0
  0
LINE
  5
8084
  8
0
  6
BYBLOCK
 62
     0
 10
4151.8615877342118
 20
1693.738967209126
 30
0.0
 11
4151.8615877342118
 21
1532.2531070338439
 31
0.0
  0
LINE
  5
8085
  8
0
  6
BYBLOCK
 62
     0
 10
3908.8615877342131
 20
1557.2531070338439
 30
0.0
 11
4101.8615877342118
 21
1557.2531070338439
 31
0.0
  0
TEXT
  5
8086
  8
3
 62
     0
 10
3908.9330163056402
 20
1574.1768118975849
 30
0.0
 40
75.0
  1
293
  0
INSERT
  5
8087
  8
0
  6
BYBLOCK
 62
     0
  2
_OPEN
 10
3858.8615877342122
 20
1557.2531070338439
 30
0.0
 41
50.0
 42
50.0
 43
50.0
 50
180.0
  0
INSERT
  5
8088
  8
0
  6
BYBLOCK
 62
     0
  2
_OPEN
 10
4151.8615877342118
 20
1557.2531070338439
 30
0.0
 41
50.0
 42
50.0
 43
50.0
  0
POINT
  5
8089
  8
DEFPOINTS
  6
BYBLOCK
 62
     0
 10
3858.8615877342122
 20
1706.238967209126
 30
0.0
  0
POINT
  5
808A
  8
DEFPOINTS
  6
BYBLOCK
 62
     0
 10
4151.8615877342118
 20
1706.238967209126
 30
0.0
  0
POINT
  5
808B
  8
DEFPOINTS
  6
BYBLOCK
 62
     0
 10
4151.8615877342118
 20
1557.2531070338439
 30
0.0
  0
ENDBLK
  5
808C
  8
0
  0
BLOCK
  8
0
  2
*D22
 70
     1
 10
0.0
 20
0.0
 30
0.0
  3
*D22
  1

  0
LINE
  5
8370
  8
3
 62
     0
 10
3621.3615877342131
 20
3110.7389672091272
 30
0.0
 11
3621.3615877342131
 21
3272.8714653112379
 31
0.0
  0
LINE
  5
8371
  8
3
 62
     0
 10
4096.3615877342127
 20
3110.7389672091272
 30
0.0
 11
4096.3615877342127
 21
3272.8714653112379
 31
0.0
  0
LINE
  5
8372
  8
3
 62
     0
 10
3671.3615877342122
 20
3247.8714653112379
 30
0.0
 11
4046.3615877342131
 21
3247.8714653112379
 31
0.0
  0
INSERT
  5
8373
  8
3
 62
     0
  2
_OPEN
 10
3621.3615877342131
 20
3247.8714653112379
 30
0.0
 41
50.0
 42
50.0
 43
50.0
 50
180.0
  0
INSERT
  5
8374
  8
3
 62
     0
  2
_OPEN
 10
4096.3615877342127
 20
3247.8714653112379
 30
0.0
 41
50.0
 42
50.0
 43
50.0
  0
TEXT
  8
3
  40
75
  5
83A9
  62
0
  72
0
  71
0
 10
3708.86
 20
3177.62
 30
0.000000
  1
475
  0
POINT
  5
8376
  8
DEFPOINTS
 62
     0
 10
3621.3615877342131
 20
3098.2389672091272
 30
0.0
  0
POINT
  5
8377
  8
DEFPOINTS
 62
     0
 10
4096.3615877342127
 20
3098.2389672091272
 30
0.0
  0
POINT
  5
8378
  8
DEFPOINTS
 62
     0
 10
4096.3615877342127
 20
3247.8714653112379
 30
0.0
  0
ENDBLK
  5
7FD2
  8
0
  0
BLOCK
  8
0
  2
_OPEN
 70
     0
 10
0.0
 20
0.0
 30
0.0
  3
_OPEN
  1

  0
LINE
  5
7ECC
  8
0
  6
BYBLOCK
 62
     0
 10
-1.0
 20
0.1666666666666666
 30
0.0
 11
0.0
 21
0.0
 31
0.0
  0
LINE
  5
7ECD
  8
0
  6
BYBLOCK
 62
     0
 10
0.0
 20
0.0
 30
0.0
 11
-1.0
 21
-0.1666666666666666
 31
0.0
  0
LINE
  5
7ECE
  8
0
  6
BYBLOCK
 62
     0
 10
0.0
 20
0.0
 30
0.0
 11
-1.0
 21
0.0
 31
0.0
  0
ENDBLK
  5
7ECF
  8
0
  0
BLOCK
  8
0
  2
*D24
 70
     1
 10
0.0
 20
0.0
 30
0.0
  3
*D24
  1

  0
LINE
  5
8379
  8
3
 62
     0
 10
1737.62211874493
 20
1806.238967209126
 30
0.0
 11
2258.5841580206279
 21
1806.238967209126
 31
0.0
  0
LINE
  5
837A
  8
3
 62
     0
 10
1737.62211874493
 20
1706.238967209126
 30
0.0
 11
2258.5841580206279
 21
1706.238967209126
 31
0.0
  0
LINE
  5
837B
  8
3
 62
     0
 10
2233.5841580206288
 20
1856.238967209126
 30
0.0
 11
2233.5841580206288
 21
1906.238967209126
 31
0.0
  0
LINE
  5
837C
  8
3
 62
     0
 10
2233.5841580206288
 20
1656.238967209126
 30
0.0
 11
2233.5841580206288
 21
1377.667538637698
 31
0.0
  0
LINE
  5
837D
  8
3
 62
     0
 10
2233.5841580206288
 20
1806.238967209126
 30
0.0
 11
2233.5841580206288
 21
1706.238967209126
 31
0.0
  0
INSERT
  5
837E
  8
3
 62
     0
  2
_DOT
 10
2233.5841580206288
 20
1806.238967209126
 30
0.0
 41
50.0
 42
50.0
 43
50.0
 50
270.0
  0
INSERT
  5
837F
  8
3
 62
     0
  2
_OPEN
 10
2233.5841580206288
 20
1706.238967209126
 30
0.0
 41
50.0
 42
50.0
 43
50.0
 50
90.0
  0
TEXT
  8
3
  40
75
  5
83AA
  62
0
  72
0
  71
0
 10
2021.08
 20
1359.20
 30
0.000000
  1
100
  0
POINT
  5
8381
  8
DEFPOINTS
 62
     0
 10
1725.12211874493
 20
1806.238967209126
 30
0.0
  0
POINT
  5
8382
  8
DEFPOINTS
 62
     0
 10
1725.12211874493
 20
1706.238967209126
 30
0.0
  0
POINT
  5
8383
  8
DEFPOINTS
 62
     0
 10
2233.5841580206288
 20
1706.238967209126
 30
0.0
  0
ENDBLK
  5
8020
  8
0
  0
BLOCK
  8
0
  2
_DOT
 70
     0
 10
0.0
 20
0.0
 30
0.0
  3
_DOT
  1

  0
LINE
  5
80FB
  8
0
  6
BYBLOCK
 62
     0
 10
0.0
 20
0.0
 30
0.0
 11
-1.0
 21
-0.0000000000000284
 31
0.0
  0
POLYLINE
  5
80FC
  8
0
  6
BYBLOCK
 62
     0
 66
     1
 10
0.0
 20
0.0
 30
0.0
 70
     1
 40
0.1666666666666666
 41
0.1666666666666666
  0
VERTEX
  5
8389
  8
0
  6
BYBLOCK
 62
     0
 10
-0.0833333333333286
 20
-0.0000000000000284
 30
0.0
 42
1.0
  0
VERTEX
  5
838A
  8
0
  6
BYBLOCK
 62
     0
 10
0.0833333333333286
 20
-0.0000000000000284
 30
0.0
 42
1.0
  0
SEQEND
  5
838B
  8
0
  6
BYBLOCK
 62
     0
  0
ENDBLK
  5
8013
  8
0
  0
BLOCK
  8
0
  2
*D26
 70
     1
 10
0.0
 20
0.0
 30
0.0
  3
*D26
  1

  0
LINE
  5
81AB
  8
3
 62
     0
 10
4099.8615877342127
 20
2992.6057745086559
 30
0.0
 11
4099.8615877342127
 21
3438.7883435286221
 31
0.0
  0
LINE
  5
81AC
  8
3
 62
     0
 10
3908.8615877342131
 20
3413.7883435286221
 30
0.0
 11
4049.8615877342122
 21
3413.7883435286221
 31
0.0
  0
TEXT
  5
81AD
  8
3
 62
     0
 10
3899.00444487707
 20
3441.771659753771
 30
0.0
 40
75.0
  1
241
  0
INSERT
  5
81AE
  8
3
 62
     0
  2
_OPEN
 10
3858.8615877342122
 20
3413.7883435286221
 30
0.0
 41
50.0
 42
50.0
 43
50.0
 50
180.0
  0
INSERT
  5
81AF
  8
3
 62
     0
  2
_OPEN
 10
4099.8615877342127
 20
3413.7883435286221
 30
0.0
 41
50.0
 42
50.0
 43
50.0
  0
POINT
  5
81B0
  8
DEFPOINTS
 62
     0
 10
3858.8615877342122
 20
3357.4025123406009
 30
0.0
  0
POINT
  5
81B1
  8
DEFPOINTS
 62
     0
 10
4099.8615877342127
 20
2980.1057745086559
 30
0.0
  0
POINT
  5
81B2
  8
DEFPOINTS
 62
     0
 10
4099.8615877342127
 20
3413.7883435286221
 30
0.0
  0
ENDBLK
  5
8159
  8
0
  0
BLOCK
  8
0
  2
*D27
 70
     1
 10
0.0
 20
0.0
 30
0.0
  3
*D27
  1

  0
LINE
  5
838C
  8
3
 62
     0
 10
4108.8615877342127
 20
2979.2389672091272
 30
0.0
 11
4337.6196028667773
 21
2979.2389672091272
 31
0.0
  0
LINE
  5
838D
  8
3
 62
     0
 10
4108.8615877342127
 20
2309.2389672091272
 30
0.0
 11
4337.6196028667773
 21
2309.2389672091272
 31
0.0
  0
LINE
  5
838E
  8
3
 62
     0
 10
4312.6196028667773
 20
2929.2389672091258
 30
0.0
 11
4312.6196028667773
 21
2359.2389672091258
 31
0.0
  0
INSERT
  5
838F
  8
3
 62
     0
  2
_OPEN
 10
4312.6196028667773
 20
2979.2389672091272
 30
0.0
 41
50.0
 42
50.0
 43
50.0
 50
90.0
  0
INSERT
  5
8390
  8
3
 62
     0
  2
_OPEN
 10
4312.6196028667773
 20
2309.2389672091272
 30
0.0
 41
50.0
 42
50.0
 43
50.0
 50
270.0
  0
TEXT
  8
3
  40
75
  5
83AB
  62
0
  72
0
  71
0
 10
4100.12
 20
2512.56
 30
0.000000
  1
670
  0
POINT
  5
8392
  8
DEFPOINTS
 62
     0
 10
4096.3615877342127
 20
2979.2389672091272
 30
0.0
  0
POINT
  5
8393
  8
DEFPOINTS
 62
     0
 10
4096.3615877342136
 20
2309.2389672091272
 30
0.0
  0
POINT
  5
8394
  8
DEFPOINTS
 62
     0
 10
4312.6196028667773
 20
2309.2389672091272
 30
0.0
  0
ENDBLK
  5
8190
  8
0
  0
BLOCK
  8
0
  2
*U28
 70
     1
 10
0.0
 20
0.0
 30
0.0
  3
*U28
  1

  0
TEXT
  5
8385
  8
3
 10
2344.8175607048152
 20
1758.772115010129
 30
0.0
 40
75.0
  1
(
 50
90.0
  0
TEXT
  5
8386
  8
3
 10
2337.6747035619578
 20
1808.772115010129
 30
0.0
 40
75.0
  1
38)
 50
90.0
  0
ENDBLK
  5
8388
  8
0
  0
ENDSEC
  0
SECTION
  2
ENTITIES
  0
DIMENSION
  5
7BEC
  8
3
  2
*D1
 10
2418.0455336429732
 20
1706.238967209126
 30
0.0
 11
2355.5455336429718
 21
2401.1342358089942
 31
0.0
 70
     0
  1
1392
 13
1325.12211874493
 23
3096.0295044088612
 33
0.0
 14
1725.12211874493
 24
1706.238967209126
 34
0.0
 50
90.0
1001
ACAD
1000
DSTYLE
1002
{
1070
   287
1070
     3
1070
   287
1070
     3
1070
    40
1040
25.0
1070
   143
1040
0.039
1070
   172
1070
     1
1070
   271
1070
     0
1070
   279
1070
     0
1070
   288
1070
     1
1002
}
  0
LINE
  5
7BED
  8
1
 10
1380.0092796257461
 20
2587.419960086128
 30
0.0
 11
880.00927962574679
 21
2104.419960086127
 31
0.0
  0
LINE
  5
7BEE
  8
1
 10
1270.234957864114
 20
2701.057974332125
 30
0.0
 11
770.23495786411422
 21
2218.057974332125
 31
0.0
  0
LINE
  5
7BEF
  8
1
 10
1429.338246999645
 20
2536.3547764692562
 30
0.0
 11
929.33824699964498
 21
2053.3547764692548
 31
0.0
  0
LINE
  5
7BF0
  8
1
 10
720.90599049021512
 20
2269.1231579489968
 30
0.0
 11
1220.9059904902149
 21
2752.1231579489968
 31
0.0
  0
DIMENSION
  5
7BF1
  8
3
  2
*D2
 10
1785.12211874493
 20
3397.0411650038368
 30
0.0
 11
1205.12211874493
 21
3459.5411650038368
 31
0.0
 70
     0
 13
625.12211874493005
 23
1984.238967209126
 33
0.0
 14
1785.12211874493
 24
2658.7389672091258
 34
0.0
1001
ACAD
1000
DSTYLE
1002
{
1070
   287
1070
     3
1070
   287
1070
     3
1070
    40
1040
25.0
1070
   143
1040
0.039
1070
   172
1070
     1
1070
   271
1070
     0
1070
   279
1070
     0
1070
   288
1070
     1
1002
}
  0
DIMENSION
  5
7BF2
  8
3
  2
*D3
 10
1325.12211874493
 20
3246.0132454475838
 30
0.0
 11
1052.2268501450631
 21
3308.5132454475838
 31
0.0
 70
     0
  1
548
 13
779.33158154519595
 23
2644.2389672091258
 33
0.0
 14
1325.12211874493
 24
3200.8162482458852
 34
0.0
1001
ACAD
1000
DSTYLE
1002
{
1070
   287
1070
     3
1070
   287
1070
     3
1070
    40
1040
25.0
1070
   143
1040
0.039
1070
   172
1070
     1
1070
   271
1070
     0
1070
   279
1070
     0
1070
   288
1070
     1
1002
}
  0
DIMENSION
  5
7BF3
  8
3
  2
*D4
 10
1725.12211874493
 20
1406.1247907536381
 30
0.0
 11
1185.12211874493
 21
1468.6247907536381
 31
0.0
 70
     0
 13
645.12211874493005
 23
1706.238967209126
 33
0.0
 14
1725.12211874493
 24
1706.238967209126
 34
0.0
1001
ACAD
1000
DSTYLE
1002
{
1070
   287
1070
     3
1070
   287
1070
     3
1070
    40
1040
25.0
1070
   143
1040
0.039
1070
   172
1070
     1
1070
   271
1070
     0
1070
   279
1070
     0
1070
   288
1070
     1
1002
}
  0
DIMENSION
  5
7BF4
  8
3
  2
*D5
 10
1325.12211874493
 20
1557.253098854635
 30
0.0
 11
985.12211874493005
 21
1619.753098854635
 31
0.0
 70
     0
 13
645.12211874493005
 23
1706.238967209126
 33
0.0
 14
1325.12211874493
 24
1706.238967209126
 34
0.0
1001
ACAD
1000
DSTYLE
1002
{
1070
   287
1070
     3
1070
   287
1070
     3
1070
    40
1040
25.0
1070
   143
1040
0.039
1070
   172
1070
     1
1070
   271
1070
     0
1070
   279
1070
     0
1070
   288
1070
     1
1002
}
  0
LINE
  5
7BF5
  8
1
 10
645.12211874493005
 20
1806.238967209126
 30
0.0
 11
1725.12211874493
 21
1806.238967209126
 31
0.0
1001
ACAD
1000
ASC_BOUNDS
1002
{
1070
    19
1002
}
  0
LINE
  5
7BF6
  8
1
 10
645.12211874493005
 20
1706.238967209126
 30
0.0
 11
1725.12211874493
 21
1706.238967209126
 31
0.0
  0
LINE
  5
7BF8
  8
1
 10
625.12211874493005
 20
1944.238967209126
 30
0.0
 11
1725.12211874493
 21
1944.238967209126
 31
0.0
  0
LINE
  5
7BF9
  8
1
 10
645.12211874493005
 20
1844.238967209126
 30
0.0
 11
1725.12211874493
 21
1844.238967209126
 31
0.0
1001
ACAD
1000
ASC_BOUNDS
1002
{
1070
    19
1002
}
  0
ARC
  5
7BFA
  8
1
 10
1278.12211874493
 20
2597.2389672091258
 30
0.0
 40
501.0
 50
84.61703135011868
 51
174.61703135011859
  0
LINE
  5
7BFB
  8
2
 10
719.64223285359003
 20
2644.2389672091258
 30
0.0
 11
1838.7646793024339
 21
2644.2389672091258
 31
0.0
  0
ARC
  5
7BFC
  8
1
 10
825.12211874492994
 20
2161.2389672091272
 30
0.0
 40
150.0
 50
134.0092256721741
 51
314.00922567217413
  0
CIRCLE
  5
7BFD
  8
1
 10
825.12211874492994
 20
2161.2389672091272
 30
0.0
 40
79.0
  0
LINE
  5
7BFE
  8
2
 10
825.12211874492994
 20
2315.4380197294331
 30
0.0
 11
825.12211874492994
 21
1706.238967209126
 31
0.0
  0
ARC
  5
7BFF
  8
1
 10
825.12211874492994
 20
2161.2389672091272
 30
0.0
 40
142.5
 50
0.0
 51
213.03386838236159
  0
LINE
  5
7C01
  8
1
 10
661.96794920945104
 20
2029.238967209126
 30
0.0
 11
988.08903222828849
 21
2029.238967209126
 31
0.0
  0
LINE
  5
7C02
  8
2
 10
659.58534348298144
 20
2161.2389672091272
 30
0.0
 11
990.70314621848036
 21
2161.2389672091272
 31
0.0
  0
LINE
  5
7C03
  8
1
 10
645.12211874493005
 20
1944.238967209126
 30
0.0
 11
645.12211874493005
 21
1844.238967209126
 31
0.0
  0
LINE
  5
7C04
  8
1
 10
645.12211874493005
 20
1806.238967209126
 30
0.0
 11
645.12211874493005
 21
1706.238967209126
 31
0.0
  0
LINE
  5
7C05
  8
1
 10
705.65746073600803
 20
2083.5572738263791
 30
0.0
 11
695.12211874493005
 21
2044.2389672091269
 31
0.0
  0
LINE
  5
7C06
  8
1
 10
650.12211874493005
 20
1984.238967209126
 30
0.0
 11
661.96794920945104
 21
2029.238967209126
 31
0.0
  0
LINE
  5
7C07
  8
1
 10
625.12211874493005
 20
1984.238967209126
 30
0.0
 11
625.12211874493005
 21
1944.238967209126
 31
0.0
  0
LINE
  5
7C08
  8
1
 10
625.12211874493005
 20
1984.238967209126
 30
0.0
 11
650.12211874493005
 21
1984.238967209126
 31
0.0
  0
LINE
  5
7C09
  8
1
 10
695.12211874493005
 20
2044.0415672091269
 30
0.0
 11
695.12211874493005
 21
2029.2389672091269
 31
0.0
  0
ARC
  5
7C0A
  8
1
 10
1372.12211874493
 20
2597.2389672091258
 30
0.0
 40
595.0
 50
227.16943134672781
 51
241.81240886663991
  0
LINE
  5
7C0B
  8
1
 10
1000.12211874493
 20
1984.238967209126
 30
0.0
 11
1025.12211874493
 21
1984.238967209126
 31
0.0
  0
LINE
  5
7C0C
  8
1
 10
1000.12211874493
 20
1984.238967209126
 30
0.0
 11
988.08903222828849
 21
2029.238967209126
 31
0.0
  0
ARC
  5
7C0D
  8
1
 10
825.12211874492994
 20
2161.2389672091272
 30
0.0
 40
142.5
 50
326.96619232801208
 51
0.0
  0
LINE
  5
7C0E
  8
1
 10
955.12211874493005
 20
2044.0415672091269
 30
0.0
 11
955.12211874493005
 21
2029.2389672091269
 31
0.0
  0
LINE
  5
7C0F
  8
1
 10
944.58685906499056
 20
2083.5574004106861
 30
0.0
 11
955.12211874493005
 21
2044.2389672091269
 31
0.0
  0
LINE
  5
7C10
  8
1
 10
1025.12211874493
 20
1984.238967209126
 30
0.0
 11
1025.12211874493
 21
1944.238967209126
 31
0.0
  0
ARC
  5
7C11
  8
1
 10
1372.12211874493
 20
2597.2389672091258
 30
0.0
 40
595.0
 50
175.46939495731729
 51
209.94551190908399
  0
DIMENSION
  5
7C12
  8
3
  2
*D6
 10
2233.5841580206288
 20
1844.238967209126
 30
0.0
 11
2171.0841580206279
 21
2244.2389672091272
 31
0.0
 70
     0
 13
1838.7646793024339
 23
2644.2389672091258
 33
0.0
 14
1725.12211874493
 24
1844.238967209126
 34
0.0
 50
90.0
1001
ACAD
1000
DSTYLE
1002
{
1070
   287
1070
     3
1070
   287
1070
     3
1070
    40
1040
25.0
1070
   143
1040
0.039
1070
   172
1070
     1
1070
   271
1070
     0
1070
   279
1070
     0
1070
   288
1070
     1
1002
}
  0
DIMENSION
  5
7C13
  8
3
  2
*D7
 10
2085.5992668234662
 20
2644.2389672091258
 30
0.0
 11
2023.099266823466
 21
2305.2389672091272
 31
0.0
 70
     0
 13
1785.12211874493
 23
1966.238967209126
 33
0.0
 14
1838.7646793024339
 24
2644.2389672091258
 34
0.0
 50
90.0
1001
ACAD
1000
DSTYLE
1002
{
1070
   287
1070
     3
1070
   287
1070
     3
1070
    40
1040
25.0
1070
   143
1040
0.039
1070
   172
1070
     1
1070
   271
1070
     0
1070
   279
1070
     0
1070
   288
1070
     1
1002
}
  0
DIMENSION
  5
7C14
  8
3
  2
*D8
 10
1934.071642911151
 20
2616.2389672091272
 30
0.0
 11
1871.5716429111501
 21
2291.2389672091272
 31
0.0
 70
     0
 13
1785.12211874493
 23
1966.238967209126
 33
0.0
 14
1785.12211874493
 24
2616.2389672091272
 34
0.0
 50
90.0
1001
ACAD
1000
DSTYLE
1002
{
1070
   287
1070
     3
1070
   287
1070
     3
1070
    40
1040
25.0
1070
   143
1040
0.039
1070
   172
1070
     1
1070
   271
1070
     0
1070
   279
1070
     0
1070
   288
1070
     1
1002
}
  0
LINE
  5
7C16
  8
1
 10
1782.12211874493
 20
1924.238967209126
 30
0.0
 11
1782.12211874493
 21
2658.7389672091258
 31
0.0
  0
LINE
  5
7C17
  8
1
 10
1745.12211874493
 20
1969.531072189154
 30
0.0
 11
1745.12211874493
 21
2616.2389672091272
 31
0.0
  0
LINE
  5
7C18
  8
1
 10
1785.12211874493
 20
1924.238967209126
 30
0.0
 11
1785.12211874493
 21
2658.7389672091258
 31
0.0
  0
LINE
  5
7C19
  8
2
 10
1325.12211874493
 20
3200.8162482458852
 30
0.0
 11
1325.12211874493
 21
1706.238967209126
 31
0.0
  0
LINE
  5
7C1A
  8
3
 10
1725.12211874493
 20
1706.238967209126
 30
0.0
 11
2253.5841580206288
 21
1706.238967209126
 31
0.0
  0
LINE
  5
7C1E
  8
1
 10
1785.12211874493
 20
1966.238967209126
 30
0.0
 11
1570.1994897300449
 21
1983.927663641638
 31
0.0
  0
DIMENSION
  5
7C1F
  8
3
  2
*D9
 10
1725.12211874493
 20
1557.253098854635
 30
0.0
 11
1525.12211874493
 21
1619.753098854635
 31
0.0
 70
     0
 13
1325.12211874493
 23
1706.238967209126
 33
0.0
 14
1725.12211874493
 24
1706.238967209126
 34
0.0
1001
ACAD
1000
DSTYLE
1002
{
1070
   287
1070
     3
1070
   287
1070
     3
1070
    40
1040
25.0
1070
   143
1040
0.039
1070
   172
1070
     1
1070
   271
1070
     0
1070
   279
1070
     0
1070
   288
1070
     1
1002
}
  0
LINE
  5
7C20
  8
1
 10
1575.12211874493
 20
1944.238967209126
 30
0.0
 11
1575.12211874493
 21
1844.238967209126
 31
0.0
  0
LINE
  5
7C21
  8
1
 10
1725.12211874493
 20
1944.238967209126
 30
0.0
 11
1725.12211874493
 21
1844.238967209126
 31
0.0
  0
LINE
  5
7C22
  8
1
 10
1575.12211874493
 20
1806.238967209126
 30
0.0
 11
1575.12211874493
 21
1706.238967209126
 31
0.0
  0
LINE
  5
7C23
  8
1
 10
1725.12211874493
 20
1806.238967209126
 30
0.0
 11
1725.12211874493
 21
1706.238967209126
 31
0.0
  0
POINT
  5
7C24
  8
1
 10
1725.12211874493
 20
1706.238967209126
 30
0.0
  0
POINT
  5
7C25
  8
1
 10
1725.12211874493
 20
1806.238967209126
 30
0.0
  0
POINT
  5
7C26
  8
1
 10
1725.12211874493
 20
1844.238967209126
 30
0.0
  0
POINT
  5
7C27
  8
1
 10
1725.12211874493
 20
1806.238967209126
 30
0.0
  0
LINE
  5
7C2A
  8
1
 10
1782.12211874493
 20
1924.238967209126
 30
0.0
 11
1785.12211874493
 21
1924.238967209126
 31
0.0
  0
LINE
  5
7C2B
  8
3
 10
2233.5841580206288
 20
1846.238967209126
 30
0.0
 11
2233.5841580206288
 21
1886.238967209126
 31
0.0
  0
INSERT
  5
7C2D
  8
3
  2
ARROW
 10
2233.5841580206288
 20
1844.238967209126
 30
0.0
 41
40.0
 42
40.0
 43
40.0
 50
270.0
  0
POINT
  5
7C31
  8
3
 10
2233.5841580206288
 20
1706.238967209126
 30
0.0
  0
POINT
  5
7C33
  8
3
 10
2233.5841580206288
 20
1844.238967209126
 30
0.0
  0
LINE
  5
7C37
  8
3
 10
2233.5841580206288
 20
1884.238967209126
 30
0.0
 11
2233.5841580206288
 21
2051.7420355282588
 31
0.0
  0
DIMENSION
  5
7C38
  8
3
  2
*D10
 10
2233.5841580206288
 20
2644.2389672091258
 30
0.0
 11
2171.0841580206288
 21
2870.1342358089942
 31
0.0
 70
     0
  1
454
 13
1325.12211874493
 23
3096.0295044088612
 33
0.0
 14
1838.7646793024339
 24
2644.2389672091258
 34
0.0
 50
90.0
1001
ACAD
1000
DSTYLE
1002
{
1070
   287
1070
     3
1070
   287
1070
     3
1070
    40
1040
25.0
1070
   143
1040
0.039
1070
   172
1070
     1
1070
   271
1070
     0
1070
   279
1070
     0
1070
   288
1070
     1
1002
}
  0
DIMENSION
  5
7C39
  8
3
  2
*D11
 10
1785.12211874493
 20
3246.0132454475838
 30
0.0
 11
1555.12211874493
 21
3308.5132454475838
 31
0.0
 70
     0
 13
1325.12211874493
 23
3200.8162482458852
 33
0.0
 14
1785.12211874493
 24
2658.7389672091258
 34
0.0
1001
ACAD
1000
DSTYLE
1002
{
1070
   287
1070
     3
1070
   287
1070
     3
1070
    40
1040
25.0
1070
   143
1040
0.039
1070
   172
1070
     1
1070
   271
1070
     0
1070
   279
1070
     0
1070
   288
1070
     1
1002
}
  0
LINE
  5
7C3A
  8
1
 10
1696.654725846545
 20
2616.2389672091272
 30
0.0
 11
1785.12211874493
 21
2616.2389672091272
 31
0.0
  0
ARC
  5
7C3B
  8
1
 10
1287.12211874493
 20
2682.2389672091258
 30
0.0
 40
416.0
 50
354.75894493870322
 51
84.75894493870328
  0
ARC
  5
7C3C
  8
1
 10
1325.12211874493
 20
2644.2389672091258
 30
0.0
 40
150.0
 50
314.00922567217413
 51
134.0092256721741
  0
CIRCLE
  5
7C3D
  8
1
 10
1325.12211874493
 20
2644.2389672091258
 30
0.0
 40
79.0
  0
ARC
  5
7C3E
  8
1
 10
1363.12211874493
 20
2682.2389672091258
 30
0.0
 40
340.0
 50
348.80681639431612
 51
353.58294685697132
  0
LINE
  5
7C3F
  8
1
 10
1782.12211874493
 20
2658.7389672091258
 30
0.0
 11
1785.12211874493
 21
2658.7389672091258
 31
0.0
  0
LINE
  5
7C40
  8
1
 10
1300.12211874493
 20
4299.9554558553309
 30
0.0
 11
844.12211874493005
 21
4299.9554558553309
 31
0.0
  0
DIMENSION
  5
7C41
  8
3
  2
*D12
 10
645.12211874493005
 20
3989.0747795692978
 30
0.0
 11
1110.12211874493
 21
4051.5747795692992
 31
0.0
 70
     0
 13
1575.12211874493
 23
4280.9554558553309
 33
0.0
 14
645.12211874493005
 24
4280.9554558553309
 34
0.0
1001
ACAD
1000
DSTYLE
1002
{
1070
   287
1070
     3
1070
   287
1070
     3
1070
    40
1040
25.0
1070
   143
1040
0.039
1070
   172
1070
     1
1070
   271
1070
     0
1070
   279
1070
     0
1070
   288
1070
     1
1002
}
  0
DIMENSION
  5
7C42
  8
3
  2
*D13
 10
1725.12211874493
 20
5626.5293424590827
 30
0.0
 11
1325.12211874493
 21
5689.0293424590827
 31
0.0
 70
     0
 13
925.12211874493005
 23
5480.9554558553309
 33
0.0
 14
1725.12211874493
 24
5480.9554558553309
 34
0.0
1001
ACAD
1000
DSTYLE
1002
{
1070
   287
1070
     3
1070
   287
1070
     3
1070
    40
1040
25.0
1070
   143
1040
0.039
1070
   172
1070
     1
1070
   271
1070
     0
1070
   279
1070
     0
1070
   288
1070
     1
1002
}
  0
LINE
  5
7C43
  8
1
 10
844.12211874493084
 20
4280.9554558553309
 30
0.0
 11
1300.12211874493
 21
4280.9554558553309
 31
0.0
  0
LINE
  5
7C44
  8
1
 10
1475.122118744931
 20
4139.9554558553309
 30
0.0
 11
675.12211874493005
 21
4139.9554558553309
 31
0.0
  0
LINE
  5
7C45
  8
1
 10
746.12211874493005
 20
4182.9554558553309
 30
0.0
 11
1404.12211874493
 21
4182.9554558553309
 31
0.0
  0
LINE
  5
7C46
  8
1
 10
746.12211874493005
 20
4264.9554558553309
 30
0.0
 11
1404.12211874493
 21
4264.9554558553309
 31
0.0
  0
LINE
  5
7C47
  8
1
 10
1155.12211874493
 20
4859.9554558553318
 30
0.0
 11
1300.12211874493
 21
4859.9554558553318
 31
0.0
  0
LINE
  5
7C48
  8
1
 10
1155.12211874493
 20
4319.9554558553309
 30
0.0
 11
1300.12211874493
 21
4319.9554558553309
 31
0.0
  0
LINE
  5
7C49
  8
1
 10
778.98132601524503
 20
4947.4554558553318
 30
0.0
 11
1785.12211874493
 21
4947.4554558553318
 31
0.0
  0
LINE
  5
7C4A
  8
1
 10
778.98132601524503
 20
5422.4554558553318
 30
0.0
 11
1785.12211874493
 21
5422.4554558553318
 31
0.0
  0
LINE
  5
7C4B
  8
2
 10
746.2877349726441
 20
5184.9554558553318
 30
0.0
 11
1824.4660271892501
 21
5184.9554558553318
 31
0.0
  0
LINE
  5
7C4C
  8
1
 10
925.12211874493005
 20
5480.9554558553309
 30
0.0
 11
1725.12211874493
 21
5480.9554558553309
 31
0.0
  0
DIMENSION
  5
7C4D
  8
3
  2
*D14
 10
496.69294713348791
 20
4944.9554558553318
 30
0.0
 11
434.19294713348711
 21
4612.9554558553309
 31
0.0
 70
     0
 13
645.12211874493005
 23
4280.9554558553309
 33
0.0
 14
645.12211874493005
 24
4944.9554558553318
 34
0.0
 50
90.0
1001
ACAD
1000
DSTYLE
1002
{
1070
   287
1070
     3
1070
   287
1070
     3
1070
    40
1040
25.0
1070
   143
1040
0.039
1070
   172
1070
     1
1070
   271
1070
     0
1070
   279
1070
     0
1070
   288
1070
     1
1002
}
  0
LINE
  5
7C4E
  8
1
 10
645.12211874493005
 20
4944.9554558553318
 30
0.0
 11
645.12211874493005
 21
4642.9554558553309
 31
0.0
  0
LINE
  5
7C4F
  8
1
 10
675.12211874493005
 20
4299.9554558553309
 30
0.0
 11
675.12211874493005
 21
4139.9554558553309
 31
0.0
  0
LINE
  5
7C50
  8
1
 10
746.12211874493084
 20
4264.9554558553309
 30
0.0
 11
746.12211874493005
 21
4182.9554558553309
 31
0.0
  0
LINE
  5
7C51
  8
1
 10
904.12211874493005
 20
4264.9554558553309
 30
0.0
 11
904.12211874493005
 21
4182.9554558553309
 31
0.0
  0
LINE
  5
7C52
  8
2
 10
825.12211874492994
 20
4757.7398928964076
 30
0.0
 11
825.12211874492994
 21
4132.5216892951012
 31
0.0
  0
LINE
  5
7C53
  8
1
 10
844.12211874493005
 20
4302.9554558553318
 30
0.0
 11
1025.12211874493
 21
4302.9554558553318
 31
0.0
  0
LINE
  5
7C54
  8
1
 10
682.62211874493005
 20
4311.9554558553318
 30
0.0
 11
967.62211874493005
 21
4311.9554558553318
 31
0.0
  0
LINE
  5
7C55
  8
1
 10
682.62211874493005
 20
4701.9554558553318
 30
0.0
 11
967.62211874493005
 21
4701.9554558553318
 31
0.0
  0
LINE
  5
7C56
  8
1
 10
645.12211874493005
 20
4582.9554558553318
 30
0.0
 11
645.12211874493084
 21
4362.9554558553309
 31
0.0
  0
LINE
  5
7C57
  8
1
 10
682.62211874493005
 20
4701.9554558553318
 30
0.0
 11
682.62211874493005
 21
4311.9554558553318
 31
0.0
  0
LINE
  5
7C58
  8
1
 10
806.12211874493005
 20
4299.9554558553309
 30
0.0
 11
675.12211874493084
 21
4299.9554558553309
 31
0.0
  0
LINE
  5
7C59
  8
1
 10
625.12211874493084
 20
4302.9554558553318
 30
0.0
 11
806.12211874493005
 21
4302.9554558553318
 31
0.0
  0
LINE
  5
7C5A
  8
1
 10
645.12211874493005
 20
4280.9554558553309
 30
0.0
 11
806.12211874493005
 21
4280.9554558553309
 31
0.0
  0
LINE
  5
7C5B
  8
1
 10
645.12211874493005
 20
4302.9554558553318
 30
0.0
 11
645.12211874493005
 21
4280.9554558553309
 31
0.0
  0
LINE
  5
7C5C
  8
1
 10
625.12211874493084
 20
4362.9554558553309
 30
0.0
 11
682.62211874493005
 21
4362.9554558553309
 31
0.0
  0
LINE
  5
7C5D
  8
1
 10
625.12211874493005
 20
4362.9554558553309
 30
0.0
 11
625.12211874493005
 21
4302.9554558553318
 31
0.0
  0
LINE
  5
7C5E
  8
1
 10
806.12211874493005
 20
4311.9554558553318
 30
0.0
 11
806.12211874493005
 21
4264.9554558553309
 31
0.0
  0
LINE
  5
7C5F
  8
1
 10
844.12211874493084
 20
4311.9554558553318
 30
0.0
 11
844.12211874493084
 21
4264.9554558553309
 31
0.0
  0
LINE
  5
7C60
  8
1
 10
625.12211874493084
 20
4642.9554558553309
 30
0.0
 11
625.12211874493084
 21
4582.9554558553318
 31
0.0
  0
LINE
  5
7C61
  8
1
 10
625.12211874493084
 20
4582.9554558553318
 30
0.0
 11
682.62211874493005
 21
4582.9554558553318
 31
0.0
  0
LINE
  5
7C62
  8
1
 10
625.12211874493084
 20
4642.9554558553309
 30
0.0
 11
682.62211874493005
 21
4642.9554558553309
 31
0.0
  0
LINE
  5
7C63
  8
1
 10
967.62211874493005
 20
4701.9554558553318
 30
0.0
 11
967.62211874493005
 21
4311.9554558553318
 31
0.0
  0
LINE
  5
7C65
  8
1
 10
967.62211874493005
 20
4362.9554558553309
 30
0.0
 11
1025.12211874493
 21
4362.9554558553309
 31
0.0
  0
LINE
  5
7C66
  8
1
 10
1025.12211874493
 20
4362.9554558553309
 30
0.0
 11
1025.12211874493
 21
4302.9554558553318
 31
0.0
  0
LINE
  5
7C67
  8
1
 10
967.62211874493005
 20
4642.9554558553309
 30
0.0
 11
1025.12211874493
 21
4642.9554558553309
 31
0.0
  0
LINE
  5
7C68
  8
1
 10
967.62211874493005
 20
4582.9554558553318
 30
0.0
 11
1025.12211874493
 21
4582.9554558553318
 31
0.0
  0
LINE
  5
7C69
  8
1
 10
1025.12211874493
 20
4642.9554558553309
 30
0.0
 11
1025.12211874493
 21
4582.9554558553318
 31
0.0
  0
DIMENSION
  5
7C6A
  8
3
  2
*D15
 10
645.12211874493005
 20
5626.5293424590827
 30
0.0
 11
785.12211874493005
 21
5680.3500972679903
 31
0.0
 70
   128
 13
925.12211874493005
 23
5480.9554558553309
 33
0.0
 14
645.12211874493005
 24
4944.9554558553318
 34
0.0
1001
ACAD
1000
DSTYLE
1002
{
1070
   288
1070
     1
1070
   172
1070
     1
1070
    40
1040
25.0
1070
   271
1070
     0
1070
   143
1040
0.039
1002
}
  0
LINE
  5
7C6B
  8
1
 10
645.12211874493005
 20
4944.9554558553318
 30
0.0
 11
925.12211874493005
 21
4944.9554558553318
 31
0.0
  0
LINE
  5
7C6C
  8
1
 10
778.98132601524503
 20
4947.4554558553318
 30
0.0
 11
778.98132601524503
 21
5422.4554558553309
 31
0.0
  0
LINE
  5
7C6D
  8
1
 10
925.12211874493005
 20
4947.4554558553318
 30
0.0
 11
925.12211874493005
 21
4944.9554558553318
 31
0.0
  0
LINE
  5
7C6E
  8
1
 10
925.12211874493005
 20
5480.9554558553309
 30
0.0
 11
925.12211874493005
 21
5422.4554558553309
 31
0.0
  0
DIMENSION
  5
7C6F
  8
3
  2
*D16
 10
1725.12211874493
 20
3989.0747795692978
 30
0.0
 11
1889.407833030644
 21
4051.5747795692992
 31
0.0
 70
     0
 13
1575.12211874493
 23
4280.9554558553309
 33
0.0
 14
1725.12211874493
 24
4894.9554558553309
 34
0.0
1001
ACAD
1000
DSTYLE
1002
{
1070
   287
1070
     3
1070
   287
1070
     3
1070
    40
1040
25.0
1070
   143
1040
0.039
1070
   172
1070
     1
1070
   271
1070
     0
1070
   279
1070
     0
1070
   288
1070
     1
1002
}
  0
DIMENSION
  5
7C70
  8
3
  2
*D17
 10
1934.5759216056531
 20
4280.9554558553309
 30
0.0
 11
1872.0759216056531
 21
4880.9554558553318
 31
0.0
 70
     0
 13
1725.12211874493
 23
5480.9554558553309
 33
0.0
 14
1575.12211874493
 24
4280.9554558553309
 34
0.0
 50
90.0
1001
ACAD
1000
DSTYLE
1002
{
1070
   287
1070
     3
1070
   287
1070
     3
1070
    40
1040
25.0
1070
   143
1040
0.039
1070
   172
1070
     1
1070
   271
1070
     0
1070
   279
1070
     0
1070
   288
1070
     1
1002
}
  0
LINE
  5
7C71
  8
1
 10
1300.12211874493
 20
4264.9554558553309
 30
0.0
 11
1300.12211874493
 21
4947.4554558553318
 31
0.0
  0
LINE
  5
7C72
  8
1
 10
1350.12211874493
 20
4264.9554558553309
 30
0.0
 11
1350.12211874493
 21
4947.4554558553318
 31
0.0
  0
LINE
  5
7C73
  8
1
 10
1575.12211874493
 20
4894.9554558553309
 30
0.0
 11
1575.12211874493
 21
4280.9554558553309
 31
0.0
  0
LINE
  5
7C74
  8
2
 10
1325.12211874493
 20
5459.0150550501148
 30
0.0
 11
1325.12211874493
 21
4132.5216892951012
 31
0.0
  0
LINE
  5
7C75
  8
1
 10
1475.12211874493
 20
4139.9554558553309
 30
0.0
 11
1475.12211874493
 21
4299.9554558553309
 31
0.0
  0
LINE
  5
7C76
  8
1
 10
1246.12211874493
 20
4182.9554558553309
 30
0.0
 11
1246.12211874493
 21
4264.9554558553309
 31
0.0
  0
LINE
  5
7C77
  8
1
 10
1404.12211874493
 20
4182.9554558553309
 30
0.0
 11
1404.12211874493
 21
4264.9554558553309
 31
0.0
  0
LINE
  5
7C78
  8
1
 10
1350.12211874493
 20
4859.9554558553318
 30
0.0
 11
1495.12211874493
 21
4859.9554558553318
 31
0.0
  0
LINE
  5
7C79
  8
1
 10
1350.12211874493
 20
4319.9554558553309
 30
0.0
 11
1495.12211874493
 21
4319.9554558553309
 31
0.0
  0
LINE
  5
7C7A
  8
1
 10
1350.12211874493
 20
4280.9554558553309
 30
0.0
 11
1575.12211874493
 21
4280.9554558553309
 31
0.0
  0
LINE
  5
7C7B
  8
1
 10
1475.12211874493
 20
4299.9554558553309
 30
0.0
 11
1350.12211874493
 21
4299.9554558553309
 31
0.0
  0
POINT
  5
7C7D
  8
1
 10
1575.12211874493
 20
4280.9554558553309
 30
0.0
  0
LINE
  5
7C7E
  8
1
 10
1745.12211874493
 20
5422.4554558553318
 30
0.0
 11
1745.12211874493
 21
4947.4554558553318
 31
0.0
  0
LINE
  5
7C7F
  8
1
 10
1575.12211874493
 20
4894.9554558553309
 30
0.0
 11
1725.12211874493
 21
4894.9554558553309
 31
0.0
  0
LINE
  5
7C80
  8
1
 10
1725.12211874493
 20
4947.4554558553318
 30
0.0
 11
1725.12211874493
 21
4894.9554558553309
 31
0.0
  0
POINT
  5
7C81
  8
1
 10
1725.12211874493
 20
4894.9554558553309
 30
0.0
  0
LINE
  5
7C82
  8
1
 10
1725.12211874493
 20
5480.9554558553309
 30
0.0
 11
1725.12211874493
 21
5422.4554558553318
 31
0.0
  0
LINE
  5
7C83
  8
1
 10
1782.12211874493
 20
5464.9554558553309
 30
0.0
 11
1782.12211874493
 21
4904.9554558553318
 31
0.0
  0
LINE
  5
7C84
  8
1
 10
1785.12211874493
 20
5464.9554558553309
 30
0.0
 11
1785.12211874493
 21
4904.9554558553318
 31
0.0
  0
LINE
  5
7C85
  8
1
 10
1782.12211874493
 20
4904.9554558553318
 30
0.0
 11
1785.12211874493
 21
4904.9554558553318
 31
0.0
  0
LINE
  5
7C86
  8
1
 10
1782.12211874493
 20
5464.9554558553309
 30
0.0
 11
1785.12211874493
 21
5464.9554558553309
 31
0.0
  0
DIMENSION
  5
7C87
  8
3
  2
*D18
 10
3858.8615877342122
 20
3413.7883435286221
 30
0.0
 11
3336.3615877342131
 21
3538.7883435286221
 31
0.0
 70
     0
  1
MAX\P1070
 13
2813.8615877342131
 23
2794.2389672091272
 33
0.0
 14
3858.8615877342122
 24
3357.4025123406009
 34
0.0
1001
ACAD
1000
DSTYLE
1002
{
1070
   287
1070
     3
1070
   287
1070
     3
1070
    40
1040
25.0
1070
   143
1040
0.039
1070
   172
1070
     1
1070
   271
1070
     0
1070
   279
1070
     0
1070
   288
1070
     1
1002
}
  0
DIMENSION
  5
7C88
  8
3
  2
*D19
 10
4151.8615877342118
 20
1405.8476755958959
 30
0.0
 11
3551.8615877342131
 21
1468.3476755958959
 31
0.0
 70
     0
 13
2951.8615877342131
 23
1706.238967209126
 33
0.0
 14
4151.8615877342118
 24
1706.238967209126
 34
0.0
1001
ACAD
1000
DSTYLE
1002
{
1070
   287
1070
     3
1070
   287
1070
     3
1070
    40
1040
25.0
1070
   143
1040
0.039
1070
   172
1070
     1
1070
   271
1070
     0
1070
   279
1070
     0
1070
   288
1070
     1
1002
}
  0
DIMENSION
  5
7C89
  8
3
  2
*D20
 10
3858.8615877342122
 20
1557.2531070338439
 30
0.0
 11
3405.3615877342131
 21
1619.7531070338439
 31
0.0
 70
     0
 13
2951.8615877342131
 23
1706.238967209126
 33
0.0
 14
3858.8615877342122
 24
1706.238967209126
 34
0.0
1001
ACAD
1000
DSTYLE
1002
{
1070
   287
1070
     3
1070
   287
1070
     3
1070
    40
1040
25.0
1070
   143
1040
0.039
1070
   172
1070
     1
1070
   271
1070
     0
1070
   279
1070
     0
1070
   288
1070
     1
1002
}
  0
LINE
  5
7C8A
  8
1
 10
2938.8615877342131
 20
2619.2389672091258
 30
0.0
 11
3621.3615877342131
 21
2619.2389672091258
 31
0.0
  0
LINE
  5
7C8B
  8
1
 10
2938.8615877342131
 20
2669.2389672091272
 30
0.0
 11
3621.3615877342131
 21
2669.2389672091272
 31
0.0
  0
LINE
  5
7C8C
  8
1
 10
2951.8615877342131
 20
1706.238967209126
 30
0.0
 11
4151.8615877342118
 21
1706.238967209126
 31
0.0
  0
LINE
  5
7C8D
  8
1
 10
2951.8615877342131
 20
1806.2389672091269
 30
0.0
 11
4151.8615877342118
 21
1806.238967209126
 31
0.0
  0
LINE
  5
7C8E
  8
1
 10
2951.8615877342131
 20
1944.2389672091269
 30
0.0
 11
4151.8615877342118
 21
1944.238967209126
 31
0.0
  0
LINE
  5
7C8F
  8
1
 10
2951.8615877342131
 20
1844.238967209126
 30
0.0
 11
4151.8615877342118
 21
1844.238967209126
 31
0.0
  0
LINE
  5
7C90
  8
2
 10
2836.2764106896611
 20
2644.2389672091258
 30
0.0
 11
4174.1480797194299
 21
2644.2389672091258
 31
0.0
  0
LINE
  5
7C91
  8
1
 10
2813.8615877342131
 20
2794.2389672091272
 30
0.0
 11
2813.8615877342131
 21
2011.2389672091269
 31
0.0
  0
LINE
  5
7C92
  8
1
 10
2938.8615877342131
 20
2723.2389672091272
 30
0.0
 11
2938.8615877342131
 21
2082.2389672091258
 31
0.0
  0
LINE
  5
7C93
  8
1
 10
2856.8615877342131
 20
2723.2389672091272
 30
0.0
 11
2856.8615877342131
 21
2082.2389672091258
 31
0.0
  0
LINE
  5
7C94
  8
1
 10
3533.8615877342131
 20
2589.2389672091258
 30
0.0
 11
3533.8615877342131
 21
1944.238967209126
 31
0.0
  0
LINE
  5
7C95
  8
1
 10
2993.8615877342131
 20
2589.2389672091258
 30
0.0
 11
2993.8615877342131
 21
1944.2389672091269
 31
0.0
  0
LINE
  5
7C96
  8
1
 10
2938.8615877342131
 20
2142.2389672091258
 30
0.0
 11
2993.8615877342131
 21
2142.2389672091258
 31
0.0
  0
LINE
  5
7C97
  8
1
 10
2938.8615877342131
 20
2180.2389672091258
 30
0.0
 11
2993.8615877342131
 21
2180.2389672091258
 31
0.0
  0
LINE
  5
7C98
  8
2
 10
2836.2764106896611
 20
2161.2389672091272
 30
0.0
 11
2993.8615877342131
 21
2161.2389672091272
 31
0.0
  0
LINE
  5
7C99
  8
1
 10
2951.8615877342131
 20
1944.2389672091269
 30
0.0
 11
2951.8615877342131
 21
1844.238967209126
 31
0.0
  0
LINE
  5
7C9A
  8
1
 10
2951.8615877342131
 20
1806.2389672091269
 30
0.0
 11
2951.8615877342131
 21
1706.238967209126
 31
0.0
  0
LINE
  5
7C9B
  8
1
 10
2813.8615877342131
 20
2011.2389672091269
 30
0.0
 11
2973.8615877342131
 21
2011.2389672091269
 31
0.0
  0
LINE
  5
7C9C
  8
1
 10
2973.8615877342131
 20
2031.238967209126
 30
0.0
 11
2973.8615877342131
 21
2011.2389672091269
 31
0.0
  0
LINE
  5
7C9D
  8
1
 10
2856.8615877342131
 20
2082.2389672091258
 30
0.0
 11
2938.8615877342131
 21
2082.2389672091258
 31
0.0
  0
LINE
  5
7C9E
  8
1
 10
2856.8615877342131
 20
2240.2389672091258
 30
0.0
 11
2938.8615877342131
 21
2240.2389672091258
 31
0.0
  0
LINE
  5
7C9F
  8
1
 10
2813.8615877342131
 20
2794.2389672091272
 30
0.0
 11
2973.8615877342131
 21
2794.2389672091272
 31
0.0
  0
LINE
  5
7CA0
  8
1
 10
2856.8615877342131
 20
2565.2389672091258
 30
0.0
 11
2938.8615877342131
 21
2565.2389672091258
 31
0.0
  0
LINE
  5
7CA1
  8
1
 10
2856.8615877342131
 20
2723.2389672091272
 30
0.0
 11
2938.8615877342131
 21
2723.2389672091272
 31
0.0
  0
LINE
  5
7CA2
  8
1
 10
2973.8615877342131
 20
2794.2389672091272
 30
0.0
 11
2973.8615877342131
 21
2774.2389672091258
 31
0.0
  0
LINE
  5
7CA3
  8
1
 10
2993.8615877342131
 20
2589.2389672091258
 30
0.0
 11
3533.8615877342131
 21
2589.2389672091258
 31
0.0
  0
LINE
  5
7CA4
  8
1
 10
3621.3615877342131
 20
1966.238967209126
 30
0.0
 11
4096.3615877342127
 21
2615.7389672091258
 31
0.0
  0
LINE
  5
7CA5
  8
1
 10
4096.3615877342127
 20
1965.738967209126
 30
0.0
 11
3621.3615877342131
 21
2615.7389672091258
 31
0.0
  0
LINE
  5
7CA6
  8
2
 10
3858.8615877342122
 20
3226.4930314799549
 30
0.0
 11
3858.8615877342122
 21
1706.238967209126
 31
0.0
  0
LINE
  5
7CA7
  8
1
 10
3621.3615877342131
 20
1965.738967209126
 30
0.0
 11
3621.3615877342131
 21
3098.2389672091272
 31
0.0
  0
LINE
  5
7CA8
  8
1
 10
4096.3615877342136
 20
1965.738967209126
 30
0.0
 11
4096.3615877342127
 21
3098.2389672091272
 31
0.0
  0
LINE
  5
7CA9
  8
1
 10
3621.3615877342131
 20
1965.738967209126
 30
0.0
 11
4096.3615877342127
 21
1965.738967209126
 31
0.0
  0
DIMENSION
  5
7CAA
  8
3
  2
*D21
 10
4151.8615877342118
 20
1557.2531070338439
 30
0.0
 11
4005.3615877342131
 21
1611.6768118975849
 31
0.0
 70
   128
 13
3858.8615877342122
 23
1706.238967209126
 33
0.0
 14
4151.8615877342118
 24
1706.238967209126
 34
0.0
1001
ACAD
1000
DSTYLE
1002
{
1070
   288
1070
     1
1070
   172
1070
     1
1070
    40
1040
25.0
1070
   271
1070
     0
1070
   143
1040
0.039
1002
}
  0
LINE
  5
7CAB
  8
1
 10
4151.8615877342118
 20
1944.238967209126
 30
0.0
 11
4151.8615877342118
 21
1844.238967209126
 31
0.0
  0
LINE
  5
7CAC
  8
1
 10
4151.8615877342118
 20
1806.238967209126
 30
0.0
 11
4151.8615877342118
 21
1706.238967209126
 31
0.0
  0
LINE
  5
7CAE
  8
1
 10
3621.3615877342131
 20
2672.7389672091258
 30
0.0
 11
4096.3615877342127
 21
2672.7389672091258
 31
0.0
  0
DIMENSION
  5
7CAF
  8
3
  2
*D22
 10
4096.3615877342127
 20
3247.8714653112379
 30
0.0
 11
3858.8615877342122
 21
3310.3714653112379
 31
0.0
 70
     0
 13
3621.3615877342131
 23
3098.2389672091272
 33
0.0
 14
4096.3615877342127
 24
3098.2389672091272
 34
0.0
1001
ACAD
1000
DSTYLE
1002
{
1070
   287
1070
     3
1070
   287
1070
     3
1070
    40
1040
25.0
1070
   143
1040
0.039
1070
   172
1070
     1
1070
   271
1070
     0
1070
   279
1070
     0
1070
   288
1070
     1
1002
}
  0
LINE
  5
7CB0
  8
1
 10
3621.3615877342131
 20
3098.2389672091272
 30
0.0
 11
4096.3615877342118
 21
3098.2389672091272
 31
0.0
  0
DIMENSION
  5
7FF2
  8
3
  2
*D24
 10
2233.5841580206288
 20
1706.238967209126
 30
0.0
 11
2171.0841580206279
 21
1491.953252923412
 31
0.0
 70
     0
 13
1725.12211874493
 23
1806.238967209126
 33
0.0
 14
1725.12211874493
 24
1706.238967209126
 34
0.0
 50
90.0
1001
ACAD
1000
DSTYLE
1002
{
1070
   287
1070
     3
1070
   287
1070
     3
1070
    40
1040
25.0
1070
   143
1040
0.039
1070
   172
1070
     1
1070
   271
1070
     0
1070
   279
1070
     0
1070
   288
1070
     1
1070
     6
1000
DOT
1002
}
  0
LINE
  5
8000
  8
3
 10
1737.62211874493
 20
1806.238967209126
 30
0.0
 11
2258.5841580206279
 21
1806.238967209126
 31
0.0
  0
LINE
  5
8001
  8
3
 10
2233.5841580206288
 20
1894.238967209126
 30
0.0
 11
2233.5841580206288
 21
1944.238967209126
 31
0.0
  0
LINE
  5
8002
  8
3
 10
2233.5841580206288
 20
1756.238967209126
 30
0.0
 11
2233.5841580206288
 21
1706.238967209126
 31
0.0
  0
INSERT
  5
8005
  8
3
  2
*U28
 10
0.0
 20
0.0
 30
0.0
  0
LINE
  5
8006
  8
3
 10
2233.5841580206288
 20
1844.238967209126
 30
0.0
 11
2233.5841580206288
 21
1806.238967209126
 31
0.0
  0
INSERT
  5
8007
  8
3
  2
_OPEN
 10
2233.5841580206288
 20
1844.238967209126
 30
0.0
 41
50.0
 42
50.0
 43
50.0
 50
270.0
  0
POINT
  5
8009
  8
DEFPOINTS
  6
BYBLOCK
 62
     0
 10
1725.12211874493
 20
1844.238967209126
 30
0.0
  0
POINT
  5
800A
  8
DEFPOINTS
  6
BYBLOCK
 62
     0
 10
1725.12211874493
 20
1806.238967209126
 30
0.0
  0
POINT
  5
800B
  8
3
 10
2233.5841580206288
 20
1806.238967209126
 30
0.0
  0
LINE
  5
8021
  8
4
 10
4625.0
 20
1250.0
 30
0.0
 11
4625.0
 21
750.0
 31
0.0
  0
LINE
  5
8022
  8
4
 10
2875.0
 20
1250.0
 30
0.0
 11
2875.0
 21
750.0
 31
0.0
  0
LINE
  5
8023
  8
4
 10
1625.0
 20
1250.0
 30
0.0
 11
1625.0
 21
750.0
 31
0.0
  0
LINE
  5
8026
  8
4
 10
1625.0
 20
750.0
 30
0.0
 11
4625.0
 21
750.0
 31
0.0
  0
LINE
  5
8027
  8
4
 10
1625.0
 20
1000.0
 30
0.0
 11
4625.0
 21
1000.0
 31
0.0
  0
TEXT
  5
8028
  8
4
 10
1721.2552021172539
 20
1078.857564666532
 30
0.0
 40
125.0
  1
機器名称
  0
TEXT
  5
8029
  8
4
 10
1715.6452650619931
 20
804.11289183002725
 30
0.0
 40
125.0
  1
機器型番
  0
TEXT
  5
802A
  8
4
 10
2892.0172349203649
 20
1056.9917570461921
 30
0.0
 40
112.5
  1
ミツヤ多翼送風機
  0
TEXT
  5
802B
  8
4
 10
2966.6362389637011
 20
792.89896069985843
 30
0.0
 40
125.0
  1
MF#4-1
  0
TEXT
  5
802D
  8
4
 10
2024.3447422168681
 20
5958.5721033312893
 30
0.0
 40
135.0
  1
床置防振ベット
  0
TEXT
  5
802E
  8
4
 10
750.81568325920659
 20
6334.7024404982449
 30
0.0
 40
180.0
  1
遠心式片吸込片持多翼ファン
  0
LINE
  5
802F
  8
4
 10
625.0
 20
6173.5218856620122
 30
0.0
 11
4625.0
 21
6173.5218856620122
 31
0.0
  0
LINE
  5
8030
  8
4
 10
625.0
 20
6673.5218856620122
 30
0.0
 11
4625.0
 21
6673.5218856620122
 31
0.0
  0
LINE
  5
8031
  8
4
 10
1625.0
 20
1250.0
 30
0.0
 11
4625.0
 21
1250.0
 31
0.0
  0
LINE
  5
8032
  8
4
 10
625.0
 20
6673.5218856620122
 30
0.0
 11
625.0
 21
6173.5218856620122
 31
0.0
  0
TEXT
  5
8033
  8
4
 10
934.69766161011285
 20
5955.7986938658578
 30
0.0
 40
135.0
  1
左回転右横向
  0
TEXT
  5
8034
  8
4
 10
3672.4238981232238
 20
6765.1527037382721
 30
0.0
 40
140.0
  1
No.
  0
TEXT
  5
8035
  8
4
 10
3278.2401565000318
 20
5958.5721033312893
 30
0.0
 40
135.0
  1
縮尺：1/25
  0
LINE
  5
8036
  8
4
 10
4625.0
 20
6673.5218856620122
 30
0.0
 11
4625.0
 21
6173.5218856620122
 31
0.0
  0
LINE
  5
8037
  8
4
 10
5250.0
 20
7375.0
 30
0.0
 11
5250.0
 21
7375.0
 31
0.0
  0
LINE
  5
8038
  8
4
 10
3601.543555899661
 20
6703.1589578135026
 30
0.0
 11
3601.543555899661
 21
6966.6306538743811
 31
0.0
  0
LINE
  5
8039
  8
4
 10
3601.543555899661
 20
6966.6306538743811
 30
0.0
 11
4625.0
 21
6966.6306538743811
 31
0.0
  0
LINE
  5
803A
  8
4
 10
4625.0
 20
6966.6306538743811
 30
0.0
 11
4625.0
 21
6703.1589578135026
 31
0.0
  0
LINE
  5
803B
  8
4
 10
4625.0
 20
6703.1589578135026
 30
0.0
 11
3601.543555899661
 21
6703.1589578135026
 31
0.0
  0
LINE
  5
803C
  8
4
 10
0.0
 20
0.0
 30
0.0
 11
0.0
 21
7375.0
 31
0.0
  0
LINE
  5
803D
  8
4
 10
0.0
 20
7375.0
 30
0.0
 11
5250.0
 21
7375.0
 31
0.0
  0
LINE
  5
803E
  8
4
 10
5250.0
 20
7375.0
 30
0.0
 11
5250.0
 21
0.0
 31
0.0
  0
LINE
  5
803F
  8
4
 10
5250.0
 20
0.0
 30
0.0
 11
0.0
 21
0.0
 31
0.0
  0
DIMENSION
  5
8124
  8
3
  2
*D26
 10
4099.8615877342127
 20
3413.7883435286221
 30
0.0
 11
3979.3615877342122
 21
3479.271659753771
 31
0.0
 70
   128
 13
3858.8615877342122
 23
3357.4025123406009
 33
0.0
 14
4099.8615877342127
 24
2980.1057745086559
 34
0.0
1001
ACAD
1000
DSTYLE
1002
{
1070
   288
1070
     1
1070
   172
1070
     1
1070
    75
1070
     1
1070
    40
1040
25.0
1070
   271
1070
     0
1070
   143
1040
0.039
1002
}
  0
LINE
  5
8178
  8
1
 10
1155.1221187449289
 20
2589.2389672091258
 30
0.0
 11
1495.12211874493
 21
2589.2389672091258
 31
0.0
  0
LINE
  5
817A
  8
1
 10
1495.12211874493
 20
2589.2389672091258
 30
0.0
 11
1575.12211874493
 21
1944.238967209126
 31
0.0
  0
LINE
  5
817C
  8
1
 10
1155.12211874493
 20
2589.2389672091258
 30
0.0
 11
1075.12211874493
 21
1944.238967209126
 31
0.0
  0
LINE
  5
817D
  8
1
 10
1155.12211874493
 20
4859.9554558553318
 30
0.0
 11
1155.12211874493
 21
4319.9554558553309
 31
0.0
  0
LINE
  5
817E
  8
1
 10
1495.1221187449289
 20
4859.9554558553309
 30
0.0
 11
1495.12211874493
 21
4319.9554558553309
 31
0.0
  0
DIMENSION
  5
8191
  8
3
  2
*D27
 10
4312.6196028667773
 20
2309.2389672091272
 30
0.0
 11
4312.6196028667764
 21
2645.3075378565632
 31
0.0
 70
   128
 13
4096.3615877342127
 23
2979.2389672091272
 33
0.0
 14
4096.3615877342136
 24
2309.2389672091272
 34
0.0
 50
90.0
1001
ACAD
1000
DSTYLE
1002
{
1070
   287
1070
     3
1070
   287
1070
     3
1070
    40
1040
25.0
1070
   143
1040
0.039
1070
   172
1070
     1
1070
   271
1070
     0
1070
   279
1070
     0
1070
   288
1070
     1
1002
}
  0
ENDSEC
  0
EOF
