  0
SECTION
  2
HEADER
  9
$ACADVER
  1
AC1009
  9
$INSBASE
 10
0.0
 20
0.0
 30
0.0
  9
$EXTMIN
 10
0.0
 20
0.0
 30
0.0
  9
$EXTMAX
 10
5250.0
 20
7375.0
 30
0.0
  9
$LIMMIN
 10
0.0
 20
0.0
  9
$LIMMAX
 10
297.0
 20
210.0
  9
$ORTHOMODE
 70
     0
  9
$REGENMODE
 70
     1
  9
$FILLMODE
 70
     0
  9
$QTEXTMODE
 70
     0
  9
$MIRRTEXT
 70
     1
  9
$DRAGMODE
 70
     2
  9
$LTSCALE
 40
100.0
  9
$OSMODE
 70
    37
  9
$ATTMODE
 70
     1
  9
$TEXTSIZE
 40
180.0
  9
$TRACEWID
 40
0.05
  9
$TEXTSTYLE
  7
STANDARD
  9
$CLAYER
  8
3
  9
$CELTYPE
  6
BYLAYER
  9
$CECOLOR
 62
   256
  9
$DIMSCALE
 40
25.0
  9
$DIMASZ
 40
2.0
  9
$DIMEXO
 40
0.5
  9
$DIMDLI
 40
10.0
  9
$DIMRND
 40
0.0
  9
$DIMDLE
 40
0.0
  9
$DIMEXE
 40
1.0
  9
$DIMTP
 40
1.0
  9
$DIMTM
 40
1.0
  9
$DIMTXT
 40
3.0
  9
$DIMCEN
 40
0.0
  9
$DIMTSZ
 40
0.0
  9
$DIMTOL
 70
     0
  9
$DIMLIM
 70
     0
  9
$DIMTIH
 70
     0
  9
$DIMTOH
 70
     0
  9
$DIMSE1
 70
     0
  9
$DIMSE2
 70
     0
  9
$DIMTAD
 70
     1
  9
$DIMZIN
 70
     8
  9
$DIMBLK
  1

  9
$DIMASO
 70
     1
  9
$DIMSHO
 70
     1
  9
$DIMPOST
  1

  9
$DIMAPOST
  1

  9
$DIMALT
 70
     0
  9
$DIMALTD
 70
     2
  9
$DIMALTF
 40
0.039
  9
$DIMLFAC
 40
1.0
  9
$DIMTOFL
 70
     1
  9
$DIMTVP
 40
0.0
  9
$DIMTIX
 70
     0
  9
$DIMSOXD
 70
     0
  9
$DIMSAH
 70
     1
  9
$DIMBLK1
  1
OPEN
  9
$DIMBLK2
  1
OPEN
  9
$DIMSTYLE
  2
IGA
  9
$DIMCLRD
 70
     0
  9
$DIMCLRE
 70
     0
  9
$DIMCLRT
 70
     0
  9
$DIMTFAC
 40
10.0
  9
$DIMGAP
 40
1.0
  9
$LUNITS
 70
     2
  9
$LUPREC
 70
     3
  9
$SKETCHINC
 40
0.1
  9
$FILLETRAD
 40
50.0
  9
$AUNITS
 70
     0
  9
$AUPREC
 70
     0
  9
$MENU
  1
acad
  9
$ELEVATION
 40
0.0
  9
$PELEVATION
 40
0.0
  9
$THICKNESS
 40
0.0
  9
$LIMCHECK
 70
     0
  9
$BLIPMODE
 70
     0
  9
$CHAMFERA
 40
0.5
  9
$CHAMFERB
 40
0.5
  9
$SKPOLY
 70
     0
  9
$TDCREATE
 40
2451004.4569724528
  9
$TDUPDATE
 40
2454953.756167708
  9
$TDINDWG
 40
0.0359998843
  9
$TDUSRTIMER
 40
0.0359998843
  9
$USRTIMER
 70
     1
  9
$ANGBASE
 50
0.0
  9
$ANGDIR
 70
     0
  9
$PDMODE
 70
     0
  9
$PDSIZE
 40
0.0
  9
$PLINEWID
 40
0.0
  9
$COORDS
 70
     1
  9
$SPLFRAME
 70
     0
  9
$SPLINETYPE
 70
     6
  9
$SPLINESEGS
 70
     8
  9
$ATTDIA
 70
     0
  9
$ATTREQ
 70
     1
  9
$HANDLING
 70
 10241
  9
$HANDSEED
  5
845F
  9
$SURFTAB1
 70
     6
  9
$SURFTAB2
 70
     6
  9
$SURFTYPE
 70
     6
  9
$SURFU
 70
     6
  9
$SURFV
 70
     6
  9
$UCSNAME
  2

  9
$UCSORG
 10
0.0
 20
0.0
 30
0.0
  9
$UCSXDIR
 10
1.0
 20
0.0
 30
0.0
  9
$UCSYDIR
 10
0.0
 20
1.0
 30
0.0
  9
$PUCSNAME
  2

  9
$PUCSORG
 10
0.0
 20
0.0
 30
0.0
  9
$PUCSXDIR
 10
1.0
 20
0.0
 30
0.0
  9
$PUCSYDIR
 10
0.0
 20
1.0
 30
0.0
  9
$USERI1
 70
     0
  9
$USERI2
 70
     0
  9
$USERI3
 70
     0
  9
$USERI4
 70
     0
  9
$USERI5
 70
     0
  9
$USERR1
 40
0.0
  9
$USERR2
 40
0.0
  9
$USERR3
 40
0.0
  9
$USERR4
 40
0.0
  9
$USERR5
 40
0.0
  9
$WORLDVIEW
 70
     1
  9
$SHADEDGE
 70
     3
  9
$SHADEDIF
 70
    70
  9
$TILEMODE
 70
     1
  9
$MAXACTVP
 70
    16
  9
$PLIMCHECK
 70
     0
  9
$PEXTMIN
 10
1.0000000000000000E+020
 20
1.0000000000000000E+020
 30
1.0000000000000000E+020
  9
$PEXTMAX
 10
-1.0000000000000000E+020
 20
-1.0000000000000000E+020
 30
-1.0000000000000000E+020
  9
$PLIMMIN
 10
0.0
 20
0.0
  9
$PLIMMAX
 10
12.0
 20
9.0
  9
$UNITMODE
 70
     0
  9
$VISRETAIN
 70
     0
  9
$PLINEGEN
 70
     0
  9
$PSLTSCALE
 70
     1
  0
ENDSEC
  0
SECTION
  2
TABLES
  0
TABLE
  2
VPORT
 70
     2
  0
VPORT
  2
*ACTIVE
 70
     0
 10
0.0
 20
0.0
 11
1.0
 21
1.0
 12
8841.5248971284218
 22
3687.5000171712591
 13
0.0
 23
0.0
 14
10.0
 24
10.0
 15
10.0
 25
10.0
 16
0.0
 26
0.0
 36
1.0
 17
0.0
 27
0.0
 37
0.0
 40
7431.5372075423384
 41
3.1666666666666661
 42
50.0
 43
0.0
 44
0.0
 50
0.0
 51
0.0
 71
     0
 72
   100
 73
     1
 74
     0
 75
     0
 76
     0
 77
     0
 78
     0
  0
ENDTAB
  0
TABLE
  2
LTYPE
 70
     2
  0
LTYPE
  2
CONTINUOUS
 70
     0
  3
Solid line
 72
    65
 73
     0
 40
0.0
  0
LTYPE
  2
CENTER
 70
     0
  3
____ _ ____ _ ____ _ ____ _ ____ _ ____ _ ____ 
 72
    65
 73
     4
 40
2.0
 49
1.25
 49
-0.25
 49
0.25
 49
-0.25
  0
ENDTAB
  0
TABLE
  2
LAYER
 70
     6
  0
LAYER
  2
0
 70
     0
 62
     7
  6
CONTINUOUS
  0
LAYER
  2
3
 70
     0
 62
     2
  6
CONTINUOUS
  0
LAYER
  2
2
 70
     0
 62
     3
  6
CENTER
  0
LAYER
  2
1
 70
     0
 62
     4
  6
CONTINUOUS
  0
LAYER
  2
4
 70
     0
 62
     7
  6
CONTINUOUS
  0
LAYER
  2
DEFPOINTS
 70
     0
 62
     7
  6
CONTINUOUS
  0
ENDTAB
  0
TABLE
  2
STYLE
 70
     1
  0
STYLE
  2
STANDARD
 70
     0
 40
0.0
 41
1.0
 50
0.0
 71
     0
 42
180.0
  3
simplex.shx
  4
extfont.shx
  0
ENDTAB
  0
TABLE
  2
VIEW
 70
     0
  0
ENDTAB
  0
TABLE
  2
UCS
 70
     0
  0
ENDTAB
  0
TABLE
  2
APPID
 70
     1
  0
APPID
  2
ACAD
 70
     0
  0
ENDTAB
  0
TABLE
  2
DIMSTYLE
 70
     1
  0
DIMSTYLE
  2
IGA
 70
     0
  3

  4

  5

  6
OPEN
  7
OPEN
 40
2.0
 41
2.0
 42
0.5
 43
10.0
 44
1.0
 45
0.0
 46
0.0
 47
1.0
 48
1.0
140
3.0
141
0.0
142
0.0
143
0.03937
144
1.0
145
0.0
146
10.0
147
1.0
 71
     0
 72
     0
 73
     0
 74
     0
 75
     0
 76
     0
 77
     1
 78
     8
170
     0
171
     2
172
     0
173
     1
174
     0
175
     0
176
     0
177
     0
178
     0
  0
ENDTAB
  0
ENDSEC
  0
SECTION
  2
BLOCKS
  0
BLOCK
  8
0
  2
$MODEL_SPACE
 70
     0
 10
0.0
 20
0.0
 30
0.0
  3
$MODEL_SPACE
  1

  0
ENDBLK
  5
1B
  8
0
  0
BLOCK
 67
     1
  8
0
  2
$PAPER_SPACE
 70
     0
 10
0.0
 20
0.0
 30
0.0
  3
$PAPER_SPACE
  1

  0
ENDBLK
  5
18
 67
     1
  8
0
  0
BLOCK
  8
0
  2
ARROW
 70
     0
 10
0.0
 20
0.0
 30
0.0
  3
ARROW
  1

  0
LINE
  5
79FD
  8
0
 10
-0.9999999999999991
 20
0.1666666667000003
 30
0.0
 11
0.0
 21
0.0
 31
0.0
  0
LINE
  5
79FE
  8
0
 10
-0.9999999999999991
 20
0.0
 30
0.0
 11
0.0
 21
0.0
 31
0.0
  0
LINE
  5
79FF
  8
0
 10
-0.9999999999999991
 20
-0.1666666667000003
 30
0.0
 11
0.0
 21
0.0
 31
0.0
  0
ENDBLK
  5
7A01
  8
0
  0
BLOCK
  8
0
  2
*D1
 70
     1
 10
0.0
 20
0.0
 30
0.0
  3
*D1
  1

  0
LINE
  5
8392
  8
3
 62
     0
 10
2205.1904144647001
 20
2030.5063805585651
 30
0.0
 11
2205.1904144647001
 21
3455.8085783532752
 31
0.0
  0
LINE
  5
8393
  8
3
 62
     0
 10
1045.1904144647001
 20
2705.0063805585651
 30
0.0
 11
1045.1904144647001
 21
3455.8085783532752
 31
0.0
  0
LINE
  5
8394
  8
3
 62
     0
 10
2155.1904144647001
 20
3430.8085783532752
 30
0.0
 11
1095.1904144647001
 21
3430.8085783532752
 31
0.0
  0
INSERT
  5
8395
  8
3
 62
     0
  2
_OPEN
 10
2205.1904144647001
 20
3430.8085783532752
 30
0.0
 41
50.0
 42
50.0
 43
50.0
  0
INSERT
  5
8396
  8
3
 62
     0
  2
_OPEN
 10
1045.1904144647001
 20
3430.8085783532752
 30
0.0
 41
50.0
 42
50.0
 43
50.0
 50
180.0
  0
TEXT
  8
3
  40
75
  5
844A
  62
0
  72
0
  71
0
 10
1475.19
 20
3360.56
 30
0.000000
  1
1160
  0
POINT
  5
8398
  8
DEFPOINTS
 62
     0
 10
2205.1904144647001
 20
2018.0063805585651
 30
0.0
  0
POINT
  5
8399
  8
DEFPOINTS
 62
     0
 10
1045.1904144647001
 20
2692.5063805585651
 30
0.0
  0
POINT
  5
839A
  8
DEFPOINTS
 62
     0
 10
1045.1904144647001
 20
3430.8085783532752
 30
0.0
  0
ENDBLK
  5
7F2A
  8
0
  0
BLOCK
  8
0
  2
*D2
 70
     1
 10
0.0
 20
0.0
 30
0.0
  3
*D2
  1

  0
LINE
  5
839B
  8
3
 62
     0
 10
979.04785390719758
 20
2678.0063805585651
 30
0.0
 11
571.72837518900212
 21
2678.0063805585651
 31
0.0
  0
LINE
  5
839C
  8
3
 62
     0
 10
1092.6904144647001
 20
1878.0063805585651
 30
0.0
 11
571.72837518900201
 21
1878.0063805585651
 31
0.0
  0
LINE
  5
839D
  8
3
 62
     0
 10
596.72837518900212
 20
2628.0063805585651
 30
0.0
 11
596.72837518900201
 21
1928.0063805585651
 31
0.0
  0
INSERT
  5
839E
  8
3
 62
     0
  2
_OPEN
 10
596.72837518900212
 20
2678.0063805585651
 30
0.0
 41
50.0
 42
50.0
 43
50.0
 50
90.0
  0
INSERT
  5
839F
  8
3
 62
     0
  2
_OPEN
 10
596.72837518900201
 20
1878.0063805585651
 30
0.0
 41
50.0
 42
50.0
 43
50.0
 50
270.0
  0
TEXT
  8
3
  40
75
  5
844B
  62
0
  72
0
  71
0
 10
384.228
 20
2145.26
 30
0.000000
  1
800
  0
POINT
  5
83A1
  8
DEFPOINTS
 62
     0
 10
991.54785390719758
 20
2678.0063805585651
 30
0.0
  0
POINT
  5
83A2
  8
DEFPOINTS
 62
     0
 10
1105.1904144647001
 20
1878.0063805585651
 30
0.0
  0
POINT
  5
83A3
  8
DEFPOINTS
 62
     0
 10
596.72837518900201
 20
1878.0063805585651
 30
0.0
  0
ENDBLK
  5
7F09
  8
0
  0
BLOCK
  8
0
  2
*D3
 70
     1
 10
0.0
 20
0.0
 30
0.0
  3
*D3
  1

  0
LINE
  5
83A4
  8
3
 62
     0
 10
1032.6904144647001
 20
2000.0063805585651
 30
0.0
 11
719.71326638616404
 21
2000.0063805585651
 31
0.0
  0
LINE
  5
83A5
  8
3
 62
     0
 10
979.04785390719758
 20
2678.0063805585651
 30
0.0
 11
719.71326638616415
 21
2678.0063805585651
 31
0.0
  0
LINE
  5
83A6
  8
3
 62
     0
 10
744.71326638616404
 20
2050.0063805585651
 30
0.0
 11
744.71326638616415
 21
2628.0063805585651
 31
0.0
  0
INSERT
  5
83A7
  8
3
 62
     0
  2
_OPEN
 10
744.71326638616404
 20
2000.0063805585651
 30
0.0
 41
50.0
 42
50.0
 43
50.0
 50
270.0
  0
INSERT
  5
83A8
  8
3
 62
     0
  2
_OPEN
 10
744.71326638616415
 20
2678.0063805585651
 30
0.0
 41
50.0
 42
50.0
 43
50.0
 50
90.0
  0
TEXT
  8
3
  40
75
  5
844C
  62
0
  72
0
  71
0
 10
532.213
 20
2206.26
 30
0.000000
  1
678
  0
POINT
  5
83AA
  8
DEFPOINTS
 62
     0
 10
1045.1904144647001
 20
2000.0063805585651
 30
0.0
  0
POINT
  5
83AB
  8
DEFPOINTS
 62
     0
 10
991.54785390719758
 20
2678.0063805585651
 30
0.0
  0
POINT
  5
83AC
  8
DEFPOINTS
 62
     0
 10
744.71326638616415
 20
2678.0063805585651
 30
0.0
  0
ENDBLK
  5
7EFE
  8
0
  0
BLOCK
  8
0
  2
*D4
 70
     1
 10
0.0
 20
0.0
 30
0.0
  3
*D4
  1

  0
LINE
  5
83AD
  8
3
 62
     0
 10
1032.6904144647001
 20
2000.0063805585651
 30
0.0
 11
871.24089029847994
 21
2000.0063805585651
 31
0.0
  0
LINE
  5
83AE
  8
3
 62
     0
 10
1032.6904144647001
 20
2650.0063805585651
 30
0.0
 11
871.24089029848005
 21
2650.0063805585651
 31
0.0
  0
LINE
  5
83AF
  8
3
 62
     0
 10
896.24089029847994
 20
2050.0063805585651
 30
0.0
 11
896.24089029848005
 21
2600.0063805585651
 31
0.0
  0
INSERT
  5
83B0
  8
3
 62
     0
  2
_OPEN
 10
896.24089029847994
 20
2000.0063805585651
 30
0.0
 41
50.0
 42
50.0
 43
50.0
 50
270.0
  0
INSERT
  5
83B1
  8
3
 62
     0
  2
_OPEN
 10
896.24089029848005
 20
2650.0063805585651
 30
0.0
 41
50.0
 42
50.0
 43
50.0
 50
90.0
  0
TEXT
  8
3
  40
75
  5
844D
  62
0
  72
0
  71
0
 10
683.741
 20
2192.26
 30
0.000000
  1
650
  0
POINT
  5
83B3
  8
DEFPOINTS
 62
     0
 10
1045.1904144647001
 20
2000.0063805585651
 30
0.0
  0
POINT
  5
83B4
  8
DEFPOINTS
 62
     0
 10
1045.1904144647001
 20
2650.0063805585651
 30
0.0
  0
POINT
  5
83B5
  8
DEFPOINTS
 62
     0
 10
896.24089029848005
 20
2650.0063805585651
 30
0.0
  0
ENDBLK
  5
7EF3
  8
0
  0
BLOCK
  8
0
  2
*D5
 70
     1
 10
0.0
 20
0.0
 30
0.0
  3
*D5
  1

  0
LINE
  5
83B6
  8
3
 62
     0
 10
1505.1904144647001
 20
3247.0836615953231
 30
0.0
 11
1505.1904144647001
 21
3304.7806587970231
 31
0.0
  0
LINE
  5
83B7
  8
3
 62
     0
 10
1045.1904144647001
 20
2705.0063805585651
 30
0.0
 11
1045.1904144647001
 21
3304.7806587970231
 31
0.0
  0
LINE
  5
83B8
  8
3
 62
     0
 10
1455.1904144647001
 20
3279.7806587970222
 30
0.0
 11
1095.1904144647001
 21
3279.7806587970222
 31
0.0
  0
INSERT
  5
83B9
  8
3
 62
     0
  2
_OPEN
 10
1505.1904144647001
 20
3279.7806587970222
 30
0.0
 41
50.0
 42
50.0
 43
50.0
  0
INSERT
  5
83BA
  8
3
 62
     0
  2
_OPEN
 10
1045.1904144647001
 20
3279.7806587970222
 30
0.0
 41
50.0
 42
50.0
 43
50.0
 50
180.0
  0
TEXT
  8
3
  40
75
  5
844E
  62
0
  72
0
  71
0
 10
1125.19
 20
3209.53
 30
0.000000
  1
460
  0
POINT
  5
83BC
  8
DEFPOINTS
 62
     0
 10
1505.1904144647001
 20
3234.5836615953231
 30
0.0
  0
POINT
  5
83BD
  8
DEFPOINTS
 62
     0
 10
1045.1904144647001
 20
2692.5063805585651
 30
0.0
  0
POINT
  5
83BE
  8
DEFPOINTS
 62
     0
 10
1045.1904144647001
 20
3279.7806587970222
 30
0.0
  0
ENDBLK
  5
7F61
  8
0
  0
BLOCK
  8
0
  2
*D6
 70
     1
 10
0.0
 20
0.0
 30
0.0
  3
*D6
  1

  0
LINE
  5
83BF
  8
3
 62
     0
 10
2050.980951664435
 20
2690.5063805585651
 30
0.0
 11
2050.980951664435
 21
3304.7806587970231
 31
0.0
  0
LINE
  5
83C0
  8
3
 62
     0
 10
1505.1904144647001
 20
3247.0836615953231
 30
0.0
 11
1505.1904144647001
 21
3304.7806587970231
 31
0.0
  0
LINE
  5
83C1
  8
3
 62
     0
 10
2000.980951664435
 20
3279.7806587970222
 30
0.0
 11
1555.1904144647001
 21
3279.7806587970222
 31
0.0
  0
INSERT
  5
83C2
  8
3
 62
     0
  2
_OPEN
 10
2050.980951664435
 20
3279.7806587970222
 30
0.0
 41
50.0
 42
50.0
 43
50.0
  0
INSERT
  5
83C3
  8
3
 62
     0
  2
_OPEN
 10
1505.1904144647001
 20
3279.7806587970222
 30
0.0
 41
50.0
 42
50.0
 43
50.0
 50
180.0
  0
TEXT
  8
3
  40
75
  5
844F
  62
0
  72
0
  71
0
 10
1628.09
 20
3209.53
 30
0.000000
  1
548
  0
POINT
  5
83C5
  8
DEFPOINTS
 62
     0
 10
2050.980951664435
 20
2678.0063805585651
 30
0.0
  0
POINT
  5
83C6
  8
DEFPOINTS
 62
     0
 10
1505.1904144647001
 20
3234.5836615953231
 30
0.0
  0
POINT
  5
83C7
  8
DEFPOINTS
 62
     0
 10
1505.1904144647001
 20
3279.7806587970222
 30
0.0
  0
ENDBLK
  5
7F56
  8
0
  0
BLOCK
  8
0
  2
*D7
 70
     1
 10
0.0
 20
0.0
 30
0.0
  3
*D7
  1

  0
LINE
  5
83C8
  8
3
 62
     0
 10
2993.9298834539832
 20
2840.5063805585651
 30
0.0
 11
2993.9298834539832
 21
3456.2879455654729
 31
0.0
  0
LINE
  5
83C9
  8
3
 62
     0
 10
4038.9298834539832
 20
3403.6699256900388
 30
0.0
 11
4038.9298834539832
 21
3456.2879455654729
 31
0.0
  0
LINE
  5
83CA
  8
3
 62
     0
 10
3043.9298834539832
 20
3431.2879455654729
 30
0.0
 11
3988.9298834539818
 21
3431.2879455654729
 31
0.0
  0
INSERT
  5
83CB
  8
3
 62
     0
  2
_OPEN
 10
2993.9298834539832
 20
3431.2879455654729
 30
0.0
 41
50.0
 42
50.0
 43
50.0
 50
180.0
  0
INSERT
  5
83CC
  8
3
 62
     0
  2
_OPEN
 10
4038.9298834539832
 20
3431.2879455654729
 30
0.0
 41
50.0
 42
50.0
 43
50.0
  0
TEXT
  8
3
  40
75
  5
8450
  62
0
  72
0
  71
0
 10
3366.43
 20
3423.54
 30
0.000000
  1
MAX
  0
TEXT
  8
3
  40
75
  5
8451
  62
0
  72
0
  71
0
 10
3366.43
 20
3326.04
 30
0.000000
  1
1070
  0
POINT
  5
83CE
  8
DEFPOINTS
 62
     0
 10
2993.9298834539832
 20
2828.006380558566
 30
0.0
  0
POINT
  5
83CF
  8
DEFPOINTS
 62
     0
 10
4038.9298834539832
 20
3391.1699256900388
 30
0.0
  0
POINT
  5
83D0
  8
DEFPOINTS
 62
     0
 10
4038.9298834539832
 20
3431.2879455654729
 30
0.0
  0
ENDBLK
  5
8243
  8
0
  0
BLOCK
  8
0
  2
*D8
 70
     1
 10
0.0
 20
0.0
 30
0.0
  3
*D8
  1

  0
LINE
  5
83D1
  8
3
 62
     0
 10
3801.4298834539818
 20
3144.5063805585651
 30
0.0
 11
3801.4298834539818
 21
3306.6388786606758
 31
0.0
  0
LINE
  5
83D2
  8
3
 62
     0
 10
4276.4298834539823
 20
3144.5063805585651
 30
0.0
 11
4276.4298834539823
 21
3306.6388786606758
 31
0.0
  0
LINE
  5
83D3
  8
3
 62
     0
 10
3851.4298834539832
 20
3281.6388786606758
 30
0.0
 11
4226.4298834539823
 21
3281.6388786606758
 31
0.0
  0
INSERT
  5
83D4
  8
3
 62
     0
  2
_OPEN
 10
3801.4298834539818
 20
3281.6388786606758
 30
0.0
 41
50.0
 42
50.0
 43
50.0
 50
180.0
  0
INSERT
  5
83D5
  8
3
 62
     0
  2
_OPEN
 10
4276.4298834539823
 20
3281.6388786606758
 30
0.0
 41
50.0
 42
50.0
 43
50.0
  0
TEXT
  8
3
  40
75
  5
8452
  62
0
  72
0
  71
0
 10
3888.93
 20
3211.39
 30
0.000000
  1
475
  0
POINT
  5
83D7
  8
DEFPOINTS
 62
     0
 10
3801.4298834539818
 20
3132.0063805585651
 30
0.0
  0
POINT
  5
83D8
  8
DEFPOINTS
 62
     0
 10
4276.4298834539823
 20
3132.0063805585651
 30
0.0
  0
POINT
  5
83D9
  8
DEFPOINTS
 62
     0
 10
4276.4298834539823
 20
3281.6388786606758
 30
0.0
  0
ENDBLK
  5
7FE0
  8
0
  0
BLOCK
  8
0
  2
*D9
 70
     1
 10
0.0
 20
0.0
 30
0.0
  3
*D9
  1

  0
LINE
  5
8224
  8
0
  6
BYBLOCK
 62
     0
 10
1905.1904144647001
 20
5527.2228692047711
 30
0.0
 11
1905.1904144647001
 21
5685.2967558085229
 31
0.0
  0
LINE
  5
8225
  8
0
  6
BYBLOCK
 62
     0
 10
2185.1904144647001
 20
4991.2228692047702
 30
0.0
 11
2185.1904144647001
 21
5685.2967558085229
 31
0.0
  0
LINE
  5
8226
  8
0
  6
BYBLOCK
 62
     0
 10
1955.1904144647001
 20
5660.2967558085229
 30
0.0
 11
2135.1904144647001
 21
5660.2967558085229
 31
0.0
  0
TEXT
  5
8227
  8
3
 62
     0
 10
1948.761843036129
 20
5689.8460156946503
 30
0.0
 40
75.0
  1
280
  0
INSERT
  5
8228
  8
0
  6
BYBLOCK
 62
     0
  2
_OPEN
 10
1905.1904144647001
 20
5660.2967558085229
 30
0.0
 41
50.0
 42
50.0
 43
50.0
 50
180.0
  0
INSERT
  5
8229
  8
0
  6
BYBLOCK
 62
     0
  2
_OPEN
 10
2185.1904144647001
 20
5660.2967558085229
 30
0.0
 41
50.0
 42
50.0
 43
50.0
  0
POINT
  5
822A
  8
DEFPOINTS
  6
BYBLOCK
 62
     0
 10
1905.1904144647001
 20
5514.7228692047711
 30
0.0
  0
POINT
  5
822B
  8
DEFPOINTS
  6
BYBLOCK
 62
     0
 10
2185.1904144647001
 20
4978.7228692047702
 30
0.0
  0
POINT
  5
822C
  8
DEFPOINTS
  6
BYBLOCK
 62
     0
 10
2185.1904144647001
 20
5660.2967558085229
 30
0.0
  0
ENDBLK
  5
822D
  8
0
  0
BLOCK
  8
0
  2
*D10
 70
     1
 10
0.0
 20
0.0
 30
0.0
  3
*D10
  1

  0
LINE
  5
83DA
  8
3
 62
     0
 10
1255.1904144647001
 20
4302.2228692047702
 30
0.0
 11
1255.1904144647001
 21
3997.8421929187371
 31
0.0
  0
LINE
  5
83DB
  8
3
 62
     0
 10
2185.1904144647001
 20
4302.2228692047702
 30
0.0
 11
2185.1904144647001
 21
3997.8421929187371
 31
0.0
  0
LINE
  5
83DC
  8
3
 62
     0
 10
1305.1904144647001
 20
4022.8421929187361
 30
0.0
 11
2135.1904144647001
 21
4022.8421929187361
 31
0.0
  0
INSERT
  5
83DD
  8
3
 62
     0
  2
_OPEN
 10
1255.1904144647001
 20
4022.8421929187361
 30
0.0
 41
50.0
 42
50.0
 43
50.0
 50
180.0
  0
INSERT
  5
83DE
  8
3
 62
     0
  2
_OPEN
 10
2185.1904144647001
 20
4022.8421929187361
 30
0.0
 41
50.0
 42
50.0
 43
50.0
  0
TEXT
  8
3
  40
75
  5
8453
  62
0
  72
0
  71
0
 10
1570.19
 20
3952.59
 30
0.000000
  1
930
  0
POINT
  5
83E0
  8
DEFPOINTS
 62
     0
 10
1255.1904144647001
 20
4314.7228692047702
 30
0.0
  0
POINT
  5
83E1
  8
DEFPOINTS
 62
     0
 10
2185.1904144647001
 20
4314.7228692047702
 30
0.0
  0
POINT
  5
83E2
  8
DEFPOINTS
 62
     0
 10
2185.1904144647001
 20
4022.8421929187361
 30
0.0
  0
ENDBLK
  5
81BE
  8
0
  0
BLOCK
  8
0
  2
*D11
 70
     1
 10
0.0
 20
0.0
 30
0.0
  3
*D11
  1

  0
LINE
  5
83E3
  8
3
 62
     0
 10
1255.1904144647001
 20
4302.2228692047702
 30
0.0
 11
1255.1904144647001
 21
3997.8421929187371
 31
0.0
  0
LINE
  5
83E4
  8
3
 62
     0
 10
1105.1904144647001
 20
4916.2228692047702
 30
0.0
 11
1105.1904144647001
 21
3997.8421929187371
 31
0.0
  0
LINE
  5
83E5
  8
3
 62
     0
 10
1205.1904144647001
 20
4022.8421929187361
 30
0.0
 11
1155.1904144647001
 21
4022.8421929187361
 31
0.0
  0
LINE
  5
83E6
  8
3
 62
     0
 10
1105.1904144647001
 20
4022.8421929187361
 30
0.0
 11
826.61898589327222
 21
4022.8421929187361
 31
0.0
  0
INSERT
  5
83E7
  8
3
 62
     0
  2
_OPEN
 10
1255.1904144647001
 20
4022.8421929187361
 30
0.0
 41
50.0
 42
50.0
 43
50.0
  0
INSERT
  5
83E8
  8
3
 62
     0
  2
_OPEN
 10
1105.1904144647001
 20
4022.8421929187361
 30
0.0
 41
50.0
 42
50.0
 43
50.0
 50
180.0
  0
TEXT
  8
3
  40
75
  5
8454
  62
0
  72
0
  71
0
 10
790.905
 20
3952.59
 30
0.000000
  1
150
  0
POINT
  5
83EA
  8
DEFPOINTS
 62
     0
 10
1255.1904144647001
 20
4314.7228692047702
 30
0.0
  0
POINT
  5
83EB
  8
DEFPOINTS
 62
     0
 10
1105.1904144647001
 20
4928.7228692047702
 30
0.0
  0
POINT
  5
83EC
  8
DEFPOINTS
 62
     0
 10
1105.1904144647001
 20
4022.8421929187361
 30
0.0
  0
ENDBLK
  5
81B3
  8
0
  0
BLOCK
  8
0
  2
*D12
 70
     1
 10
0.0
 20
0.0
 30
0.0
  3
*D12
  1

  0
LINE
  5
83ED
  8
3
 62
     0
 10
1092.6904144647001
 20
5514.7228692047711
 30
0.0
 11
870.73661160397705
 21
5514.7228692047711
 31
0.0
  0
LINE
  5
83EE
  8
3
 62
     0
 10
1242.6904144647001
 20
4314.7228692047702
 30
0.0
 11
870.73661160397683
 21
4314.7228692047702
 31
0.0
  0
LINE
  5
83EF
  8
3
 62
     0
 10
895.73661160397705
 20
5464.7228692047711
 30
0.0
 11
895.73661160397705
 21
4364.7228692047702
 31
0.0
  0
INSERT
  5
83F0
  8
3
 62
     0
  2
_OPEN
 10
895.73661160397705
 20
5514.7228692047711
 30
0.0
 41
50.0
 42
50.0
 43
50.0
 50
90.0
  0
INSERT
  5
83F1
  8
3
 62
     0
  2
_OPEN
 10
895.73661160397683
 20
4314.7228692047702
 30
0.0
 41
50.0
 42
50.0
 43
50.0
 50
270.0
  0
TEXT
  8
3
  40
75
  5
8455
  62
0
  72
0
  71
0
 10
683.237
 20
4781.97
 30
0.000000
  1
1200
  0
POINT
  5
83F3
  8
DEFPOINTS
 62
     0
 10
1105.1904144647001
 20
5514.7228692047711
 30
0.0
  0
POINT
  5
83F4
  8
DEFPOINTS
 62
     0
 10
1255.1904144647001
 20
4314.7228692047702
 30
0.0
  0
POINT
  5
83F5
  8
DEFPOINTS
 62
     0
 10
895.73661160397683
 20
4314.7228692047702
 30
0.0
  0
ENDBLK
  5
81D4
  8
0
  0
BLOCK
  8
0
  2
*D13
 70
     1
 10
0.0
 20
0.0
 30
0.0
  3
*D13
  1

  0
LINE
  5
83F6
  8
3
 62
     0
 10
1905.1904144647001
 20
5527.2228692047711
 30
0.0
 11
1905.1904144647001
 21
5685.2967558085229
 31
0.0
  0
LINE
  5
83F7
  8
3
 62
     0
 10
1105.1904144647001
 20
5527.2228692047711
 30
0.0
 11
1105.1904144647001
 21
5685.2967558085229
 31
0.0
  0
LINE
  5
83F8
  8
3
 62
     0
 10
1855.1904144647001
 20
5660.2967558085229
 30
0.0
 11
1155.1904144647001
 21
5660.2967558085229
 31
0.0
  0
INSERT
  5
83F9
  8
3
 62
     0
  2
_OPEN
 10
1905.1904144647001
 20
5660.2967558085229
 30
0.0
 41
50.0
 42
50.0
 43
50.0
  0
INSERT
  5
83FA
  8
3
 62
     0
  2
_OPEN
 10
1105.1904144647001
 20
5660.2967558085229
 30
0.0
 41
50.0
 42
50.0
 43
50.0
 50
180.0
  0
TEXT
  8
3
  40
75
  5
8456
  62
0
  72
0
  71
0
 10
1355.19
 20
5590.05
 30
0.000000
  1
800
  0
POINT
  5
83FC
  8
DEFPOINTS
 62
     0
 10
1905.1904144647001
 20
5514.7228692047711
 30
0.0
  0
POINT
  5
83FD
  8
DEFPOINTS
 62
     0
 10
1105.1904144647001
 20
5514.7228692047711
 30
0.0
  0
POINT
  5
83FE
  8
DEFPOINTS
 62
     0
 10
1105.1904144647001
 20
5660.2967558085229
 30
0.0
  0
ENDBLK
  5
81DF
  8
0
  0
BLOCK
  8
0
  2
*D14
 70
     1
 10
0.0
 20
0.0
 30
0.0
  3
*D14
  1

  0
LINE
  5
83FF
  8
3
 62
     0
 10
2197.6904144647001
 20
4314.7228692047702
 30
0.0
 11
2358.6195860761418
 21
4314.7228692047702
 31
0.0
  0
LINE
  5
8400
  8
3
 62
     0
 10
2197.6904144647001
 20
4978.7228692047702
 30
0.0
 11
2358.6195860761418
 21
4978.7228692047702
 31
0.0
  0
LINE
  5
8401
  8
3
 62
     0
 10
2333.6195860761418
 20
4364.7228692047702
 30
0.0
 11
2333.6195860761418
 21
4928.7228692047702
 31
0.0
  0
INSERT
  5
8402
  8
3
 62
     0
  2
_OPEN
 10
2333.6195860761418
 20
4314.7228692047702
 30
0.0
 41
50.0
 42
50.0
 43
50.0
 50
270.0
  0
INSERT
  5
8403
  8
3
 62
     0
  2
_OPEN
 10
2333.6195860761418
 20
4978.7228692047702
 30
0.0
 41
50.0
 42
50.0
 43
50.0
 50
90.0
  0
TEXT
  8
3
  40
75
  5
8457
  62
0
  72
0
  71
0
 10
2121.12
 20
4513.97
 30
0.000000
  1
664
  0
POINT
  5
8405
  8
DEFPOINTS
 62
     0
 10
2185.1904144647001
 20
4314.7228692047702
 30
0.0
  0
POINT
  5
8406
  8
DEFPOINTS
 62
     0
 10
2185.1904144647001
 20
4978.7228692047702
 30
0.0
  0
POINT
  5
8407
  8
DEFPOINTS
 62
     0
 10
2333.6195860761418
 20
4978.7228692047702
 30
0.0
  0
ENDBLK
  5
81C9
  8
0
  0
BLOCK
  8
0
  2
_OPEN
 70
     0
 10
0.0
 20
0.0
 30
0.0
  3
_OPEN
  1

  0
LINE
  5
7EDA
  8
0
  6
BYBLOCK
 62
     0
 10
-1.0
 20
0.1666666666666666
 30
0.0
 11
0.0
 21
0.0
 31
0.0
  0
LINE
  5
7EDB
  8
0
  6
BYBLOCK
 62
     0
 10
0.0
 20
0.0
 30
0.0
 11
-1.0
 21
-0.1666666666666666
 31
0.0
  0
LINE
  5
7EDC
  8
0
  6
BYBLOCK
 62
     0
 10
0.0
 20
0.0
 30
0.0
 11
-1.0
 21
0.0
 31
0.0
  0
ENDBLK
  5
7EDD
  8
0
  0
BLOCK
  8
0
  2
_DOT
 70
     0
 10
0.0
 20
0.0
 30
0.0
  3
_DOT
  1

  0
LINE
  5
827F
  8
0
  6
BYBLOCK
 62
     0
 10
0.0
 20
0.0
 30
0.0
 11
-1.0
 21
-0.0000000000000284
 31
0.0
  0
POLYLINE
  5
8280
  8
0
  6
BYBLOCK
 62
     0
 66
     1
 10
0.0
 20
0.0
 30
0.0
 70
     1
 40
0.1666666666666666
 41
0.1666666666666666
  0
VERTEX
  5
8411
  8
0
  6
BYBLOCK
 62
     0
 10
-0.0833333333333286
 20
-0.0000000000000284
 30
0.0
 42
1.0
  0
VERTEX
  5
8412
  8
0
  6
BYBLOCK
 62
     0
 10
0.0833333333333286
 20
-0.0000000000000284
 30
0.0
 42
1.0
  0
SEQEND
  5
8413
  8
0
  6
BYBLOCK
 62
     0
  0
ENDBLK
  5
8044
  8
0
  0
BLOCK
  8
0
  2
*D17
 70
     1
 10
0.0
 20
0.0
 30
0.0
  3
*D17
  1

  0
LINE
  5
8408
  8
3
 62
     0
 10
4288.9298834539823
 20
3013.0063805585642
 30
0.0
 11
4526.3422843202097
 21
3013.0063805585642
 31
0.0
  0
LINE
  5
8409
  8
3
 62
     0
 10
4288.9298834539841
 20
2343.0063805585651
 30
0.0
 11
4526.3422843202097
 21
2343.0063805585651
 31
0.0
  0
LINE
  5
840A
  8
3
 62
     0
 10
4501.3422843202106
 20
2963.0063805585651
 30
0.0
 11
4501.3422843202106
 21
2393.0063805585651
 31
0.0
  0
INSERT
  5
840B
  8
3
 62
     0
  2
_OPEN
 10
4501.3422843202106
 20
3013.0063805585642
 30
0.0
 41
50.0
 42
50.0
 43
50.0
 50
90.0
  0
INSERT
  5
840C
  8
3
 62
     0
  2
_OPEN
 10
4501.3422843202106
 20
2343.0063805585651
 30
0.0
 41
50.0
 42
50.0
 43
50.0
 50
270.0
  0
TEXT
  8
3
  40
75
  5
8458
  62
0
  72
0
  71
0
 10
4288.84
 20
2543.76
 30
0.000000
  1
φ670
  0
POINT
  5
840E
  8
DEFPOINTS
 62
     0
 10
4276.4298834539823
 20
3013.0063805585642
 30
0.0
  0
POINT
  5
840F
  8
DEFPOINTS
 62
     0
 10
4276.4298834539841
 20
2343.0063805585651
 30
0.0
  0
POINT
  5
8410
  8
DEFPOINTS
 62
     0
 10
4501.3422843202106
 20
2343.0063805585651
 30
0.0
  0
ENDBLK
  5
8238
  8
0
  0
BLOCK
  8
0
  2
*D18
 70
     1
 10
0.0
 20
0.0
 30
0.0
  3
*D18
  1

  0
LINE
  5
8276
  8
0
  6
BYBLOCK
 62
     0
 10
4279.9298834539832
 20
3143.0500879295141
 30
0.0
 11
4279.9298834539832
 21
3456.2879455654729
 31
0.0
  0
LINE
  5
8277
  8
0
  6
BYBLOCK
 62
     0
 10
4088.9298834539832
 20
3431.2879455654729
 30
0.0
 11
4229.9298834539832
 21
3431.2879455654729
 31
0.0
  0
TEXT
  5
8278
  8
3
 62
     0
 10
4079.07274059684
 20
3453.2387645421441
 30
0.0
 40
75.0
  1
241
  0
INSERT
  5
8279
  8
0
  6
BYBLOCK
 62
     0
  2
_OPEN
 10
4038.9298834539832
 20
3431.2879455654729
 30
0.0
 41
50.0
 42
50.0
 43
50.0
 50
180.0
  0
INSERT
  5
827A
  8
0
  6
BYBLOCK
 62
     0
  2
_OPEN
 10
4279.9298834539832
 20
3431.2879455654729
 30
0.0
 41
50.0
 42
50.0
 43
50.0
  0
POINT
  5
827B
  8
DEFPOINTS
  6
BYBLOCK
 62
     0
 10
4038.9298834539832
 20
3391.1699256900388
 30
0.0
  0
POINT
  5
827C
  8
DEFPOINTS
  6
BYBLOCK
 62
     0
 10
4279.9298834539832
 20
3130.5500879295141
 30
0.0
  0
POINT
  5
827D
  8
DEFPOINTS
  6
BYBLOCK
 62
     0
 10
4279.9298834539832
 20
3431.2879455654729
 30
0.0
  0
ENDBLK
  5
827E
  8
0
  0
BLOCK
  8
0
  2
*D19
 70
     1
 10
0.0
 20
0.0
 30
0.0
  3
*D19
  1

  0
LINE
  5
8414
  8
3
 62
     0
 10
1105.1904144647001
 20
1865.5063805585651
 30
0.0
 11
1105.1904144647001
 21
1703.8746450307001
 31
0.0
  0
LINE
  5
8415
  8
3
 62
     0
 10
1505.190414464701
 20
1865.5063805585651
 30
0.0
 11
1505.190414464701
 21
1703.8746450307001
 31
0.0
  0
LINE
  5
8416
  8
3
 62
     0
 10
1155.1904144647001
 20
1728.874645030701
 30
0.0
 11
1455.190414464701
 21
1728.874645030701
 31
0.0
  0
INSERT
  5
8417
  8
3
 62
     0
  2
_OPEN
 10
1105.1904144647001
 20
1728.874645030701
 30
0.0
 41
50.0
 42
50.0
 43
50.0
 50
180.0
  0
INSERT
  5
8418
  8
3
 62
     0
  2
_OPEN
 10
1505.190414464701
 20
1728.874645030701
 30
0.0
 41
50.0
 42
50.0
 43
50.0
  0
TEXT
  8
3
  40
75
  5
8459
  62
0
  72
0
  71
0
 10
1155.19
 20
1658.62
 30
0.000000
  1
400
  0
POINT
  5
841A
  8
DEFPOINTS
 62
     0
 10
1105.1904144647001
 20
1878.0063805585651
 30
0.0
  0
POINT
  5
841B
  8
DEFPOINTS
 62
     0
 10
1505.190414464701
 20
1878.0063805585651
 30
0.0
  0
POINT
  5
841C
  8
DEFPOINTS
 62
     0
 10
1505.190414464701
 20
1728.874645030701
 30
0.0
  0
ENDBLK
  5
82E2
  8
0
  0
BLOCK
  8
0
  2
*D20
 70
     1
 10
0.0
 20
0.0
 30
0.0
  3
*D20
  1

  0
LINE
  5
841D
  8
3
 62
     0
 10
1505.190414464701
 20
1865.5063805585651
 30
0.0
 11
1505.190414464701
 21
1703.8746450307001
 31
0.0
  0
LINE
  5
841E
  8
3
 62
     0
 10
2185.1904144647001
 20
1865.5063805585651
 30
0.0
 11
2185.1904144647001
 21
1703.8746450307001
 31
0.0
  0
LINE
  5
841F
  8
3
 62
     0
 10
1555.190414464701
 20
1728.874645030701
 30
0.0
 11
2135.1904144647001
 21
1728.874645030701
 31
0.0
  0
INSERT
  5
8420
  8
3
 62
     0
  2
_OPEN
 10
1505.190414464701
 20
1728.874645030701
 30
0.0
 41
50.0
 42
50.0
 43
50.0
 50
180.0
  0
INSERT
  5
8421
  8
3
 62
     0
  2
_OPEN
 10
2185.1904144647001
 20
1728.874645030701
 30
0.0
 41
50.0
 42
50.0
 43
50.0
  0
TEXT
  8
3
  40
75
  5
845A
  62
0
  72
0
  71
0
 10
1695.19
 20
1658.62
 30
0.000000
  1
680
  0
POINT
  5
8423
  8
DEFPOINTS
 62
     0
 10
1505.190414464701
 20
1878.0063805585651
 30
0.0
  0
POINT
  5
8424
  8
DEFPOINTS
 62
     0
 10
2185.1904144647001
 20
1878.0063805585651
 30
0.0
  0
POINT
  5
8425
  8
DEFPOINTS
 62
     0
 10
2185.1904144647001
 20
1728.874645030701
 30
0.0
  0
ENDBLK
  5
82EF
  8
0
  0
BLOCK
  8
0
  2
*D21
 70
     1
 10
0.0
 20
0.0
 30
0.0
  3
*D21
  1

  0
LINE
  5
8426
  8
3
 62
     0
 10
3131.9298834539832
 20
1865.5063805585651
 30
0.0
 11
3131.9298834539832
 21
1703.8746450307001
 31
0.0
  0
LINE
  5
8427
  8
3
 62
     0
 10
4038.9298834539832
 20
1865.5063805585639
 30
0.0
 11
4038.9298834539832
 21
1703.8746450307001
 31
0.0
  0
LINE
  5
8428
  8
3
 62
     0
 10
3181.9298834539832
 20
1728.874645030701
 30
0.0
 11
3988.9298834539818
 21
1728.874645030701
 31
0.0
  0
INSERT
  5
8429
  8
3
 62
     0
  2
_OPEN
 10
3131.9298834539832
 20
1728.874645030701
 30
0.0
 41
50.0
 42
50.0
 43
50.0
 50
180.0
  0
INSERT
  5
842A
  8
3
 62
     0
  2
_OPEN
 10
4038.9298834539832
 20
1728.874645030701
 30
0.0
 41
50.0
 42
50.0
 43
50.0
  0
TEXT
  8
3
  40
75
  5
845B
  62
0
  72
0
  71
0
 10
3435.43
 20
1658.62
 30
0.000000
  1
907
  0
POINT
  5
842C
  8
DEFPOINTS
 62
     0
 10
3131.9298834539832
 20
1878.0063805585651
 30
0.0
  0
POINT
  5
842D
  8
DEFPOINTS
 62
     0
 10
4038.9298834539832
 20
1878.0063805585639
 30
0.0
  0
POINT
  5
842E
  8
DEFPOINTS
 62
     0
 10
4038.9298834539832
 20
1728.874645030701
 30
0.0
  0
ENDBLK
  5
82FC
  8
0
  0
BLOCK
  8
0
  2
*D22
 70
     1
 10
0.0
 20
0.0
 30
0.0
  3
*D22
  1

  0
LINE
  5
842F
  8
3
 62
     0
 10
4038.9298834539832
 20
1865.5063805585639
 30
0.0
 11
4038.9298834539832
 21
1703.8746450307001
 31
0.0
  0
LINE
  5
8430
  8
3
 62
     0
 10
4331.9298834539832
 20
1865.5063805585651
 30
0.0
 11
4331.9298834539832
 21
1703.8746450307001
 31
0.0
  0
LINE
  5
8431
  8
3
 62
     0
 10
4088.9298834539832
 20
1728.874645030701
 30
0.0
 11
4281.9298834539823
 21
1728.874645030701
 31
0.0
  0
INSERT
  5
8432
  8
3
 62
     0
  2
_OPEN
 10
4038.9298834539832
 20
1728.874645030701
 30
0.0
 41
50.0
 42
50.0
 43
50.0
 50
180.0
  0
INSERT
  5
8433
  8
3
 62
     0
  2
_OPEN
 10
4331.9298834539832
 20
1728.874645030701
 30
0.0
 41
50.0
 42
50.0
 43
50.0
  0
TEXT
  8
3
  40
75
  5
845C
  62
0
  72
0
  71
0
 10
4035.43
 20
1658.62
 30
0.000000
  1
293
  0
POINT
  5
8435
  8
DEFPOINTS
 62
     0
 10
4038.9298834539832
 20
1878.0063805585639
 30
0.0
  0
POINT
  5
8436
  8
DEFPOINTS
 62
     0
 10
4331.9298834539832
 20
1878.0063805585651
 30
0.0
  0
POINT
  5
8437
  8
DEFPOINTS
 62
     0
 10
4331.9298834539832
 20
1728.874645030701
 30
0.0
  0
ENDBLK
  5
830B
  8
0
  0
BLOCK
  8
0
  2
*D23
 70
     1
 10
0.0
 20
0.0
 30
0.0
  3
*D23
  1

  0
LINE
  5
8438
  8
3
 62
     0
 10
979.04785390719758
 20
2678.0063805585651
 30
0.0
 11
718.83805802496124
 21
2678.0063805585651
 31
0.0
  0
LINE
  5
8439
  8
3
 62
     0
 10
1539.690414464701
 20
3132.0063805585651
 30
0.0
 11
718.83805802496136
 21
3132.0063805585651
 31
0.0
  0
LINE
  5
843A
  8
3
 62
     0
 10
743.83805802496124
 20
2728.0063805585651
 30
0.0
 11
743.83805802496136
 21
3082.0063805585651
 31
0.0
  0
INSERT
  5
843B
  8
3
 62
     0
  2
_OPEN
 10
743.83805802496124
 20
2678.0063805585651
 30
0.0
 41
50.0
 42
50.0
 43
50.0
 50
270.0
  0
INSERT
  5
843C
  8
3
 62
     0
  2
_OPEN
 10
743.83805802496136
 20
3132.0063805585651
 30
0.0
 41
50.0
 42
50.0
 43
50.0
 50
90.0
  0
TEXT
  8
3
  40
75
  5
845D
  62
0
  72
0
  71
0
 10
531.338
 20
2772.26
 30
0.000000
  1
454
  0
POINT
  5
843E
  8
DEFPOINTS
 62
     0
 10
991.54785390719758
 20
2678.0063805585651
 30
0.0
  0
POINT
  5
843F
  8
DEFPOINTS
 62
     0
 10
1552.190414464701
 20
3132.0063805585651
 30
0.0
  0
POINT
  5
8440
  8
DEFPOINTS
 62
     0
 10
743.83805802496136
 20
3132.0063805585651
 30
0.0
  0
ENDBLK
  5
8352
  8
0
  0
BLOCK
  8
0
  2
*D24
 70
     1
 10
0.0
 20
0.0
 30
0.0
  3
*D24
  1

  0
LINE
  5
8441
  8
3
 62
     0
 10
1539.690414464701
 20
3132.0063805585651
 30
0.0
 11
404.77648025016993
 21
3132.0063805585651
 31
0.0
  0
LINE
  5
8442
  8
3
 62
     0
 10
1092.6904144647001
 20
1878.0063805585651
 30
0.0
 11
404.77648025016958
 21
1878.0063805585651
 31
0.0
  0
LINE
  5
8443
  8
3
 62
     0
 10
429.77648025016993
 20
3082.0063805585651
 30
0.0
 11
429.7764802501697
 21
1928.0063805585651
 31
0.0
  0
INSERT
  5
8444
  8
3
 62
     0
  2
_OPEN
 10
429.77648025016993
 20
3132.0063805585651
 30
0.0
 41
50.0
 42
50.0
 43
50.0
 50
90.0
  0
INSERT
  5
8445
  8
3
 62
     0
  2
_OPEN
 10
429.7764802501697
 20
1878.0063805585651
 30
0.0
 41
50.0
 42
50.0
 43
50.0
 50
270.0
  0
TEXT
  8
3
  40
75
  5
845E
  62
0
  72
0
  71
0
 10
217.276
 20
2372.26
 30
0.000000
  1
1254
  0
POINT
  5
8447
  8
DEFPOINTS
 62
     0
 10
1552.190414464701
 20
3132.0063805585651
 30
0.0
  0
POINT
  5
8448
  8
DEFPOINTS
 62
     0
 10
1105.1904144647001
 20
1878.0063805585651
 30
0.0
  0
POINT
  5
8449
  8
DEFPOINTS
 62
     0
 10
429.7764802501697
 20
1878.0063805585651
 30
0.0
  0
ENDBLK
  5
835F
  8
0
  0
ENDSEC
  0
SECTION
  2
ENTITIES
  0
ARC
  5
7BF3
  8
1
 10
2005.190414464701
 20
2195.0063805585642
 30
0.0
 40
150.0
 50
225.99077432782579
 51
45.990774327825882
  0
DIMENSION
  5
7BF4
  8
3
  2
*D1
 10
1045.1904144647001
 20
3430.8085783532752
 30
0.0
 11
1625.1904144647001
 21
3493.3085783532752
 31
0.0
 70
     0
 13
2205.1904144647001
 23
2018.0063805585651
 33
0.0
 14
1045.1904144647001
 24
2692.5063805585651
 34
0.0
1001
ACAD
1000
DSTYLE
1002
{
1070
   287
1070
     3
1070
    40
1040
25.0
1070
   143
1040
0.039
1070
   172
1070
     1
1070
   271
1070
     0
1070
   279
1070
     0
1070
   288
1070
     1
1002
}
  0
LINE
  5
7BF7
  8
1
 10
2168.3445840001791
 20
2063.0063805585651
 30
0.0
 11
1842.223500981343
 21
2063.0063805585651
 31
0.0
  0
LINE
  5
7BF8
  8
2
 10
2170.7271897266501
 20
2195.0063805585642
 30
0.0
 11
1839.6093869911499
 21
2195.0063805585642
 31
0.0
  0
ARC
  5
7BF9
  8
1
 10
2005.190414464701
 20
2195.0063805585642
 30
0.0
 40
142.5
 50
326.96613161763833
 51
180.0
  0
LINE
  5
7BFC
  8
1
 10
2205.1904144647001
 20
1978.0063805585651
 30
0.0
 11
1105.1904144647001
 21
1978.0063805585651
 31
0.0
  0
LINE
  5
7BFD
  8
1
 10
2185.1904144647001
 20
1878.0063805585651
 30
0.0
 11
1105.1904144647001
 21
1878.0063805585651
 31
0.0
1001
ACAD
1000
ASC_BOUNDS
1002
{
1070
    19
1002
}
  0
ARC
  5
7BFE
  8
1
 10
1552.190414464701
 20
2631.0063805585651
 30
0.0
 40
501.0
 50
5.382968649881315
 51
95.382968649881306
  0
DIMENSION
  5
7C00
  8
3
  2
*D2
 10
596.72837518900201
 20
1878.0063805585651
 30
0.0
 11
534.22837518900167
 21
2278.0063805585651
 31
0.0
 70
     0
 13
991.54785390719758
 23
2678.0063805585651
 33
0.0
 14
1105.1904144647001
 24
1878.0063805585651
 34
0.0
 50
270.0
1001
ACAD
1000
DSTYLE
1002
{
1070
   287
1070
     3
1070
    40
1040
25.0
1070
   143
1040
0.039
1070
   172
1070
     1
1070
   271
1070
     0
1070
   279
1070
     0
1070
   288
1070
     1
1002
}
  0
LINE
  5
7C01
  8
1
 10
1450.303253583884
 20
2621.1873734355659
 30
0.0
 11
1950.303253583884
 21
2138.1873734355659
 31
0.0
  0
LINE
  5
7C02
  8
1
 10
1400.9742862099861
 20
2570.122189818695
 30
0.0
 11
1900.9742862099861
 21
2087.1221898186941
 31
0.0
  0
DIMENSION
  5
7C03
  8
3
  2
*D3
 10
744.71326638616415
 20
2678.0063805585651
 30
0.0
 11
682.2132663861637
 21
2339.0063805585651
 31
0.0
 70
     0
 13
1045.1904144647001
 23
2000.0063805585651
 33
0.0
 14
991.54785390719758
 24
2678.0063805585651
 34
0.0
 50
270.0
1001
ACAD
1000
DSTYLE
1002
{
1070
   287
1070
     3
1070
    40
1040
25.0
1070
   143
1040
0.039
1070
   172
1070
     1
1070
   271
1070
     0
1070
   279
1070
     0
1070
   288
1070
     1
1002
}
  0
DIMENSION
  5
7C04
  8
3
  2
*D4
 10
896.24089029848005
 20
2650.0063805585651
 30
0.0
 11
833.7408902984796
 21
2325.0063805585651
 31
0.0
 70
     0
 13
1045.1904144647001
 23
2000.0063805585651
 33
0.0
 14
1045.1904144647001
 24
2650.0063805585651
 34
0.0
 50
270.0
1001
ACAD
1000
DSTYLE
1002
{
1070
   287
1070
     3
1070
    40
1040
25.0
1070
   143
1040
0.039
1070
   172
1070
     1
1070
   271
1070
     0
1070
   279
1070
     0
1070
   288
1070
     1
1002
}
  0
CIRCLE
  5
7C05
  8
1
 10
2005.190414464701
 20
2195.0063805585642
 30
0.0
 40
79.0
  0
LINE
  5
7C06
  8
2
 10
2005.190414464701
 20
2349.2054330788719
 30
0.0
 11
2005.190414464701
 21
1878.0063805585651
 31
0.0
  0
LINE
  5
7C09
  8
1
 10
1048.1904144647001
 20
1958.0063805585651
 30
0.0
 11
1048.1904144647001
 21
2692.5063805585651
 31
0.0
  0
LINE
  5
7C0A
  8
1
 10
1085.1904144647001
 20
2003.2984855385921
 30
0.0
 11
1085.1904144647001
 21
2650.0063805585651
 31
0.0
  0
LINE
  5
7C0B
  8
1
 10
1045.1904144647001
 20
1958.0063805585651
 30
0.0
 11
1045.1904144647001
 21
2692.5063805585651
 31
0.0
  0
LINE
  5
7C0C
  8
2
 10
1505.1904144647001
 20
3234.5836615953231
 30
0.0
 11
1505.190414464701
 21
1878.0063805585651
 31
0.0
  0
LINE
  5
7C0F
  8
3
 10
1105.1904144647001
 20
1878.0063805585651
 30
0.0
 11
576.72837518900201
 21
1878.0063805585651
 31
0.0
  0
LINE
  5
7C13
  8
3
 10
596.72837518900201
 20
1880.0063805585651
 30
0.0
 11
596.72837518900201
 21
1920.0063805585639
 31
0.0
  0
INSERT
  5
7C15
  8
3
  2
ARROW
 10
596.72837518900201
 20
1878.0063805585651
 30
0.0
 41
-40.0
 42
40.0
 43
40.0
 50
90.0
  0
POINT
  5
7C1A
  8
3
 10
596.72837518900201
 20
1878.0063805585651
 30
0.0
  0
LINE
  5
7C1F
  8
3
 10
596.72837518900201
 20
1918.0063805585651
 30
0.0
 11
596.72837518900201
 21
2085.5094488776981
 31
0.0
  0
LINE
  5
7C21
  8
1
 10
1255.1904144647001
 20
1978.0063805585651
 30
0.0
 11
1255.1904144647001
 21
1878.0063805585651
 31
0.0
  0
LINE
  5
7C22
  8
1
 10
1105.1904144647001
 20
1978.0063805585651
 30
0.0
 11
1105.1904144647001
 21
1878.0063805585651
 31
0.0
  0
POINT
  5
7C26
  8
1
 10
1105.1904144647001
 20
1878.0063805585651
 30
0.0
  0
LINE
  5
7C29
  8
1
 10
1045.1904144647001
 20
2000.0063805585651
 30
0.0
 11
1260.113043479585
 21
2017.695076991077
 31
0.0
  0
LINE
  5
7C2A
  8
1
 10
1048.1904144647001
 20
1958.0063805585651
 30
0.0
 11
1045.1904144647001
 21
1958.0063805585651
 31
0.0
  0
ARC
  5
7C2B
  8
1
 10
1458.1904144647001
 20
2631.0063805585651
 30
0.0
 40
595.0
 50
298.18759113336
 51
312.83056865327222
  0
LINE
  5
7C2C
  8
1
 10
1830.1904144647001
 20
2018.0063805585651
 30
0.0
 11
1842.223500981343
 21
2063.0063805585651
 31
0.0
  0
LINE
  5
7C2D
  8
1
 10
1830.1904144647001
 20
2018.0063805585651
 30
0.0
 11
1805.1904144647001
 21
2018.0063805585651
 31
0.0
  0
LINE
  5
7C2E
  8
1
 10
1805.1904144647001
 20
2018.0063805585651
 30
0.0
 11
1805.1904144647001
 21
1978.0063805585651
 31
0.0
  0
ARC
  5
7C2F
  8
1
 10
2005.190414464701
 20
2195.0063805585642
 30
0.0
 40
142.5
 50
180.0
 51
213.0338076719878
  0
LINE
  5
7C30
  8
1
 10
1875.1904144647001
 20
2077.808980558566
 30
0.0
 11
1875.1904144647001
 21
2063.006380558566
 31
0.0
  0
LINE
  5
7C31
  8
1
 10
1885.7256741446399
 20
2117.3248137601249
 30
0.0
 11
1875.1904144647001
 21
2078.0063805585651
 31
0.0
  0
DIMENSION
  5
7C33
  8
3
  2
*D5
 10
1045.1904144647001
 20
3279.7806587970222
 30
0.0
 11
1275.190414464701
 21
3342.2806587970222
 31
0.0
 70
     0
 13
1505.1904144647001
 23
3234.5836615953231
 33
0.0
 14
1045.1904144647001
 24
2692.5063805585651
 34
0.0
1001
ACAD
1000
DSTYLE
1002
{
1070
   287
1070
     3
1070
    40
1040
25.0
1070
   143
1040
0.039
1070
   172
1070
     1
1070
   271
1070
     0
1070
   279
1070
     0
1070
   288
1070
     1
1002
}
  0
DIMENSION
  5
7C34
  8
3
  2
*D6
 10
1505.1904144647001
 20
3279.7806587970222
 30
0.0
 11
1778.085683064568
 21
3342.2806587970222
 31
0.0
 70
     0
  1
548
 13
2050.980951664435
 23
2678.0063805585651
 33
0.0
 14
1505.1904144647001
 24
3234.5836615953231
 34
0.0
1001
ACAD
1000
DSTYLE
1002
{
1070
   287
1070
     3
1070
    40
1040
25.0
1070
   143
1040
0.039
1070
   172
1070
     1
1070
   271
1070
     0
1070
   279
1070
     0
1070
   288
1070
     1
1002
}
  0
ARC
  5
7C35
  8
1
 10
1543.1904144647001
 20
2716.0063805585651
 30
0.0
 40
416.0
 50
95.241055061296706
 51
185.24105506129669
  0
ARC
  5
7C36
  8
1
 10
1505.1904144647001
 20
2678.0063805585651
 30
0.0
 40
150.0
 50
45.990774327825889
 51
225.99077432782579
  0
LINE
  5
7C38
  8
2
 10
2110.670300356041
 20
2678.0063805585651
 30
0.0
 11
991.54785390719758
 21
2678.0063805585651
 31
0.0
  0
LINE
  5
7C39
  8
1
 10
1133.657807363086
 20
2650.0063805585651
 30
0.0
 11
1045.1904144647001
 21
2650.0063805585651
 31
0.0
  0
LINE
  5
7C3A
  8
1
 10
1048.1904144647001
 20
2692.5063805585651
 30
0.0
 11
1045.1904144647001
 21
2692.5063805585651
 31
0.0
  0
ARC
  5
7C3B
  8
1
 10
1467.190414464701
 20
2716.0063805585651
 30
0.0
 40
340.0
 50
186.4170531430286
 51
191.1931836056838
  0
LINE
  5
7C3C
  8
1
 10
1560.0775753455171
 20
2734.8253876815638
 30
0.0
 11
2060.0775753455168
 21
2251.8253876815629
 31
0.0
  0
LINE
  5
7C3D
  8
1
 10
2109.406542719415
 20
2302.890571298436
 30
0.0
 11
1609.406542719415
 21
2785.890571298436
 31
0.0
  0
ARC
  5
7C3E
  8
1
 10
1458.1904144647001
 20
2631.0063805585651
 30
0.0
 40
595.0
 50
330.05448809091592
 51
4.5306050426826081
  0
CIRCLE
  5
7C3F
  8
1
 10
1505.1904144647001
 20
2678.0063805585651
 30
0.0
 40
79.0
  0
LINE
  5
7C40
  8
1
 10
3165.9298834539832
 20
2337.5063805585642
 30
0.0
 11
3165.9298834539832
 21
2052.5063805585651
 31
0.0
  0
LINE
  5
7C41
  8
1
 10
3555.9298834539832
 20
2337.5063805585642
 30
0.0
 11
3555.9298834539832
 21
2052.5063805585651
 31
0.0
  0
LINE
  5
7C42
  8
1
 10
3801.4298834539818
 20
2000.0063805585651
 30
0.0
 11
4276.4298834539832
 21
2649.5063805585651
 31
0.0
  0
LINE
  5
7C43
  8
1
 10
4276.4298834539832
 20
1999.5063805585651
 30
0.0
 11
3801.4298834539818
 21
2649.5063805585651
 31
0.0
  0
LINE
  5
7C44
  8
2
 10
4038.9298834539832
 20
3260.2604448293928
 30
0.0
 11
4038.9298834539832
 21
1878.0063805585639
 31
0.0
  0
LINE
  5
7C45
  8
1
 10
2993.9298834539832
 20
2828.006380558566
 30
0.0
 11
2993.9298834539832
 21
2045.0063805585639
 31
0.0
  0
LINE
  5
7C46
  8
1
 10
3118.9298834539832
 20
2757.0063805585651
 30
0.0
 11
3118.9298834539832
 21
2116.0063805585651
 31
0.0
  0
LINE
  5
7C47
  8
1
 10
3036.9298834539832
 20
2757.0063805585651
 30
0.0
 11
3036.9298834539832
 21
2116.0063805585651
 31
0.0
  0
LINE
  5
7C48
  8
1
 10
3713.9298834539832
 20
2623.0063805585651
 30
0.0
 11
3713.9298834539832
 21
1978.0063805585651
 31
0.0
  0
LINE
  5
7C49
  8
1
 10
3801.4298834539818
 20
1999.5063805585651
 30
0.0
 11
3801.4298834539818
 21
3132.0063805585651
 31
0.0
  0
LINE
  5
7C4A
  8
1
 10
4276.4298834539841
 20
1999.5063805585651
 30
0.0
 11
4276.4298834539823
 21
3132.0063805585651
 31
0.0
  0
LINE
  5
7C4D
  8
2
 10
3016.3447064094312
 20
2195.0063805585642
 30
0.0
 11
3594.1621761644619
 21
2195.0063805585642
 31
0.0
  0
LINE
  5
7C50
  8
1
 10
3131.9298834539832
 20
1978.0063805585651
 30
0.0
 11
4331.9298834539832
 21
1978.0063805585651
 31
0.0
  0
LINE
  5
7C51
  8
1
 10
3131.9298834539832
 20
1878.0063805585651
 30
0.0
 11
4331.9298834539832
 21
1878.0063805585651
 31
0.0
  0
LINE
  5
7C52
  8
1
 10
2185.1904144647001
 20
1978.0063805585651
 30
0.0
 11
2185.1904144647001
 21
1878.0063805585651
 31
0.0
  0
LINE
  5
7C54
  8
1
 10
2180.1904144647001
 20
2018.0063805585651
 30
0.0
 11
2168.3445840001791
 21
2063.0063805585651
 31
0.0
  0
LINE
  5
7C55
  8
1
 10
2205.1904144647001
 20
2018.0063805585651
 30
0.0
 11
2205.1904144647001
 21
1978.0063805585651
 31
0.0
  0
LINE
  5
7C56
  8
1
 10
2205.1904144647001
 20
2018.0063805585651
 30
0.0
 11
2180.1904144647001
 21
2018.0063805585651
 31
0.0
  0
LINE
  5
7C57
  8
1
 10
2135.1904144647001
 20
2077.808980558566
 30
0.0
 11
2135.1904144647001
 21
2063.006380558566
 31
0.0
  0
LINE
  5
7C58
  8
1
 10
2124.655072473623
 20
2117.3246871758179
 30
0.0
 11
2135.1904144647001
 21
2078.0063805585651
 31
0.0
  0
LINE
  5
7C59
  8
1
 10
3131.9298834539832
 20
1978.0063805585651
 30
0.0
 11
3131.9298834539832
 21
1878.0063805585651
 31
0.0
  0
LINE
  5
7C5B
  8
1
 10
3171.9298834539832
 20
2018.006380558566
 30
0.0
 11
3481.9298834539818
 21
2018.0063805585651
 31
0.0
  0
LINE
  5
7C5C
  8
1
 10
3165.9298834539832
 20
2052.5063805585651
 30
0.0
 11
3555.9298834539832
 21
2052.5063805585651
 31
0.0
  0
LINE
  5
7C5D
  8
1
 10
3153.9298834539832
 20
2065.0063805585651
 30
0.0
 11
3153.9298834539832
 21
2045.006380558566
 31
0.0
  0
LINE
  5
7C5E
  8
1
 10
2993.9298834539832
 20
2045.0063805585639
 30
0.0
 11
3153.9298834539832
 21
2045.0063805585639
 31
0.0
  0
LINE
  5
7C5F
  8
1
 10
3171.9298834539832
 20
2052.5063805585651
 30
0.0
 11
3171.9298834539832
 21
1978.0063805585651
 31
0.0
  0
LINE
  5
7C60
  8
1
 10
3036.9298834539832
 20
2116.0063805585651
 30
0.0
 11
3118.9298834539832
 21
2116.0063805585651
 31
0.0
  0
LINE
  5
7C61
  8
1
 10
3118.9298834539832
 20
2176.0063805585651
 30
0.0
 11
3165.9298834539832
 21
2176.0063805585651
 31
0.0
  0
LINE
  5
7C62
  8
1
 10
3118.9298834539832
 20
2214.0063805585651
 30
0.0
 11
3165.9298834539832
 21
2214.0063805585651
 31
0.0
  0
LINE
  5
7C63
  8
1
 10
3481.9298834539818
 20
2052.5063805585651
 30
0.0
 11
3481.9298834539818
 21
1978.0063805585651
 31
0.0
  0
LINE
  5
7C65
  8
1
 10
3801.4298834539818
 20
1999.5063805585651
 30
0.0
 11
4276.4298834539832
 21
1999.5063805585651
 31
0.0
  0
LINE
  5
7C66
  8
1
 10
4331.9298834539832
 20
1978.0063805585651
 30
0.0
 11
4331.9298834539832
 21
1878.0063805585651
 31
0.0
  0
DIMENSION
  5
7C68
  8
3
  2
*D7
 10
4038.9298834539832
 20
3431.2879455654729
 30
0.0
 11
3516.4298834539832
 21
3556.2879455654729
 31
0.0
 70
     0
  1
MAX\P1070
 13
2993.9298834539832
 23
2828.006380558566
 33
0.0
 14
4038.9298834539832
 24
3391.1699256900388
 34
0.0
1001
ACAD
1000
DSTYLE
1002
{
1070
   287
1070
     3
1070
    40
1040
25.0
1070
   143
1040
0.039
1070
   172
1070
     1
1070
   271
1070
     0
1070
   279
1070
     0
1070
   288
1070
     1
1002
}
  0
LINE
  5
7C69
  8
1
 10
3118.9298834539832
 20
2653.0063805585651
 30
0.0
 11
3801.4298834539818
 21
2653.0063805585651
 31
0.0
  0
LINE
  5
7C6A
  8
1
 10
3118.9298834539832
 20
2703.0063805585651
 30
0.0
 11
3801.4298834539818
 21
2703.0063805585651
 31
0.0
  0
LINE
  5
7C6B
  8
1
 10
3173.9298834539832
 20
2623.0063805585651
 30
0.0
 11
3713.9298834539832
 21
2623.0063805585651
 31
0.0
  0
LINE
  5
7C6C
  8
2
 10
3016.3447064094312
 20
2678.0063805585651
 30
0.0
 11
4354.2163754392013
 21
2678.0063805585651
 31
0.0
  0
LINE
  5
7C6D
  8
1
 10
3173.9298834539832
 20
2623.0063805585651
 30
0.0
 11
3173.9298834539832
 21
2337.5063805585642
 31
0.0
  0
LINE
  5
7C6E
  8
1
 10
3165.9298834539832
 20
2337.5063805585642
 30
0.0
 11
3555.9298834539832
 21
2337.5063805585642
 31
0.0
  0
LINE
  5
7C6F
  8
1
 10
3036.9298834539832
 20
2274.0063805585651
 30
0.0
 11
3118.9298834539832
 21
2274.0063805585651
 31
0.0
  0
LINE
  5
7C70
  8
1
 10
3036.9298834539832
 20
2599.0063805585651
 30
0.0
 11
3118.9298834539832
 21
2599.0063805585651
 31
0.0
  0
LINE
  5
7C71
  8
1
 10
2993.9298834539832
 20
2828.0063805585651
 30
0.0
 11
3153.9298834539832
 21
2828.0063805585651
 31
0.0
  0
LINE
  5
7C72
  8
1
 10
3153.9298834539832
 20
2828.0063805585651
 30
0.0
 11
3153.9298834539832
 21
2808.0063805585651
 31
0.0
  0
LINE
  5
7C73
  8
1
 10
3036.9298834539832
 20
2757.0063805585651
 30
0.0
 11
3118.9298834539832
 21
2757.0063805585651
 31
0.0
  0
LINE
  5
7C75
  8
1
 10
3801.4298834539818
 20
2706.5063805585651
 30
0.0
 11
4276.4298834539832
 21
2706.5063805585651
 31
0.0
  0
DIMENSION
  5
7C76
  8
3
  2
*D8
 10
4276.4298834539823
 20
3281.6388786606758
 30
0.0
 11
4038.9298834539832
 21
3344.1388786606758
 31
0.0
 70
     0
 13
3801.4298834539818
 23
3132.0063805585651
 33
0.0
 14
4276.4298834539823
 24
3132.0063805585651
 34
0.0
1001
ACAD
1000
DSTYLE
1002
{
1070
   287
1070
     3
1070
    40
1040
25.0
1070
   143
1040
0.039
1070
   172
1070
     1
1070
   271
1070
     0
1070
   279
1070
     0
1070
   288
1070
     1
1002
}
  0
LINE
  5
7C77
  8
1
 10
3801.4298834539818
 20
3132.0063805585651
 30
0.0
 11
4276.4298834539823
 21
3132.0063805585651
 31
0.0
  0
LINE
  5
7C79
  8
1
 10
2024.190414464701
 20
4333.7228692047711
 30
0.0
 11
2155.1904144647001
 21
4333.7228692047702
 31
0.0
  0
LINE
  5
7C7A
  8
1
 10
2205.1904144647001
 20
4336.7228692047702
 30
0.0
 11
2024.190414464701
 21
4336.7228692047711
 31
0.0
  0
DIMENSION
  5
7C7B
  8
3
  2
*D9
 10
2185.1904144647001
 20
5660.2967558085229
 30
0.0
 11
2045.1904144647001
 21
5727.3460156946494
 31
0.0
 70
   128
 13
1905.1904144647001
 23
5514.7228692047711
 33
0.0
 14
2185.1904144647001
 24
4978.7228692047702
 34
0.0
1001
ACAD
1000
DSTYLE
1002
{
1070
   288
1070
     1
1070
   172
1070
     1
1070
    40
1040
25.0
1070
   271
1070
     0
1070
   143
1040
0.039
1002
}
  0
DIMENSION
  5
7C7C
  8
3
  2
*D10
 10
2185.1904144647001
 20
4022.8421929187361
 30
0.0
 11
1720.1904144647001
 21
4085.3421929187361
 31
0.0
 70
     0
 13
1255.1904144647001
 23
4314.7228692047702
 33
0.0
 14
2185.1904144647001
 24
4314.7228692047702
 34
0.0
1001
ACAD
1000
DSTYLE
1002
{
1070
   287
1070
     3
1070
    40
1040
25.0
1070
   143
1040
0.039
1070
   172
1070
     1
1070
   271
1070
     0
1070
   279
1070
     0
1070
   288
1070
     1
1002
}
  0
LINE
  5
7C7D
  8
1
 10
2147.6904144647001
 20
4345.7228692047693
 30
0.0
 11
1862.6904144647001
 21
4345.7228692047693
 31
0.0
  0
LINE
  5
7C7E
  8
1
 10
2147.6904144647001
 20
4735.7228692047711
 30
0.0
 11
1862.6904144647001
 21
4735.7228692047711
 31
0.0
  0
LINE
  5
7C7F
  8
1
 10
1355.1904144647001
 20
4173.7228692047702
 30
0.0
 11
2155.1904144647001
 21
4173.7228692047702
 31
0.0
  0
LINE
  5
7C80
  8
1
 10
2185.1904144647001
 20
4978.7228692047702
 30
0.0
 11
1905.1904144647001
 21
4978.7228692047702
 31
0.0
  0
LINE
  5
7C81
  8
1
 10
2185.1904144647001
 20
4314.7228692047702
 30
0.0
 11
2024.190414464701
 21
4314.7228692047702
 31
0.0
  0
DIMENSION
  5
7C82
  8
3
  2
*D11
 10
1105.1904144647001
 20
4022.8421929187361
 30
0.0
 11
940.90470017898645
 21
4085.3421929187361
 31
0.0
 70
     0
 13
1255.1904144647001
 23
4314.7228692047702
 33
0.0
 14
1105.1904144647001
 24
4928.7228692047702
 34
0.0
1001
ACAD
1000
DSTYLE
1002
{
1070
   287
1070
     3
1070
    40
1040
25.0
1070
   143
1040
0.039
1070
   172
1070
     1
1070
   271
1070
     0
1070
   279
1070
     0
1070
   288
1070
     1
1002
}
  0
DIMENSION
  5
7C83
  8
3
  2
*D12
 10
895.73661160397683
 20
4314.7228692047702
 30
0.0
 11
833.23661160397626
 21
4914.7228692047702
 31
0.0
 70
     0
 13
1105.1904144647001
 23
5514.7228692047711
 33
0.0
 14
1255.1904144647001
 24
4314.7228692047702
 34
0.0
 50
270.0
1001
ACAD
1000
DSTYLE
1002
{
1070
   287
1070
     3
1070
    40
1040
25.0
1070
   143
1040
0.039
1070
   172
1070
     1
1070
   271
1070
     0
1070
   279
1070
     0
1070
   288
1070
     1
1002
}
  0
LINE
  5
7C84
  8
1
 10
1530.1904144647001
 20
4298.7228692047702
 30
0.0
 11
1530.1904144647001
 21
4981.2228692047711
 31
0.0
  0
LINE
  5
7C85
  8
1
 10
1480.1904144647001
 20
4298.7228692047702
 30
0.0
 11
1480.1904144647001
 21
4981.2228692047711
 31
0.0
  0
LINE
  5
7C86
  8
1
 10
1255.1904144647001
 20
4928.7228692047702
 30
0.0
 11
1255.1904144647001
 21
4314.7228692047702
 31
0.0
  0
LINE
  5
7C87
  8
2
 10
1505.1904144647001
 20
5486.7824683995532
 30
0.0
 11
1505.1904144647001
 21
4166.2891026445386
 31
0.0
  0
LINE
  5
7C88
  8
1
 10
1355.1904144647001
 20
4173.7228692047702
 30
0.0
 11
1355.1904144647001
 21
4333.7228692047702
 31
0.0
  0
LINE
  5
7C89
  8
1
 10
2084.1904144647001
 20
4298.7228692047702
 30
0.0
 11
2084.1904144647001
 21
4216.7228692047702
 31
0.0
  0
LINE
  5
7C8A
  8
1
 10
1926.1904144647001
 20
4298.7228692047702
 30
0.0
 11
1926.1904144647001
 21
4216.7228692047702
 31
0.0
  0
LINE
  5
7C8B
  8
1
 10
1584.190414464701
 20
4216.7228692047702
 30
0.0
 11
1584.190414464701
 21
4298.7228692047702
 31
0.0
  0
LINE
  5
7C8C
  8
1
 10
1426.1904144647001
 20
4216.7228692047702
 30
0.0
 11
1426.1904144647001
 21
4298.7228692047702
 31
0.0
  0
LINE
  5
7C8D
  8
2
 10
2005.190414464701
 20
4791.5073062458459
 30
0.0
 11
2005.190414464701
 21
4166.2891026445386
 31
0.0
  0
LINE
  5
7C8E
  8
1
 10
2084.1904144647001
 20
4216.7228692047702
 30
0.0
 11
1426.1904144647001
 21
4216.7228692047702
 31
0.0
  0
LINE
  5
7C8F
  8
1
 10
1480.1904144647001
 20
4893.7228692047702
 30
0.0
 11
1335.1904144647001
 21
4893.7228692047702
 31
0.0
  0
LINE
  5
7C90
  8
1
 10
1480.1904144647001
 20
4353.7228692047702
 30
0.0
 11
1335.1904144647001
 21
4353.7228692047711
 31
0.0
  0
LINE
  5
7C91
  8
1
 10
1480.1904144647001
 20
4314.7228692047702
 30
0.0
 11
1255.1904144647001
 21
4314.7228692047702
 31
0.0
  0
LINE
  5
7C92
  8
1
 10
1355.1904144647001
 20
4333.7228692047702
 30
0.0
 11
1480.1904144647001
 21
4333.7228692047702
 31
0.0
  0
POINT
  5
7C94
  8
1
 10
1255.1904144647001
 20
4314.7228692047702
 30
0.0
  0
LINE
  5
7C95
  8
1
 10
1862.6904144647001
 20
4735.7228692047711
 30
0.0
 11
1862.6904144647001
 21
4345.7228692047693
 31
0.0
  0
LINE
  5
7C97
  8
1
 10
1530.1904144647001
 20
4333.7228692047702
 30
0.0
 11
1986.190414464701
 21
4333.7228692047711
 31
0.0
  0
LINE
  5
7C98
  8
1
 10
1986.190414464701
 20
4314.7228692047702
 30
0.0
 11
1530.1904144647001
 21
4314.7228692047702
 31
0.0
  0
LINE
  5
7C99
  8
1
 10
2084.1904144647001
 20
4298.7228692047702
 30
0.0
 11
1426.1904144647001
 21
4298.7228692047702
 31
0.0
  0
LINE
  5
7C9A
  8
1
 10
1675.1904144647001
 20
4353.7228692047711
 30
0.0
 11
1530.1904144647001
 21
4353.7228692047702
 31
0.0
  0
LINE
  5
7C9B
  8
1
 10
1986.190414464701
 20
4336.7228692047711
 30
0.0
 11
1805.1904144647001
 21
4336.7228692047702
 31
0.0
  0
LINE
  5
7C9C
  8
1
 10
1862.6904144647001
 20
4396.7228692047702
 30
0.0
 11
1805.1904144647001
 21
4396.7228692047702
 31
0.0
  0
LINE
  5
7C9D
  8
1
 10
1805.1904144647001
 20
4396.7228692047702
 30
0.0
 11
1805.1904144647001
 21
4336.7228692047702
 31
0.0
  0
LINE
  5
7C9E
  8
1
 10
2024.190414464701
 20
4345.7228692047693
 30
0.0
 11
2024.190414464701
 21
4298.7228692047702
 31
0.0
  0
LINE
  5
7C9F
  8
1
 10
1986.190414464701
 20
4345.7228692047693
 30
0.0
 11
1986.190414464701
 21
4298.7228692047702
 31
0.0
  0
LINE
  5
7CA0
  8
1
 10
1675.1904144647001
 20
4893.7228692047702
 30
0.0
 11
1530.1904144647001
 21
4893.7228692047702
 31
0.0
  0
LINE
  5
7CA1
  8
1
 10
1805.1904144647001
 20
4676.7228692047702
 30
0.0
 11
1805.1904144647001
 21
4616.7228692047702
 31
0.0
  0
LINE
  5
7CA2
  8
1
 10
1862.6904144647001
 20
4616.7228692047702
 30
0.0
 11
1805.1904144647001
 21
4616.7228692047702
 31
0.0
  0
LINE
  5
7CA3
  8
1
 10
1862.6904144647001
 20
4676.7228692047711
 30
0.0
 11
1805.1904144647001
 21
4676.7228692047711
 31
0.0
  0
DIMENSION
  5
7CA4
  8
3
  2
*D13
 10
1105.1904144647001
 20
5660.2967558085229
 30
0.0
 11
1505.1904144647001
 21
5722.7967558085229
 31
0.0
 70
     0
 13
1905.1904144647001
 23
5514.7228692047711
 33
0.0
 14
1105.1904144647001
 24
5514.7228692047711
 34
0.0
1001
ACAD
1000
DSTYLE
1002
{
1070
   287
1070
     3
1070
    40
1040
25.0
1070
   143
1040
0.039
1070
   172
1070
     1
1070
   271
1070
     0
1070
   279
1070
     0
1070
   288
1070
     1
1002
}
  0
LINE
  5
7CA5
  8
1
 10
2051.331207194386
 20
4981.2228692047711
 30
0.0
 11
1045.1904144647001
 21
4981.2228692047711
 31
0.0
  0
LINE
  5
7CA6
  8
1
 10
2051.331207194386
 20
5456.2228692047702
 30
0.0
 11
1045.1904144647001
 21
5456.2228692047702
 31
0.0
  0
LINE
  5
7CA7
  8
2
 10
2084.024798236986
 20
5218.7228692047702
 30
0.0
 11
1005.84650602038
 21
5218.7228692047711
 31
0.0
  0
LINE
  5
7CA8
  8
1
 10
1905.1904144647001
 20
5514.7228692047711
 30
0.0
 11
1105.1904144647001
 21
5514.7228692047711
 31
0.0
  0
LINE
  5
7CA9
  8
1
 10
1048.1904144647001
 20
5498.7228692047702
 30
0.0
 11
1048.1904144647001
 21
4938.7228692047702
 31
0.0
  0
LINE
  5
7CAA
  8
1
 10
1085.1904144647001
 20
5456.2228692047702
 30
0.0
 11
1085.1904144647001
 21
4981.2228692047711
 31
0.0
  0
LINE
  5
7CAB
  8
1
 10
1045.1904144647001
 20
5498.7228692047702
 30
0.0
 11
1045.1904144647001
 21
4938.7228692047702
 31
0.0
  0
LINE
  5
7CAC
  8
1
 10
1255.1904144647001
 20
4928.7228692047702
 30
0.0
 11
1105.1904144647001
 21
4928.7228692047702
 31
0.0
  0
LINE
  5
7CAD
  8
1
 10
1105.1904144647001
 20
4981.2228692047711
 30
0.0
 11
1105.1904144647001
 21
4928.7228692047711
 31
0.0
  0
LINE
  5
7CAE
  8
1
 10
1048.1904144647001
 20
4938.7228692047702
 30
0.0
 11
1045.1904144647001
 21
4938.7228692047702
 31
0.0
  0
POINT
  5
7CAF
  8
1
 10
1105.1904144647001
 20
4928.7228692047702
 30
0.0
  0
LINE
  5
7CB0
  8
1
 10
1048.1904144647001
 20
5498.7228692047702
 30
0.0
 11
1045.1904144647001
 21
5498.7228692047702
 31
0.0
  0
LINE
  5
7CB1
  8
1
 10
1105.1904144647001
 20
5514.7228692047711
 30
0.0
 11
1105.1904144647001
 21
5456.2228692047702
 31
0.0
  0
LINE
  5
7CB2
  8
1
 10
2051.331207194386
 20
4981.2228692047711
 30
0.0
 11
2051.331207194386
 21
5456.2228692047702
 31
0.0
  0
LINE
  5
7CB3
  8
1
 10
1905.1904144647001
 20
4981.2228692047711
 30
0.0
 11
1905.1904144647001
 21
4978.7228692047702
 31
0.0
  0
LINE
  5
7CB4
  8
1
 10
1905.1904144647001
 20
5514.7228692047711
 30
0.0
 11
1905.1904144647001
 21
5456.2228692047702
 31
0.0
  0
DIMENSION
  5
7CB5
  8
3
  2
*D14
 10
2333.6195860761418
 20
4978.7228692047702
 30
0.0
 11
2271.1195860761418
 21
4646.7228692047711
 31
0.0
 70
     0
 13
2185.1904144647001
 23
4314.7228692047702
 33
0.0
 14
2185.1904144647001
 24
4978.7228692047702
 34
0.0
 50
270.0
1001
ACAD
1000
DSTYLE
1002
{
1070
   287
1070
     3
1070
    40
1040
25.0
1070
   143
1040
0.039
1070
   172
1070
     1
1070
   271
1070
     0
1070
   279
1070
     0
1070
   288
1070
     1
1002
}
  0
LINE
  5
7CB6
  8
1
 10
2185.1904144647001
 20
4978.7228692047702
 30
0.0
 11
2185.1904144647001
 21
4676.7228692047702
 31
0.0
  0
LINE
  5
7CB9
  8
1
 10
2155.1904144647001
 20
4333.7228692047702
 30
0.0
 11
2155.1904144647001
 21
4173.7228692047702
 31
0.0
  0
LINE
  5
7CBA
  8
1
 10
2185.1904144647001
 20
4616.7228692047702
 30
0.0
 11
2185.1904144647001
 21
4396.7228692047711
 31
0.0
  0
LINE
  5
7CBB
  8
1
 10
2147.6904144647001
 20
4735.7228692047711
 30
0.0
 11
2147.690414464701
 21
4345.7228692047693
 31
0.0
  0
LINE
  5
7CBC
  8
1
 10
2185.1904144647001
 20
4336.7228692047702
 30
0.0
 11
2185.1904144647001
 21
4314.7228692047702
 31
0.0
  0
LINE
  5
7CBD
  8
1
 10
2205.1904144647001
 20
4396.7228692047702
 30
0.0
 11
2205.1904144647001
 21
4336.7228692047702
 31
0.0
  0
LINE
  5
7CBE
  8
1
 10
2205.1904144647001
 20
4396.7228692047702
 30
0.0
 11
2147.6904144647001
 21
4396.7228692047711
 31
0.0
  0
LINE
  5
7CBF
  8
1
 10
2205.1904144647001
 20
4676.7228692047702
 30
0.0
 11
2205.1904144647001
 21
4616.7228692047702
 31
0.0
  0
LINE
  5
7CC0
  8
1
 10
2205.1904144647001
 20
4616.7228692047702
 30
0.0
 11
2147.6904144647001
 21
4616.7228692047702
 31
0.0
  0
LINE
  5
7CC1
  8
1
 10
2205.1904144647001
 20
4676.7228692047702
 30
0.0
 11
2147.6904144647001
 21
4676.7228692047702
 31
0.0
  0
LINE
  5
80B6
  8
4
 10
4625.0
 20
1250.0
 30
0.0
 11
4625.0
 21
750.0
 31
0.0
  0
LINE
  5
80B7
  8
4
 10
2875.0
 20
1250.0
 30
0.0
 11
2875.0
 21
750.0
 31
0.0
  0
LINE
  5
80B8
  8
4
 10
1625.0
 20
1250.0
 30
0.0
 11
1625.0
 21
750.0
 31
0.0
  0
LINE
  5
80BB
  8
4
 10
1625.0
 20
750.0
 30
0.0
 11
4625.0
 21
750.0
 31
0.0
  0
LINE
  5
80BC
  8
4
 10
1625.0
 20
1000.0
 30
0.0
 11
4625.0
 21
1000.0
 31
0.0
  0
TEXT
  5
80BD
  8
4
 10
1721.2552021172539
 20
1078.857564666532
 30
0.0
 40
125.0
  1
機器名称
  0
TEXT
  5
80BE
  8
4
 10
1715.6452650619931
 20
804.11289183002725
 30
0.0
 40
125.0
  1
機器型番
  0
TEXT
  5
80BF
  8
4
 10
2877.4960343522262
 20
1055.6724359106031
 30
0.0
 40
110.0
  1
ミツヤ多翼送風機
  0
TEXT
  5
80C0
  8
4
 10
2966.6362389637011
 20
792.89896069985843
 30
0.0
 40
125.0
  1
MF#4-1
  0
TEXT
  5
80C2
  8
4
 10
1971.5403507268741
 20
5958.5721033312893
 30
0.0
 40
135.0
  1
床置ベット
  0
TEXT
  5
80C3
  8
4
 10
724.41350040804173
 20
6334.7024404982449
 30
0.0
 40
180.0
  1
遠心式片吸込片持多翼ファン
  0
LINE
  5
80C4
  8
4
 10
625.0
 20
6173.5218856620122
 30
0.0
 11
4625.0
 21
6173.5218856620122
 31
0.0
  0
LINE
  5
80C5
  8
4
 10
625.0
 20
6673.5218856620122
 30
0.0
 11
4625.0
 21
6673.5218856620122
 31
0.0
  0
LINE
  5
80C6
  8
4
 10
1625.0
 20
1250.0
 30
0.0
 11
4625.0
 21
1250.0
 31
0.0
  0
LINE
  5
80C7
  8
4
 10
625.0
 20
6673.5218856620122
 30
0.0
 11
625.0
 21
6173.5218856620122
 31
0.0
  0
TEXT
  5
80C8
  8
4
 10
881.89327012011927
 20
5955.7986938658578
 30
0.0
 40
135.0
  1
右回転左横向
  0
TEXT
  5
80C9
  8
4
 10
3672.4238981232238
 20
6765.1527037382721
 30
0.0
 40
140.0
  1
No.
  0
TEXT
  5
80CA
  8
4
 10
3278.2401565000318
 20
5958.5721033312893
 30
0.0
 40
135.0
  1
縮尺：1/25
  0
LINE
  5
80CB
  8
4
 10
4625.0
 20
6673.5218856620122
 30
0.0
 11
4625.0
 21
6173.5218856620122
 31
0.0
  0
LINE
  5
80CC
  8
4
 10
5250.0
 20
7375.0
 30
0.0
 11
5250.0
 21
7375.0
 31
0.0
  0
LINE
  5
80CD
  8
4
 10
3601.543555899661
 20
6703.1589578135026
 30
0.0
 11
3601.543555899661
 21
6966.6306538743811
 31
0.0
  0
LINE
  5
80CE
  8
4
 10
3601.543555899661
 20
6966.6306538743811
 30
0.0
 11
4625.0
 21
6966.6306538743811
 31
0.0
  0
LINE
  5
80CF
  8
4
 10
4625.0
 20
6966.6306538743811
 30
0.0
 11
4625.0
 21
6703.1589578135026
 31
0.0
  0
LINE
  5
80D0
  8
4
 10
4625.0
 20
6703.1589578135026
 30
0.0
 11
3601.543555899661
 21
6703.1589578135026
 31
0.0
  0
LINE
  5
80D1
  8
4
 10
0.0
 20
0.0
 30
0.0
 11
0.0
 21
7375.0
 31
0.0
  0
LINE
  5
80D2
  8
4
 10
0.0
 20
7375.0
 30
0.0
 11
5250.0
 21
7375.0
 31
0.0
  0
LINE
  5
80D3
  8
4
 10
5250.0
 20
7375.0
 30
0.0
 11
5250.0
 21
0.0
 31
0.0
  0
LINE
  5
80D4
  8
4
 10
5250.0
 20
0.0
 30
0.0
 11
0.0
 21
0.0
 31
0.0
  0
DIMENSION
  5
8203
  8
3
  2
*D17
 10
4501.3422843202106
 20
2343.0063805585651
 30
0.0
 11
4501.3422843202097
 21
2676.5113918997881
 31
0.0
 70
   128
 13
4276.4298834539823
 23
3013.0063805585642
 33
0.0
 14
4276.4298834539841
 24
2343.0063805585651
 34
0.0
 50
90.0
1001
ACAD
1000
DSTYLE
1002
{
1070
   287
1070
     3
1070
     3
1000
φ<>
1070
    40
1040
25.0
1070
   143
1040
0.039
1070
   172
1070
     1
1070
   271
1070
     0
1070
   279
1070
     0
1070
   288
1070
     1
1002
}
  0
DIMENSION
  5
8252
  8
3
  2
*D18
 10
4279.9298834539832
 20
3431.2879455654729
 30
0.0
 11
4159.4298834539841
 21
3490.7387645421441
 31
0.0
 70
   128
 13
4038.9298834539832
 23
3391.1699256900388
 33
0.0
 14
4279.9298834539832
 24
3130.5500879295141
 34
0.0
1001
ACAD
1000
DSTYLE
1002
{
1070
   288
1070
     1
1070
   172
1070
     1
1070
    75
1070
     1
1070
    40
1040
25.0
1070
   271
1070
     0
1070
   143
1040
0.039
1002
}
  0
DIMENSION
  5
82E3
  8
3
  2
*D19
 10
1505.190414464701
 20
1728.874645030701
 30
0.0
 11
1305.190414464701
 21
1791.374645030701
 31
0.0
 70
     0
 13
1105.1904144647001
 23
1878.0063805585651
 33
0.0
 14
1505.190414464701
 24
1878.0063805585651
 34
0.0
1001
ACAD
1000
DSTYLE
1002
{
1070
   287
1070
     3
1070
    40
1040
25.0
1070
   143
1040
0.039
1070
   172
1070
     1
1070
   271
1070
     0
1070
   279
1070
     0
1002
}
  0
DIMENSION
  5
82F0
  8
3
  2
*D20
 10
2185.1904144647001
 20
1728.874645030701
 30
0.0
 11
1845.190414464701
 21
1791.374645030701
 31
0.0
 70
     0
 13
1505.190414464701
 23
1878.0063805585651
 33
0.0
 14
2185.1904144647001
 24
1878.0063805585651
 34
0.0
1001
ACAD
1000
DSTYLE
1002
{
1070
   287
1070
     3
1070
    40
1040
25.0
1070
   143
1040
0.039
1070
   172
1070
     1
1070
   271
1070
     0
1070
   279
1070
     0
1002
}
  0
DIMENSION
  5
82FD
  8
3
  2
*D21
 10
4038.9298834539832
 20
1728.874645030701
 30
0.0
 11
3585.4298834539832
 21
1791.374645030701
 31
0.0
 70
     0
 13
3131.9298834539832
 23
1878.0063805585651
 33
0.0
 14
4038.9298834539832
 24
1878.0063805585639
 34
0.0
1001
ACAD
1000
DSTYLE
1002
{
1070
   287
1070
     3
1070
    40
1040
25.0
1070
   143
1040
0.039
1070
   172
1070
     1
1070
   271
1070
     0
1070
   279
1070
     0
1002
}
  0
DIMENSION
  5
830C
  8
3
  2
*D22
 10
4331.9298834539832
 20
1728.874645030701
 30
0.0
 11
4185.4298834539832
 21
1791.374645030701
 31
0.0
 70
     0
 13
4038.9298834539832
 23
1878.0063805585639
 33
0.0
 14
4331.9298834539832
 24
1878.0063805585651
 34
0.0
1001
ACAD
1000
DSTYLE
1002
{
1070
   287
1070
     3
1070
    40
1040
25.0
1070
   143
1040
0.039
1070
   172
1070
     1
1070
   271
1070
     0
1070
   279
1070
     0
1002
}
  0
DIMENSION
  5
8353
  8
3
  2
*D23
 10
743.83805802496136
 20
3132.0063805585651
 30
0.0
 11
681.33805802496079
 21
2905.0063805585651
 31
0.0
 70
     0
 13
991.54785390719758
 23
2678.0063805585651
 33
0.0
 14
1552.190414464701
 24
3132.0063805585651
 34
0.0
 50
90.0
1001
ACAD
1000
DSTYLE
1002
{
1070
   287
1070
     3
1070
    40
1040
25.0
1070
   143
1040
0.039
1070
   172
1070
     1
1070
   271
1070
     0
1070
   279
1070
     0
1002
}
  0
DIMENSION
  5
8360
  8
3
  2
*D24
 10
429.7764802501697
 20
1878.0063805585651
 30
0.0
 11
367.27648025016941
 21
2505.0063805585651
 31
0.0
 70
     0
 13
1552.190414464701
 23
3132.0063805585651
 33
0.0
 14
1105.1904144647001
 24
1878.0063805585651
 34
0.0
 50
90.0
1001
ACAD
1000
DSTYLE
1002
{
1070
   287
1070
     3
1070
    40
1040
25.0
1070
   143
1040
0.039
1070
   172
1070
     1
1070
   271
1070
     0
1070
   279
1070
     0
1002
}
  0
LINE
  5
836E
  8
1
 10
1335.1904144647001
 20
2623.0063805585651
 30
0.0
 11
1675.1904144647001
 21
2623.0063805585651
 31
0.0
  0
LINE
  5
8370
  8
1
 10
1335.1904144647001
 20
2623.0063805585651
 30
0.0
 11
1255.1904144647001
 21
1978.0063805585651
 31
0.0
  0
LINE
  5
8371
  8
1
 10
1675.1904144647001
 20
2623.0063805585651
 30
0.0
 11
1755.1904144647001
 21
1978.0063805585651
 31
0.0
  0
LINE
  5
8372
  8
1
 10
1335.1904144647001
 20
4893.7228692047702
 30
0.0
 11
1335.1904144647001
 21
4353.7228692047711
 31
0.0
  0
LINE
  5
8373
  8
1
 10
1675.1904144647001
 20
4893.7228692047702
 30
0.0
 11
1675.1904144647001
 21
4353.7228692047711
 31
0.0
  0
ENDSEC
  0
EOF
