  0
SECTION
  2
HEADER
  9
$ACADVER
  1
AC1009
  9
$INSBASE
 10
0.0
 20
0.0
 30
0.0
  9
$EXTMIN
 10
0.0
 20
0.0
 30
0.0
  9
$EXTMAX
 10
5250.0
 20
7375.0
 30
0.0
  9
$LIMMIN
 10
0.0
 20
0.0
  9
$LIMMAX
 10
297.0
 20
210.0
  9
$ORTHOMODE
 70
     0
  9
$REGENMODE
 70
     1
  9
$FILLMODE
 70
     0
  9
$QTEXTMODE
 70
     0
  9
$MIRRTEXT
 70
     1
  9
$DRAGMODE
 70
     2
  9
$LTSCALE
 40
100.0
  9
$OSMODE
 70
    37
  9
$ATTMODE
 70
     1
  9
$TEXTSIZE
 40
180.0
  9
$TRACEWID
 40
0.05
  9
$TEXTSTYLE
  7
STANDARD
  9
$CLAYER
  8
3
  9
$CELTYPE
  6
BYLAYER
  9
$CECOLOR
 62
   256
  9
$DIMSCALE
 40
25.0
  9
$DIMASZ
 40
2.0
  9
$DIMEXO
 40
0.5
  9
$DIMDLI
 40
10.0
  9
$DIMRND
 40
0.0
  9
$DIMDLE
 40
0.0
  9
$DIMEXE
 40
1.0
  9
$DIMTP
 40
1.0
  9
$DIMTM
 40
1.0
  9
$DIMTXT
 40
3.0
  9
$DIMCEN
 40
0.0
  9
$DIMTSZ
 40
0.0
  9
$DIMTOL
 70
     0
  9
$DIMLIM
 70
     0
  9
$DIMTIH
 70
     0
  9
$DIMTOH
 70
     0
  9
$DIMSE1
 70
     0
  9
$DIMSE2
 70
     0
  9
$DIMTAD
 70
     1
  9
$DIMZIN
 70
     8
  9
$DIMBLK
  1

  9
$DIMASO
 70
     1
  9
$DIMSHO
 70
     1
  9
$DIMPOST
  1

  9
$DIMAPOST
  1

  9
$DIMALT
 70
     0
  9
$DIMALTD
 70
     2
  9
$DIMALTF
 40
0.039
  9
$DIMLFAC
 40
1.0
  9
$DIMTOFL
 70
     1
  9
$DIMTVP
 40
0.0
  9
$DIMTIX
 70
     0
  9
$DIMSOXD
 70
     0
  9
$DIMSAH
 70
     1
  9
$DIMBLK1
  1
OPEN
  9
$DIMBLK2
  1
OPEN
  9
$DIMSTYLE
  2
IGA
  9
$DIMCLRD
 70
     0
  9
$DIMCLRE
 70
     0
  9
$DIMCLRT
 70
     0
  9
$DIMTFAC
 40
10.0
  9
$DIMGAP
 40
1.0
  9
$LUNITS
 70
     2
  9
$LUPREC
 70
     3
  9
$SKETCHINC
 40
0.1
  9
$FILLETRAD
 40
50.0
  9
$AUNITS
 70
     0
  9
$AUPREC
 70
     0
  9
$MENU
  1
acad
  9
$ELEVATION
 40
0.0
  9
$PELEVATION
 40
0.0
  9
$THICKNESS
 40
0.0
  9
$LIMCHECK
 70
     0
  9
$BLIPMODE
 70
     0
  9
$CHAMFERA
 40
0.5
  9
$CHAMFERB
 40
0.5
  9
$SKPOLY
 70
     0
  9
$TDCREATE
 40
2451004.4754913189
  9
$TDUPDATE
 40
2454953.7561116428
  9
$TDINDWG
 40
0.0860429745
  9
$TDUSRTIMER
 40
0.0860429745
  9
$USRTIMER
 70
     1
  9
$ANGBASE
 50
0.0
  9
$ANGDIR
 70
     0
  9
$PDMODE
 70
     0
  9
$PDSIZE
 40
0.0
  9
$PLINEWID
 40
0.0
  9
$COORDS
 70
     1
  9
$SPLFRAME
 70
     0
  9
$SPLINETYPE
 70
     6
  9
$SPLINESEGS
 70
     8
  9
$ATTDIA
 70
     0
  9
$ATTREQ
 70
     1
  9
$HANDLING
 70
 10241
  9
$HANDSEED
  5
83FE
  9
$SURFTAB1
 70
     6
  9
$SURFTAB2
 70
     6
  9
$SURFTYPE
 70
     6
  9
$SURFU
 70
     6
  9
$SURFV
 70
     6
  9
$UCSNAME
  2

  9
$UCSORG
 10
0.0
 20
0.0
 30
0.0
  9
$UCSXDIR
 10
1.0
 20
0.0
 30
0.0
  9
$UCSYDIR
 10
0.0
 20
1.0
 30
0.0
  9
$PUCSNAME
  2

  9
$PUCSORG
 10
0.0
 20
0.0
 30
0.0
  9
$PUCSXDIR
 10
1.0
 20
0.0
 30
0.0
  9
$PUCSYDIR
 10
0.0
 20
1.0
 30
0.0
  9
$USERI1
 70
     0
  9
$USERI2
 70
     0
  9
$USERI3
 70
     0
  9
$USERI4
 70
     0
  9
$USERI5
 70
     0
  9
$USERR1
 40
0.0
  9
$USERR2
 40
0.0
  9
$USERR3
 40
0.0
  9
$USERR4
 40
0.0
  9
$USERR5
 40
0.0
  9
$WORLDVIEW
 70
     1
  9
$SHADEDGE
 70
     3
  9
$SHADEDIF
 70
    70
  9
$TILEMODE
 70
     1
  9
$MAXACTVP
 70
    16
  9
$PLIMCHECK
 70
     0
  9
$PEXTMIN
 10
1.0000000000000000E+020
 20
1.0000000000000000E+020
 30
1.0000000000000000E+020
  9
$PEXTMAX
 10
-1.0000000000000000E+020
 20
-1.0000000000000000E+020
 30
-1.0000000000000000E+020
  9
$PLIMMIN
 10
0.0
 20
0.0
  9
$PLIMMAX
 10
12.0
 20
9.0
  9
$UNITMODE
 70
     0
  9
$VISRETAIN
 70
     0
  9
$PLINEGEN
 70
     0
  9
$PSLTSCALE
 70
     1
  0
ENDSEC
  0
SECTION
  2
TABLES
  0
TABLE
  2
VPORT
 70
     2
  0
VPORT
  2
*ACTIVE
 70
     0
 10
0.0
 20
0.0
 11
1.0
 21
1.0
 12
8841.5248971284218
 22
3687.5000171712591
 13
0.0
 23
0.0
 14
10.0
 24
10.0
 15
10.0
 25
10.0
 16
0.0
 26
0.0
 36
1.0
 17
0.0
 27
0.0
 37
0.0
 40
7431.5372075423384
 41
3.1666666666666661
 42
50.0
 43
0.0
 44
0.0
 50
0.0
 51
0.0
 71
     0
 72
   100
 73
     1
 74
     0
 75
     0
 76
     0
 77
     0
 78
     0
  0
ENDTAB
  0
TABLE
  2
LTYPE
 70
     2
  0
LTYPE
  2
CONTINUOUS
 70
     0
  3
Solid line
 72
    65
 73
     0
 40
0.0
  0
LTYPE
  2
CENTER
 70
     0
  3
____ _ ____ _ ____ _ ____ _ ____ _ ____ _ ____ 
 72
    65
 73
     4
 40
2.0
 49
1.25
 49
-0.25
 49
0.25
 49
-0.25
  0
ENDTAB
  0
TABLE
  2
LAYER
 70
     6
  0
LAYER
  2
0
 70
     0
 62
     7
  6
CONTINUOUS
  0
LAYER
  2
3
 70
     0
 62
     2
  6
CONTINUOUS
  0
LAYER
  2
2
 70
     0
 62
     3
  6
CENTER
  0
LAYER
  2
1
 70
     0
 62
     4
  6
CONTINUOUS
  0
LAYER
  2
4
 70
     0
 62
     7
  6
CONTINUOUS
  0
LAYER
  2
DEFPOINTS
 70
     0
 62
     7
  6
CONTINUOUS
  0
ENDTAB
  0
TABLE
  2
STYLE
 70
     1
  0
STYLE
  2
STANDARD
 70
     0
 40
0.0
 41
1.0
 50
0.0
 71
     0
 42
180.0
  3
simplex.shx
  4
extfont.shx
  0
ENDTAB
  0
TABLE
  2
VIEW
 70
     0
  0
ENDTAB
  0
TABLE
  2
UCS
 70
     0
  0
ENDTAB
  0
TABLE
  2
APPID
 70
     1
  0
APPID
  2
ACAD
 70
     0
  0
ENDTAB
  0
TABLE
  2
DIMSTYLE
 70
     1
  0
DIMSTYLE
  2
IGA
 70
     0
  3

  4

  5

  6
OPEN
  7
OPEN
 40
2.0
 41
2.0
 42
0.5
 43
10.0
 44
1.0
 45
0.0
 46
0.0
 47
1.0
 48
1.0
140
3.0
141
0.0
142
0.0
143
0.03937
144
1.0
145
0.0
146
10.0
147
1.0
 71
     0
 72
     0
 73
     0
 74
     0
 75
     0
 76
     0
 77
     1
 78
     8
170
     0
171
     2
172
     0
173
     1
174
     0
175
     0
176
     0
177
     0
178
     0
  0
ENDTAB
  0
ENDSEC
  0
SECTION
  2
BLOCKS
  0
BLOCK
  8
0
  2
$MODEL_SPACE
 70
     0
 10
0.0
 20
0.0
 30
0.0
  3
$MODEL_SPACE
  1

  0
ENDBLK
  5
1B
  8
0
  0
BLOCK
 67
     1
  8
0
  2
$PAPER_SPACE
 70
     0
 10
0.0
 20
0.0
 30
0.0
  3
$PAPER_SPACE
  1

  0
ENDBLK
  5
18
 67
     1
  8
0
  0
BLOCK
  8
0
  2
*D0
 70
     1
 10
0.0
 20
0.0
 30
0.0
  3
*D0
  1

  0
LINE
  5
833B
  8
3
 62
     0
 10
1735.4272401702281
 20
3294.149547902005
 30
0.0
 11
1735.4272401702281
 21
3435.0983113989842
 31
0.0
  0
LINE
  5
833C
  8
3
 62
     0
 10
563.63670297049339
 20
2974.6527563310792
 30
0.0
 11
563.63670297049339
 21
3435.0983113989842
 31
0.0
  0
LINE
  5
833D
  8
3
 62
     0
 10
1685.4272401702281
 20
3410.0983113989842
 30
0.0
 11
613.63670297049339
 21
3410.0983113989842
 31
0.0
  0
INSERT
  5
833E
  8
3
 62
     0
  2
_OPEN
 10
1735.4272401702281
 20
3410.0983113989842
 30
0.0
 41
50.0
 42
50.0
 43
50.0
  0
INSERT
  5
833F
  8
3
 62
     0
  2
_OPEN
 10
563.63670297049339
 20
3410.0983113989842
 30
0.0
 41
50.0
 42
50.0
 43
50.0
 50
180.0
  0
TEXT
  8
3
  40
75
  5
83EA
  62
0
  72
0
  71
0
 10
999.532
 20
3339.85
 30
0.000000
  1
1174
  0
POINT
  5
8341
  8
DEFPOINTS
 62
     0
 10
1735.4272401702281
 20
3281.649547902005
 30
0.0
  0
POINT
  5
8342
  8
DEFPOINTS
 62
     0
 10
563.63670297049339
 20
2962.1527563310792
 30
0.0
  0
POINT
  5
8343
  8
DEFPOINTS
 62
     0
 10
563.63670297049339
 20
3410.0983113989842
 30
0.0
  0
ENDBLK
  5
7EB3
  8
0
  0
BLOCK
  8
0
  2
*D1
 70
     1
 10
0.0
 20
0.0
 30
0.0
  3
*D1
  1

  0
LINE
  5
8344
  8
3
 62
     0
 10
605.63670297049339
 20
2974.6527563310792
 30
0.0
 11
605.63670297049339
 21
3287.6299044096158
 31
0.0
  0
LINE
  5
8345
  8
3
 62
     0
 10
1283.6367029704929
 20
3028.295316888582
 30
0.0
 11
1283.6367029704929
 21
3287.6299044096158
 31
0.0
  0
LINE
  5
8346
  8
3
 62
     0
 10
655.63670297049339
 20
3262.6299044096158
 30
0.0
 11
1233.6367029704929
 21
3262.6299044096158
 31
0.0
  0
INSERT
  5
8347
  8
3
 62
     0
  2
_OPEN
 10
605.63670297049339
 20
3262.6299044096158
 30
0.0
 41
50.0
 42
50.0
 43
50.0
 50
180.0
  0
INSERT
  5
8348
  8
3
 62
     0
  2
_OPEN
 10
1283.6367029704929
 20
3262.6299044096158
 30
0.0
 41
50.0
 42
50.0
 43
50.0
  0
TEXT
  8
3
  40
75
  5
83EB
  62
0
  72
0
  71
0
 10
794.637
 20
3192.38
 30
0.000000
  1
678
  0
POINT
  5
834A
  8
DEFPOINTS
 62
     0
 10
605.63670297049339
 20
2962.1527563310792
 30
0.0
  0
POINT
  5
834B
  8
DEFPOINTS
 62
     0
 10
1283.6367029704929
 20
3015.7953168885829
 30
0.0
  0
POINT
  5
834C
  8
DEFPOINTS
 62
     0
 10
1283.6367029704929
 20
3262.6299044096158
 30
0.0
  0
ENDBLK
  5
7EDF
  8
0
  0
BLOCK
  8
0
  2
*D2
 70
     1
 10
0.0
 20
0.0
 30
0.0
  3
*D2
  1

  0
LINE
  5
834D
  8
3
 62
     0
 10
605.63670297049339
 20
2974.6527563310792
 30
0.0
 11
605.63670297049339
 21
3136.1022804972999
 31
0.0
  0
LINE
  5
834E
  8
3
 62
     0
 10
1255.6367029704929
 20
2974.6527563310792
 30
0.0
 11
1255.6367029704929
 21
3136.1022804972999
 31
0.0
  0
LINE
  5
834F
  8
3
 62
     0
 10
655.63670297049339
 20
3111.1022804972999
 30
0.0
 11
1205.6367029704929
 21
3111.1022804972999
 31
0.0
  0
INSERT
  5
8350
  8
3
 62
     0
  2
_OPEN
 10
605.63670297049339
 20
3111.1022804972999
 30
0.0
 41
50.0
 42
50.0
 43
50.0
 50
180.0
  0
INSERT
  5
8351
  8
3
 62
     0
  2
_OPEN
 10
1255.6367029704929
 20
3111.1022804972999
 30
0.0
 41
50.0
 42
50.0
 43
50.0
  0
TEXT
  8
3
  40
75
  5
83EC
  62
0
  72
0
  71
0
 10
780.637
 20
3040.85
 30
0.000000
  1
650
  0
POINT
  5
8353
  8
DEFPOINTS
 62
     0
 10
605.63670297049339
 20
2962.1527563310792
 30
0.0
  0
POINT
  5
8354
  8
DEFPOINTS
 62
     0
 10
1255.6367029704929
 20
2962.1527563310792
 30
0.0
  0
POINT
  5
8355
  8
DEFPOINTS
 62
     0
 10
1255.6367029704929
 20
3111.1022804972999
 30
0.0
  0
ENDBLK
  5
7ED4
  8
0
  0
BLOCK
  8
0
  2
*D3
 70
     1
 10
0.0
 20
0.0
 30
0.0
  3
*D3
  1

  0
LINE
  5
8356
  8
3
 62
     0
 10
1809.7792635279959
 20
2502.1527563310801
 30
0.0
 11
1910.4246300857999
 21
2502.1527563310801
 31
0.0
  0
LINE
  5
8357
  8
3
 62
     0
 10
1696.1367029704929
 20
1922.152756331079
 30
0.0
 11
1910.4246300857999
 21
1922.152756331079
 31
0.0
  0
LINE
  5
8358
  8
3
 62
     0
 10
1885.4246300857999
 20
2452.1527563310792
 30
0.0
 11
1885.4246300857999
 21
1972.152756331079
 31
0.0
  0
INSERT
  5
8359
  8
3
 62
     0
  2
_OPEN
 10
1885.4246300857999
 20
2502.1527563310801
 30
0.0
 41
50.0
 42
50.0
 43
50.0
 50
90.0
  0
INSERT
  5
835A
  8
3
 62
     0
  2
_OPEN
 10
1885.4246300857999
 20
1922.152756331079
 30
0.0
 41
50.0
 42
50.0
 43
50.0
 50
270.0
  0
TEXT
  8
3
  40
75
  5
83ED
  62
0
  72
0
  71
0
 10
1672.92
 20
2079.40
 30
0.000000
  1
580
  0
POINT
  5
835C
  8
DEFPOINTS
 62
     0
 10
1797.2792635279959
 20
2502.1527563310801
 30
0.0
  0
POINT
  5
835D
  8
DEFPOINTS
 62
     0
 10
1683.6367029704929
 20
1922.152756331079
 30
0.0
  0
POINT
  5
835E
  8
DEFPOINTS
 62
     0
 10
1885.4246300857999
 20
1922.152756331079
 30
0.0
  0
ENDBLK
  5
8250
  8
0
  0
BLOCK
  8
0
  2
*D4
 70
     1
 10
0.0
 20
0.0
 30
0.0
  3
*D4
  1

  0
LINE
  5
835F
  8
3
 62
     0
 10
1735.4272401702281
 20
2514.6527563310792
 30
0.0
 11
1735.4272401702281
 21
3286.649547902005
 31
0.0
  0
LINE
  5
8360
  8
3
 62
     0
 10
1283.6367029704929
 20
3028.295316888582
 30
0.0
 11
1283.6367029704929
 21
3286.649547902005
 31
0.0
  0
LINE
  5
8361
  8
3
 62
     0
 10
1685.4272401702281
 20
3261.649547902005
 30
0.0
 11
1333.6367029704929
 21
3261.649547902005
 31
0.0
  0
INSERT
  5
8362
  8
3
 62
     0
  2
_OPEN
 10
1735.4272401702281
 20
3261.649547902005
 30
0.0
 41
50.0
 42
50.0
 43
50.0
  0
INSERT
  5
8363
  8
3
 62
     0
  2
_OPEN
 10
1283.6367029704929
 20
3261.649547902005
 30
0.0
 41
50.0
 42
50.0
 43
50.0
 50
180.0
  0
TEXT
  8
3
  40
75
  5
83EE
  62
0
  72
0
  71
0
 10
1359.53
 20
3191.40
 30
0.000000
  1
454
  0
POINT
  5
8365
  8
DEFPOINTS
 62
     0
 10
1735.4272401702281
 20
2502.1527563310801
 30
0.0
  0
POINT
  5
8366
  8
DEFPOINTS
 62
     0
 10
1283.6367029704929
 20
3015.7953168885829
 30
0.0
  0
POINT
  5
8367
  8
DEFPOINTS
 62
     0
 10
1283.6367029704929
 20
3261.649547902005
 30
0.0
  0
ENDBLK
  5
7F16
  8
0
  0
BLOCK
  8
0
  2
*D5
 70
     1
 10
0.0
 20
0.0
 30
0.0
  3
*D5
  1

  0
LINE
  5
8368
  8
3
 62
     0
 10
1310.6367029704929
 20
2962.1527563310792
 30
0.0
 11
1910.4246300857999
 21
2962.1527563310792
 31
0.0
  0
LINE
  5
8369
  8
3
 62
     0
 10
1809.7792635279959
 20
2502.1527563310801
 30
0.0
 11
1910.4246300857999
 21
2502.1527563310801
 31
0.0
  0
LINE
  5
836A
  8
3
 62
     0
 10
1885.4246300857999
 20
2912.1527563310792
 30
0.0
 11
1885.4246300857999
 21
2552.1527563310792
 31
0.0
  0
INSERT
  5
836B
  8
3
 62
     0
  2
_OPEN
 10
1885.4246300857999
 20
2962.1527563310792
 30
0.0
 41
50.0
 42
50.0
 43
50.0
 50
90.0
  0
INSERT
  5
836C
  8
3
 62
     0
  2
_OPEN
 10
1885.4246300857999
 20
2502.1527563310801
 30
0.0
 41
50.0
 42
50.0
 43
50.0
 50
270.0
  0
TEXT
  8
3
  40
75
  5
83EF
  62
0
  72
0
  71
0
 10
1672.92
 20
2599.40
 30
0.000000
  1
460
  0
POINT
  5
836E
  8
DEFPOINTS
 62
     0
 10
1298.1367029704929
 20
2962.1527563310792
 30
0.0
  0
POINT
  5
836F
  8
DEFPOINTS
 62
     0
 10
1797.2792635279959
 20
2502.1527563310801
 30
0.0
  0
POINT
  5
8370
  8
DEFPOINTS
 62
     0
 10
1885.4246300857999
 20
2502.1527563310801
 30
0.0
  0
ENDBLK
  5
7F0B
  8
0
  0
BLOCK
  8
0
  2
*D6
 70
     1
 10
0.0
 20
0.0
 30
0.0
  3
*D6
  1

  0
LINE
  5
8371
  8
3
 62
     0
 10
1533.6367029704929
 20
4126.3692449772852
 30
0.0
 11
1533.6367029704929
 21
3821.9885686912512
 31
0.0
  0
LINE
  5
8372
  8
3
 62
     0
 10
603.63670297049327
 20
4126.3692449772852
 30
0.0
 11
603.63670297049327
 21
3821.9885686912512
 31
0.0
  0
LINE
  5
8373
  8
3
 62
     0
 10
1483.6367029704929
 20
3846.9885686912512
 30
0.0
 11
653.63670297049327
 21
3846.9885686912512
 31
0.0
  0
INSERT
  5
8374
  8
3
 62
     0
  2
_OPEN
 10
1533.6367029704929
 20
3846.9885686912512
 30
0.0
 41
50.0
 42
50.0
 43
50.0
  0
INSERT
  5
8375
  8
3
 62
     0
  2
_OPEN
 10
603.63670297049327
 20
3846.9885686912512
 30
0.0
 41
50.0
 42
50.0
 43
50.0
 50
180.0
  0
TEXT
  8
3
  40
75
  5
83F0
  62
0
  72
0
  71
0
 10
918.637
 20
3776.74
 30
0.000000
  1
930
  0
POINT
  5
8377
  8
DEFPOINTS
 62
     0
 10
1533.6367029704929
 20
4138.8692449772852
 30
0.0
  0
POINT
  5
8378
  8
DEFPOINTS
 62
     0
 10
603.63670297049327
 20
4138.8692449772852
 30
0.0
  0
POINT
  5
8379
  8
DEFPOINTS
 62
     0
 10
603.63670297049327
 20
3846.9885686912512
 30
0.0
  0
ENDBLK
  5
80F7
  8
0
  0
BLOCK
  8
0
  2
*D7
 70
     1
 10
0.0
 20
0.0
 30
0.0
  3
*D7
  1

  0
LINE
  5
837A
  8
3
 62
     0
 10
883.63670297049339
 20
5351.3692449772843
 30
0.0
 11
883.63670297049339
 21
5509.4431315810361
 31
0.0
  0
LINE
  5
837B
  8
3
 62
     0
 10
1683.6367029704929
 20
5351.3692449772843
 30
0.0
 11
1683.6367029704929
 21
5509.4431315810361
 31
0.0
  0
LINE
  5
837C
  8
3
 62
     0
 10
933.63670297049339
 20
5484.4431315810361
 30
0.0
 11
1633.6367029704929
 21
5484.4431315810361
 31
0.0
  0
INSERT
  5
837D
  8
3
 62
     0
  2
_OPEN
 10
883.63670297049339
 20
5484.4431315810361
 30
0.0
 41
50.0
 42
50.0
 43
50.0
 50
180.0
  0
INSERT
  5
837E
  8
3
 62
     0
  2
_OPEN
 10
1683.6367029704929
 20
5484.4431315810361
 30
0.0
 41
50.0
 42
50.0
 43
50.0
  0
TEXT
  8
3
  40
75
  5
83F1
  62
0
  72
0
  71
0
 10
1133.64
 20
5414.19
 30
0.000000
  1
800
  0
POINT
  5
8380
  8
DEFPOINTS
 62
     0
 10
883.63670297049339
 20
5338.8692449772852
 30
0.0
  0
POINT
  5
8381
  8
DEFPOINTS
 62
     0
 10
1683.6367029704929
 20
5338.8692449772852
 30
0.0
  0
POINT
  5
8382
  8
DEFPOINTS
 62
     0
 10
1683.6367029704929
 20
5484.4431315810361
 30
0.0
  0
ENDBLK
  5
8125
  8
0
  0
BLOCK
  8
0
  2
*D8
 70
     1
 10
0.0
 20
0.0
 30
0.0
  3
*D8
  1

  0
LINE
  5
8383
  8
3
 62
     0
 10
591.13670297049327
 20
4138.8692449772852
 30
0.0
 11
430.20753135905107
 21
4138.8692449772852
 31
0.0
  0
LINE
  5
8384
  8
3
 62
     0
 10
591.13670297049327
 20
4802.8692449772843
 30
0.0
 11
430.20753135905119
 21
4802.8692449772843
 31
0.0
  0
LINE
  5
8385
  8
3
 62
     0
 10
455.20753135905107
 20
4188.8692449772852
 30
0.0
 11
455.20753135905119
 21
4752.8692449772843
 31
0.0
  0
INSERT
  5
8386
  8
3
 62
     0
  2
_OPEN
 10
455.20753135905107
 20
4138.8692449772852
 30
0.0
 41
50.0
 42
50.0
 43
50.0
 50
270.0
  0
INSERT
  5
8387
  8
3
 62
     0
  2
_OPEN
 10
455.20753135905119
 20
4802.8692449772843
 30
0.0
 41
50.0
 42
50.0
 43
50.0
 50
90.0
  0
TEXT
  8
3
  40
75
  5
83F2
  62
0
  72
0
  71
0
 10
242.708
 20
4338.12
 30
0.000000
  1
664
  0
POINT
  5
8389
  8
DEFPOINTS
 62
     0
 10
603.63670297049327
 20
4138.8692449772852
 30
0.0
  0
POINT
  5
838A
  8
DEFPOINTS
 62
     0
 10
603.63670297049327
 20
4802.8692449772843
 30
0.0
  0
POINT
  5
838B
  8
DEFPOINTS
 62
     0
 10
455.20753135905119
 20
4802.8692449772843
 30
0.0
  0
ENDBLK
  5
8102
  8
0
  0
BLOCK
  8
0
  2
*D9
 70
     1
 10
0.0
 20
0.0
 30
0.0
  3
*D9
  1

  0
LINE
  5
8177
  8
0
  6
BYBLOCK
 62
     0
 10
883.63670297049339
 20
5351.3692449772843
 30
0.0
 11
883.63670297049339
 21
5509.4431315810361
 31
0.0
  0
LINE
  5
8178
  8
0
  6
BYBLOCK
 62
     0
 10
603.63670297049327
 20
4815.3692449772852
 30
0.0
 11
603.63670297049327
 21
5509.4431315810361
 31
0.0
  0
LINE
  5
8179
  8
0
  6
BYBLOCK
 62
     0
 10
833.63670297049339
 20
5484.4431315810361
 30
0.0
 11
653.63670297049327
 21
5484.4431315810361
 31
0.0
  0
TEXT
  5
817A
  8
3
 62
     0
 10
647.20813154192194
 20
5546.9431315810361
 30
0.0
 40
75.0
  1
280
  0
INSERT
  5
817B
  8
0
  6
BYBLOCK
 62
     0
  2
_OPEN
 10
883.63670297049339
 20
5484.4431315810361
 30
0.0
 41
50.0
 42
50.0
 43
50.0
  0
INSERT
  5
817C
  8
0
  6
BYBLOCK
 62
     0
  2
_OPEN
 10
603.63670297049327
 20
5484.4431315810361
 30
0.0
 41
50.0
 42
50.0
 43
50.0
 50
180.0
  0
POINT
  5
817D
  8
DEFPOINTS
  6
BYBLOCK
 62
     0
 10
883.63670297049339
 20
5338.8692449772852
 30
0.0
  0
POINT
  5
817E
  8
DEFPOINTS
  6
BYBLOCK
 62
     0
 10
603.63670297049327
 20
4802.8692449772843
 30
0.0
  0
POINT
  5
817F
  8
DEFPOINTS
  6
BYBLOCK
 62
     0
 10
603.63670297049327
 20
5484.4431315810361
 30
0.0
  0
ENDBLK
  5
8180
  8
0
  0
BLOCK
  8
0
  2
*D10
 70
     1
 10
0.0
 20
0.0
 30
0.0
  3
*D10
  1

  0
LINE
  5
838C
  8
3
 62
     0
 10
1696.1367029704929
 20
5338.8692449772852
 30
0.0
 11
1918.0905058312169
 21
5338.8692449772852
 31
0.0
  0
LINE
  5
838D
  8
3
 62
     0
 10
1546.1367029704929
 20
4138.8692449772852
 30
0.0
 11
1918.0905058312169
 21
4138.8692449772852
 31
0.0
  0
LINE
  5
838E
  8
3
 62
     0
 10
1893.0905058312169
 20
5288.8692449772843
 30
0.0
 11
1893.0905058312169
 21
4188.8692449772852
 31
0.0
  0
INSERT
  5
838F
  8
3
 62
     0
  2
_OPEN
 10
1893.0905058312169
 20
5338.8692449772852
 30
0.0
 41
50.0
 42
50.0
 43
50.0
 50
90.0
  0
INSERT
  5
8390
  8
3
 62
     0
  2
_OPEN
 10
1893.0905058312169
 20
4138.8692449772852
 30
0.0
 41
50.0
 42
50.0
 43
50.0
 50
270.0
  0
TEXT
  8
3
  40
75
  5
83F3
  62
0
  72
0
  71
0
 10
1680.59
 20
4606.12
 30
0.000000
  1
1200
  0
POINT
  5
8392
  8
DEFPOINTS
 62
     0
 10
1683.6367029704929
 20
5338.8692449772852
 30
0.0
  0
POINT
  5
8393
  8
DEFPOINTS
 62
     0
 10
1533.6367029704929
 20
4138.8692449772852
 30
0.0
  0
POINT
  5
8394
  8
DEFPOINTS
 62
     0
 10
1893.0905058312169
 20
4138.8692449772852
 30
0.0
  0
ENDBLK
  5
813D
  8
0
  0
BLOCK
  8
0
  2
*D11
 70
     1
 10
0.0
 20
0.0
 30
0.0
  3
*D11
  1

  0
LINE
  5
8395
  8
3
 62
     0
 10
1533.6367029704929
 20
4126.3692449772852
 30
0.0
 11
1533.6367029704929
 21
3821.9885686912512
 31
0.0
  0
LINE
  5
8396
  8
3
 62
     0
 10
1683.6367029704929
 20
4740.3692449772843
 30
0.0
 11
1683.6367029704929
 21
3821.9885686912512
 31
0.0
  0
LINE
  5
8397
  8
3
 62
     0
 10
1583.6367029704929
 20
3846.9885686912512
 30
0.0
 11
1633.6367029704929
 21
3846.9885686912512
 31
0.0
  0
LINE
  5
8398
  8
3
 62
     0
 10
1683.6367029704929
 20
3846.9885686912512
 30
0.0
 11
1962.2081315419209
 21
3846.9885686912512
 31
0.0
  0
INSERT
  5
8399
  8
3
 62
     0
  2
_OPEN
 10
1533.6367029704929
 20
3846.9885686912512
 30
0.0
 41
50.0
 42
50.0
 43
50.0
 50
180.0
  0
INSERT
  5
839A
  8
3
 62
     0
  2
_OPEN
 10
1683.6367029704929
 20
3846.9885686912512
 30
0.0
 41
50.0
 42
50.0
 43
50.0
  0
TEXT
  8
3
  40
75
  5
83F4
  62
0
  72
0
  71
0
 10
1697.92
 20
3776.74
 30
0.000000
  1
150
  0
POINT
  5
839C
  8
DEFPOINTS
 62
     0
 10
1533.6367029704929
 20
4138.8692449772852
 30
0.0
  0
POINT
  5
839D
  8
DEFPOINTS
 62
     0
 10
1683.6367029704929
 20
4752.8692449772843
 30
0.0
  0
POINT
  5
839E
  8
DEFPOINTS
 62
     0
 10
1683.6367029704929
 20
3846.9885686912512
 30
0.0
  0
ENDBLK
  5
810F
  8
0
  0
BLOCK
  8
0
  2
*D12
 70
     1
 10
0.0
 20
0.0
 30
0.0
  3
*D12
  1

  0
LINE
  5
839F
  8
3
 62
     0
 10
2772.376171959776
 20
2664.6527563310801
 30
0.0
 11
2772.376171959776
 21
3334.7337041942228
 31
0.0
  0
LINE
  5
83A0
  8
3
 62
     0
 10
3817.376171959776
 20
3247.1102601231892
 30
0.0
 11
3817.376171959776
 21
3334.7337041942228
 31
0.0
  0
LINE
  5
83A1
  8
3
 62
     0
 10
2822.376171959776
 20
3309.7337041942228
 30
0.0
 11
3767.376171959776
 21
3309.7337041942228
 31
0.0
  0
INSERT
  5
83A2
  8
3
 62
     0
  2
_OPEN
 10
2772.376171959776
 20
3309.7337041942228
 30
0.0
 41
50.0
 42
50.0
 43
50.0
 50
180.0
  0
INSERT
  5
83A3
  8
3
 62
     0
  2
_OPEN
 10
3817.376171959776
 20
3309.7337041942228
 30
0.0
 41
50.0
 42
50.0
 43
50.0
  0
TEXT
  8
3
  40
75
  5
83F5
  62
0
  72
0
  71
0
 10
3144.88
 20
3301.98
 30
0.000000
  1
MAX
  0
TEXT
  8
3
  40
75
  5
83F6
  62
0
  72
0
  71
0
 10
3144.88
 20
3204.48
 30
0.000000
  1
1070
  0
POINT
  5
83A5
  8
DEFPOINTS
 62
     0
 10
2772.376171959776
 20
2652.1527563310801
 30
0.0
  0
POINT
  5
83A6
  8
DEFPOINTS
 62
     0
 10
3817.376171959776
 20
3234.6102601231892
 30
0.0
  0
POINT
  5
83A7
  8
DEFPOINTS
 62
     0
 10
3817.376171959776
 20
3309.7337041942228
 30
0.0
  0
ENDBLK
  5
8282
  8
0
  0
BLOCK
  8
0
  2
*D13
 70
     1
 10
0.0
 20
0.0
 30
0.0
  3
*D13
  1

  0
LINE
  5
83A8
  8
3
 62
     0
 10
3579.8761719597751
 20
2974.6527563310792
 30
0.0
 11
3579.8761719597751
 21
3137.0800880459628
 31
0.0
  0
LINE
  5
83A9
  8
3
 62
     0
 10
4054.876171959776
 20
2974.6527563310792
 30
0.0
 11
4054.876171959776
 21
3137.0800880459628
 31
0.0
  0
LINE
  5
83AA
  8
3
 62
     0
 10
3629.8761719597751
 20
3112.0800880459628
 30
0.0
 11
4004.876171959776
 21
3112.0800880459628
 31
0.0
  0
INSERT
  5
83AB
  8
3
 62
     0
  2
_OPEN
 10
3579.8761719597751
 20
3112.0800880459628
 30
0.0
 41
50.0
 42
50.0
 43
50.0
 50
180.0
  0
INSERT
  5
83AC
  8
3
 62
     0
  2
_OPEN
 10
4054.876171959776
 20
3112.0800880459628
 30
0.0
 41
50.0
 42
50.0
 43
50.0
  0
TEXT
  8
3
  40
75
  5
83F7
  62
0
  72
0
  71
0
 10
3667.38
 20
3041.83
 30
0.000000
  1
475
  0
POINT
  5
83AE
  8
DEFPOINTS
 62
     0
 10
3579.8761719597751
 20
2962.1527563310792
 30
0.0
  0
POINT
  5
83AF
  8
DEFPOINTS
 62
     0
 10
4054.876171959776
 20
2962.1527563310792
 30
0.0
  0
POINT
  5
83B0
  8
DEFPOINTS
 62
     0
 10
4054.876171959776
 20
3112.0800880459628
 30
0.0
  0
ENDBLK
  5
7FA0
  8
0
  0
BLOCK
  8
0
  2
_OPEN
 70
     0
 10
0.0
 20
0.0
 30
0.0
  3
_OPEN
  1

  0
LINE
  5
7EA5
  8
0
  6
BYBLOCK
 62
     0
 10
-1.0
 20
0.1666666666666666
 30
0.0
 11
0.0
 21
0.0
 31
0.0
  0
LINE
  5
7EA6
  8
0
  6
BYBLOCK
 62
     0
 10
0.0
 20
0.0
 30
0.0
 11
-1.0
 21
-0.1666666666666666
 31
0.0
  0
LINE
  5
7EA7
  8
0
  6
BYBLOCK
 62
     0
 10
0.0
 20
0.0
 30
0.0
 11
-1.0
 21
0.0
 31
0.0
  0
ENDBLK
  5
7EA8
  8
0
  0
BLOCK
  8
0
  2
_DOT
 70
     0
 10
0.0
 20
0.0
 30
0.0
  3
_DOT
  1

  0
LINE
  5
8229
  8
0
  6
BYBLOCK
 62
     0
 10
0.0
 20
0.0
 30
0.0
 11
-1.0
 21
-0.0000000000000284
 31
0.0
  0
POLYLINE
  5
822A
  8
0
  6
BYBLOCK
 62
     0
 66
     1
 10
0.0
 20
0.0
 30
0.0
 70
     1
 40
0.1666666666666666
 41
0.1666666666666666
  0
VERTEX
  5
83BA
  8
0
  6
BYBLOCK
 62
     0
 10
-0.0833333333333286
 20
-0.0000000000000284
 30
0.0
 42
1.0
  0
VERTEX
  5
83BB
  8
0
  6
BYBLOCK
 62
     0
 10
0.0833333333333286
 20
-0.0000000000000284
 30
0.0
 42
1.0
  0
SEQEND
  5
83BC
  8
0
  6
BYBLOCK
 62
     0
  0
ENDBLK
  5
7FFD
  8
0
  0
BLOCK
  8
0
  2
*D16
 70
     1
 10
0.0
 20
0.0
 30
0.0
  3
*D16
  1

  0
LINE
  5
83B1
  8
3
 62
     0
 10
4067.376171959776
 20
2837.1527563310792
 30
0.0
 11
4278.3615054704169
 21
2837.1527563310792
 31
0.0
  0
LINE
  5
83B2
  8
3
 62
     0
 10
4067.3761719597742
 20
2167.1527563310792
 30
0.0
 11
4278.3615054704169
 21
2167.1527563310792
 31
0.0
  0
LINE
  5
83B3
  8
3
 62
     0
 10
4253.3615054704178
 20
2787.1527563310792
 30
0.0
 11
4253.3615054704178
 21
2217.1527563310792
 31
0.0
  0
INSERT
  5
83B4
  8
3
 62
     0
  2
_OPEN
 10
4253.3615054704178
 20
2837.1527563310792
 30
0.0
 41
50.0
 42
50.0
 43
50.0
 50
90.0
  0
INSERT
  5
83B5
  8
3
 62
     0
  2
_OPEN
 10
4253.3615054704178
 20
2167.1527563310792
 30
0.0
 41
50.0
 42
50.0
 43
50.0
 50
270.0
  0
TEXT
  8
3
  40
75
  5
83F8
  62
0
  72
0
  71
0
 10
4040.86
 20
2371.89
 30
0.000000
  1
φ670
  0
POINT
  5
83B7
  8
DEFPOINTS
 62
     0
 10
4054.876171959776
 20
2837.1527563310792
 30
0.0
  0
POINT
  5
83B8
  8
DEFPOINTS
 62
     0
 10
4054.8761719597751
 20
2167.1527563310792
 30
0.0
  0
POINT
  5
83B9
  8
DEFPOINTS
 62
     0
 10
4253.3615054704178
 20
2167.1527563310792
 30
0.0
  0
ENDBLK
  5
81CF
  8
0
  0
BLOCK
  8
0
  2
*D17
 70
     1
 10
0.0
 20
0.0
 30
0.0
  3
*D17
  1

  0
LINE
  5
8284
  8
0
  6
BYBLOCK
 62
     0
 10
4058.376171959776
 20
2973.6999787087038
 30
0.0
 11
4058.376171959776
 21
3334.7337041942228
 31
0.0
  0
LINE
  5
8285
  8
0
  6
BYBLOCK
 62
     0
 10
3867.376171959776
 20
3309.7337041942228
 30
0.0
 11
4008.376171959776
 21
3309.7337041942228
 31
0.0
  0
TEXT
  5
8286
  8
3
 62
     0
 10
3857.5190291026329
 20
3338.1420926371502
 30
0.0
 40
75.0
  1
241
  0
INSERT
  5
8287
  8
0
  6
BYBLOCK
 62
     0
  2
_OPEN
 10
3817.376171959776
 20
3309.7337041942228
 30
0.0
 41
50.0
 42
50.0
 43
50.0
 50
180.0
  0
INSERT
  5
8288
  8
0
  6
BYBLOCK
 62
     0
  2
_OPEN
 10
4058.376171959776
 20
3309.7337041942228
 30
0.0
 41
50.0
 42
50.0
 43
50.0
  0
POINT
  5
8289
  8
DEFPOINTS
  6
BYBLOCK
 62
     0
 10
3817.376171959776
 20
3234.6102601231892
 30
0.0
  0
POINT
  5
828A
  8
DEFPOINTS
  6
BYBLOCK
 62
     0
 10
4058.376171959776
 20
2961.1999787087038
 30
0.0
  0
POINT
  5
828B
  8
DEFPOINTS
  6
BYBLOCK
 62
     0
 10
4058.376171959776
 20
3309.7337041942228
 30
0.0
  0
ENDBLK
  5
828C
  8
0
  0
BLOCK
  8
0
  2
*D18
 70
     1
 10
0.0
 20
0.0
 30
0.0
  3
*D18
  1

  0
LINE
  5
83BD
  8
3
 62
     0
 10
603.63670297049327
 20
1909.652756331079
 30
0.0
 11
603.63670297049327
 21
1714.2641502274271
 31
0.0
  0
LINE
  5
83BE
  8
3
 62
     0
 10
1283.6367029704929
 20
1909.6527563310799
 30
0.0
 11
1283.6367029704929
 21
1714.2641502274271
 31
0.0
  0
LINE
  5
83BF
  8
3
 62
     0
 10
653.63670297049327
 20
1739.2641502274271
 30
0.0
 11
1233.6367029704929
 21
1739.2641502274271
 31
0.0
  0
INSERT
  5
83C0
  8
3
 62
     0
  2
_OPEN
 10
603.63670297049327
 20
1739.2641502274271
 30
0.0
 41
50.0
 42
50.0
 43
50.0
 50
180.0
  0
INSERT
  5
83C1
  8
3
 62
     0
  2
_OPEN
 10
1283.6367029704929
 20
1739.2641502274271
 30
0.0
 41
50.0
 42
50.0
 43
50.0
  0
TEXT
  8
3
  40
75
  5
83F9
  62
0
  72
0
  71
0
 10
793.637
 20
1669.01
 30
0.000000
  1
680
  0
POINT
  5
83C3
  8
DEFPOINTS
 62
     0
 10
603.63670297049327
 20
1922.152756331079
 30
0.0
  0
POINT
  5
83C4
  8
DEFPOINTS
 62
     0
 10
1283.6367029704929
 20
1922.1527563310799
 30
0.0
  0
POINT
  5
83C5
  8
DEFPOINTS
 62
     0
 10
1283.6367029704929
 20
1739.2641502274271
 30
0.0
  0
ENDBLK
  5
82D4
  8
0
  0
BLOCK
  8
0
  2
*D19
 70
     1
 10
0.0
 20
0.0
 30
0.0
  3
*D19
  1

  0
LINE
  5
83C6
  8
3
 62
     0
 10
1283.6367029704929
 20
1909.6527563310799
 30
0.0
 11
1283.6367029704929
 21
1714.2641502274271
 31
0.0
  0
LINE
  5
83C7
  8
3
 62
     0
 10
1683.6367029704929
 20
1909.652756331079
 30
0.0
 11
1683.6367029704929
 21
1714.2641502274271
 31
0.0
  0
LINE
  5
83C8
  8
3
 62
     0
 10
1333.6367029704929
 20
1739.2641502274271
 30
0.0
 11
1633.6367029704929
 21
1739.2641502274271
 31
0.0
  0
INSERT
  5
83C9
  8
3
 62
     0
  2
_OPEN
 10
1283.6367029704929
 20
1739.2641502274271
 30
0.0
 41
50.0
 42
50.0
 43
50.0
 50
180.0
  0
INSERT
  5
83CA
  8
3
 62
     0
  2
_OPEN
 10
1683.6367029704929
 20
1739.2641502274271
 30
0.0
 41
50.0
 42
50.0
 43
50.0
  0
TEXT
  8
3
  40
75
  5
83FA
  62
0
  72
0
  71
0
 10
1333.64
 20
1669.01
 30
0.000000
  1
400
  0
POINT
  5
83CC
  8
DEFPOINTS
 62
     0
 10
1283.6367029704929
 20
1922.1527563310799
 30
0.0
  0
POINT
  5
83CD
  8
DEFPOINTS
 62
     0
 10
1683.6367029704929
 20
1922.152756331079
 30
0.0
  0
POINT
  5
83CE
  8
DEFPOINTS
 62
     0
 10
1683.6367029704929
 20
1739.2641502274271
 30
0.0
  0
ENDBLK
  5
82E1
  8
0
  0
BLOCK
  8
0
  2
*D20
 70
     1
 10
0.0
 20
0.0
 30
0.0
  3
*D20
  1

  0
LINE
  5
83CF
  8
3
 62
     0
 10
2910.3761719597751
 20
1909.652756331079
 30
0.0
 11
2910.3761719597751
 21
1714.2641502274271
 31
0.0
  0
LINE
  5
83D0
  8
3
 62
     0
 10
3817.3761719597751
 20
1909.652756331079
 30
0.0
 11
3817.3761719597751
 21
1714.2641502274271
 31
0.0
  0
LINE
  5
83D1
  8
3
 62
     0
 10
2960.376171959776
 20
1739.2641502274271
 30
0.0
 11
3767.3761719597751
 21
1739.2641502274271
 31
0.0
  0
INSERT
  5
83D2
  8
3
 62
     0
  2
_OPEN
 10
2910.3761719597751
 20
1739.2641502274271
 30
0.0
 41
50.0
 42
50.0
 43
50.0
 50
180.0
  0
INSERT
  5
83D3
  8
3
 62
     0
  2
_OPEN
 10
3817.3761719597751
 20
1739.2641502274271
 30
0.0
 41
50.0
 42
50.0
 43
50.0
  0
TEXT
  8
3
  40
75
  5
83FB
  62
0
  72
0
  71
0
 10
3213.88
 20
1669.01
 30
0.000000
  1
907
  0
POINT
  5
83D5
  8
DEFPOINTS
 62
     0
 10
2910.3761719597751
 20
1922.152756331079
 30
0.0
  0
POINT
  5
83D6
  8
DEFPOINTS
 62
     0
 10
3817.3761719597751
 20
1922.152756331079
 30
0.0
  0
POINT
  5
83D7
  8
DEFPOINTS
 62
     0
 10
3817.3761719597751
 20
1739.2641502274271
 30
0.0
  0
ENDBLK
  5
82EE
  8
0
  0
BLOCK
  8
0
  2
*D21
 70
     1
 10
0.0
 20
0.0
 30
0.0
  3
*D21
  1

  0
LINE
  5
83D8
  8
3
 62
     0
 10
3817.3761719597751
 20
1909.652756331079
 30
0.0
 11
3817.3761719597751
 21
1714.2641502274271
 31
0.0
  0
LINE
  5
83D9
  8
3
 62
     0
 10
4110.376171959776
 20
1909.652756331079
 30
0.0
 11
4110.376171959776
 21
1714.2641502274271
 31
0.0
  0
LINE
  5
83DA
  8
3
 62
     0
 10
3867.3761719597751
 20
1739.2641502274271
 30
0.0
 11
4060.376171959776
 21
1739.2641502274271
 31
0.0
  0
INSERT
  5
83DB
  8
3
 62
     0
  2
_OPEN
 10
3817.3761719597751
 20
1739.2641502274271
 30
0.0
 41
50.0
 42
50.0
 43
50.0
 50
180.0
  0
INSERT
  5
83DC
  8
3
 62
     0
  2
_OPEN
 10
4110.376171959776
 20
1739.2641502274271
 30
0.0
 41
50.0
 42
50.0
 43
50.0
  0
TEXT
  8
3
  40
75
  5
83FC
  62
0
  72
0
  71
0
 10
3813.88
 20
1669.01
 30
0.000000
  1
293
  0
POINT
  5
83DE
  8
DEFPOINTS
 62
     0
 10
3817.3761719597751
 20
1922.152756331079
 30
0.0
  0
POINT
  5
83DF
  8
DEFPOINTS
 62
     0
 10
4110.376171959776
 20
1922.152756331079
 30
0.0
  0
POINT
  5
83E0
  8
DEFPOINTS
 62
     0
 10
4110.376171959776
 20
1739.2641502274271
 30
0.0
  0
ENDBLK
  5
82FD
  8
0
  0
BLOCK
  8
0
  2
*D22
 70
     1
 10
0.0
 20
0.0
 30
0.0
  3
*D22
  1

  0
LINE
  5
83E1
  8
3
 62
     0
 10
1310.6367029704929
 20
2962.1527563310792
 30
0.0
 11
2097.2749954590431
 21
2962.1527563310792
 31
0.0
  0
LINE
  5
83E2
  8
3
 62
     0
 10
1696.1367029704929
 20
1922.152756331079
 30
0.0
 11
2097.2749954590431
 21
1922.152756331079
 31
0.0
  0
LINE
  5
83E3
  8
3
 62
     0
 10
2072.2749954590431
 20
2912.1527563310792
 30
0.0
 11
2072.2749954590431
 21
1972.152756331079
 31
0.0
  0
INSERT
  5
83E4
  8
3
 62
     0
  2
_OPEN
 10
2072.2749954590431
 20
2962.1527563310792
 30
0.0
 41
50.0
 42
50.0
 43
50.0
 50
90.0
  0
INSERT
  5
83E5
  8
3
 62
     0
  2
_OPEN
 10
2072.2749954590431
 20
1922.152756331079
 30
0.0
 41
50.0
 42
50.0
 43
50.0
 50
270.0
  0
TEXT
  8
3
  40
75
  5
83FD
  62
0
  72
0
  71
0
 10
1859.77
 20
2309.40
 30
0.000000
  1
1040
  0
POINT
  5
83E7
  8
DEFPOINTS
 62
     0
 10
1298.1367029704929
 20
2962.1527563310792
 30
0.0
  0
POINT
  5
83E8
  8
DEFPOINTS
 62
     0
 10
1683.6367029704929
 20
1922.152756331079
 30
0.0
  0
POINT
  5
83E9
  8
DEFPOINTS
 62
     0
 10
2072.2749954590431
 20
1922.152756331079
 30
0.0
  0
ENDBLK
  5
830A
  8
0
  0
ENDSEC
  0
SECTION
  2
ENTITIES
  0
DIMENSION
  5
7BDE
  8
3
  2
*D0
 10
563.63670297049339
 20
3410.0983113989842
 30
0.0
 11
1149.5319715703599
 21
3472.5983113989842
 31
0.0
 70
     0
  1
1174
 13
1735.4272401702281
 23
3281.649547902005
 33
0.0
 14
563.63670297049339
 24
2962.1527563310792
 34
0.0
1001
ACAD
1000
DSTYLE
1002
{
1070
   287
1070
     3
1070
    40
1040
25.0
1070
   143
1040
0.039
1070
   172
1070
     1
1070
   271
1070
     0
1070
   279
1070
     0
1070
   288
1070
     1
1002
}
  0
LINE
  5
7BDF
  8
1
 10
1353.465836971614
 20
2369.3977487243851
 30
0.0
 11
853.46583697161441
 21
2106.3977487243851
 31
0.0
  0
LINE
  5
7BE0
  8
1
 10
1320.413380211083
 20
2432.2351189915539
 30
0.0
 11
820.41338021108356
 21
2169.235118991553
 31
0.0
  0
LINE
  5
7BE1
  8
1
 10
1246.8600257299031
 20
2572.070393670605
 30
0.0
 11
746.8600257299031
 21
2309.070393670605
 31
0.0
  0
LINE
  5
7BE2
  8
1
 10
1213.8075689693719
 20
2634.9077639377738
 30
0.0
 11
713.80756896937237
 21
2371.9077639377729
 31
0.0
  0
DIMENSION
  5
7BE4
  8
3
  2
*D1
 10
1283.6367029704929
 20
3262.6299044096158
 30
0.0
 11
944.63670297049339
 21
3325.1299044096158
 31
0.0
 70
     0
 13
605.63670297049339
 23
2962.1527563310792
 33
0.0
 14
1283.6367029704929
 24
3015.7953168885829
 34
0.0
 50
180.0
1001
ACAD
1000
DSTYLE
1002
{
1070
   287
1070
     3
1070
    40
1040
25.0
1070
   143
1040
0.039
1070
   172
1070
     1
1070
   271
1070
     0
1070
   279
1070
     0
1070
   288
1070
     1
1002
}
  0
DIMENSION
  5
7BE5
  8
3
  2
*D2
 10
1255.6367029704929
 20
3111.1022804972999
 30
0.0
 11
930.63670297049327
 21
3173.6022804972999
 31
0.0
 70
     0
 13
605.63670297049339
 23
2962.1527563310792
 33
0.0
 14
1255.6367029704929
 24
2962.1527563310792
 34
0.0
 50
180.0
1001
ACAD
1000
DSTYLE
1002
{
1070
   287
1070
     3
1070
    40
1040
25.0
1070
   143
1040
0.039
1070
   172
1070
     1
1070
   271
1070
     0
1070
   279
1070
     0
1070
   288
1070
     1
1002
}
  0
LINE
  5
7BE9
  8
1
 10
1113.6367029704929
 20
2442.1527563310792
 30
0.0
 11
1453.6367029704929
 21
2442.1527563310792
 31
0.0
  0
LINE
  5
7BEA
  8
1
 10
583.63670297049327
 20
2022.152756331079
 30
0.0
 11
1683.6367029704929
 21
2022.152756331079
 31
0.0
  0
LINE
  5
7BEB
  8
1
 10
603.63670297049327
 20
1922.152756331079
 30
0.0
 11
1683.6367029704929
 21
1922.152756331079
 31
0.0
1001
ACAD
1000
ASC_BOUNDS
1002
{
1070
    19
1002
}
  0
LINE
  5
7BEC
  8
1
 10
563.63670297049339
 20
2959.1527563310792
 30
0.0
 11
1298.1367029704929
 21
2959.1527563310792
 31
0.0
  0
LINE
  5
7BED
  8
1
 10
608.92880795052042
 20
2922.1527563310801
 30
0.0
 11
1255.6367029704929
 21
2922.1527563310801
 31
0.0
  0
LINE
  5
7BEE
  8
1
 10
563.63670297049339
 20
2962.1527563310792
 30
0.0
 11
1298.1367029704929
 21
2962.1527563310792
 31
0.0
  0
LINE
  5
7BEF
  8
2
 10
678.15681707915235
 20
2502.1527563310801
 30
0.0
 11
1797.2792635279959
 21
2502.1527563310801
 31
0.0
  0
ARC
  5
7BF0
  8
1
 10
783.63670297049327
 20
2239.1527563310792
 30
0.0
 40
150.0
 50
117.74437016948249
 51
297.74437016948252
  0
CIRCLE
  5
7BF1
  8
1
 10
783.63670297049327
 20
2239.1527563310792
 30
0.0
 40
79.0
  0
LINE
  5
7BF2
  8
2
 10
783.63670297049327
 20
2393.351808851387
 30
0.0
 11
783.63670297049316
 21
1922.152756331079
 31
0.0
  0
ARC
  5
7BF3
  8
1
 10
783.63670297049327
 20
2239.1527563310792
 30
0.0
 40
142.5
 50
0.0
 51
213.03386838236159
  0
ARC
  5
7BF4
  8
1
 10
783.63670297049327
 20
2239.1527563310792
 30
0.0
 40
142.5
 50
326.96619232801208
 51
0.0
  0
LINE
  5
7BF6
  8
1
 10
620.48253343501426
 20
2107.1527563310801
 30
0.0
 11
946.60361645385092
 21
2107.1527563310801
 31
0.0
  0
LINE
  5
7BF8
  8
1
 10
664.17204496157035
 20
2161.471062948332
 30
0.0
 11
653.63670297049327
 21
2122.1527563310801
 31
0.0
  0
LINE
  5
7BF9
  8
1
 10
608.63670297049327
 20
2062.1527563310792
 30
0.0
 11
620.48253343501426
 21
2107.1527563310801
 31
0.0
  0
LINE
  5
7BFA
  8
1
 10
603.63670297049327
 20
2022.152756331079
 30
0.0
 11
603.63670297049327
 21
1922.152756331079
 31
0.0
  0
LINE
  5
7BFB
  8
1
 10
583.63670297049327
 20
2062.1527563310792
 30
0.0
 11
583.63670297049327
 21
2022.152756331079
 31
0.0
  0
LINE
  5
7BFC
  8
1
 10
583.63670297049327
 20
2062.1527563310792
 30
0.0
 11
608.63670297049327
 21
2062.1527563310792
 31
0.0
  0
LINE
  5
7BFD
  8
1
 10
653.63670297049327
 20
2121.9553563310801
 30
0.0
 11
653.63670297049327
 21
2107.1527563310801
 31
0.0
  0
LINE
  5
7BFE
  8
1
 10
958.63670297049339
 20
2062.1527563310792
 30
0.0
 11
983.63670297049339
 21
2062.1527563310792
 31
0.0
  0
LINE
  5
7BFF
  8
1
 10
958.63670297049339
 20
2062.1527563310792
 30
0.0
 11
946.60361645385092
 21
2107.1527563310801
 31
0.0
  0
LINE
  5
7C00
  8
1
 10
903.1014432905539
 20
2161.4711895326391
 30
0.0
 11
913.63670297049327
 21
2122.1527563310801
 31
0.0
  0
LINE
  5
7C01
  8
1
 10
913.63670297049327
 20
2121.9553563310801
 30
0.0
 11
913.63670297049327
 21
2107.1527563310801
 31
0.0
  0
LINE
  5
7C02
  8
1
 10
983.63670297049339
 20
2062.1527563310792
 30
0.0
 11
983.63670297049339
 21
2022.152756331079
 31
0.0
  0
LINE
  5
7C03
  8
1
 10
605.63670297049339
 20
2962.1527563310792
 30
0.0
 11
643.49591024080746
 21
2502.1527563310801
 31
0.0
  0
LINE
  5
7C04
  8
2
 10
618.09992770854376
 20
2239.1527563310792
 30
0.0
 11
949.21773044404381
 21
2239.1527563310792
 31
0.0
  0
ARC
  5
7C05
  8
1
 10
1236.6367029704929
 20
2549.1527563310792
 30
0.0
 40
595.0
 50
184.53060504268259
 51
200.8345162364337
  0
LINE
  5
7C06
  8
1
 10
563.63670297049339
 20
2959.1527563310792
 30
0.0
 11
563.63670297049339
 21
2962.1527563310792
 31
0.0
  0
DIMENSION
  5
7C08
  8
3
  2
*D3
 10
1885.4246300857999
 20
1922.152756331079
 30
0.0
 11
1822.9246300857999
 21
2212.1527563310801
 31
0.0
 70
     0
 13
1797.2792635279959
 23
2502.1527563310801
 33
0.0
 14
1683.6367029704929
 24
1922.152756331079
 34
0.0
 50
270.0
1001
ACAD
1000
DSTYLE
1002
{
1070
   287
1070
     3
1070
    40
1040
25.0
1070
   143
1040
0.039
1070
   172
1070
     1
1070
   271
1070
     0
1070
   279
1070
     0
1070
   288
1070
     1
1002
}
  0
ARC
  5
7C09
  8
1
 10
1236.6367029704929
 20
2455.1527563310792
 30
0.0
 40
501.0
 50
305.65858831302347
 51
5.382968649881315
  0
LINE
  5
7C0B
  8
2
 10
1283.6367029704929
 20
3015.7953168885829
 30
0.0
 11
1283.6367029704929
 21
1922.1527563310799
 31
0.0
  0
LINE
  5
7C17
  8
1
 10
1533.6367029704929
 20
2022.152756331079
 30
0.0
 11
1533.6367029704929
 21
1922.152756331079
 31
0.0
  0
DIMENSION
  5
7C29
  8
3
  2
*D4
 10
1283.6367029704929
 20
3261.649547902005
 30
0.0
 11
1509.5319715703611
 21
3324.149547902005
 31
0.0
 70
     0
  1
454
 13
1735.4272401702281
 23
2502.1527563310801
 33
0.0
 14
1283.6367029704929
 24
3015.7953168885829
 34
0.0
1001
ACAD
1000
DSTYLE
1002
{
1070
   287
1070
     3
1070
    40
1040
25.0
1070
   143
1040
0.039
1070
   172
1070
     1
1070
   271
1070
     0
1070
   279
1070
     0
1070
   288
1070
     1
1002
}
  0
DIMENSION
  5
7C2A
  8
3
  2
*D5
 10
1885.4246300857999
 20
2502.1527563310801
 30
0.0
 11
1822.9246300857999
 21
2732.1527563310801
 31
0.0
 70
     0
 13
1298.1367029704929
 23
2962.1527563310792
 33
0.0
 14
1797.2792635279959
 24
2502.1527563310801
 34
0.0
 50
270.0
1001
ACAD
1000
DSTYLE
1002
{
1070
   287
1070
     3
1070
    40
1040
25.0
1070
   143
1040
0.039
1070
   172
1070
     1
1070
   271
1070
     0
1070
   279
1070
     0
1070
   288
1070
     1
1002
}
  0
ARC
  5
7C2B
  8
1
 10
1321.6367029704929
 20
2464.1527563310792
 30
0.0
 40
416.0
 50
5.2410550612967208
 51
95.241055061296706
  0
ARC
  5
7C2C
  8
1
 10
1283.6367029704929
 20
2502.1527563310801
 30
0.0
 40
150.0
 50
297.74437016948252
 51
117.74437016948249
  0
CIRCLE
  5
7C2D
  8
1
 10
1283.6367029704929
 20
2502.1527563310801
 30
0.0
 40
79.0
  0
ARC
  5
7C2E
  8
1
 10
1321.6367029704929
 20
2540.1527563310792
 30
0.0
 40
340.0
 50
96.417053143028681
 51
101.1931836056838
  0
LINE
  5
7C2F
  8
1
 10
1255.6367029704929
 20
2873.685363432694
 30
0.0
 11
1255.6367029704929
 21
2962.1527563310792
 31
0.0
  0
LINE
  5
7C30
  8
1
 10
1298.1367029704929
 20
2959.1527563310792
 30
0.0
 11
1298.1367029704929
 21
2962.1527563310792
 31
0.0
  0
LINE
  5
7C31
  8
1
 10
1255.6367029704929
 20
5280.3692449772843
 30
0.0
 11
605.63670297049339
 21
4805.3692449772852
 31
0.0
  0
LINE
  5
7C32
  8
1
 10
605.63670297049339
 20
5280.3692449772843
 30
0.0
 11
1255.6367029704929
 21
4805.3692449772852
 31
0.0
  0
LINE
  5
7C33
  8
1
 10
1258.6367029704929
 20
4157.8692449772843
 30
0.0
 11
802.63670297049339
 21
4157.8692449772852
 31
0.0
  0
DIMENSION
  5
7C34
  8
3
  2
*D6
 10
603.63670297049327
 20
3846.9885686912512
 30
0.0
 11
1068.6367029704929
 21
3909.4885686912512
 31
0.0
 70
     0
 13
1533.6367029704929
 23
4138.8692449772852
 33
0.0
 14
603.63670297049327
 24
4138.8692449772852
 34
0.0
1001
ACAD
1000
DSTYLE
1002
{
1070
   287
1070
     3
1070
    40
1040
25.0
1070
   143
1040
0.039
1070
   172
1070
     1
1070
   271
1070
     0
1070
   279
1070
     0
1070
   288
1070
     1
1002
}
  0
DIMENSION
  5
7C35
  8
3
  2
*D7
 10
1683.6367029704929
 20
5484.4431315810361
 30
0.0
 11
1283.6367029704929
 21
5546.9431315810361
 31
0.0
 70
     0
 13
883.63670297049339
 23
5338.8692449772852
 33
0.0
 14
1683.6367029704929
 24
5338.8692449772852
 34
0.0
1001
ACAD
1000
DSTYLE
1002
{
1070
   287
1070
     3
1070
    40
1040
25.0
1070
   143
1040
0.039
1070
   172
1070
     1
1070
   271
1070
     0
1070
   279
1070
     0
1070
   288
1070
     1
1002
}
  0
LINE
  5
7C36
  8
1
 10
802.63670297049339
 20
4138.8692449772852
 30
0.0
 11
1258.6367029704929
 21
4138.8692449772852
 31
0.0
  0
LINE
  5
7C37
  8
1
 10
1433.6367029704941
 20
3997.8692449772848
 30
0.0
 11
633.63670297049327
 21
3997.8692449772848
 31
0.0
  0
LINE
  5
7C38
  8
1
 10
704.63670297049327
 20
4040.8692449772839
 30
0.0
 11
1362.6367029704929
 21
4040.8692449772848
 31
0.0
  0
LINE
  5
7C39
  8
1
 10
704.63670297049327
 20
4122.8692449772843
 30
0.0
 11
1362.6367029704929
 21
4122.8692449772843
 31
0.0
  0
LINE
  5
7C3A
  8
1
 10
1113.6367029704929
 20
4717.8692449772852
 30
0.0
 11
1258.6367029704929
 21
4717.8692449772843
 31
0.0
  0
LINE
  5
7C3B
  8
1
 10
1113.6367029704929
 20
4177.8692449772843
 30
0.0
 11
1258.6367029704929
 21
4177.8692449772843
 31
0.0
  0
LINE
  5
7C3C
  8
1
 10
605.63670297049339
 20
4805.3692449772852
 30
0.0
 11
1735.4272401702281
 21
4805.3692449772852
 31
0.0
  0
LINE
  5
7C3D
  8
1
 10
605.63670297049339
 20
5280.3692449772843
 30
0.0
 11
1735.4272401702281
 21
5280.3692449772843
 31
0.0
  0
LINE
  5
7C3E
  8
2
 10
566.73775566533448
 20
5042.8692449772852
 30
0.0
 11
1782.980611414813
 21
5042.8692449772861
 31
0.0
  0
LINE
  5
7C3F
  8
1
 10
883.63670297049339
 20
5338.8692449772852
 30
0.0
 11
1683.6367029704929
 21
5338.8692449772852
 31
0.0
  0
DIMENSION
  5
7C40
  8
3
  2
*D8
 10
455.20753135905119
 20
4802.8692449772843
 30
0.0
 11
392.70753135905039
 21
4470.8692449772852
 31
0.0
 70
     0
 13
603.63670297049327
 23
4138.8692449772852
 33
0.0
 14
603.63670297049327
 24
4802.8692449772843
 34
0.0
 50
90.0
1001
ACAD
1000
DSTYLE
1002
{
1070
   287
1070
     3
1070
    40
1040
25.0
1070
   143
1040
0.039
1070
   172
1070
     1
1070
   271
1070
     0
1070
   279
1070
     0
1070
   288
1070
     1
1002
}
  0
LINE
  5
7C41
  8
1
 10
603.63670297049327
 20
4802.8692449772843
 30
0.0
 11
603.63670297049327
 21
4500.8692449772843
 31
0.0
  0
LINE
  5
7C42
  8
1
 10
603.63670297049327
 20
4160.8692449772843
 30
0.0
 11
603.63670297049327
 21
4138.8692449772852
 31
0.0
  0
LINE
  5
7C43
  8
1
 10
764.63670297049339
 20
4169.8692449772843
 30
0.0
 11
764.63670297049339
 21
4122.8692449772843
 31
0.0
  0
LINE
  5
7C44
  8
1
 10
802.63670297049339
 20
4169.8692449772843
 30
0.0
 11
802.63670297049339
 21
4122.8692449772843
 31
0.0
  0
LINE
  5
7C45
  8
1
 10
633.63670297049327
 20
4157.8692449772843
 30
0.0
 11
633.63670297049327
 21
3997.8692449772848
 31
0.0
  0
LINE
  5
7C46
  8
2
 10
783.63670297049327
 20
4615.6536820183601
 30
0.0
 11
783.63670297049327
 21
3990.4354784170541
 31
0.0
  0
LINE
  5
7C47
  8
1
 10
603.63670297049327
 20
4138.8692449772852
 30
0.0
 11
764.63670297049339
 21
4138.8692449772852
 31
0.0
  0
LINE
  5
7C48
  8
1
 10
704.63670297049327
 20
4122.8692449772843
 30
0.0
 11
704.63670297049327
 21
4040.8692449772848
 31
0.0
  0
LINE
  5
7C49
  8
1
 10
862.63670297049327
 20
4122.8692449772843
 30
0.0
 11
862.63670297049327
 21
4040.8692449772848
 31
0.0
  0
LINE
  5
7C4A
  8
1
 10
802.63670297049339
 20
4160.8692449772852
 30
0.0
 11
983.63670297049339
 21
4160.8692449772843
 31
0.0
  0
LINE
  5
7C4B
  8
1
 10
641.13670297049327
 20
4169.8692449772843
 30
0.0
 11
926.13670297049327
 21
4169.8692449772843
 31
0.0
  0
LINE
  5
7C4C
  8
1
 10
641.13670297049327
 20
4559.8692449772852
 30
0.0
 11
926.13670297049327
 21
4559.8692449772852
 31
0.0
  0
LINE
  5
7C4D
  8
1
 10
583.63670297049327
 20
4500.8692449772843
 30
0.0
 11
583.63670297049327
 21
4440.8692449772843
 31
0.0
  0
LINE
  5
7C4E
  8
1
 10
641.13670297049327
 20
4559.8692449772861
 30
0.0
 11
641.13670297049327
 21
4169.8692449772843
 31
0.0
  0
LINE
  5
7C4F
  8
1
 10
764.63670297049339
 20
4157.8692449772852
 30
0.0
 11
633.63670297049327
 21
4157.8692449772843
 31
0.0
  0
LINE
  5
7C50
  8
1
 10
583.63670297049327
 20
4160.8692449772843
 30
0.0
 11
764.63670297049339
 21
4160.8692449772852
 31
0.0
  0
LINE
  5
7C51
  8
1
 10
603.63670297049327
 20
4440.8692449772843
 30
0.0
 11
603.63670297049327
 21
4220.8692449772852
 31
0.0
  0
LINE
  5
7C52
  8
1
 10
583.63670297049327
 20
4220.8692449772852
 30
0.0
 11
641.13670297049327
 21
4220.8692449772852
 31
0.0
  0
LINE
  5
7C53
  8
1
 10
583.63670297049327
 20
4220.8692449772852
 30
0.0
 11
583.63670297049327
 21
4160.8692449772843
 31
0.0
  0
LINE
  5
7C54
  8
1
 10
583.63670297049327
 20
4440.8692449772843
 30
0.0
 11
641.13670297049327
 21
4440.8692449772843
 31
0.0
  0
LINE
  5
7C55
  8
1
 10
583.63670297049327
 20
4500.8692449772843
 30
0.0
 11
641.13670297049327
 21
4500.8692449772843
 31
0.0
  0
LINE
  5
7C56
  8
1
 10
983.63670297049339
 20
4500.8692449772843
 30
0.0
 11
983.63670297049339
 21
4440.8692449772843
 31
0.0
  0
LINE
  5
7C57
  8
1
 10
926.13670297049327
 20
4559.8692449772852
 30
0.0
 11
926.13670297049327
 21
4169.8692449772843
 31
0.0
  0
LINE
  5
7C59
  8
1
 10
926.13670297049327
 20
4220.8692449772852
 30
0.0
 11
983.63670297049339
 21
4220.8692449772852
 31
0.0
  0
LINE
  5
7C5A
  8
1
 10
926.13670297049327
 20
4440.8692449772843
 30
0.0
 11
983.63670297049339
 21
4440.8692449772843
 31
0.0
  0
LINE
  5
7C5B
  8
1
 10
983.63670297049339
 20
4220.8692449772852
 30
0.0
 11
983.63670297049339
 21
4160.8692449772843
 31
0.0
  0
LINE
  5
7C5C
  8
1
 10
926.13670297049327
 20
4500.8692449772852
 30
0.0
 11
983.63670297049339
 21
4500.8692449772852
 31
0.0
  0
DIMENSION
  5
7C5D
  8
3
  2
*D9
 10
603.63670297049327
 20
5484.4431315810361
 30
0.0
 11
743.63670297049339
 21
5584.4431315810361
 31
0.0
 70
     0
 13
883.63670297049339
 23
5338.8692449772852
 33
0.0
 14
603.63670297049327
 24
4802.8692449772843
 34
0.0
1001
ACAD
1000
DSTYLE
1002
{
1070
   288
1070
     1
1070
   172
1070
     1
1070
    40
1040
25.0
1070
   271
1070
     0
1070
   143
1040
0.039
1002
}
  0
LINE
  5
7C5E
  8
1
 10
603.63670297049327
 20
4802.8692449772843
 30
0.0
 11
883.63670297049339
 21
4802.8692449772843
 31
0.0
  0
LINE
  5
7C5F
  8
1
 10
605.63670297049339
 20
4805.3692449772852
 30
0.0
 11
605.63670297049339
 21
5280.3692449772843
 31
0.0
  0
LINE
  5
7C60
  8
1
 10
883.63670297049339
 20
4805.3692449772852
 30
0.0
 11
883.63670297049339
 21
4802.8692449772843
 31
0.0
  0
LINE
  5
7C61
  8
1
 10
883.63670297049339
 20
5338.8692449772852
 30
0.0
 11
883.63670297049339
 21
5280.3692449772843
 31
0.0
  0
DIMENSION
  5
7C62
  8
3
  2
*D10
 10
1893.0905058312169
 20
4138.8692449772852
 30
0.0
 11
1830.590505831216
 21
4738.8692449772843
 31
0.0
 70
     0
 13
1683.6367029704929
 23
5338.8692449772852
 33
0.0
 14
1533.6367029704929
 24
4138.8692449772852
 34
0.0
 50
90.0
1001
ACAD
1000
DSTYLE
1002
{
1070
   287
1070
     3
1070
    40
1040
25.0
1070
   143
1040
0.039
1070
   172
1070
     1
1070
   271
1070
     0
1070
   279
1070
     0
1070
   288
1070
     1
1002
}
  0
LINE
  5
7C63
  8
1
 10
1258.6367029704929
 20
4122.8692449772843
 30
0.0
 11
1258.6367029704929
 21
4805.3692449772852
 31
0.0
  0
LINE
  5
7C64
  8
1
 10
1308.6367029704929
 20
4122.8692449772843
 30
0.0
 11
1308.6367029704929
 21
4805.3692449772852
 31
0.0
  0
LINE
  5
7C65
  8
1
 10
1683.6367029704929
 20
4805.3692449772852
 30
0.0
 11
1683.6367029704929
 21
4752.8692449772861
 31
0.0
  0
LINE
  5
7C66
  8
2
 10
1283.6367029704929
 20
5310.9288441720673
 30
0.0
 11
1283.6367029704929
 21
3990.4354784170541
 31
0.0
  0
DIMENSION
  5
7C67
  8
3
  2
*D11
 10
1683.6367029704929
 20
3846.9885686912512
 30
0.0
 11
1847.9224172562069
 21
3909.4885686912512
 31
0.0
 70
     0
 13
1533.6367029704929
 23
4138.8692449772852
 33
0.0
 14
1683.6367029704929
 24
4752.8692449772843
 34
0.0
1001
ACAD
1000
DSTYLE
1002
{
1070
   287
1070
     3
1070
    40
1040
25.0
1070
   143
1040
0.039
1070
   172
1070
     1
1070
   271
1070
     0
1070
   279
1070
     0
1070
   288
1070
     1
1002
}
  0
LINE
  5
7C68
  8
1
 10
1433.6367029704929
 20
3997.8692449772848
 30
0.0
 11
1433.6367029704929
 21
4157.8692449772843
 31
0.0
  0
LINE
  5
7C69
  8
1
 10
1533.6367029704929
 20
4752.8692449772843
 30
0.0
 11
1533.6367029704929
 21
4138.8692449772852
 31
0.0
  0
LINE
  5
7C6A
  8
1
 10
1308.6367029704929
 20
4138.8692449772852
 30
0.0
 11
1533.6367029704929
 21
4138.8692449772852
 31
0.0
  0
LINE
  5
7C6B
  8
1
 10
1204.6367029704929
 20
4040.8692449772848
 30
0.0
 11
1204.6367029704929
 21
4122.8692449772843
 31
0.0
  0
LINE
  5
7C6C
  8
1
 10
1362.6367029704929
 20
4040.8692449772848
 30
0.0
 11
1362.6367029704929
 21
4122.8692449772843
 31
0.0
  0
POINT
  5
7C6D
  8
1
 10
1533.6367029704929
 20
4138.8692449772852
 30
0.0
  0
LINE
  5
7C6E
  8
1
 10
1308.6367029704929
 20
4717.8692449772843
 30
0.0
 11
1453.6367029704929
 21
4717.8692449772852
 31
0.0
  0
LINE
  5
7C6F
  8
1
 10
1308.6367029704929
 20
4177.8692449772843
 30
0.0
 11
1453.6367029704929
 21
4177.8692449772843
 31
0.0
  0
LINE
  5
7C70
  8
1
 10
1433.6367029704929
 20
4157.8692449772843
 30
0.0
 11
1308.6367029704929
 21
4157.8692449772843
 31
0.0
  0
LINE
  5
7C72
  8
1
 10
1533.6367029704929
 20
4752.8692449772843
 30
0.0
 11
1683.6367029704929
 21
4752.8692449772843
 31
0.0
  0
POINT
  5
7C73
  8
1
 10
1683.6367029704929
 20
4752.8692449772843
 30
0.0
  0
LINE
  5
7C74
  8
1
 10
1255.6367029704929
 20
4805.3692449772852
 30
0.0
 11
1255.6367029704929
 21
5280.3692449772843
 31
0.0
  0
LINE
  5
7C75
  8
1
 10
1683.6367029704929
 20
5338.8692449772852
 30
0.0
 11
1683.6367029704929
 21
5280.3692449772843
 31
0.0
  0
LINE
  5
7C76
  8
1
 10
1735.4272401702281
 20
4805.3692449772852
 30
0.0
 11
1735.4272401702281
 21
5280.3692449772843
 31
0.0
  0
DIMENSION
  5
7C77
  8
3
  2
*D12
 10
3817.376171959776
 20
3309.7337041942228
 30
0.0
 11
3294.876171959776
 21
3434.7337041942228
 31
0.0
 70
     0
  1
MAX\P1070
 13
2772.376171959776
 23
2652.1527563310801
 33
0.0
 14
3817.376171959776
 24
3234.6102601231892
 34
0.0
1001
ACAD
1000
DSTYLE
1002
{
1070
   287
1070
     3
1070
    40
1040
25.0
1070
   143
1040
0.039
1070
   172
1070
     1
1070
   271
1070
     0
1070
   279
1070
     0
1070
   288
1070
     1
1002
}
  0
LINE
  5
7C78
  8
1
 10
3537.376171959776
 20
2959.1527563310792
 30
0.0
 11
4097.376171959776
 21
2959.1527563310792
 31
0.0
  0
LINE
  5
7C79
  8
1
 10
3537.376171959776
 20
2962.1527563310792
 30
0.0
 11
4097.376171959776
 21
2962.1527563310792
 31
0.0
  0
LINE
  5
7C7C
  8
1
 10
2897.376171959776
 20
2477.1527563310792
 30
0.0
 11
3579.8761719597751
 21
2477.1527563310792
 31
0.0
  0
LINE
  5
7C7D
  8
1
 10
2897.376171959776
 20
2527.1527563310801
 30
0.0
 11
3579.876171959776
 21
2527.1527563310801
 31
0.0
  0
LINE
  5
7C80
  8
1
 10
2910.3761719597751
 20
2022.1527563310799
 30
0.0
 11
4110.376171959776
 21
2022.152756331079
 31
0.0
  0
LINE
  5
7C81
  8
1
 10
2910.3761719597751
 20
1922.152756331079
 30
0.0
 11
4110.376171959776
 21
1922.152756331079
 31
0.0
  0
LINE
  5
7C82
  8
2
 10
2794.790994915224
 20
2502.1527563310801
 30
0.0
 11
4090.1897422286052
 21
2502.1527563310801
 31
0.0
  0
LINE
  5
7C83
  8
1
 10
2952.376171959776
 20
2447.1527563310792
 30
0.0
 11
2952.376171959776
 21
2022.1527563310799
 31
0.0
  0
LINE
  5
7C84
  8
1
 10
2772.376171959776
 20
2652.1527563310801
 30
0.0
 11
2772.376171959776
 21
2089.1527563310792
 31
0.0
  0
LINE
  5
7C85
  8
1
 10
2897.376171959776
 20
2581.1527563310792
 30
0.0
 11
2897.376171959776
 21
2160.1527563310792
 31
0.0
  0
LINE
  5
7C86
  8
1
 10
2815.376171959776
 20
2581.1527563310792
 30
0.0
 11
2815.376171959776
 21
2160.1527563310792
 31
0.0
  0
LINE
  5
7C87
  8
1
 10
3492.376171959776
 20
2447.1527563310792
 30
0.0
 11
3492.376171959776
 21
2022.152756331079
 31
0.0
  0
LINE
  5
7C88
  8
1
 10
2897.376171959776
 20
2220.1527563310792
 30
0.0
 11
2952.376171959776
 21
2220.1527563310792
 31
0.0
  0
LINE
  5
7C8A
  8
1
 10
2772.376171959776
 20
2089.1527563310792
 30
0.0
 11
2932.376171959776
 21
2089.1527563310792
 31
0.0
  0
LINE
  5
7C8B
  8
1
 10
2910.3761719597751
 20
2022.1527563310799
 30
0.0
 11
2910.3761719597751
 21
1922.152756331079
 31
0.0
  0
LINE
  5
7C8C
  8
1
 10
2815.376171959776
 20
2160.1527563310792
 30
0.0
 11
2897.376171959776
 21
2160.1527563310792
 31
0.0
  0
LINE
  5
7C8D
  8
1
 10
2932.376171959776
 20
2109.1527563310792
 30
0.0
 11
2932.376171959776
 21
2089.1527563310801
 31
0.0
  0
LINE
  5
7C8E
  8
1
 10
2897.376171959776
 20
2258.1527563310792
 30
0.0
 11
2952.376171959776
 21
2258.1527563310792
 31
0.0
  0
LINE
  5
7C8F
  8
2
 10
2794.790994915224
 20
2239.1527563310792
 30
0.0
 11
2952.376171959776
 21
2239.1527563310792
 31
0.0
  0
LINE
  5
7C90
  8
1
 10
2815.376171959776
 20
2318.1527563310792
 30
0.0
 11
2897.376171959776
 21
2318.1527563310792
 31
0.0
  0
LINE
  5
7C91
  8
1
 10
2815.376171959776
 20
2423.1527563310792
 30
0.0
 11
2897.376171959776
 21
2423.1527563310792
 31
0.0
  0
LINE
  5
7C92
  8
1
 10
2772.376171959776
 20
2652.1527563310801
 30
0.0
 11
2932.376171959776
 21
2652.1527563310801
 31
0.0
  0
LINE
  5
7C93
  8
1
 10
2815.376171959776
 20
2581.1527563310792
 30
0.0
 11
2897.376171959776
 21
2581.1527563310792
 31
0.0
  0
LINE
  5
7C94
  8
1
 10
2932.376171959776
 20
2652.1527563310801
 30
0.0
 11
2932.376171959776
 21
2632.1527563310801
 31
0.0
  0
LINE
  5
7C95
  8
1
 10
2952.376171959776
 20
2447.1527563310792
 30
0.0
 11
3492.376171959776
 21
2447.1527563310792
 31
0.0
  0
LINE
  5
7C96
  8
1
 10
3537.376171959776
 20
2962.1527563310792
 30
0.0
 11
3537.376171959776
 21
2959.1527563310792
 31
0.0
  0
LINE
  5
7C98
  8
2
 10
3817.376171959776
 20
3071.2237910365302
 30
0.0
 11
3817.3761719597751
 21
1922.152756331079
 31
0.0
  0
LINE
  5
7C99
  8
1
 10
3579.8761719597751
 20
2962.1527563310792
 30
0.0
 11
3579.876171959776
 21
2022.152756331079
 31
0.0
  0
LINE
  5
7C9A
  8
1
 10
4054.876171959776
 20
2962.1527563310792
 30
0.0
 11
4054.8761719597751
 21
2022.152756331079
 31
0.0
  0
LINE
  5
7C9D
  8
1
 10
4110.376171959776
 20
2022.152756331079
 30
0.0
 11
4110.376171959776
 21
1922.152756331079
 31
0.0
  0
DIMENSION
  5
7C9E
  8
3
  2
*D13
 10
4054.876171959776
 20
3112.0800880459628
 30
0.0
 11
3817.376171959776
 21
3174.5800880459628
 31
0.0
 70
     0
 13
3579.8761719597751
 23
2962.1527563310792
 33
0.0
 14
4054.876171959776
 24
2962.1527563310792
 34
0.0
1001
ACAD
1000
DSTYLE
1002
{
1070
   287
1070
     3
1070
    40
1040
25.0
1070
   143
1040
0.039
1070
   172
1070
     1
1070
   271
1070
     0
1070
   279
1070
     0
1070
   288
1070
     1
1002
}
  0
LINE
  5
7C9F
  8
1
 10
3579.8761719597751
 20
2922.1527563310801
 30
0.0
 11
4054.876171959776
 21
2922.1527563310801
 31
0.0
  0
LINE
  5
7CA1
  8
1
 10
4097.376171959776
 20
2962.1527563310792
 30
0.0
 11
4097.376171959776
 21
2959.1527563310792
 31
0.0
  0
LINE
  5
802D
  8
4
 10
4625.0
 20
1250.0
 30
0.0
 11
4625.0
 21
750.0
 31
0.0
  0
LINE
  5
802E
  8
4
 10
2875.0
 20
1250.0
 30
0.0
 11
2875.0
 21
750.0
 31
0.0
  0
LINE
  5
802F
  8
4
 10
1625.0
 20
1250.0
 30
0.0
 11
1625.0
 21
750.0
 31
0.0
  0
LINE
  5
8032
  8
4
 10
1625.0
 20
750.0
 30
0.0
 11
4625.0
 21
750.0
 31
0.0
  0
LINE
  5
8033
  8
4
 10
1625.0
 20
1000.0
 30
0.0
 11
4625.0
 21
1000.0
 31
0.0
  0
TEXT
  5
8034
  8
4
 10
1721.2552021172539
 20
1078.857564666532
 30
0.0
 40
125.0
  1
機器名称
  0
TEXT
  5
8035
  8
4
 10
1715.6452650619931
 20
804.11289183002725
 30
0.0
 40
125.0
  1
機器型番
  0
TEXT
  5
8036
  8
4
 10
2878.8161177071211
 20
1058.3110764646549
 30
0.0
 40
110.0
  1
ミツヤ多翼送風機
  0
TEXT
  5
8037
  8
4
 10
2966.6362389637011
 20
792.89896069985843
 30
0.0
 40
125.0
  1
MF#4-1
  0
TEXT
  5
8039
  8
4
 10
1892.333802173383
 20
5958.5721033312893
 30
0.0
 40
135.0
  1
床置ベット
  0
TEXT
  5
803A
  8
4
 10
750.81570904687032
 20
6334.7024404982449
 30
0.0
 40
180.0
  1
遠心式片吸込片持多翼ファン
  0
LINE
  5
803B
  8
4
 10
625.0
 20
6173.5218856620122
 30
0.0
 11
4625.0
 21
6173.5218856620122
 31
0.0
  0
LINE
  5
803C
  8
4
 10
625.0
 20
6673.5218856620122
 30
0.0
 11
4625.0
 21
6673.5218856620122
 31
0.0
  0
LINE
  5
803D
  8
4
 10
1625.0
 20
1250.0
 30
0.0
 11
4625.0
 21
1250.0
 31
0.0
  0
LINE
  5
803E
  8
4
 10
625.0
 20
6673.5218856620122
 30
0.0
 11
625.0
 21
6173.5218856620122
 31
0.0
  0
TEXT
  5
803F
  8
4
 10
802.68672156662797
 20
5955.7986938658578
 30
0.0
 40
135.0
  1
右回転上向
  0
TEXT
  5
8040
  8
4
 10
3672.4238981232238
 20
6765.1527037382721
 30
0.0
 40
140.0
  1
No.
  0
TEXT
  5
8041
  8
4
 10
3278.2401565000318
 20
5958.5721033312893
 30
0.0
 40
135.0
  1
縮尺：1/25
  0
LINE
  5
8042
  8
4
 10
4625.0
 20
6673.5218856620122
 30
0.0
 11
4625.0
 21
6173.5218856620122
 31
0.0
  0
LINE
  5
8043
  8
4
 10
5250.0
 20
7375.0
 30
0.0
 11
5250.0
 21
7375.0
 31
0.0
  0
LINE
  5
8044
  8
4
 10
3601.543555899661
 20
6703.1589578135026
 30
0.0
 11
3601.543555899661
 21
6966.6306538743811
 31
0.0
  0
LINE
  5
8045
  8
4
 10
3601.543555899661
 20
6966.6306538743811
 30
0.0
 11
4625.0
 21
6966.6306538743811
 31
0.0
  0
LINE
  5
8046
  8
4
 10
4625.0
 20
6966.6306538743811
 30
0.0
 11
4625.0
 21
6703.1589578135026
 31
0.0
  0
LINE
  5
8047
  8
4
 10
4625.0
 20
6703.1589578135026
 30
0.0
 11
3601.543555899661
 21
6703.1589578135026
 31
0.0
  0
LINE
  5
8048
  8
4
 10
0.0
 20
0.0
 30
0.0
 11
0.0
 21
7375.0
 31
0.0
  0
LINE
  5
8049
  8
4
 10
0.0
 20
7375.0
 30
0.0
 11
5250.0
 21
7375.0
 31
0.0
  0
LINE
  5
804A
  8
4
 10
5250.0
 20
7375.0
 30
0.0
 11
5250.0
 21
0.0
 31
0.0
  0
LINE
  5
804B
  8
4
 10
5250.0
 20
0.0
 30
0.0
 11
0.0
 21
0.0
 31
0.0
  0
DIMENSION
  5
8154
  8
3
  2
*D16
 10
4253.3615054704178
 20
2167.1527563310792
 30
0.0
 11
4253.3615054704169
 21
2504.6421386402899
 31
0.0
 70
   128
 13
4054.876171959776
 23
2837.1527563310792
 33
0.0
 14
4054.8761719597751
 24
2167.1527563310792
 34
0.0
 50
90.0
1001
ACAD
1000
DSTYLE
1002
{
1070
   287
1070
     3
1070
     3
1000
φ<>
1070
    40
1040
25.0
1070
   143
1040
0.039
1070
   172
1070
     1
1070
   271
1070
     0
1070
   279
1070
     0
1070
   288
1070
     1
1002
}
  0
DIMENSION
  5
819A
  8
3
  2
*D17
 10
4058.376171959776
 20
3309.7337041942228
 30
0.0
 11
3937.876171959776
 21
3375.6420926371502
 31
0.0
 70
   128
 13
3817.376171959776
 23
3234.6102601231892
 33
0.0
 14
4058.376171959776
 24
2961.1999787087038
 34
0.0
1001
ACAD
1000
DSTYLE
1002
{
1070
   288
1070
     1
1070
   172
1070
     1
1070
    75
1070
     1
1070
    40
1040
25.0
1070
   271
1070
     0
1070
   143
1040
0.039
1002
}
  0
LINE
  5
81D0
  8
1
 10
1683.6367029704929
 20
2022.152756331079
 30
0.0
 11
1683.6367029704929
 21
1922.152756331079
 31
0.0
  0
DIMENSION
  5
82D5
  8
3
  2
*D18
 10
1283.6367029704929
 20
1739.2641502274271
 30
0.0
 11
943.63670297049339
 21
1801.7641502274271
 31
0.0
 70
     0
 13
603.63670297049327
 23
1922.152756331079
 33
0.0
 14
1283.6367029704929
 24
1922.1527563310799
 34
0.0
1001
ACAD
1000
DSTYLE
1002
{
1070
   287
1070
     3
1070
    40
1040
25.0
1070
   143
1040
0.039
1070
   172
1070
     1
1070
   271
1070
     0
1070
   279
1070
     0
1002
}
  0
DIMENSION
  5
82E2
  8
3
  2
*D19
 10
1683.6367029704929
 20
1739.2641502274271
 30
0.0
 11
1483.6367029704929
 21
1801.7641502274271
 31
0.0
 70
     0
 13
1283.6367029704929
 23
1922.1527563310799
 33
0.0
 14
1683.6367029704929
 24
1922.152756331079
 34
0.0
1001
ACAD
1000
DSTYLE
1002
{
1070
   287
1070
     3
1070
    40
1040
25.0
1070
   143
1040
0.039
1070
   172
1070
     1
1070
   271
1070
     0
1070
   279
1070
     0
1002
}
  0
DIMENSION
  5
82EF
  8
3
  2
*D20
 10
3817.3761719597751
 20
1739.2641502274271
 30
0.0
 11
3363.876171959776
 21
1801.7641502274271
 31
0.0
 70
     0
 13
2910.3761719597751
 23
1922.152756331079
 33
0.0
 14
3817.3761719597751
 24
1922.152756331079
 34
0.0
1001
ACAD
1000
DSTYLE
1002
{
1070
   287
1070
     3
1070
    40
1040
25.0
1070
   143
1040
0.039
1070
   172
1070
     1
1070
   271
1070
     0
1070
   279
1070
     0
1002
}
  0
DIMENSION
  5
82FE
  8
3
  2
*D21
 10
4110.376171959776
 20
1739.2641502274271
 30
0.0
 11
3963.876171959776
 21
1801.7641502274271
 31
0.0
 70
     0
 13
3817.3761719597751
 23
1922.152756331079
 33
0.0
 14
4110.376171959776
 24
1922.152756331079
 34
0.0
1001
ACAD
1000
DSTYLE
1002
{
1070
   287
1070
     3
1070
    40
1040
25.0
1070
   143
1040
0.039
1070
   172
1070
     1
1070
   271
1070
     0
1070
   279
1070
     0
1002
}
  0
DIMENSION
  5
830B
  8
3
  2
*D22
 10
2072.2749954590431
 20
1922.152756331079
 30
0.0
 11
2009.7749954590431
 21
2442.1527563310801
 31
0.0
 70
     0
 13
1298.1367029704929
 23
2962.1527563310792
 33
0.0
 14
1683.6367029704929
 24
1922.152756331079
 34
0.0
 50
90.0
1001
ACAD
1000
DSTYLE
1002
{
1070
   287
1070
     3
1070
    40
1040
25.0
1070
   143
1040
0.039
1070
   172
1070
     1
1070
   271
1070
     0
1070
   279
1070
     0
1002
}
  0
LINE
  5
8319
  8
1
 10
1453.6367029704929
 20
2442.1527563310792
 30
0.0
 11
1533.6367029704929
 21
2022.152756331079
 31
0.0
  0
LINE
  5
831A
  8
1
 10
1113.6367029704929
 20
2442.1527563310792
 30
0.0
 11
1033.6367029704929
 21
2022.152756331079
 31
0.0
  0
LINE
  5
831B
  8
1
 10
1113.6367029704929
 20
4717.8692449772852
 30
0.0
 11
1113.6367029704929
 21
4177.8692449772843
 31
0.0
  0
LINE
  5
831C
  8
1
 10
1453.6367029704929
 20
4717.8692449772843
 30
0.0
 11
1453.6367029704929
 21
4177.8692449772843
 31
0.0
  0
ENDSEC
  0
EOF
