  0
SECTION
  2
HEADER
  9
$ACADVER
  1
AC1009
  9
$INSBASE
 10
0.0
 20
0.0
 30
0.0
  9
$EXTMIN
 10
0.0
 20
0.0
 30
0.0
  9
$EXTMAX
 10
5250.0
 20
7375.0
 30
0.0
  9
$LIMMIN
 10
0.0
 20
0.0
  9
$LIMMAX
 10
297.0
 20
210.0
  9
$ORTHOMODE
 70
     0
  9
$REGENMODE
 70
     1
  9
$FILLMODE
 70
     0
  9
$QTEXTMODE
 70
     0
  9
$MIRRTEXT
 70
     1
  9
$DRAGMODE
 70
     2
  9
$LTSCALE
 40
100.0
  9
$OSMODE
 70
    37
  9
$ATTMODE
 70
     1
  9
$TEXTSIZE
 40
180.0
  9
$TRACEWID
 40
0.05
  9
$TEXTSTYLE
  7
STANDARD
  9
$CLAYER
  8
3
  9
$CELTYPE
  6
BYLAYER
  9
$CECOLOR
 62
   256
  9
$DIMSCALE
 40
25.0
  9
$DIMASZ
 40
2.0
  9
$DIMEXO
 40
0.5
  9
$DIMDLI
 40
10.0
  9
$DIMRND
 40
0.0
  9
$DIMDLE
 40
0.0
  9
$DIMEXE
 40
1.0
  9
$DIMTP
 40
1.0
  9
$DIMTM
 40
1.0
  9
$DIMTXT
 40
3.0
  9
$DIMCEN
 40
0.0
  9
$DIMTSZ
 40
0.0
  9
$DIMTOL
 70
     0
  9
$DIMLIM
 70
     0
  9
$DIMTIH
 70
     0
  9
$DIMTOH
 70
     0
  9
$DIMSE1
 70
     0
  9
$DIMSE2
 70
     0
  9
$DIMTAD
 70
     1
  9
$DIMZIN
 70
     8
  9
$DIMBLK
  1

  9
$DIMASO
 70
     1
  9
$DIMSHO
 70
     1
  9
$DIMPOST
  1

  9
$DIMAPOST
  1

  9
$DIMALT
 70
     0
  9
$DIMALTD
 70
     2
  9
$DIMALTF
 40
0.039
  9
$DIMLFAC
 40
1.0
  9
$DIMTOFL
 70
     1
  9
$DIMTVP
 40
0.0
  9
$DIMTIX
 70
     0
  9
$DIMSOXD
 70
     0
  9
$DIMSAH
 70
     1
  9
$DIMBLK1
  1
OPEN
  9
$DIMBLK2
  1
OPEN
  9
$DIMSTYLE
  2
IGA
  9
$DIMCLRD
 70
     0
  9
$DIMCLRE
 70
     0
  9
$DIMCLRT
 70
     0
  9
$DIMTFAC
 40
10.0
  9
$DIMGAP
 40
1.0
  9
$LUNITS
 70
     2
  9
$LUPREC
 70
     3
  9
$SKETCHINC
 40
0.1
  9
$FILLETRAD
 40
50.0
  9
$AUNITS
 70
     0
  9
$AUPREC
 70
     0
  9
$MENU
  1
acad
  9
$ELEVATION
 40
0.0
  9
$PELEVATION
 40
0.0
  9
$THICKNESS
 40
0.0
  9
$LIMCHECK
 70
     0
  9
$BLIPMODE
 70
     0
  9
$CHAMFERA
 40
0.5
  9
$CHAMFERB
 40
0.5
  9
$SKPOLY
 70
     0
  9
$TDCREATE
 40
2451004.4186167819
  9
$TDUPDATE
 40
2454953.756059201
  9
$TDINDWG
 40
0.0603702546
  9
$TDUSRTIMER
 40
0.0603702546
  9
$USRTIMER
 70
     1
  9
$ANGBASE
 50
0.0
  9
$ANGDIR
 70
     0
  9
$PDMODE
 70
     0
  9
$PDSIZE
 40
0.0
  9
$PLINEWID
 40
0.0
  9
$COORDS
 70
     1
  9
$SPLFRAME
 70
     0
  9
$SPLINETYPE
 70
     6
  9
$SPLINESEGS
 70
     8
  9
$ATTDIA
 70
     0
  9
$ATTREQ
 70
     1
  9
$HANDLING
 70
 10241
  9
$HANDSEED
  5
8419
  9
$SURFTAB1
 70
     6
  9
$SURFTAB2
 70
     6
  9
$SURFTYPE
 70
     6
  9
$SURFU
 70
     6
  9
$SURFV
 70
     6
  9
$UCSNAME
  2

  9
$UCSORG
 10
0.0
 20
0.0
 30
0.0
  9
$UCSXDIR
 10
1.0
 20
0.0
 30
0.0
  9
$UCSYDIR
 10
0.0
 20
1.0
 30
0.0
  9
$PUCSNAME
  2

  9
$PUCSORG
 10
0.0
 20
0.0
 30
0.0
  9
$PUCSXDIR
 10
1.0
 20
0.0
 30
0.0
  9
$PUCSYDIR
 10
0.0
 20
1.0
 30
0.0
  9
$USERI1
 70
     0
  9
$USERI2
 70
     0
  9
$USERI3
 70
     0
  9
$USERI4
 70
     0
  9
$USERI5
 70
     0
  9
$USERR1
 40
0.0
  9
$USERR2
 40
0.0
  9
$USERR3
 40
0.0
  9
$USERR4
 40
0.0
  9
$USERR5
 40
0.0
  9
$WORLDVIEW
 70
     1
  9
$SHADEDGE
 70
     3
  9
$SHADEDIF
 70
    70
  9
$TILEMODE
 70
     1
  9
$MAXACTVP
 70
    16
  9
$PLIMCHECK
 70
     0
  9
$PEXTMIN
 10
1.0000000000000000E+020
 20
1.0000000000000000E+020
 30
1.0000000000000000E+020
  9
$PEXTMAX
 10
-1.0000000000000000E+020
 20
-1.0000000000000000E+020
 30
-1.0000000000000000E+020
  9
$PLIMMIN
 10
0.0
 20
0.0
  9
$PLIMMAX
 10
12.0
 20
9.0
  9
$UNITMODE
 70
     0
  9
$VISRETAIN
 70
     0
  9
$PLINEGEN
 70
     0
  9
$PSLTSCALE
 70
     1
  0
ENDSEC
  0
SECTION
  2
TABLES
  0
TABLE
  2
VPORT
 70
     2
  0
VPORT
  2
*ACTIVE
 70
     0
 10
0.0
 20
0.0
 11
1.0
 21
1.0
 12
8841.5248971284218
 22
3687.5000171712591
 13
0.0
 23
0.0
 14
10.0
 24
10.0
 15
10.0
 25
10.0
 16
0.0
 26
0.0
 36
1.0
 17
0.0
 27
0.0
 37
0.0
 40
7431.5372075423384
 41
3.1666666666666661
 42
50.0
 43
0.0
 44
0.0
 50
0.0
 51
0.0
 71
     0
 72
   100
 73
     1
 74
     0
 75
     0
 76
     0
 77
     0
 78
     0
  0
ENDTAB
  0
TABLE
  2
LTYPE
 70
     2
  0
LTYPE
  2
CONTINUOUS
 70
     0
  3
Solid line
 72
    65
 73
     0
 40
0.0
  0
LTYPE
  2
CENTER
 70
     0
  3
____ _ ____ _ ____ _ ____ _ ____ _ ____ _ ____ 
 72
    65
 73
     4
 40
2.0
 49
1.25
 49
-0.25
 49
0.25
 49
-0.25
  0
ENDTAB
  0
TABLE
  2
LAYER
 70
     6
  0
LAYER
  2
0
 70
     0
 62
     7
  6
CONTINUOUS
  0
LAYER
  2
3
 70
     0
 62
     2
  6
CONTINUOUS
  0
LAYER
  2
2
 70
     0
 62
     3
  6
CENTER
  0
LAYER
  2
1
 70
     0
 62
     4
  6
CONTINUOUS
  0
LAYER
  2
4
 70
     0
 62
     7
  6
CONTINUOUS
  0
LAYER
  2
DEFPOINTS
 70
     0
 62
     7
  6
CONTINUOUS
  0
ENDTAB
  0
TABLE
  2
STYLE
 70
     1
  0
STYLE
  2
STANDARD
 70
     0
 40
0.0
 41
1.0
 50
0.0
 71
     0
 42
180.0
  3
simplex.shx
  4
extfont.shx
  0
ENDTAB
  0
TABLE
  2
VIEW
 70
     0
  0
ENDTAB
  0
TABLE
  2
UCS
 70
     0
  0
ENDTAB
  0
TABLE
  2
APPID
 70
     1
  0
APPID
  2
ACAD
 70
     0
  0
ENDTAB
  0
TABLE
  2
DIMSTYLE
 70
     1
  0
DIMSTYLE
  2
IGA
 70
     0
  3

  4

  5

  6
OPEN
  7
OPEN
 40
2.0
 41
2.0
 42
0.5
 43
10.0
 44
1.0
 45
0.0
 46
0.0
 47
1.0
 48
1.0
140
3.0
141
0.0
142
0.0
143
0.03937
144
1.0
145
0.0
146
10.0
147
1.0
 71
     0
 72
     0
 73
     0
 74
     0
 75
     0
 76
     0
 77
     1
 78
     8
170
     0
171
     2
172
     0
173
     1
174
     0
175
     0
176
     0
177
     0
178
     0
  0
ENDTAB
  0
ENDSEC
  0
SECTION
  2
BLOCKS
  0
BLOCK
  8
0
  2
$MODEL_SPACE
 70
     0
 10
0.0
 20
0.0
 30
0.0
  3
$MODEL_SPACE
  1

  0
ENDBLK
  5
1B
  8
0
  0
BLOCK
 67
     1
  8
0
  2
$PAPER_SPACE
 70
     0
 10
0.0
 20
0.0
 30
0.0
  3
$PAPER_SPACE
  1

  0
ENDBLK
  5
18
 67
     1
  8
0
  0
BLOCK
  8
0
  2
*D0
 70
     1
 10
0.0
 20
0.0
 30
0.0
  3
*D0
  1

  0
LINE
  5
8356
  8
3
 62
     0
 10
1685.9705396707609
 20
3246.295595788592
 30
0.0
 11
1685.9705396707609
 21
3559.3410748066581
 31
0.0
  0
LINE
  5
8357
  8
3
 62
     0
 10
525.97053967076135
 20
2161.295595788592
 30
0.0
 11
525.97053967076135
 21
3559.3410748066581
 31
0.0
  0
LINE
  5
8358
  8
3
 62
     0
 10
1635.9705396707609
 20
3534.341074806659
 30
0.0
 11
575.97053967076135
 21
3534.341074806659
 31
0.0
  0
INSERT
  5
8359
  8
3
 62
     0
  2
_OPEN
 10
1685.9705396707609
 20
3534.341074806659
 30
0.0
 41
50.0
 42
50.0
 43
50.0
  0
INSERT
  5
835A
  8
3
 62
     0
  2
_OPEN
 10
525.97053967076135
 20
3534.341074806659
 30
0.0
 41
50.0
 42
50.0
 43
50.0
 50
180.0
  0
TEXT
  8
3
  40
75
  5
8405
  62
0
  72
0
  71
0
 10
955.971
 20
3464.09
 30
0.000000
  1
1160
  0
POINT
  5
835C
  8
DEFPOINTS
 62
     0
 10
1685.9705396707609
 20
3233.795595788592
 30
0.0
  0
POINT
  5
835D
  8
DEFPOINTS
 62
     0
 10
525.97053967076135
 20
2148.795595788592
 30
0.0
  0
POINT
  5
835E
  8
DEFPOINTS
 62
     0
 10
525.97053967076135
 20
3534.341074806659
 30
0.0
  0
ENDBLK
  5
7EB1
  8
0
  0
BLOCK
  8
0
  2
*D1
 70
     1
 10
0.0
 20
0.0
 30
0.0
  3
*D1
  1

  0
LINE
  5
835F
  8
3
 62
     0
 10
1225.9705396707609
 20
3269.8464800564739
 30
0.0
 11
1225.9705396707609
 21
3408.6693209045789
 31
0.0
  0
LINE
  5
8360
  8
3
 62
     0
 10
680.18000247102646
 20
2526.295595788592
 30
0.0
 11
680.18000247102646
 21
3408.6693209045789
 31
0.0
  0
LINE
  5
8361
  8
3
 62
     0
 10
1175.9705396707609
 20
3383.6693209045789
 30
0.0
 11
730.18000247102646
 21
3383.6693209045789
 31
0.0
  0
INSERT
  5
8362
  8
3
 62
     0
  2
_OPEN
 10
1225.9705396707609
 20
3383.6693209045789
 30
0.0
 41
50.0
 42
50.0
 43
50.0
  0
INSERT
  5
8363
  8
3
 62
     0
  2
_OPEN
 10
680.18000247102646
 20
3383.6693209045789
 30
0.0
 41
50.0
 42
50.0
 43
50.0
 50
180.0
  0
TEXT
  8
3
  40
75
  5
8406
  62
0
  72
0
  71
0
 10
803.075
 20
3313.42
 30
0.000000
  1
548
  0
POINT
  5
8365
  8
DEFPOINTS
 62
     0
 10
1225.9705396707609
 20
3257.3464800564739
 30
0.0
  0
POINT
  5
8366
  8
DEFPOINTS
 62
     0
 10
680.18000247102646
 20
2513.795595788592
 30
0.0
  0
POINT
  5
8367
  8
DEFPOINTS
 62
     0
 10
680.18000247102646
 20
3383.6693209045789
 30
0.0
  0
ENDBLK
  5
7EC7
  8
0
  0
BLOCK
  8
0
  2
*D2
 70
     1
 10
0.0
 20
0.0
 30
0.0
  3
*D2
  1

  0
LINE
  5
8368
  8
3
 62
     0
 10
1752.1131002282641
 20
2513.795595788592
 30
0.0
 11
2011.4476877492971
 21
2513.795595788592
 31
0.0
  0
LINE
  5
8369
  8
3
 62
     0
 10
1638.4705396707609
 20
2008.795595788592
 30
0.0
 11
2011.4476877492971
 21
2008.795595788592
 31
0.0
  0
LINE
  5
836A
  8
3
 62
     0
 10
1986.4476877492971
 20
2463.795595788592
 30
0.0
 11
1986.4476877492971
 21
2058.795595788592
 31
0.0
  0
INSERT
  5
836B
  8
3
 62
     0
  2
_OPEN
 10
1986.4476877492971
 20
2513.795595788592
 30
0.0
 41
50.0
 42
50.0
 43
50.0
 50
90.0
  0
INSERT
  5
836C
  8
3
 62
     0
  2
_OPEN
 10
1986.4476877492971
 20
2008.795595788592
 30
0.0
 41
50.0
 42
50.0
 43
50.0
 50
270.0
  0
TEXT
  8
3
  40
75
  5
8407
  62
0
  72
0
  71
0
 10
1773.95
 20
2128.55
 30
0.000000
  1
505
  0
POINT
  5
836E
  8
DEFPOINTS
 62
     0
 10
1739.6131002282641
 20
2513.795595788592
 30
0.0
  0
POINT
  5
836F
  8
DEFPOINTS
 62
     0
 10
1625.9705396707609
 20
2008.795595788592
 30
0.0
  0
POINT
  5
8370
  8
DEFPOINTS
 62
     0
 10
1986.4476877492971
 20
2008.795595788592
 30
0.0
  0
ENDBLK
  5
7EDD
  8
0
  0
BLOCK
  8
0
  2
*D3
 70
     1
 10
0.0
 20
0.0
 30
0.0
  3
*D3
  1

  0
LINE
  5
8371
  8
3
 62
     0
 10
1685.9705396707609
 20
3246.295595788592
 30
0.0
 11
1685.9705396707609
 21
3408.6693209045789
 31
0.0
  0
LINE
  5
8372
  8
3
 62
     0
 10
1225.9705396707609
 20
3269.8464800564739
 30
0.0
 11
1225.9705396707609
 21
3408.6693209045789
 31
0.0
  0
LINE
  5
8373
  8
3
 62
     0
 10
1635.9705396707609
 20
3383.6693209045789
 30
0.0
 11
1275.9705396707609
 21
3383.6693209045789
 31
0.0
  0
INSERT
  5
8374
  8
3
 62
     0
  2
_OPEN
 10
1685.9705396707609
 20
3383.6693209045789
 30
0.0
 41
50.0
 42
50.0
 43
50.0
  0
INSERT
  5
8375
  8
3
 62
     0
  2
_OPEN
 10
1225.9705396707609
 20
3383.6693209045789
 30
0.0
 41
50.0
 42
50.0
 43
50.0
 50
180.0
  0
TEXT
  8
3
  40
75
  5
8408
  62
0
  72
0
  71
0
 10
1305.97
 20
3313.42
 30
0.000000
  1
460
  0
POINT
  5
8377
  8
DEFPOINTS
 62
     0
 10
1685.9705396707609
 20
3233.795595788592
 30
0.0
  0
POINT
  5
8378
  8
DEFPOINTS
 62
     0
 10
1225.9705396707609
 20
3257.3464800564739
 30
0.0
  0
POINT
  5
8379
  8
DEFPOINTS
 62
     0
 10
1225.9705396707609
 20
3383.6693209045789
 30
0.0
  0
ENDBLK
  5
7EF3
  8
0
  0
BLOCK
  8
0
  2
*D4
 70
     1
 10
0.0
 20
0.0
 30
0.0
  3
*D4
  1

  0
LINE
  5
837A
  8
3
 62
     0
 10
1698.4705396707609
 20
3191.795595788592
 30
0.0
 11
2011.447687749298
 21
3191.795595788592
 31
0.0
  0
LINE
  5
837B
  8
3
 62
     0
 10
1752.1131002282641
 20
2513.795595788592
 30
0.0
 11
2011.4476877492971
 21
2513.795595788592
 31
0.0
  0
LINE
  5
837C
  8
3
 62
     0
 10
1986.447687749298
 20
3141.795595788592
 30
0.0
 11
1986.447687749298
 21
2563.795595788592
 31
0.0
  0
INSERT
  5
837D
  8
3
 62
     0
  2
_OPEN
 10
1986.447687749298
 20
3191.795595788592
 30
0.0
 41
50.0
 42
50.0
 43
50.0
 50
90.0
  0
INSERT
  5
837E
  8
3
 62
     0
  2
_OPEN
 10
1986.4476877492971
 20
2513.795595788592
 30
0.0
 41
50.0
 42
50.0
 43
50.0
 50
270.0
  0
TEXT
  8
3
  40
75
  5
8409
  62
0
  72
0
  71
0
 10
1773.95
 20
2720.05
 30
0.000000
  1
678
  0
POINT
  5
8380
  8
DEFPOINTS
 62
     0
 10
1685.9705396707609
 20
3191.795595788592
 30
0.0
  0
POINT
  5
8381
  8
DEFPOINTS
 62
     0
 10
1739.6131002282641
 20
2513.795595788592
 30
0.0
  0
POINT
  5
8382
  8
DEFPOINTS
 62
     0
 10
1986.4476877492971
 20
2513.795595788592
 30
0.0
  0
ENDBLK
  5
7F09
  8
0
  0
BLOCK
  8
0
  2
*D5
 70
     1
 10
0.0
 20
0.0
 30
0.0
  3
*D5
  1

  0
LINE
  5
8383
  8
3
 62
     0
 10
1698.4705396707609
 20
3191.795595788592
 30
0.0
 11
1859.9200638369821
 21
3191.795595788592
 31
0.0
  0
LINE
  5
8384
  8
3
 62
     0
 10
1698.4705396707609
 20
2541.795595788592
 30
0.0
 11
1859.9200638369821
 21
2541.795595788592
 31
0.0
  0
LINE
  5
8385
  8
3
 62
     0
 10
1834.9200638369821
 20
3141.795595788592
 30
0.0
 11
1834.9200638369821
 21
2591.795595788592
 31
0.0
  0
INSERT
  5
8386
  8
3
 62
     0
  2
_OPEN
 10
1834.9200638369821
 20
3191.795595788592
 30
0.0
 41
50.0
 42
50.0
 43
50.0
 50
90.0
  0
INSERT
  5
8387
  8
3
 62
     0
  2
_OPEN
 10
1834.9200638369821
 20
2541.795595788592
 30
0.0
 41
50.0
 42
50.0
 43
50.0
 50
270.0
  0
TEXT
  8
3
  40
75
  5
840A
  62
0
  72
0
  71
0
 10
1622.42
 20
2734.05
 30
0.000000
  1
650
  0
POINT
  5
8389
  8
DEFPOINTS
 62
     0
 10
1685.9705396707609
 20
3191.795595788592
 30
0.0
  0
POINT
  5
838A
  8
DEFPOINTS
 62
     0
 10
1685.9705396707609
 20
2541.795595788592
 30
0.0
  0
POINT
  5
838B
  8
DEFPOINTS
 62
     0
 10
1834.9200638369821
 20
2541.795595788592
 30
0.0
  0
ENDBLK
  5
7EFE
  8
0
  0
BLOCK
  8
0
  2
*D6
 70
     1
 10
0.0
 20
0.0
 30
0.0
  3
*D6
  1

  0
LINE
  5
838C
  8
3
 62
     0
 10
1475.9705396707609
 20
4138.0120844347966
 30
0.0
 11
1475.9705396707609
 21
3833.631408148764
 31
0.0
  0
LINE
  5
838D
  8
3
 62
     0
 10
545.97053967076135
 20
4138.0120844347966
 30
0.0
 11
545.97053967076135
 21
3833.631408148764
 31
0.0
  0
LINE
  5
838E
  8
3
 62
     0
 10
1425.9705396707609
 20
3858.631408148764
 30
0.0
 11
595.97053967076135
 21
3858.631408148764
 31
0.0
  0
INSERT
  5
838F
  8
3
 62
     0
  2
_OPEN
 10
1475.9705396707609
 20
3858.631408148764
 30
0.0
 41
50.0
 42
50.0
 43
50.0
  0
INSERT
  5
8390
  8
3
 62
     0
  2
_OPEN
 10
545.97053967076135
 20
3858.631408148764
 30
0.0
 41
50.0
 42
50.0
 43
50.0
 50
180.0
  0
TEXT
  8
3
  40
75
  5
840B
  62
0
  72
0
  71
0
 10
860.971
 20
3788.38
 30
0.000000
  1
930
  0
POINT
  5
8392
  8
DEFPOINTS
 62
     0
 10
1475.9705396707609
 20
4150.5120844347966
 30
0.0
  0
POINT
  5
8393
  8
DEFPOINTS
 62
     0
 10
545.97053967076135
 20
4150.5120844347966
 30
0.0
  0
POINT
  5
8394
  8
DEFPOINTS
 62
     0
 10
545.97053967076135
 20
3858.631408148764
 30
0.0
  0
ENDBLK
  5
817C
  8
0
  0
BLOCK
  8
0
  2
*D7
 70
     1
 10
0.0
 20
0.0
 30
0.0
  3
*D7
  1

  0
LINE
  5
8395
  8
3
 62
     0
 10
825.97053967076124
 20
5363.0120844347985
 30
0.0
 11
825.97053967076124
 21
5521.0859710385494
 31
0.0
  0
LINE
  5
8396
  8
3
 62
     0
 10
1625.9705396707609
 20
5363.0120844347985
 30
0.0
 11
1625.9705396707609
 21
5521.0859710385494
 31
0.0
  0
LINE
  5
8397
  8
3
 62
     0
 10
875.97053967076135
 20
5496.0859710385494
 30
0.0
 11
1575.9705396707609
 21
5496.0859710385494
 31
0.0
  0
INSERT
  5
8398
  8
3
 62
     0
  2
_OPEN
 10
825.97053967076124
 20
5496.0859710385494
 30
0.0
 41
50.0
 42
50.0
 43
50.0
 50
180.0
  0
INSERT
  5
8399
  8
3
 62
     0
  2
_OPEN
 10
1625.9705396707609
 20
5496.0859710385494
 30
0.0
 41
50.0
 42
50.0
 43
50.0
  0
TEXT
  8
3
  40
75
  5
840C
  62
0
  72
0
  71
0
 10
1075.97
 20
5425.84
 30
0.000000
  1
800
  0
POINT
  5
839B
  8
DEFPOINTS
 62
     0
 10
825.97053967076124
 20
5350.5120844347966
 30
0.0
  0
POINT
  5
839C
  8
DEFPOINTS
 62
     0
 10
1625.9705396707609
 20
5350.5120844347966
 30
0.0
  0
POINT
  5
839D
  8
DEFPOINTS
 62
     0
 10
1625.9705396707609
 20
5496.0859710385494
 30
0.0
  0
ENDBLK
  5
814E
  8
0
  0
BLOCK
  8
0
  2
*D8
 70
     1
 10
0.0
 20
0.0
 30
0.0
  3
*D8
  1

  0
LINE
  5
839E
  8
3
 62
     0
 10
533.47053967076135
 20
4150.5120844347966
 30
0.0
 11
372.54136805931898
 21
4150.5120844347966
 31
0.0
  0
LINE
  5
839F
  8
3
 62
     0
 10
533.47053967076135
 20
4814.5120844347985
 30
0.0
 11
372.54136805931921
 21
4814.5120844347985
 31
0.0
  0
LINE
  5
83A0
  8
3
 62
     0
 10
397.54136805931898
 20
4200.5120844347966
 30
0.0
 11
397.54136805931921
 21
4764.5120844347966
 31
0.0
  0
INSERT
  5
83A1
  8
3
 62
     0
  2
_OPEN
 10
397.54136805931898
 20
4150.5120844347966
 30
0.0
 41
50.0
 42
50.0
 43
50.0
 50
270.0
  0
INSERT
  5
83A2
  8
3
 62
     0
  2
_OPEN
 10
397.54136805931921
 20
4814.5120844347985
 30
0.0
 41
50.0
 42
50.0
 43
50.0
 50
90.0
  0
TEXT
  8
3
  40
75
  5
840D
  62
0
  72
0
  71
0
 10
185.041
 20
4349.76
 30
0.000000
  1
664
  0
POINT
  5
83A4
  8
DEFPOINTS
 62
     0
 10
545.97053967076135
 20
4150.5120844347966
 30
0.0
  0
POINT
  5
83A5
  8
DEFPOINTS
 62
     0
 10
545.97053967076135
 20
4814.5120844347985
 30
0.0
  0
POINT
  5
83A6
  8
DEFPOINTS
 62
     0
 10
397.54136805931921
 20
4814.5120844347985
 30
0.0
  0
ENDBLK
  5
8171
  8
0
  0
BLOCK
  8
0
  2
*D9
 70
     1
 10
0.0
 20
0.0
 30
0.0
  3
*D9
  1

  0
LINE
  5
822E
  8
0
  6
BYBLOCK
 62
     0
 10
825.97053967076124
 20
5363.0120844347985
 30
0.0
 11
825.97053967076124
 21
5521.0859710385494
 31
0.0
  0
LINE
  5
822F
  8
0
  6
BYBLOCK
 62
     0
 10
545.97053967076135
 20
4827.0120844347985
 30
0.0
 11
545.97053967076135
 21
5521.0859710385494
 31
0.0
  0
LINE
  5
8230
  8
0
  6
BYBLOCK
 62
     0
 10
775.97053967076135
 20
5496.0859710385494
 30
0.0
 11
595.97053967076135
 21
5496.0859710385494
 31
0.0
  0
TEXT
  5
8231
  8
3
 62
     0
 10
589.5419682421898
 20
5525.5468325985639
 30
0.0
 40
75.0
  1
280
  0
INSERT
  5
8232
  8
0
  6
BYBLOCK
 62
     0
  2
_OPEN
 10
825.97053967076124
 20
5496.0859710385494
 30
0.0
 41
50.0
 42
50.0
 43
50.0
  0
INSERT
  5
8233
  8
0
  6
BYBLOCK
 62
     0
  2
_OPEN
 10
545.97053967076135
 20
5496.0859710385494
 30
0.0
 41
50.0
 42
50.0
 43
50.0
 50
180.0
  0
POINT
  5
8234
  8
DEFPOINTS
  6
BYBLOCK
 62
     0
 10
825.97053967076124
 20
5350.5120844347966
 30
0.0
  0
POINT
  5
8235
  8
DEFPOINTS
  6
BYBLOCK
 62
     0
 10
545.97053967076135
 20
4814.5120844347985
 30
0.0
  0
POINT
  5
8236
  8
DEFPOINTS
  6
BYBLOCK
 62
     0
 10
545.97053967076135
 20
5496.0859710385494
 30
0.0
  0
ENDBLK
  5
8237
  8
0
  0
BLOCK
  8
0
  2
*D10
 70
     1
 10
0.0
 20
0.0
 30
0.0
  3
*D10
  1

  0
LINE
  5
83A7
  8
3
 62
     0
 10
1638.4705396707609
 20
5350.5120844347966
 30
0.0
 11
1860.4243425314851
 21
5350.5120844347966
 31
0.0
  0
LINE
  5
83A8
  8
3
 62
     0
 10
1488.4705396707609
 20
4150.5120844347966
 30
0.0
 11
1860.4243425314851
 21
4150.5120844347966
 31
0.0
  0
LINE
  5
83A9
  8
3
 62
     0
 10
1835.4243425314851
 20
5300.5120844347985
 30
0.0
 11
1835.4243425314851
 21
4200.5120844347966
 31
0.0
  0
INSERT
  5
83AA
  8
3
 62
     0
  2
_OPEN
 10
1835.4243425314851
 20
5350.5120844347966
 30
0.0
 41
50.0
 42
50.0
 43
50.0
 50
90.0
  0
INSERT
  5
83AB
  8
3
 62
     0
  2
_OPEN
 10
1835.4243425314851
 20
4150.5120844347966
 30
0.0
 41
50.0
 42
50.0
 43
50.0
 50
270.0
  0
TEXT
  8
3
  40
75
  5
840E
  62
0
  72
0
  71
0
 10
1622.92
 20
4617.76
 30
0.000000
  1
1200
  0
POINT
  5
83AD
  8
DEFPOINTS
 62
     0
 10
1625.9705396707609
 20
5350.5120844347966
 30
0.0
  0
POINT
  5
83AE
  8
DEFPOINTS
 62
     0
 10
1475.9705396707609
 20
4150.5120844347966
 30
0.0
  0
POINT
  5
83AF
  8
DEFPOINTS
 62
     0
 10
1835.4243425314851
 20
4150.5120844347966
 30
0.0
  0
ENDBLK
  5
8187
  8
0
  0
BLOCK
  8
0
  2
*D11
 70
     1
 10
0.0
 20
0.0
 30
0.0
  3
*D11
  1

  0
LINE
  5
83B0
  8
3
 62
     0
 10
1475.9705396707609
 20
4138.0120844347966
 30
0.0
 11
1475.9705396707609
 21
3833.631408148764
 31
0.0
  0
LINE
  5
83B1
  8
3
 62
     0
 10
1625.9705396707609
 20
4752.0120844347985
 30
0.0
 11
1625.9705396707609
 21
3833.631408148764
 31
0.0
  0
LINE
  5
83B2
  8
3
 62
     0
 10
1525.9705396707609
 20
3858.631408148764
 30
0.0
 11
1575.9705396707609
 21
3858.631408148764
 31
0.0
  0
LINE
  5
83B3
  8
3
 62
     0
 10
1625.9705396707609
 20
3858.631408148764
 30
0.0
 11
1904.54196824219
 21
3858.631408148764
 31
0.0
  0
INSERT
  5
83B4
  8
3
 62
     0
  2
_OPEN
 10
1475.9705396707609
 20
3858.631408148764
 30
0.0
 41
50.0
 42
50.0
 43
50.0
 50
180.0
  0
INSERT
  5
83B5
  8
3
 62
     0
  2
_OPEN
 10
1625.9705396707609
 20
3858.631408148764
 30
0.0
 41
50.0
 42
50.0
 43
50.0
  0
TEXT
  8
3
  40
75
  5
840F
  62
0
  72
0
  71
0
 10
1640.26
 20
3788.38
 30
0.000000
  1
150
  0
POINT
  5
83B7
  8
DEFPOINTS
 62
     0
 10
1475.9705396707609
 20
4150.5120844347966
 30
0.0
  0
POINT
  5
83B8
  8
DEFPOINTS
 62
     0
 10
1625.9705396707609
 20
4764.5120844347966
 30
0.0
  0
POINT
  5
83B9
  8
DEFPOINTS
 62
     0
 10
1625.9705396707609
 20
3858.631408148764
 30
0.0
  0
ENDBLK
  5
8194
  8
0
  0
BLOCK
  8
0
  2
*D12
 70
     1
 10
0.0
 20
0.0
 30
0.0
  3
*D12
  1

  0
LINE
  5
83BA
  8
3
 62
     0
 10
2714.7100086600431
 20
2676.2955957885929
 30
0.0
 11
2714.7100086600431
 21
3611.3572101312411
 31
0.0
  0
LINE
  5
83BB
  8
3
 62
     0
 10
3759.710008660044
 20
3481.1745734818642
 30
0.0
 11
3759.710008660044
 21
3611.3572101312411
 31
0.0
  0
LINE
  5
83BC
  8
3
 62
     0
 10
2764.710008660044
 20
3586.3572101312411
 30
0.0
 11
3709.710008660044
 21
3586.3572101312411
 31
0.0
  0
INSERT
  5
83BD
  8
3
 62
     0
  2
_OPEN
 10
2714.7100086600431
 20
3586.3572101312411
 30
0.0
 41
50.0
 42
50.0
 43
50.0
 50
180.0
  0
INSERT
  5
83BE
  8
3
 62
     0
  2
_OPEN
 10
3759.710008660044
 20
3586.3572101312411
 30
0.0
 41
50.0
 42
50.0
 43
50.0
  0
TEXT
  8
3
  40
75
  5
8410
  62
0
  72
0
  71
0
 10
3087.21
 20
3578.61
 30
0.000000
  1
MAX
  0
TEXT
  8
3
  40
75
  5
8411
  62
0
  72
0
  71
0
 10
3087.21
 20
3481.11
 30
0.000000
  1
1070
  0
POINT
  5
83C0
  8
DEFPOINTS
 62
     0
 10
2714.7100086600431
 20
2663.7955957885929
 30
0.0
  0
POINT
  5
83C1
  8
DEFPOINTS
 62
     0
 10
3759.710008660044
 20
3468.6745734818642
 30
0.0
  0
POINT
  5
83C2
  8
DEFPOINTS
 62
     0
 10
3759.710008660044
 20
3586.3572101312411
 30
0.0
  0
ENDBLK
  5
81DA
  8
0
  0
BLOCK
  8
0
  2
*D13
 70
     1
 10
0.0
 20
0.0
 30
0.0
  3
*D13
  1

  0
LINE
  5
83C3
  8
3
 62
     0
 10
3522.210008660044
 20
3204.795595788592
 30
0.0
 11
3522.210008660044
 21
3381.0333875568199
 31
0.0
  0
LINE
  5
83C4
  8
3
 62
     0
 10
3997.210008660044
 20
3204.795595788592
 30
0.0
 11
3997.210008660044
 21
3381.0333875568199
 31
0.0
  0
LINE
  5
83C5
  8
3
 62
     0
 10
3572.210008660044
 20
3356.0333875568199
 30
0.0
 11
3947.210008660044
 21
3356.0333875568199
 31
0.0
  0
INSERT
  5
83C6
  8
3
 62
     0
  2
_OPEN
 10
3522.210008660044
 20
3356.0333875568199
 30
0.0
 41
50.0
 42
50.0
 43
50.0
 50
180.0
  0
INSERT
  5
83C7
  8
3
 62
     0
  2
_OPEN
 10
3997.210008660044
 20
3356.0333875568199
 30
0.0
 41
50.0
 42
50.0
 43
50.0
  0
TEXT
  8
3
  40
75
  5
8412
  62
0
  72
0
  71
0
 10
3609.71
 20
3285.78
 30
0.000000
  1
475
  0
POINT
  5
83C9
  8
DEFPOINTS
 62
     0
 10
3522.210008660044
 20
3192.295595788592
 30
0.0
  0
POINT
  5
83CA
  8
DEFPOINTS
 62
     0
 10
3997.210008660044
 20
3192.295595788592
 30
0.0
  0
POINT
  5
83CB
  8
DEFPOINTS
 62
     0
 10
3997.210008660044
 20
3356.0333875568199
 30
0.0
  0
ENDBLK
  5
7FB4
  8
0
  0
BLOCK
  8
0
  2
_OPEN
 70
     0
 10
0.0
 20
0.0
 30
0.0
  3
_OPEN
  1

  0
LINE
  5
7E98
  8
0
  6
BYBLOCK
 62
     0
 10
-1.0
 20
0.1666666666666666
 30
0.0
 11
0.0
 21
0.0
 31
0.0
  0
LINE
  5
7E99
  8
0
  6
BYBLOCK
 62
     0
 10
0.0
 20
0.0
 30
0.0
 11
-1.0
 21
-0.1666666666666666
 31
0.0
  0
LINE
  5
7E9A
  8
0
  6
BYBLOCK
 62
     0
 10
0.0
 20
0.0
 30
0.0
 11
-1.0
 21
0.0
 31
0.0
  0
ENDBLK
  5
7E9B
  8
0
  0
BLOCK
  8
0
  2
_DOT
 70
     0
 10
0.0
 20
0.0
 30
0.0
  3
_DOT
  1

  0
LINE
  5
827A
  8
0
  6
BYBLOCK
 62
     0
 10
0.0
 20
0.0
 30
0.0
 11
-1.0
 21
-0.0000000000000284
 31
0.0
  0
POLYLINE
  5
827B
  8
0
  6
BYBLOCK
 62
     0
 66
     1
 10
0.0
 20
0.0
 30
0.0
 70
     1
 40
0.1666666666666666
 41
0.1666666666666666
  0
VERTEX
  5
83D5
  8
0
  6
BYBLOCK
 62
     0
 10
-0.0833333333333286
 20
-0.0000000000000284
 30
0.0
 42
1.0
  0
VERTEX
  5
83D6
  8
0
  6
BYBLOCK
 62
     0
 10
0.0833333333333286
 20
-0.0000000000000284
 30
0.0
 42
1.0
  0
SEQEND
  5
83D7
  8
0
  6
BYBLOCK
 62
     0
  0
ENDBLK
  5
8009
  8
0
  0
BLOCK
  8
0
  2
*D16
 70
     1
 10
0.0
 20
0.0
 30
0.0
  3
*D16
  1

  0
LINE
  5
83CC
  8
3
 62
     0
 10
4009.710008660044
 20
2848.795595788592
 30
0.0
 11
4232.7366917172012
 21
2848.795595788592
 31
0.0
  0
LINE
  5
83CD
  8
3
 62
     0
 10
4009.7100086600431
 20
2178.795595788592
 30
0.0
 11
4232.7366917172012
 21
2178.795595788592
 31
0.0
  0
LINE
  5
83CE
  8
3
 62
     0
 10
4207.7366917172012
 20
2798.795595788592
 30
0.0
 11
4207.7366917172012
 21
2228.795595788592
 31
0.0
  0
INSERT
  5
83CF
  8
3
 62
     0
  2
_OPEN
 10
4207.7366917172012
 20
2848.795595788592
 30
0.0
 41
50.0
 42
50.0
 43
50.0
 50
90.0
  0
INSERT
  5
83D0
  8
3
 62
     0
  2
_OPEN
 10
4207.7366917172012
 20
2178.795595788592
 30
0.0
 41
50.0
 42
50.0
 43
50.0
 50
270.0
  0
TEXT
  8
3
  40
75
  5
8413
  62
0
  72
0
  71
0
 10
3995.24
 20
2376.21
 30
0.000000
  1
φ670
  0
POINT
  5
83D2
  8
DEFPOINTS
 62
     0
 10
3997.210008660044
 20
2848.795595788592
 30
0.0
  0
POINT
  5
83D3
  8
DEFPOINTS
 62
     0
 10
3997.2100086600431
 20
2178.795595788592
 30
0.0
  0
POINT
  5
83D4
  8
DEFPOINTS
 62
     0
 10
4207.7366917172012
 20
2178.795595788592
 30
0.0
  0
ENDBLK
  5
82C8
  8
0
  0
BLOCK
  8
0
  2
*D17
 70
     1
 10
0.0
 20
0.0
 30
0.0
  3
*D17
  1

  0
LINE
  5
8219
  8
0
  6
BYBLOCK
 62
     0
 10
4000.710008660044
 20
3204.8570423141168
 30
0.0
 11
4000.710008660044
 21
3611.3572101312411
 31
0.0
  0
LINE
  5
821A
  8
0
  6
BYBLOCK
 62
     0
 10
3809.710008660044
 20
3586.3572101312411
 30
0.0
 11
3950.710008660044
 21
3586.3572101312411
 31
0.0
  0
TEXT
  5
821B
  8
3
 62
     0
 10
3797.3729508718739
 20
3618.015136953225
 30
0.0
 40
75.0
  1
241
  0
INSERT
  5
821C
  8
0
  6
BYBLOCK
 62
     0
  2
_OPEN
 10
3759.710008660044
 20
3586.3572101312411
 30
0.0
 41
50.0
 42
50.0
 43
50.0
 50
180.0
  0
INSERT
  5
821D
  8
0
  6
BYBLOCK
 62
     0
  2
_OPEN
 10
4000.710008660044
 20
3586.3572101312411
 30
0.0
 41
50.0
 42
50.0
 43
50.0
  0
POINT
  5
821E
  8
DEFPOINTS
  6
BYBLOCK
 62
     0
 10
3759.710008660044
 20
3468.6745734818642
 30
0.0
  0
POINT
  5
821F
  8
DEFPOINTS
  6
BYBLOCK
 62
     0
 10
4000.710008660044
 20
3192.3570423141168
 30
0.0
  0
POINT
  5
8220
  8
DEFPOINTS
  6
BYBLOCK
 62
     0
 10
4000.710008660044
 20
3586.3572101312411
 30
0.0
  0
ENDBLK
  5
8221
  8
0
  0
BLOCK
  8
0
  2
*D18
 70
     1
 10
0.0
 20
0.0
 30
0.0
  3
*D18
  1

  0
LINE
  5
83D8
  8
3
 62
     0
 10
545.97053967076135
 20
1996.295595788592
 30
0.0
 11
545.97053967076135
 21
1816.8672365933739
 31
0.0
  0
LINE
  5
83D9
  8
3
 62
     0
 10
1225.9705396707609
 20
1996.295595788592
 30
0.0
 11
1225.9705396707609
 21
1816.8672365933739
 31
0.0
  0
LINE
  5
83DA
  8
3
 62
     0
 10
595.97053967076135
 20
1841.8672365933739
 30
0.0
 11
1175.9705396707609
 21
1841.8672365933739
 31
0.0
  0
INSERT
  5
83DB
  8
3
 62
     0
  2
_OPEN
 10
545.97053967076135
 20
1841.8672365933739
 30
0.0
 41
50.0
 42
50.0
 43
50.0
 50
180.0
  0
INSERT
  5
83DC
  8
3
 62
     0
  2
_OPEN
 10
1225.9705396707609
 20
1841.8672365933739
 30
0.0
 41
50.0
 42
50.0
 43
50.0
  0
TEXT
  8
3
  40
75
  5
8414
  62
0
  72
0
  71
0
 10
735.971
 20
1771.62
 30
0.000000
  1
680
  0
POINT
  5
83DE
  8
DEFPOINTS
 62
     0
 10
545.97053967076135
 20
2008.795595788592
 30
0.0
  0
POINT
  5
83DF
  8
DEFPOINTS
 62
     0
 10
1225.9705396707609
 20
2008.795595788592
 30
0.0
  0
POINT
  5
83E0
  8
DEFPOINTS
 62
     0
 10
1225.9705396707609
 20
1841.8672365933739
 30
0.0
  0
ENDBLK
  5
82ED
  8
0
  0
BLOCK
  8
0
  2
*D19
 70
     1
 10
0.0
 20
0.0
 30
0.0
  3
*D19
  1

  0
LINE
  5
83E1
  8
3
 62
     0
 10
1225.9705396707609
 20
1996.295595788592
 30
0.0
 11
1225.9705396707609
 21
1816.8672365933739
 31
0.0
  0
LINE
  5
83E2
  8
3
 62
     0
 10
1625.9705396707609
 20
1996.295595788592
 30
0.0
 11
1625.9705396707609
 21
1816.8672365933739
 31
0.0
  0
LINE
  5
83E3
  8
3
 62
     0
 10
1275.9705396707609
 20
1841.8672365933739
 30
0.0
 11
1575.9705396707609
 21
1841.8672365933739
 31
0.0
  0
INSERT
  5
83E4
  8
3
 62
     0
  2
_OPEN
 10
1225.9705396707609
 20
1841.8672365933739
 30
0.0
 41
50.0
 42
50.0
 43
50.0
 50
180.0
  0
INSERT
  5
83E5
  8
3
 62
     0
  2
_OPEN
 10
1625.9705396707609
 20
1841.8672365933739
 30
0.0
 41
50.0
 42
50.0
 43
50.0
  0
TEXT
  8
3
  40
75
  5
8415
  62
0
  72
0
  71
0
 10
1275.97
 20
1771.62
 30
0.000000
  1
400
  0
POINT
  5
83E7
  8
DEFPOINTS
 62
     0
 10
1225.9705396707609
 20
2008.795595788592
 30
0.0
  0
POINT
  5
83E8
  8
DEFPOINTS
 62
     0
 10
1625.9705396707609
 20
2008.795595788592
 30
0.0
  0
POINT
  5
83E9
  8
DEFPOINTS
 62
     0
 10
1625.9705396707609
 20
1841.8672365933739
 30
0.0
  0
ENDBLK
  5
82FA
  8
0
  0
BLOCK
  8
0
  2
*D20
 70
     1
 10
0.0
 20
0.0
 30
0.0
  3
*D20
  1

  0
LINE
  5
83EA
  8
3
 62
     0
 10
2852.710008660044
 20
1996.295595788592
 30
0.0
 11
2852.710008660044
 21
1816.8672365933739
 31
0.0
  0
LINE
  5
83EB
  8
3
 62
     0
 10
3759.710008660044
 20
1996.295595788592
 30
0.0
 11
3759.710008660044
 21
1816.8672365933739
 31
0.0
  0
LINE
  5
83EC
  8
3
 62
     0
 10
2902.710008660044
 20
1841.8672365933739
 30
0.0
 11
3709.710008660044
 21
1841.8672365933739
 31
0.0
  0
INSERT
  5
83ED
  8
3
 62
     0
  2
_OPEN
 10
2852.710008660044
 20
1841.8672365933739
 30
0.0
 41
50.0
 42
50.0
 43
50.0
 50
180.0
  0
INSERT
  5
83EE
  8
3
 62
     0
  2
_OPEN
 10
3759.710008660044
 20
1841.8672365933739
 30
0.0
 41
50.0
 42
50.0
 43
50.0
  0
TEXT
  8
3
  40
75
  5
8416
  62
0
  72
0
  71
0
 10
3156.21
 20
1771.62
 30
0.000000
  1
907
  0
POINT
  5
83F0
  8
DEFPOINTS
 62
     0
 10
2852.710008660044
 20
2008.795595788592
 30
0.0
  0
POINT
  5
83F1
  8
DEFPOINTS
 62
     0
 10
3759.710008660044
 20
2008.795595788592
 30
0.0
  0
POINT
  5
83F2
  8
DEFPOINTS
 62
     0
 10
3759.710008660044
 20
1841.8672365933739
 30
0.0
  0
ENDBLK
  5
8307
  8
0
  0
BLOCK
  8
0
  2
*D21
 70
     1
 10
0.0
 20
0.0
 30
0.0
  3
*D21
  1

  0
LINE
  5
83F3
  8
3
 62
     0
 10
3759.710008660044
 20
1996.295595788592
 30
0.0
 11
3759.710008660044
 21
1816.8672365933739
 31
0.0
  0
LINE
  5
83F4
  8
3
 62
     0
 10
4052.710008660044
 20
1996.295595788592
 30
0.0
 11
4052.710008660044
 21
1816.8672365933739
 31
0.0
  0
LINE
  5
83F5
  8
3
 62
     0
 10
3809.710008660044
 20
1841.8672365933739
 30
0.0
 11
4002.710008660044
 21
1841.8672365933739
 31
0.0
  0
INSERT
  5
83F6
  8
3
 62
     0
  2
_OPEN
 10
3759.710008660044
 20
1841.8672365933739
 30
0.0
 41
50.0
 42
50.0
 43
50.0
 50
180.0
  0
INSERT
  5
83F7
  8
3
 62
     0
  2
_OPEN
 10
4052.710008660044
 20
1841.8672365933739
 30
0.0
 41
50.0
 42
50.0
 43
50.0
  0
TEXT
  8
3
  40
75
  5
8417
  62
0
  72
0
  71
0
 10
3756.21
 20
1771.62
 30
0.000000
  1
293
  0
POINT
  5
83F9
  8
DEFPOINTS
 62
     0
 10
3759.710008660044
 20
2008.795595788592
 30
0.0
  0
POINT
  5
83FA
  8
DEFPOINTS
 62
     0
 10
4052.710008660044
 20
2008.795595788592
 30
0.0
  0
POINT
  5
83FB
  8
DEFPOINTS
 62
     0
 10
4052.710008660044
 20
1841.8672365933739
 30
0.0
  0
ENDBLK
  5
8316
  8
0
  0
BLOCK
  8
0
  2
*D22
 70
     1
 10
0.0
 20
0.0
 30
0.0
  3
*D22
  1

  0
LINE
  5
83FC
  8
3
 62
     0
 10
1698.4705396707609
 20
3233.795595788592
 30
0.0
 11
2205.7095126596
 21
3233.795595788592
 31
0.0
  0
LINE
  5
83FD
  8
3
 62
     0
 10
1638.4705396707609
 20
2008.795595788592
 30
0.0
 11
2205.7095126595991
 21
2008.795595788592
 31
0.0
  0
LINE
  5
83FE
  8
3
 62
     0
 10
2180.7095126595991
 20
3183.795595788592
 30
0.0
 11
2180.7095126595991
 21
2058.795595788592
 31
0.0
  0
INSERT
  5
83FF
  8
3
 62
     0
  2
_OPEN
 10
2180.7095126595991
 20
3233.795595788592
 30
0.0
 41
50.0
 42
50.0
 43
50.0
 50
90.0
  0
INSERT
  5
8400
  8
3
 62
     0
  2
_OPEN
 10
2180.7095126595991
 20
2008.795595788592
 30
0.0
 41
50.0
 42
50.0
 43
50.0
 50
270.0
  0
TEXT
  8
3
  40
75
  5
8418
  62
0
  72
0
  71
0
 10
1968.21
 20
2488.55
 30
0.000000
  1
1225
  0
POINT
  5
8402
  8
DEFPOINTS
 62
     0
 10
1685.9705396707609
 20
3233.795595788592
 30
0.0
  0
POINT
  5
8403
  8
DEFPOINTS
 62
     0
 10
1625.9705396707609
 20
2008.795595788592
 30
0.0
  0
POINT
  5
8404
  8
DEFPOINTS
 62
     0
 10
2180.7095126595991
 20
2008.795595788592
 30
0.0
  0
ENDBLK
  5
8323
  8
0
  0
ENDSEC
  0
SECTION
  2
ENTITIES
  0
DIMENSION
  5
7BD7
  8
3
  2
*D0
 10
525.97053967076135
 20
3534.341074806659
 30
0.0
 11
1105.9705396707609
 21
3596.841074806659
 31
0.0
 70
     0
 13
1685.9705396707609
 23
3233.795595788592
 33
0.0
 14
525.97053967076135
 24
2148.795595788592
 34
0.0
1001
ACAD
1000
DSTYLE
1002
{
1070
   287
1070
     3
1070
    40
1040
25.0
1070
   143
1040
0.039
1070
   172
1070
     1
1070
   271
1070
     0
1070
   279
1070
     0
1070
   288
1070
     1
1002
}
  0
DIMENSION
  5
7BD9
  8
3
  2
*D1
 10
680.18000247102646
 20
3383.6693209045789
 30
0.0
 11
953.07527107089379
 21
3446.1693209045789
 31
0.0
 70
     0
  1
548
 13
1225.9705396707609
 23
3257.3464800564739
 33
0.0
 14
680.18000247102646
 24
2513.795595788592
 34
0.0
1001
ACAD
1000
DSTYLE
1002
{
1070
   287
1070
     3
1070
    40
1040
25.0
1070
   143
1040
0.039
1070
   172
1070
     1
1070
   271
1070
     0
1070
   279
1070
     0
1070
   288
1070
     1
1002
}
  0
LINE
  5
7BDB
  8
1
 10
1278.7621288649591
 20
2373.3924330380651
 30
0.0
 11
778.76212886495887
 21
2185.3924330380651
 31
0.0
  0
LINE
  5
7BDC
  8
1
 10
1173.1789504765629
 20
2654.1987585391198
 30
0.0
 11
673.17895047656293
 21
2466.1987585391189
 31
0.0
  0
LINE
  5
7BDD
  8
1
 10
1253.7741099797049
 20
2439.8499300733142
 30
0.0
 11
753.77410997970583
 21
2251.8499300733151
 31
0.0
  0
LINE
  5
7BDE
  8
1
 10
1198.166969361816
 20
2587.7412615038702
 30
0.0
 11
698.16696936181688
 21
2399.7412615038702
 31
0.0
  0
LINE
  5
7BE2
  8
1
 10
525.97053967076135
 20
2108.795595788592
 30
0.0
 11
1625.9705396707609
 21
2108.795595788592
 31
0.0
  0
LINE
  5
7BE3
  8
1
 10
545.97053967076135
 20
2008.795595788592
 30
0.0
 11
1625.9705396707609
 21
2008.795595788592
 31
0.0
1001
ACAD
1000
ASC_BOUNDS
1002
{
1070
    19
1002
}
  0
ARC
  5
7BE4
  8
1
 10
1272.9705396707609
 20
2560.795595788592
 30
0.0
 40
595.0
 50
94.530605042682623
 51
184.53060504268259
  0
LINE
  5
7BE5
  8
2
 10
620.49065377942043
 20
2513.795595788592
 30
0.0
 11
1739.6131002282641
 21
2513.795595788592
 31
0.0
  0
ARC
  5
7BE6
  8
1
 10
725.97053967076135
 20
2325.795595788592
 30
0.0
 40
150.0
 50
110.6062606138368
 51
290.60626061383681
  0
CIRCLE
  5
7BE7
  8
1
 10
725.97053967076135
 20
2325.795595788592
 30
0.0
 40
79.0
  0
LINE
  5
7BE8
  8
2
 10
725.97053967076135
 20
2479.9946483088988
 30
0.0
 11
725.97053967076135
 21
2008.795595788592
 31
0.0
  0
ARC
  5
7BE9
  8
1
 10
725.97053967076135
 20
2325.795595788592
 30
0.0
 40
142.5
 50
0.0
 51
213.03386838236159
  0
ARC
  5
7BEA
  8
1
 10
725.97053967076135
 20
2325.795595788592
 30
0.0
 40
142.5
 50
326.96619232801208
 51
0.0
  0
LINE
  5
7BEC
  8
1
 10
562.81637013528234
 20
2193.795595788592
 30
0.0
 11
888.93745315411888
 21
2193.795595788592
 31
0.0
  0
LINE
  5
7BEE
  8
1
 10
606.50588166183843
 20
2248.1139024058448
 30
0.0
 11
595.97053967076135
 21
2208.795595788592
 31
0.0
  0
LINE
  5
7BEF
  8
1
 10
525.97053967076135
 20
2148.795595788592
 30
0.0
 11
525.97053967076135
 21
2108.795595788592
 31
0.0
  0
LINE
  5
7BF0
  8
1
 10
545.97053967076135
 20
2108.795595788592
 30
0.0
 11
545.97053967076135
 21
2008.795595788592
 31
0.0
  0
LINE
  5
7BF1
  8
1
 10
550.97053967076135
 20
2148.795595788592
 30
0.0
 11
562.81637013528234
 21
2193.795595788592
 31
0.0
  0
LINE
  5
7BF2
  8
1
 10
525.97053967076135
 20
2148.795595788592
 30
0.0
 11
550.97053967076135
 21
2148.795595788592
 31
0.0
  0
LINE
  5
7BF3
  8
1
 10
595.97053967076135
 20
2208.5981957885929
 30
0.0
 11
595.97053967076135
 21
2193.795595788592
 31
0.0
  0
LINE
  5
7BF4
  8
1
 10
900.97053967076135
 20
2148.795595788592
 30
0.0
 11
925.97053967076135
 21
2148.795595788592
 31
0.0
  0
LINE
  5
7BF5
  8
1
 10
845.43527999082187
 20
2248.1140289901518
 30
0.0
 11
855.97053967076135
 21
2208.795595788592
 31
0.0
  0
LINE
  5
7BF6
  8
1
 10
855.97053967076135
 20
2208.5981957885929
 30
0.0
 11
855.97053967076135
 21
2193.795595788592
 31
0.0
  0
LINE
  5
7BF7
  8
1
 10
900.97053967076135
 20
2148.795595788592
 30
0.0
 11
888.93745315411888
 21
2193.795595788592
 31
0.0
  0
LINE
  5
7BF8
  8
1
 10
925.97053967076135
 20
2148.795595788592
 30
0.0
 11
925.97053967076135
 21
2108.795595788592
 31
0.0
  0
ARC
  5
7BF9
  8
1
 10
1178.9705396707609
 20
2560.795595788592
 30
0.0
 40
501.0
 50
239.66931013170949
 51
244.44818803932199
  0
LINE
  5
7BFA
  8
2
 10
560.43376440881184
 20
2325.795595788592
 30
0.0
 11
891.55156714431166
 21
2325.795595788592
 31
0.0
  0
ARC
  5
7BFB
  8
1
 10
1178.9705396707609
 20
2560.795595788592
 30
0.0
 40
501.0
 50
185.38296864988129
 51
191.25261904015011
  0
DIMENSION
  5
7BFD
  8
3
  2
*D2
 10
1986.4476877492971
 20
2008.795595788592
 30
0.0
 11
1923.9476877492971
 21
2261.2955957885929
 31
0.0
 70
     0
 13
1739.6131002282641
 23
2513.795595788592
 33
0.0
 14
1625.9705396707609
 24
2008.795595788592
 34
0.0
 50
90.0
1001
ACAD
1000
DSTYLE
1002
{
1070
   287
1070
     3
1070
    40
1040
25.0
1070
   143
1040
0.039
1070
   172
1070
     1
1070
   271
1070
     0
1070
   279
1070
     0
1070
   288
1070
     1
1002
}
  0
ARC
  5
7BFF
  8
1
 10
1187.9705396707609
 20
2475.795595788592
 30
0.0
 40
416.0
 50
311.45096141943219
 51
5.2410550612967093
  0
LINE
  5
7C00
  8
2
 10
1225.9705396707609
 20
3257.3464800564739
 30
0.0
 11
1225.9705396707609
 21
2008.795595788592
 31
0.0
  0
LINE
  5
7C09
  8
1
 10
1475.9705396707609
 20
2108.795595788592
 30
0.0
 11
1475.9705396707609
 21
2008.795595788592
 31
0.0
  0
LINE
  5
7C0A
  8
1
 10
1625.9705396707609
 20
2108.795595788592
 30
0.0
 11
1625.9705396707609
 21
2008.795595788592
 31
0.0
  0
DIMENSION
  5
7C16
  8
3
  2
*D3
 10
1225.9705396707609
 20
3383.6693209045789
 30
0.0
 11
1455.9705396707609
 21
3446.1693209045789
 31
0.0
 70
     0
 13
1685.9705396707609
 23
3233.795595788592
 33
0.0
 14
1225.9705396707609
 24
3257.3464800564739
 34
0.0
1001
ACAD
1000
DSTYLE
1002
{
1070
   287
1070
     3
1070
    40
1040
25.0
1070
   143
1040
0.039
1070
   172
1070
     1
1070
   271
1070
     0
1070
   279
1070
     0
1070
   288
1070
     1
1002
}
  0
LINE
  5
7C17
  8
1
 10
1597.503146772375
 20
2541.795595788592
 30
0.0
 11
1685.9705396707609
 21
2541.795595788592
 31
0.0
  0
LINE
  5
7C18
  8
1
 10
1685.9705396707609
 20
3191.795595788592
 30
0.0
 11
1225.9705396707609
 21
3153.9363885182779
 31
0.0
  0
LINE
  5
7C19
  8
1
 10
1645.9705396707609
 20
3188.5034908085649
 30
0.0
 11
1645.9705396707609
 21
2541.795595788592
 31
0.0
  0
ARC
  5
7C1A
  8
1
 10
1225.9705396707609
 20
2513.795595788592
 30
0.0
 40
150.0
 50
290.60626061383681
 51
110.6062606138368
  0
CIRCLE
  5
7C1B
  8
1
 10
1225.9705396707609
 20
2513.795595788592
 30
0.0
 40
79.0
  0
ARC
  5
7C1C
  8
1
 10
1263.9705396707609
 20
2475.795595788592
 30
0.0
 40
340.0
 50
6.4170531430286752
 51
11.193183605683821
  0
DIMENSION
  5
7C1D
  8
3
  2
*D4
 10
1986.4476877492971
 20
2513.795595788592
 30
0.0
 11
1923.9476877492971
 21
2852.7955957885929
 31
0.0
 70
     0
 13
1685.9705396707609
 23
3191.795595788592
 33
0.0
 14
1739.6131002282641
 24
2513.795595788592
 34
0.0
 50
90.0
1001
ACAD
1000
DSTYLE
1002
{
1070
   287
1070
     3
1070
    40
1040
25.0
1070
   143
1040
0.039
1070
   172
1070
     1
1070
   271
1070
     0
1070
   279
1070
     0
1070
   288
1070
     1
1002
}
  0
DIMENSION
  5
7C1E
  8
3
  2
*D5
 10
1834.9200638369821
 20
2541.795595788592
 30
0.0
 11
1772.4200638369821
 21
2866.7955957885929
 31
0.0
 70
     0
 13
1685.9705396707609
 23
3191.795595788592
 33
0.0
 14
1685.9705396707609
 24
2541.795595788592
 34
0.0
 50
90.0
1001
ACAD
1000
DSTYLE
1002
{
1070
   287
1070
     3
1070
    40
1040
25.0
1070
   143
1040
0.039
1070
   172
1070
     1
1070
   271
1070
     0
1070
   279
1070
     0
1070
   288
1070
     1
1002
}
  0
LINE
  5
7C1F
  8
1
 10
1682.9705396707609
 20
3233.795595788592
 30
0.0
 11
1682.9705396707609
 21
2499.295595788592
 31
0.0
  0
LINE
  5
7C20
  8
1
 10
1685.9705396707609
 20
3233.795595788592
 30
0.0
 11
1685.9705396707609
 21
2499.295595788592
 31
0.0
  0
LINE
  5
7C21
  8
1
 10
1682.9705396707609
 20
2499.295595788592
 30
0.0
 11
1685.9705396707609
 21
2499.295595788592
 31
0.0
  0
LINE
  5
7C22
  8
1
 10
1682.9705396707609
 20
3233.795595788592
 30
0.0
 11
1685.9705396707609
 21
3233.795595788592
 31
0.0
  0
LINE
  5
7C23
  8
1
 10
1200.9705396707609
 20
4169.5120844347966
 30
0.0
 11
744.97053967076135
 21
4169.5120844347985
 31
0.0
  0
DIMENSION
  5
7C24
  8
3
  2
*D6
 10
545.97053967076135
 20
3858.631408148764
 30
0.0
 11
1010.970539670761
 21
3921.131408148764
 31
0.0
 70
     0
 13
1475.9705396707609
 23
4150.5120844347966
 33
0.0
 14
545.97053967076135
 24
4150.5120844347966
 34
0.0
1001
ACAD
1000
DSTYLE
1002
{
1070
   287
1070
     3
1070
    40
1040
25.0
1070
   143
1040
0.039
1070
   172
1070
     1
1070
   271
1070
     0
1070
   279
1070
     0
1070
   288
1070
     1
1002
}
  0
DIMENSION
  5
7C25
  8
3
  2
*D7
 10
1625.9705396707609
 20
5496.0859710385494
 30
0.0
 11
1225.9705396707609
 21
5558.5859710385494
 31
0.0
 70
     0
 13
825.97053967076124
 23
5350.5120844347966
 33
0.0
 14
1625.9705396707609
 24
5350.5120844347966
 34
0.0
1001
ACAD
1000
DSTYLE
1002
{
1070
   287
1070
     3
1070
    40
1040
25.0
1070
   143
1040
0.039
1070
   172
1070
     1
1070
   271
1070
     0
1070
   279
1070
     0
1070
   288
1070
     1
1002
}
  0
LINE
  5
7C26
  8
1
 10
744.97053967076135
 20
4150.5120844347966
 30
0.0
 11
1200.9705396707609
 21
4150.5120844347966
 31
0.0
  0
LINE
  5
7C27
  8
1
 10
1375.9705396707609
 20
4009.5120844347971
 30
0.0
 11
575.97053967076135
 21
4009.5120844347971
 31
0.0
  0
LINE
  5
7C28
  8
1
 10
646.97053967076135
 20
4052.5120844347971
 30
0.0
 11
1304.9705396707609
 21
4052.5120844347971
 31
0.0
  0
LINE
  5
7C29
  8
1
 10
646.97053967076135
 20
4134.5120844347957
 30
0.0
 11
1304.9705396707609
 21
4134.5120844347966
 31
0.0
  0
LINE
  5
7C2A
  8
1
 10
1055.9705396707609
 20
4729.5120844347966
 30
0.0
 11
1200.9705396707609
 21
4729.5120844347966
 31
0.0
  0
LINE
  5
7C2B
  8
1
 10
1055.9705396707609
 20
4189.5120844347957
 30
0.0
 11
1200.9705396707609
 21
4189.5120844347957
 31
0.0
  0
LINE
  5
7C2C
  8
1
 10
679.82974694107543
 20
4817.0120844347966
 30
0.0
 11
1685.9705396707609
 21
4817.0120844347966
 31
0.0
  0
LINE
  5
7C2D
  8
1
 10
679.82974694107543
 20
5292.0120844347985
 30
0.0
 11
1685.9705396707609
 21
5292.0120844347985
 31
0.0
  0
LINE
  5
7C2E
  8
2
 10
647.13615589847541
 20
5054.5120844347966
 30
0.0
 11
1725.3144481150809
 21
5054.5120844347985
 31
0.0
  0
LINE
  5
7C2F
  8
1
 10
825.97053967076124
 20
5350.5120844347966
 30
0.0
 11
1625.9705396707609
 21
5350.5120844347966
 31
0.0
  0
DIMENSION
  5
7C30
  8
3
  2
*D8
 10
397.54136805931921
 20
4814.5120844347985
 30
0.0
 11
335.04136805931842
 21
4482.5120844347966
 31
0.0
 70
     0
 13
545.97053967076135
 23
4150.5120844347966
 33
0.0
 14
545.97053967076135
 24
4814.5120844347985
 34
0.0
 50
90.0
1001
ACAD
1000
DSTYLE
1002
{
1070
   287
1070
     3
1070
    40
1040
25.0
1070
   143
1040
0.039
1070
   172
1070
     1
1070
   271
1070
     0
1070
   279
1070
     0
1070
   288
1070
     1
1002
}
  0
LINE
  5
7C31
  8
1
 10
545.97053967076135
 20
4814.5120844347985
 30
0.0
 11
545.97053967076135
 21
4512.5120844347966
 31
0.0
  0
LINE
  5
7C32
  8
1
 10
525.97053967076135
 20
4232.5120844347966
 30
0.0
 11
525.97053967076135
 21
4172.5120844347966
 31
0.0
  0
LINE
  5
7C33
  8
1
 10
925.97053967076135
 20
4232.5120844347966
 30
0.0
 11
925.97053967076135
 21
4172.5120844347966
 31
0.0
  0
LINE
  5
7C34
  8
1
 10
583.47053967076135
 20
4571.5120844347985
 30
0.0
 11
583.47053967076135
 21
4181.5120844347957
 31
0.0
  0
LINE
  5
7C35
  8
1
 10
868.47053967076135
 20
4571.5120844347985
 30
0.0
 11
868.47053967076135
 21
4181.5120844347957
 31
0.0
  0
LINE
  5
7C36
  8
2
 10
725.97053967076135
 20
4627.2965214758733
 30
0.0
 11
725.97053967076135
 21
4002.078317874566
 31
0.0
  0
LINE
  5
7C37
  8
1
 10
744.97053967076135
 20
4172.5120844347985
 30
0.0
 11
925.97053967076135
 21
4172.5120844347985
 31
0.0
  0
LINE
  5
7C38
  8
1
 10
583.47053967076135
 20
4181.5120844347957
 30
0.0
 11
868.47053967076135
 21
4181.5120844347966
 31
0.0
  0
LINE
  5
7C39
  8
1
 10
706.97053967076135
 20
4169.5120844347985
 30
0.0
 11
575.97053967076135
 21
4169.5120844347966
 31
0.0
  0
LINE
  5
7C3A
  8
1
 10
525.97053967076135
 20
4172.5120844347966
 30
0.0
 11
706.97053967076135
 21
4172.5120844347985
 31
0.0
  0
LINE
  5
7C3B
  8
1
 10
545.97053967076135
 20
4150.5120844347966
 30
0.0
 11
706.97053967076135
 21
4150.5120844347966
 31
0.0
  0
LINE
  5
7C3C
  8
1
 10
575.97053967076135
 20
4169.5120844347966
 30
0.0
 11
575.97053967076135
 21
4009.5120844347971
 31
0.0
  0
LINE
  5
7C3D
  8
1
 10
545.97053967076135
 20
4172.5120844347985
 30
0.0
 11
545.97053967076135
 21
4150.5120844347966
 31
0.0
  0
LINE
  5
7C3E
  8
1
 10
646.97053967076135
 20
4134.5120844347957
 30
0.0
 11
646.97053967076135
 21
4052.5120844347971
 31
0.0
  0
LINE
  5
7C3F
  8
1
 10
706.97053967076135
 20
4181.5120844347957
 30
0.0
 11
706.97053967076135
 21
4134.5120844347957
 31
0.0
  0
LINE
  5
7C40
  8
1
 10
744.97053967076135
 20
4181.5120844347957
 30
0.0
 11
744.97053967076135
 21
4134.5120844347957
 31
0.0
  0
LINE
  5
7C41
  8
1
 10
804.97053967076135
 20
4134.5120844347957
 30
0.0
 11
804.97053967076135
 21
4052.5120844347971
 31
0.0
  0
LINE
  5
7C42
  8
1
 10
583.47053967076135
 20
4571.5120844347985
 30
0.0
 11
868.47053967076135
 21
4571.5120844347985
 31
0.0
  0
LINE
  5
7C43
  8
1
 10
525.97053967076135
 20
4512.5120844347966
 30
0.0
 11
525.97053967076135
 21
4452.5120844347966
 31
0.0
  0
LINE
  5
7C44
  8
1
 10
545.97053967076135
 20
4452.5120844347957
 30
0.0
 11
545.97053967076135
 21
4232.5120844347985
 31
0.0
  0
LINE
  5
7C45
  8
1
 10
525.97053967076135
 20
4232.5120844347966
 30
0.0
 11
583.47053967076135
 21
4232.5120844347985
 31
0.0
  0
LINE
  5
7C46
  8
1
 10
525.97053967076135
 20
4452.5120844347966
 30
0.0
 11
583.47053967076135
 21
4452.5120844347966
 31
0.0
  0
LINE
  5
7C47
  8
1
 10
525.97053967076135
 20
4512.5120844347966
 30
0.0
 11
583.47053967076135
 21
4512.5120844347966
 31
0.0
  0
LINE
  5
7C48
  8
1
 10
925.97053967076135
 20
4512.5120844347966
 30
0.0
 11
925.97053967076135
 21
4452.5120844347966
 31
0.0
  0
LINE
  5
7C4A
  8
1
 10
868.47053967076135
 20
4232.5120844347966
 30
0.0
 11
925.97053967076135
 21
4232.5120844347966
 31
0.0
  0
LINE
  5
7C4B
  8
1
 10
868.47053967076135
 20
4452.5120844347957
 30
0.0
 11
925.97053967076135
 21
4452.5120844347966
 31
0.0
  0
LINE
  5
7C4C
  8
1
 10
868.47053967076135
 20
4512.5120844347985
 30
0.0
 11
925.97053967076135
 21
4512.5120844347985
 31
0.0
  0
DIMENSION
  5
7C4D
  8
3
  2
*D9
 10
545.97053967076135
 20
5496.0859710385494
 30
0.0
 11
685.97053967076135
 21
5563.0468325985639
 31
0.0
 70
   128
 13
825.97053967076124
 23
5350.5120844347966
 33
0.0
 14
545.97053967076135
 24
4814.5120844347985
 34
0.0
1001
ACAD
1000
DSTYLE
1002
{
1070
   288
1070
     1
1070
   172
1070
     1
1070
    40
1040
25.0
1070
   271
1070
     0
1070
   143
1040
0.039
1002
}
  0
LINE
  5
7C4E
  8
1
 10
545.97053967076135
 20
4814.5120844347985
 30
0.0
 11
825.97053967076124
 21
4814.5120844347985
 31
0.0
  0
LINE
  5
7C4F
  8
1
 10
679.82974694107543
 20
4817.0120844347966
 30
0.0
 11
679.82974694107543
 21
5292.0120844347966
 31
0.0
  0
LINE
  5
7C50
  8
1
 10
825.97053967076124
 20
4817.0120844347966
 30
0.0
 11
825.97053967076124
 21
4814.5120844347985
 31
0.0
  0
LINE
  5
7C51
  8
1
 10
825.97053967076124
 20
5350.5120844347966
 30
0.0
 11
825.97053967076124
 21
5292.0120844347966
 31
0.0
  0
DIMENSION
  5
7C52
  8
3
  2
*D10
 10
1835.4243425314851
 20
4150.5120844347966
 30
0.0
 11
1772.9243425314839
 21
4750.5120844347985
 31
0.0
 70
     0
 13
1625.9705396707609
 23
5350.5120844347966
 33
0.0
 14
1475.9705396707609
 24
4150.5120844347966
 34
0.0
 50
90.0
1001
ACAD
1000
DSTYLE
1002
{
1070
   287
1070
     3
1070
    40
1040
25.0
1070
   143
1040
0.039
1070
   172
1070
     1
1070
   271
1070
     0
1070
   279
1070
     0
1070
   288
1070
     1
1002
}
  0
LINE
  5
7C53
  8
1
 10
1200.9705396707609
 20
4134.5120844347966
 30
0.0
 11
1200.9705396707609
 21
4817.0120844347966
 31
0.0
  0
LINE
  5
7C54
  8
1
 10
1250.9705396707609
 20
4134.5120844347966
 30
0.0
 11
1250.9705396707609
 21
4817.0120844347966
 31
0.0
  0
LINE
  5
7C55
  8
1
 10
1625.9705396707609
 20
4817.0120844347966
 30
0.0
 11
1625.9705396707609
 21
4764.5120844347985
 31
0.0
  0
LINE
  5
7C56
  8
1
 10
1682.9705396707609
 20
5334.5120844347966
 30
0.0
 11
1682.9705396707609
 21
4774.5120844347966
 31
0.0
  0
LINE
  5
7C57
  8
1
 10
1685.9705396707609
 20
5334.5120844347966
 30
0.0
 11
1685.9705396707609
 21
4774.5120844347966
 31
0.0
  0
LINE
  5
7C58
  8
2
 10
1225.9705396707609
 20
5322.5716836295805
 30
0.0
 11
1225.9705396707609
 21
4002.078317874566
 31
0.0
  0
DIMENSION
  5
7C59
  8
3
  2
*D11
 10
1625.9705396707609
 20
3858.631408148764
 30
0.0
 11
1790.2562539564749
 21
3921.131408148764
 31
0.0
 70
     0
 13
1475.9705396707609
 23
4150.5120844347966
 33
0.0
 14
1625.9705396707609
 24
4764.5120844347966
 34
0.0
1001
ACAD
1000
DSTYLE
1002
{
1070
   287
1070
     3
1070
    40
1040
25.0
1070
   143
1040
0.039
1070
   172
1070
     1
1070
   271
1070
     0
1070
   279
1070
     0
1070
   288
1070
     1
1002
}
  0
LINE
  5
7C5A
  8
1
 10
1475.9705396707609
 20
4764.5120844347957
 30
0.0
 11
1475.9705396707609
 21
4150.5120844347966
 31
0.0
  0
LINE
  5
7C5B
  8
1
 10
1250.9705396707609
 20
4150.5120844347957
 30
0.0
 11
1475.9705396707609
 21
4150.5120844347966
 31
0.0
  0
LINE
  5
7C5C
  8
1
 10
1375.9705396707609
 20
4169.5120844347966
 30
0.0
 11
1250.9705396707609
 21
4169.5120844347966
 31
0.0
  0
LINE
  5
7C5D
  8
1
 10
1146.9705396707609
 20
4052.5120844347971
 30
0.0
 11
1146.9705396707609
 21
4134.5120844347966
 31
0.0
  0
LINE
  5
7C5E
  8
1
 10
1304.9705396707609
 20
4052.5120844347971
 30
0.0
 11
1304.9705396707609
 21
4134.5120844347966
 31
0.0
  0
LINE
  5
7C5F
  8
1
 10
1375.9705396707609
 20
4009.5120844347971
 30
0.0
 11
1375.9705396707609
 21
4169.5120844347966
 31
0.0
  0
POINT
  5
7C60
  8
1
 10
1475.9705396707609
 20
4150.5120844347966
 30
0.0
  0
LINE
  5
7C61
  8
1
 10
1250.9705396707609
 20
4729.5120844347966
 30
0.0
 11
1395.9705396707609
 21
4729.5120844347966
 31
0.0
  0
LINE
  5
7C62
  8
1
 10
1250.9705396707609
 20
4189.5120844347957
 30
0.0
 11
1395.9705396707609
 21
4189.5120844347957
 31
0.0
  0
LINE
  5
7C64
  8
1
 10
1475.9705396707609
 20
4764.5120844347966
 30
0.0
 11
1625.9705396707609
 21
4764.5120844347966
 31
0.0
  0
POINT
  5
7C65
  8
1
 10
1625.9705396707609
 20
4764.5120844347966
 30
0.0
  0
LINE
  5
7C66
  8
1
 10
1682.9705396707609
 20
4774.5120844347966
 30
0.0
 11
1685.9705396707609
 21
4774.5120844347966
 31
0.0
  0
LINE
  5
7C67
  8
1
 10
1645.9705396707609
 20
5292.0120844347985
 30
0.0
 11
1645.9705396707609
 21
4817.0120844347966
 31
0.0
  0
LINE
  5
7C68
  8
1
 10
1625.9705396707609
 20
5350.5120844347966
 30
0.0
 11
1625.9705396707609
 21
5292.0120844347985
 31
0.0
  0
LINE
  5
7C69
  8
1
 10
1682.9705396707609
 20
5334.5120844347966
 30
0.0
 11
1685.9705396707609
 21
5334.5120844347966
 31
0.0
  0
DIMENSION
  5
7C6A
  8
3
  2
*D12
 10
3759.710008660044
 20
3586.3572101312411
 30
0.0
 11
3237.210008660044
 21
3711.3572101312411
 31
0.0
 70
     0
  1
MAX\P1070
 13
2714.7100086600431
 23
2663.7955957885929
 33
0.0
 14
3759.710008660044
 24
3468.6745734818642
 34
0.0
1001
ACAD
1000
DSTYLE
1002
{
1070
   287
1070
     3
1070
    40
1040
25.0
1070
   143
1040
0.039
1070
   172
1070
     1
1070
   271
1070
     0
1070
   279
1070
     0
1070
   288
1070
     1
1002
}
  0
LINE
  5
7C6D
  8
1
 10
2839.7100086600431
 20
2488.795595788592
 30
0.0
 11
3522.2100086600431
 21
2488.795595788592
 31
0.0
  0
LINE
  5
7C6E
  8
1
 10
2839.7100086600431
 20
2538.795595788592
 30
0.0
 11
3522.210008660044
 21
2538.795595788592
 31
0.0
  0
LINE
  5
7C71
  8
1
 10
2852.710008660044
 20
2108.795595788592
 30
0.0
 11
4052.710008660044
 21
2108.795595788592
 31
0.0
  0
LINE
  5
7C72
  8
1
 10
2852.710008660044
 20
2008.795595788592
 30
0.0
 11
4052.710008660044
 21
2008.795595788592
 31
0.0
  0
LINE
  5
7C73
  8
2
 10
2737.124831615492
 20
2513.795595788592
 30
0.0
 11
4074.9965006452612
 21
2513.795595788592
 31
0.0
  0
LINE
  5
7C74
  8
1
 10
2714.7100086600431
 20
2663.7955957885929
 30
0.0
 11
2714.7100086600431
 21
2175.7955957885929
 31
0.0
  0
LINE
  5
7C75
  8
1
 10
2839.7100086600431
 20
2592.795595788592
 30
0.0
 11
2839.7100086600431
 21
2246.795595788592
 31
0.0
  0
LINE
  5
7C76
  8
1
 10
2757.710008660044
 20
2592.795595788592
 30
0.0
 11
2757.710008660044
 21
2246.795595788592
 31
0.0
  0
LINE
  5
7C77
  8
1
 10
3434.710008660044
 20
2458.795595788592
 30
0.0
 11
3434.710008660044
 21
2108.795595788592
 31
0.0
  0
LINE
  5
7C78
  8
1
 10
2894.710008660044
 20
2458.795595788592
 30
0.0
 11
2894.710008660044
 21
2108.795595788592
 31
0.0
  0
LINE
  5
7C7A
  8
1
 10
2714.7100086600431
 20
2175.795595788592
 30
0.0
 11
2874.710008660044
 21
2175.795595788592
 31
0.0
  0
LINE
  5
7C7B
  8
1
 10
2852.710008660044
 20
2108.795595788592
 30
0.0
 11
2852.710008660044
 21
2008.795595788592
 31
0.0
  0
LINE
  5
7C7C
  8
1
 10
2757.710008660044
 20
2246.795595788592
 30
0.0
 11
2839.7100086600431
 21
2246.795595788592
 31
0.0
  0
LINE
  5
7C7D
  8
1
 10
2874.710008660044
 20
2195.795595788592
 30
0.0
 11
2874.710008660044
 21
2175.7955957885929
 31
0.0
  0
LINE
  5
7C7E
  8
1
 10
2839.7100086600431
 20
2306.795595788592
 30
0.0
 11
2894.710008660044
 21
2306.795595788592
 31
0.0
  0
LINE
  5
7C7F
  8
1
 10
2839.7100086600431
 20
2344.795595788592
 30
0.0
 11
2894.710008660044
 21
2344.795595788592
 31
0.0
  0
LINE
  5
7C80
  8
2
 10
2737.124831615492
 20
2325.795595788592
 30
0.0
 11
2894.710008660044
 21
2325.795595788592
 31
0.0
  0
LINE
  5
7C81
  8
1
 10
2757.710008660044
 20
2404.795595788592
 30
0.0
 11
2839.7100086600431
 21
2404.795595788592
 31
0.0
  0
LINE
  5
7C82
  8
1
 10
2757.710008660044
 20
2434.795595788592
 30
0.0
 11
2839.7100086600431
 21
2434.795595788592
 31
0.0
  0
LINE
  5
7C83
  8
1
 10
2757.710008660044
 20
2592.795595788592
 30
0.0
 11
2839.7100086600431
 21
2592.795595788592
 31
0.0
  0
LINE
  5
7C84
  8
1
 10
2714.7100086600431
 20
2663.795595788592
 30
0.0
 11
2874.710008660044
 21
2663.795595788592
 31
0.0
  0
LINE
  5
7C85
  8
1
 10
2874.710008660044
 20
2663.795595788592
 30
0.0
 11
2874.710008660044
 21
2643.795595788592
 31
0.0
  0
LINE
  5
7C86
  8
1
 10
2894.710008660044
 20
2458.795595788592
 30
0.0
 11
3434.710008660044
 21
2458.795595788592
 31
0.0
  0
LINE
  5
7C88
  8
2
 10
3759.710008660044
 20
3329.6560255097738
 30
0.0
 11
3759.710008660044
 21
2008.795595788592
 31
0.0
  0
LINE
  5
7C89
  8
1
 10
3522.210008660044
 20
3192.295595788592
 30
0.0
 11
3522.210008660044
 21
2108.795595788592
 31
0.0
  0
LINE
  5
7C8A
  8
1
 10
3997.2100086600449
 20
3192.295595788592
 30
0.0
 11
3997.2100086600431
 21
2108.795595788592
 31
0.0
  0
LINE
  5
7C8D
  8
1
 10
4052.710008660044
 20
2108.795595788592
 30
0.0
 11
4052.710008660044
 21
2008.795595788592
 31
0.0
  0
LINE
  5
7C8E
  8
1
 10
3522.210008660044
 20
3191.7955957885929
 30
0.0
 11
3997.210008660044
 21
2542.295595788592
 31
0.0
  0
LINE
  5
7C8F
  8
1
 10
3997.210008660044
 20
3192.295595788592
 30
0.0
 11
3522.210008660044
 21
2542.295595788592
 31
0.0
  0
LINE
  5
7C90
  8
1
 10
3522.210008660044
 20
2542.295595788592
 30
0.0
 11
3997.210008660044
 21
2542.295595788592
 31
0.0
  0
DIMENSION
  5
7C91
  8
3
  2
*D13
 10
3997.210008660044
 20
3356.0333875568199
 30
0.0
 11
3759.710008660044
 21
3418.5333875568199
 31
0.0
 70
     0
 13
3522.210008660044
 23
3192.295595788592
 33
0.0
 14
3997.210008660044
 24
3192.295595788592
 34
0.0
1001
ACAD
1000
DSTYLE
1002
{
1070
   287
1070
     3
1070
    40
1040
25.0
1070
   143
1040
0.039
1070
   172
1070
     1
1070
   271
1070
     0
1070
   279
1070
     0
1070
   288
1070
     1
1002
}
  0
LINE
  5
7C92
  8
1
 10
3522.210008660044
 20
3192.295595788592
 30
0.0
 11
3997.210008660044
 21
3192.295595788592
 31
0.0
  0
LINE
  5
7FB5
  8
4
 10
4625.0
 20
1250.0
 30
0.0
 11
4625.0
 21
750.0
 31
0.0
  0
LINE
  5
7FB6
  8
4
 10
2875.0
 20
1250.0
 30
0.0
 11
2875.0
 21
750.0
 31
0.0
  0
LINE
  5
7FB7
  8
4
 10
1625.0
 20
1250.0
 30
0.0
 11
1625.0
 21
750.0
 31
0.0
  0
LINE
  5
7FBA
  8
4
 10
1625.0
 20
750.0
 30
0.0
 11
4625.0
 21
750.0
 31
0.0
  0
LINE
  5
7FBB
  8
4
 10
1625.0
 20
1000.0
 30
0.0
 11
4625.0
 21
1000.0
 31
0.0
  0
TEXT
  5
7FBC
  8
4
 10
1721.2552021172539
 20
1078.857564666532
 30
0.0
 40
125.0
  1
機器名称
  0
TEXT
  5
7FBD
  8
4
 10
1715.6452650619931
 20
804.11289183002725
 30
0.0
 40
125.0
  1
機器型番
  0
TEXT
  5
7FBE
  8
4
 10
2881.990037462489
 20
1055.6724359106031
 30
0.0
 40
110.0
  1
ミツヤ多翼送風機
  0
TEXT
  5
7FBF
  8
4
 10
2966.6362389637011
 20
792.89896069985843
 30
0.0
 40
125.0
  1
MF#4-1
  0
TEXT
  5
7FC1
  8
4
 10
2011.143650791284
 20
5958.5721033312893
 30
0.0
 40
135.0
  1
床置ベット
  0
TEXT
  5
7FC2
  8
4
 10
750.81568325920659
 20
6334.7024404982449
 30
0.0
 40
180.0
  1
遠心式片吸込片持多翼ファン
  0
LINE
  5
7FC3
  8
4
 10
625.0
 20
6173.5218856620122
 30
0.0
 11
4625.0
 21
6173.5218856620122
 31
0.0
  0
LINE
  5
7FC4
  8
4
 10
625.0
 20
6673.5218856620122
 30
0.0
 11
4625.0
 21
6673.5218856620122
 31
0.0
  0
LINE
  5
7FC5
  8
4
 10
1625.0
 20
1250.0
 30
0.0
 11
4625.0
 21
1250.0
 31
0.0
  0
LINE
  5
7FC6
  8
4
 10
625.0
 20
6673.5218856620122
 30
0.0
 11
625.0
 21
6173.5218856620122
 31
0.0
  0
TEXT
  5
7FC7
  8
4
 10
921.49657018452854
 20
5955.7986938658578
 30
0.0
 40
135.0
  1
右回転右横向
  0
TEXT
  5
7FC8
  8
4
 10
3672.4238981232238
 20
6765.1527037382721
 30
0.0
 40
140.0
  1
No.
  0
TEXT
  5
7FC9
  8
4
 10
3278.2401565000318
 20
5958.5721033312893
 30
0.0
 40
135.0
  1
縮尺：1/25
  0
LINE
  5
7FCA
  8
4
 10
4625.0
 20
6673.5218856620122
 30
0.0
 11
4625.0
 21
6173.5218856620122
 31
0.0
  0
LINE
  5
7FCB
  8
4
 10
5250.0
 20
7375.0
 30
0.0
 11
5250.0
 21
7375.0
 31
0.0
  0
LINE
  5
7FCC
  8
4
 10
3601.543555899661
 20
6703.1589578135026
 30
0.0
 11
3601.543555899661
 21
6966.6306538743811
 31
0.0
  0
LINE
  5
7FCD
  8
4
 10
3601.543555899661
 20
6966.6306538743811
 30
0.0
 11
4625.0
 21
6966.6306538743811
 31
0.0
  0
LINE
  5
7FCE
  8
4
 10
4625.0
 20
6966.6306538743811
 30
0.0
 11
4625.0
 21
6703.1589578135026
 31
0.0
  0
LINE
  5
7FCF
  8
4
 10
4625.0
 20
6703.1589578135026
 30
0.0
 11
3601.543555899661
 21
6703.1589578135026
 31
0.0
  0
LINE
  5
7FD0
  8
4
 10
0.0
 20
0.0
 30
0.0
 11
0.0
 21
7375.0
 31
0.0
  0
LINE
  5
7FD1
  8
4
 10
0.0
 20
7375.0
 30
0.0
 11
5250.0
 21
7375.0
 31
0.0
  0
LINE
  5
7FD2
  8
4
 10
5250.0
 20
7375.0
 30
0.0
 11
5250.0
 21
0.0
 31
0.0
  0
LINE
  5
7FD3
  8
4
 10
5250.0
 20
0.0
 30
0.0
 11
0.0
 21
0.0
 31
0.0
  0
POINT
  5
8073
  8
DEFPOINTS
  6
BYBLOCK
 62
     0
 10
1625.9705396707609
 20
2008.795595788592
 30
0.0
  0
DIMENSION
  5
81AE
  8
3
  2
*D16
 10
4207.7366917172012
 20
2178.795595788592
 30
0.0
 11
4207.7366917172003
 21
2508.9638330198591
 31
0.0
 70
   128
 13
3997.210008660044
 23
2848.795595788592
 33
0.0
 14
3997.2100086600431
 24
2178.795595788592
 34
0.0
 50
90.0
1001
ACAD
1000
DSTYLE
1002
{
1070
   287
1070
     3
1070
     3
1000
φ<>
1070
    40
1040
25.0
1070
   143
1040
0.039
1070
   172
1070
     1
1070
   271
1070
     0
1070
   279
1070
     0
1070
   288
1070
     1
1002
}
  0
DIMENSION
  5
81F7
  8
3
  2
*D17
 10
4000.710008660044
 20
3586.3572101312411
 30
0.0
 11
3877.7300937290161
 21
3655.515136953225
 31
0.0
 70
   128
 13
3759.710008660044
 23
3468.6745734818642
 33
0.0
 14
4000.710008660044
 24
3192.3570423141168
 34
0.0
1001
ACAD
1000
DSTYLE
1002
{
1070
   288
1070
     1
1070
   172
1070
     1
1070
    75
1070
     1
1070
    40
1040
25.0
1070
   271
1070
     0
1070
   143
1040
0.039
1002
}
  0
DIMENSION
  5
82EE
  8
3
  2
*D18
 10
1225.9705396707609
 20
1841.8672365933739
 30
0.0
 11
885.97053967076135
 21
1904.3672365933739
 31
0.0
 70
     0
 13
545.97053967076135
 23
2008.795595788592
 33
0.0
 14
1225.9705396707609
 24
2008.795595788592
 34
0.0
1001
ACAD
1000
DSTYLE
1002
{
1070
   287
1070
     3
1070
    40
1040
25.0
1070
   143
1040
0.039
1070
   172
1070
     1
1070
   271
1070
     0
1070
   279
1070
     0
1002
}
  0
DIMENSION
  5
82FB
  8
3
  2
*D19
 10
1625.9705396707609
 20
1841.8672365933739
 30
0.0
 11
1425.9705396707609
 21
1904.3672365933739
 31
0.0
 70
     0
 13
1225.9705396707609
 23
2008.795595788592
 33
0.0
 14
1625.9705396707609
 24
2008.795595788592
 34
0.0
1001
ACAD
1000
DSTYLE
1002
{
1070
   287
1070
     3
1070
    40
1040
25.0
1070
   143
1040
0.039
1070
   172
1070
     1
1070
   271
1070
     0
1070
   279
1070
     0
1002
}
  0
DIMENSION
  5
8308
  8
3
  2
*D20
 10
3759.710008660044
 20
1841.8672365933739
 30
0.0
 11
3306.2100086600431
 21
1904.3672365933739
 31
0.0
 70
     0
 13
2852.710008660044
 23
2008.795595788592
 33
0.0
 14
3759.710008660044
 24
2008.795595788592
 34
0.0
1001
ACAD
1000
DSTYLE
1002
{
1070
   287
1070
     3
1070
    40
1040
25.0
1070
   143
1040
0.039
1070
   172
1070
     1
1070
   271
1070
     0
1070
   279
1070
     0
1002
}
  0
DIMENSION
  5
8317
  8
3
  2
*D21
 10
4052.710008660044
 20
1841.8672365933739
 30
0.0
 11
3906.2100086600431
 21
1904.3672365933739
 31
0.0
 70
     0
 13
3759.710008660044
 23
2008.795595788592
 33
0.0
 14
4052.710008660044
 24
2008.795595788592
 34
0.0
1001
ACAD
1000
DSTYLE
1002
{
1070
   287
1070
     3
1070
    40
1040
25.0
1070
   143
1040
0.039
1070
   172
1070
     1
1070
   271
1070
     0
1070
   279
1070
     0
1002
}
  0
DIMENSION
  5
8324
  8
3
  2
*D22
 10
2180.7095126595991
 20
2008.795595788592
 30
0.0
 11
2118.2095126595991
 21
2621.2955957885929
 31
0.0
 70
     0
 13
1685.9705396707609
 23
3233.795595788592
 33
0.0
 14
1625.9705396707609
 24
2008.795595788592
 34
0.0
 50
90.0
1001
ACAD
1000
DSTYLE
1002
{
1070
   287
1070
     3
1070
    40
1040
25.0
1070
   143
1040
0.039
1070
   172
1070
     1
1070
   271
1070
     0
1070
   279
1070
     0
1002
}
  0
LINE
  5
8332
  8
1
 10
1055.9705396707609
 20
2458.795595788592
 30
0.0
 11
1395.9705396707609
 21
2458.795595788592
 31
0.0
  0
LINE
  5
8334
  8
1
 10
1395.9705396707609
 20
2458.795595788592
 30
0.0
 11
1475.9705396707609
 21
2108.795595788592
 31
0.0
  0
LINE
  5
8335
  8
1
 10
1055.9705396707609
 20
2458.795595788592
 30
0.0
 11
975.97053967076135
 21
2108.795595788592
 31
0.0
  0
LINE
  5
8336
  8
1
 10
1395.9705396707609
 20
4729.5120844347966
 30
0.0
 11
1395.9705396707609
 21
4189.5120844347957
 31
0.0
  0
LINE
  5
8337
  8
1
 10
1055.9705396707609
 20
4729.5120844347966
 30
0.0
 11
1055.9705396707609
 21
4189.5120844347957
 31
0.0
  0
ENDSEC
  0
EOF
