  0
SECTION
  2
HEADER
  9
$ACADVER
  1
AC1009
  9
$INSBASE
 10
0.0
 20
0.0
 30
0.0
  9
$EXTMIN
 10
0.0
 20
0.0
 30
0.0
  9
$EXTMAX
 10
5250.0
 20
7375.0
 30
0.0
  9
$LIMMIN
 10
0.0
 20
0.0
  9
$LIMMAX
 10
297.0
 20
210.0
  9
$ORTHOMODE
 70
     0
  9
$REGENMODE
 70
     1
  9
$FILLMODE
 70
     0
  9
$QTEXTMODE
 70
     0
  9
$MIRRTEXT
 70
     1
  9
$DRAGMODE
 70
     2
  9
$LTSCALE
 40
100.0
  9
$OSMODE
 70
    37
  9
$ATTMODE
 70
     1
  9
$TEXTSIZE
 40
180.0
  9
$TRACEWID
 40
0.05
  9
$TEXTSTYLE
  7
STANDARD
  9
$CLAYER
  8
3
  9
$CELTYPE
  6
BYLAYER
  9
$CECOLOR
 62
   256
  9
$DIMSCALE
 40
25.0
  9
$DIMASZ
 40
2.0
  9
$DIMEXO
 40
0.5
  9
$DIMDLI
 40
10.0
  9
$DIMRND
 40
0.0
  9
$DIMDLE
 40
0.0
  9
$DIMEXE
 40
1.0
  9
$DIMTP
 40
1.0
  9
$DIMTM
 40
1.0
  9
$DIMTXT
 40
3.0
  9
$DIMCEN
 40
0.0
  9
$DIMTSZ
 40
0.0
  9
$DIMTOL
 70
     0
  9
$DIMLIM
 70
     0
  9
$DIMTIH
 70
     0
  9
$DIMTOH
 70
     0
  9
$DIMSE1
 70
     0
  9
$DIMSE2
 70
     0
  9
$DIMTAD
 70
     1
  9
$DIMZIN
 70
     8
  9
$DIMBLK
  1

  9
$DIMASO
 70
     1
  9
$DIMSHO
 70
     1
  9
$DIMPOST
  1

  9
$DIMAPOST
  1

  9
$DIMALT
 70
     0
  9
$DIMALTD
 70
     2
  9
$DIMALTF
 40
0.039
  9
$DIMLFAC
 40
1.0
  9
$DIMTOFL
 70
     1
  9
$DIMTVP
 40
0.0
  9
$DIMTIX
 70
     0
  9
$DIMSOXD
 70
     0
  9
$DIMSAH
 70
     1
  9
$DIMBLK1
  1
OPEN
  9
$DIMBLK2
  1
OPEN
  9
$DIMSTYLE
  2
IGA
  9
$DIMCLRD
 70
     0
  9
$DIMCLRE
 70
     0
  9
$DIMCLRT
 70
     0
  9
$DIMTFAC
 40
10.0
  9
$DIMGAP
 40
1.0
  9
$LUNITS
 70
     2
  9
$LUPREC
 70
     3
  9
$SKETCHINC
 40
0.1
  9
$FILLETRAD
 40
50.0
  9
$AUNITS
 70
     0
  9
$AUPREC
 70
     0
  9
$MENU
  1
acad
  9
$ELEVATION
 40
0.0
  9
$PELEVATION
 40
0.0
  9
$THICKNESS
 40
0.0
  9
$LIMCHECK
 70
     0
  9
$BLIPMODE
 70
     0
  9
$CHAMFERA
 40
0.5
  9
$CHAMFERB
 40
0.5
  9
$SKPOLY
 70
     0
  9
$TDCREATE
 40
2451004.572090277
  9
$TDUPDATE
 40
2454953.7559514232
  9
$TDINDWG
 40
0.0177220718
  9
$TDUSRTIMER
 40
0.0177220718
  9
$USRTIMER
 70
     1
  9
$ANGBASE
 50
0.0
  9
$ANGDIR
 70
     0
  9
$PDMODE
 70
     0
  9
$PDSIZE
 40
0.0
  9
$PLINEWID
 40
0.0
  9
$COORDS
 70
     1
  9
$SPLFRAME
 70
     0
  9
$SPLINETYPE
 70
     6
  9
$SPLINESEGS
 70
     8
  9
$ATTDIA
 70
     0
  9
$ATTREQ
 70
     1
  9
$HANDLING
 70
 10241
  9
$HANDSEED
  5
831D
  9
$SURFTAB1
 70
     6
  9
$SURFTAB2
 70
     6
  9
$SURFTYPE
 70
     6
  9
$SURFU
 70
     6
  9
$SURFV
 70
     6
  9
$UCSNAME
  2

  9
$UCSORG
 10
0.0
 20
0.0
 30
0.0
  9
$UCSXDIR
 10
1.0
 20
0.0
 30
0.0
  9
$UCSYDIR
 10
0.0
 20
1.0
 30
0.0
  9
$PUCSNAME
  2

  9
$PUCSORG
 10
0.0
 20
0.0
 30
0.0
  9
$PUCSXDIR
 10
1.0
 20
0.0
 30
0.0
  9
$PUCSYDIR
 10
0.0
 20
1.0
 30
0.0
  9
$USERI1
 70
     0
  9
$USERI2
 70
     0
  9
$USERI3
 70
     0
  9
$USERI4
 70
     0
  9
$USERI5
 70
     0
  9
$USERR1
 40
0.0
  9
$USERR2
 40
0.0
  9
$USERR3
 40
0.0
  9
$USERR4
 40
0.0
  9
$USERR5
 40
0.0
  9
$WORLDVIEW
 70
     1
  9
$SHADEDGE
 70
     3
  9
$SHADEDIF
 70
    70
  9
$TILEMODE
 70
     1
  9
$MAXACTVP
 70
    16
  9
$PLIMCHECK
 70
     0
  9
$PEXTMIN
 10
1.0000000000000000E+020
 20
1.0000000000000000E+020
 30
1.0000000000000000E+020
  9
$PEXTMAX
 10
-1.0000000000000000E+020
 20
-1.0000000000000000E+020
 30
-1.0000000000000000E+020
  9
$PLIMMIN
 10
0.0
 20
0.0
  9
$PLIMMAX
 10
12.0
 20
9.0
  9
$UNITMODE
 70
     0
  9
$VISRETAIN
 70
     0
  9
$PLINEGEN
 70
     0
  9
$PSLTSCALE
 70
     1
  0
ENDSEC
  0
SECTION
  2
TABLES
  0
TABLE
  2
VPORT
 70
     2
  0
VPORT
  2
*ACTIVE
 70
     0
 10
0.0
 20
0.0
 11
1.0
 21
1.0
 12
8841.5248971284218
 22
3687.5000171712591
 13
0.0
 23
0.0
 14
10.0
 24
10.0
 15
10.0
 25
10.0
 16
0.0
 26
0.0
 36
1.0
 17
0.0
 27
0.0
 37
0.0
 40
7431.5372075423384
 41
3.1666666666666661
 42
50.0
 43
0.0
 44
0.0
 50
0.0
 51
0.0
 71
     0
 72
   100
 73
     1
 74
     0
 75
     0
 76
     0
 77
     0
 78
     0
  0
ENDTAB
  0
TABLE
  2
LTYPE
 70
     2
  0
LTYPE
  2
CONTINUOUS
 70
     0
  3
Solid line
 72
    65
 73
     0
 40
0.0
  0
LTYPE
  2
CENTER
 70
     0
  3
____ _ ____ _ ____ _ ____ _ ____ _ ____ _ ____ 
 72
    65
 73
     4
 40
2.0
 49
1.25
 49
-0.25
 49
0.25
 49
-0.25
  0
ENDTAB
  0
TABLE
  2
LAYER
 70
     6
  0
LAYER
  2
0
 70
     0
 62
     7
  6
CONTINUOUS
  0
LAYER
  2
3
 70
     0
 62
     2
  6
CONTINUOUS
  0
LAYER
  2
2
 70
     0
 62
     3
  6
CENTER
  0
LAYER
  2
1
 70
     0
 62
     4
  6
CONTINUOUS
  0
LAYER
  2
4
 70
     0
 62
     7
  6
CONTINUOUS
  0
LAYER
  2
DEFPOINTS
 70
     0
 62
     7
  6
CONTINUOUS
  0
ENDTAB
  0
TABLE
  2
STYLE
 70
     1
  0
STYLE
  2
STANDARD
 70
     0
 40
0.0
 41
1.0
 50
0.0
 71
     0
 42
180.0
  3
simplex.shx
  4
extfont.shx
  0
ENDTAB
  0
TABLE
  2
VIEW
 70
     0
  0
ENDTAB
  0
TABLE
  2
UCS
 70
     0
  0
ENDTAB
  0
TABLE
  2
APPID
 70
     1
  0
APPID
  2
ACAD
 70
     0
  0
ENDTAB
  0
TABLE
  2
DIMSTYLE
 70
     1
  0
DIMSTYLE
  2
IGA
 70
     0
  3

  4

  5

  6
OPEN
  7
OPEN
 40
2.0
 41
2.0
 42
0.5
 43
10.0
 44
1.0
 45
0.0
 46
0.0
 47
1.0
 48
1.0
140
3.0
141
0.0
142
0.0
143
0.03937
144
1.0
145
0.0
146
10.0
147
1.0
 71
     0
 72
     0
 73
     0
 74
     0
 75
     0
 76
     0
 77
     1
 78
     8
170
     0
171
     2
172
     0
173
     1
174
     0
175
     0
176
     0
177
     0
178
     0
  0
ENDTAB
  0
ENDSEC
  0
SECTION
  2
BLOCKS
  0
BLOCK
  8
0
  2
$MODEL_SPACE
 70
     0
 10
0.0
 20
0.0
 30
0.0
  3
$MODEL_SPACE
  1

  0
ENDBLK
  5
1B
  8
0
  0
BLOCK
 67
     1
  8
0
  2
$PAPER_SPACE
 70
     0
 10
0.0
 20
0.0
 30
0.0
  3
$PAPER_SPACE
  1

  0
ENDBLK
  5
18
 67
     1
  8
0
  0
BLOCK
  8
0
  2
ARROW
 70
     0
 10
0.0
 20
0.0
 30
0.0
  3
ARROW
  1

  0
LINE
  5
79FD
  8
0
 10
-0.9999999999999991
 20
0.1666666667000003
 30
0.0
 11
0.0
 21
0.0
 31
0.0
  0
LINE
  5
79FE
  8
0
 10
-0.9999999999999991
 20
0.0
 30
0.0
 11
0.0
 21
0.0
 31
0.0
  0
LINE
  5
79FF
  8
0
 10
-0.9999999999999991
 20
-0.1666666667000003
 30
0.0
 11
0.0
 21
0.0
 31
0.0
  0
ENDBLK
  5
7A01
  8
0
  0
BLOCK
  8
0
  2
*D1
 70
     1
 10
0.0
 20
0.0
 30
0.0
  3
*D1
  1

  0
LINE
  5
825A
  8
3
 62
     0
 10
777.09575821799172
 20
2498.5141629045111
 30
0.0
 11
777.09575821799172
 21
3270.5109544754368
 31
0.0
  0
LINE
  5
825B
  8
3
 62
     0
 10
1228.8862954177259
 20
3012.1567234620138
 30
0.0
 11
1228.8862954177259
 21
3270.5109544754368
 31
0.0
  0
LINE
  5
825C
  8
3
 62
     0
 10
827.09575821799172
 20
3245.5109544754368
 30
0.0
 11
1178.8862954177259
 21
3245.5109544754368
 31
0.0
  0
INSERT
  5
825D
  8
3
 62
     0
  2
_OPEN
 10
777.09575821799172
 20
3245.5109544754368
 30
0.0
 41
50.0
 42
50.0
 43
50.0
 50
180.0
  0
INSERT
  5
825E
  8
3
 62
     0
  2
_OPEN
 10
1228.8862954177259
 20
3245.5109544754368
 30
0.0
 41
50.0
 42
50.0
 43
50.0
  0
TEXT
  8
3
  40
75
  5
8309
  62
0
  72
0
  71
0
 10
852.991
 20
3175.26
 30
0.000000
  1
454
  0
POINT
  5
8260
  8
DEFPOINTS
 62
     0
 10
777.09575821799172
 20
2486.0141629045111
 30
0.0
  0
POINT
  5
8261
  8
DEFPOINTS
 62
     0
 10
1228.8862954177259
 20
2999.6567234620138
 30
0.0
  0
POINT
  5
8262
  8
DEFPOINTS
 62
     0
 10
1228.8862954177259
 20
3245.5109544754368
 30
0.0
  0
ENDBLK
  5
7EED
  8
0
  0
BLOCK
  8
0
  2
*D2
 70
     1
 10
0.0
 20
0.0
 30
0.0
  3
*D2
  1

  0
LINE
  5
8263
  8
3
 62
     0
 10
1201.8862954177259
 20
2946.0141629045111
 30
0.0
 11
602.09836830241977
 21
2946.0141629045111
 31
0.0
  0
LINE
  5
8264
  8
3
 62
     0
 10
702.74373486022341
 20
2486.0141629045111
 30
0.0
 11
602.09836830241954
 21
2486.0141629045111
 31
0.0
  0
LINE
  5
8265
  8
3
 62
     0
 10
627.09836830241977
 20
2896.0141629045111
 30
0.0
 11
627.09836830241954
 21
2536.0141629045102
 31
0.0
  0
INSERT
  5
8266
  8
3
 62
     0
  2
_OPEN
 10
627.09836830241977
 20
2946.0141629045111
 30
0.0
 41
50.0
 42
50.0
 43
50.0
 50
90.0
  0
INSERT
  5
8267
  8
3
 62
     0
  2
_OPEN
 10
627.09836830241954
 20
2486.0141629045111
 30
0.0
 41
50.0
 42
50.0
 43
50.0
 50
270.0
  0
TEXT
  8
3
  40
75
  5
830A
  62
0
  72
0
  71
0
 10
414.598
 20
2583.26
 30
0.000000
  1
460
  0
POINT
  5
8269
  8
DEFPOINTS
 62
     0
 10
1214.3862954177259
 20
2946.0141629045111
 30
0.0
  0
POINT
  5
826A
  8
DEFPOINTS
 62
     0
 10
715.24373486022341
 20
2486.0141629045111
 30
0.0
  0
POINT
  5
826B
  8
DEFPOINTS
 62
     0
 10
627.09836830241954
 20
2486.0141629045111
 30
0.0
  0
ENDBLK
  5
7ED7
  8
0
  0
BLOCK
  8
0
  2
*D3
 70
     1
 10
0.0
 20
0.0
 30
0.0
  3
*D3
  1

  0
LINE
  5
826C
  8
3
 62
     0
 10
702.74373486022341
 20
2486.0141629045111
 30
0.0
 11
602.09836830241977
 21
2486.0141629045111
 31
0.0
  0
LINE
  5
826D
  8
3
 62
     0
 10
816.38629541772661
 20
1906.0141629045111
 30
0.0
 11
602.09836830241954
 21
1906.0141629045111
 31
0.0
  0
LINE
  5
826E
  8
3
 62
     0
 10
627.09836830241977
 20
2436.0141629045111
 30
0.0
 11
627.09836830241954
 21
1956.0141629045111
 31
0.0
  0
INSERT
  5
826F
  8
3
 62
     0
  2
_OPEN
 10
627.09836830241977
 20
2486.0141629045111
 30
0.0
 41
50.0
 42
50.0
 43
50.0
 50
90.0
  0
INSERT
  5
8270
  8
3
 62
     0
  2
_OPEN
 10
627.09836830241954
 20
1906.0141629045111
 30
0.0
 41
50.0
 42
50.0
 43
50.0
 50
270.0
  0
TEXT
  8
3
  40
75
  5
830B
  62
0
  72
0
  71
0
 10
414.598
 20
2063.26
 30
0.000000
  1
580
  0
POINT
  5
8272
  8
DEFPOINTS
 62
     0
 10
715.24373486022341
 20
2486.0141629045111
 30
0.0
  0
POINT
  5
8273
  8
DEFPOINTS
 62
     0
 10
828.88629541772661
 20
1906.0141629045111
 30
0.0
  0
POINT
  5
8274
  8
DEFPOINTS
 62
     0
 10
627.09836830241954
 20
1906.0141629045111
 30
0.0
  0
ENDBLK
  5
7ECC
  8
0
  0
BLOCK
  8
0
  2
*D4
 70
     1
 10
0.0
 20
0.0
 30
0.0
  3
*D4
  1

  0
LINE
  5
8275
  8
3
 62
     0
 10
777.09575821799172
 20
3278.0109544754359
 30
0.0
 11
777.09575821799172
 21
3418.959717972416
 31
0.0
  0
LINE
  5
8276
  8
3
 62
     0
 10
1948.8862954177259
 20
2958.5141629045111
 30
0.0
 11
1948.8862954177259
 21
3418.959717972416
 31
0.0
  0
LINE
  5
8277
  8
3
 62
     0
 10
827.09575821799172
 20
3393.959717972416
 30
0.0
 11
1898.8862954177259
 21
3393.959717972416
 31
0.0
  0
INSERT
  5
8278
  8
3
 62
     0
  2
_OPEN
 10
777.09575821799172
 20
3393.959717972416
 30
0.0
 41
50.0
 42
50.0
 43
50.0
 50
180.0
  0
INSERT
  5
8279
  8
3
 62
     0
  2
_OPEN
 10
1948.8862954177259
 20
3393.959717972416
 30
0.0
 41
50.0
 42
50.0
 43
50.0
  0
TEXT
  8
3
  40
75
  5
830C
  62
0
  72
0
  71
0
 10
1212.99
 20
3323.71
 30
0.000000
  1
1174
  0
POINT
  5
827B
  8
DEFPOINTS
 62
     0
 10
777.09575821799172
 20
3265.5109544754359
 30
0.0
  0
POINT
  5
827C
  8
DEFPOINTS
 62
     0
 10
1948.8862954177259
 20
2946.0141629045111
 30
0.0
  0
POINT
  5
827D
  8
DEFPOINTS
 62
     0
 10
1948.8862954177259
 20
3393.959717972416
 30
0.0
  0
ENDBLK
  5
7EC1
  8
0
  0
BLOCK
  8
0
  2
*D5
 70
     1
 10
0.0
 20
0.0
 30
0.0
  3
*D5
  1

  0
LINE
  5
827E
  8
3
 62
     0
 10
978.88629541772661
 20
4110.2306515507162
 30
0.0
 11
978.88629541772661
 21
3805.8499752646831
 31
0.0
  0
LINE
  5
827F
  8
3
 62
     0
 10
1908.8862954177259
 20
4110.2306515507162
 30
0.0
 11
1908.8862954177259
 21
3805.8499752646831
 31
0.0
  0
LINE
  5
8280
  8
3
 62
     0
 10
1028.8862954177259
 20
3830.8499752646831
 30
0.0
 11
1858.8862954177259
 21
3830.8499752646831
 31
0.0
  0
INSERT
  5
8281
  8
3
 62
     0
  2
_OPEN
 10
978.88629541772661
 20
3830.8499752646831
 30
0.0
 41
50.0
 42
50.0
 43
50.0
 50
180.0
  0
INSERT
  5
8282
  8
3
 62
     0
  2
_OPEN
 10
1908.8862954177259
 20
3830.8499752646831
 30
0.0
 41
50.0
 42
50.0
 43
50.0
  0
TEXT
  8
3
  40
75
  5
830D
  62
0
  72
0
  71
0
 10
1293.89
 20
3760.60
 30
0.000000
  1
930
  0
POINT
  5
8284
  8
DEFPOINTS
 62
     0
 10
978.88629541772661
 20
4122.7306515507162
 30
0.0
  0
POINT
  5
8285
  8
DEFPOINTS
 62
     0
 10
1908.8862954177259
 20
4122.7306515507162
 30
0.0
  0
POINT
  5
8286
  8
DEFPOINTS
 62
     0
 10
1908.8862954177259
 20
3830.8499752646831
 30
0.0
  0
ENDBLK
  5
80C2
  8
0
  0
BLOCK
  8
0
  2
*D6
 70
     1
 10
0.0
 20
0.0
 30
0.0
  3
*D6
  1

  0
LINE
  5
8287
  8
3
 62
     0
 10
1628.8862954177259
 20
5335.2306515507162
 30
0.0
 11
1628.8862954177259
 21
5493.304538154468
 31
0.0
  0
LINE
  5
8288
  8
3
 62
     0
 10
828.88629541772661
 20
5335.2306515507162
 30
0.0
 11
828.88629541772661
 21
5493.304538154468
 31
0.0
  0
LINE
  5
8289
  8
3
 62
     0
 10
1578.8862954177259
 20
5468.304538154468
 30
0.0
 11
878.88629541772661
 21
5468.304538154468
 31
0.0
  0
INSERT
  5
828A
  8
3
 62
     0
  2
_OPEN
 10
1628.8862954177259
 20
5468.304538154468
 30
0.0
 41
50.0
 42
50.0
 43
50.0
  0
INSERT
  5
828B
  8
3
 62
     0
  2
_OPEN
 10
828.88629541772661
 20
5468.304538154468
 30
0.0
 41
50.0
 42
50.0
 43
50.0
 50
180.0
  0
TEXT
  8
3
  40
75
  5
830E
  62
0
  72
0
  71
0
 10
1078.89
 20
5398.05
 30
0.000000
  1
800
  0
POINT
  5
828D
  8
DEFPOINTS
 62
     0
 10
1628.8862954177259
 20
5322.7306515507171
 30
0.0
  0
POINT
  5
828E
  8
DEFPOINTS
 62
     0
 10
828.88629541772661
 20
5322.7306515507171
 30
0.0
  0
POINT
  5
828F
  8
DEFPOINTS
 62
     0
 10
828.88629541772661
 20
5468.304538154468
 30
0.0
  0
ENDBLK
  5
80E3
  8
0
  0
BLOCK
  8
0
  2
*D7
 70
     1
 10
0.0
 20
0.0
 30
0.0
  3
*D7
  1

  0
LINE
  5
8290
  8
3
 62
     0
 10
978.88629541772661
 20
4110.2306515507162
 30
0.0
 11
978.88629541772661
 21
3805.8499752646831
 31
0.0
  0
LINE
  5
8291
  8
3
 62
     0
 10
828.88629541772661
 20
4724.2306515507153
 30
0.0
 11
828.8862954177265
 21
3805.8499752646831
 31
0.0
  0
LINE
  5
8292
  8
3
 62
     0
 10
928.88629541772661
 20
3830.8499752646831
 30
0.0
 11
878.88629541772661
 21
3830.8499752646831
 31
0.0
  0
LINE
  5
8293
  8
3
 62
     0
 10
828.88629541772661
 20
3830.8499752646831
 30
0.0
 11
550.31486684629817
 21
3830.8499752646831
 31
0.0
  0
INSERT
  5
8294
  8
3
 62
     0
  2
_OPEN
 10
978.88629541772661
 20
3830.8499752646831
 30
0.0
 41
50.0
 42
50.0
 43
50.0
  0
INSERT
  5
8295
  8
3
 62
     0
  2
_OPEN
 10
828.88629541772661
 20
3830.8499752646831
 30
0.0
 41
50.0
 42
50.0
 43
50.0
 50
180.0
  0
TEXT
  8
3
  40
75
  5
830F
  62
0
  72
0
  71
0
 10
514.601
 20
3760.60
 30
0.000000
  1
150
  0
POINT
  5
8297
  8
DEFPOINTS
 62
     0
 10
978.88629541772661
 20
4122.7306515507162
 30
0.0
  0
POINT
  5
8298
  8
DEFPOINTS
 62
     0
 10
828.88629541772661
 20
4736.7306515507162
 30
0.0
  0
POINT
  5
8299
  8
DEFPOINTS
 62
     0
 10
828.88629541772661
 20
3830.8499752646831
 30
0.0
  0
ENDBLK
  5
80B7
  8
0
  0
BLOCK
  8
0
  2
*D8
 70
     1
 10
0.0
 20
0.0
 30
0.0
  3
*D8
  1

  0
LINE
  5
829A
  8
3
 62
     0
 10
816.38629541772661
 20
5322.7306515507171
 30
0.0
 11
594.43249255700277
 21
5322.7306515507171
 31
0.0
  0
LINE
  5
829B
  8
3
 62
     0
 10
966.38629541772661
 20
4122.7306515507162
 30
0.0
 11
594.43249255700255
 21
4122.7306515507162
 31
0.0
  0
LINE
  5
829C
  8
3
 62
     0
 10
619.43249255700289
 20
5272.7306515507162
 30
0.0
 11
619.43249255700255
 21
4172.7306515507162
 31
0.0
  0
INSERT
  5
829D
  8
3
 62
     0
  2
_OPEN
 10
619.43249255700289
 20
5322.7306515507171
 30
0.0
 41
50.0
 42
50.0
 43
50.0
 50
90.0
  0
INSERT
  5
829E
  8
3
 62
     0
  2
_OPEN
 10
619.43249255700255
 20
4122.7306515507162
 30
0.0
 41
50.0
 42
50.0
 43
50.0
 50
270.0
  0
TEXT
  8
3
  40
75
  5
8310
  62
0
  72
0
  71
0
 10
406.932
 20
4589.98
 30
0.000000
  1
1200
  0
POINT
  5
82A0
  8
DEFPOINTS
 62
     0
 10
828.88629541772661
 20
5322.7306515507171
 30
0.0
  0
POINT
  5
82A1
  8
DEFPOINTS
 62
     0
 10
978.88629541772661
 20
4122.7306515507162
 30
0.0
  0
POINT
  5
82A2
  8
DEFPOINTS
 62
     0
 10
619.43249255700255
 20
4122.7306515507162
 30
0.0
  0
ENDBLK
  5
80EE
  8
0
  0
BLOCK
  8
0
  2
*D9
 70
     1
 10
0.0
 20
0.0
 30
0.0
  3
*D9
  1

  0
LINE
  5
82A3
  8
3
 62
     0
 10
1921.3862954177259
 20
4122.7306515507162
 30
0.0
 11
2082.3154670291692
 21
4122.7306515507153
 31
0.0
  0
LINE
  5
82A4
  8
3
 62
     0
 10
1921.3862954177259
 20
4786.7306515507153
 30
0.0
 11
2082.3154670291692
 21
4786.7306515507153
 31
0.0
  0
LINE
  5
82A5
  8
3
 62
     0
 10
2057.3154670291692
 20
4172.7306515507153
 30
0.0
 11
2057.3154670291692
 21
4736.7306515507153
 31
0.0
  0
INSERT
  5
82A6
  8
3
 62
     0
  2
_OPEN
 10
2057.3154670291692
 20
4122.7306515507153
 30
0.0
 41
50.0
 42
50.0
 43
50.0
 50
270.0
  0
INSERT
  5
82A7
  8
3
 62
     0
  2
_OPEN
 10
2057.3154670291692
 20
4786.7306515507153
 30
0.0
 41
50.0
 42
50.0
 43
50.0
 50
90.0
  0
TEXT
  8
3
  40
75
  5
8311
  62
0
  72
0
  71
0
 10
1844.82
 20
4321.98
 30
0.000000
  1
664
  0
POINT
  5
82A9
  8
DEFPOINTS
 62
     0
 10
1908.8862954177259
 20
4122.7306515507162
 30
0.0
  0
POINT
  5
82AA
  8
DEFPOINTS
 62
     0
 10
1908.8862954177259
 20
4786.7306515507153
 30
0.0
  0
POINT
  5
82AB
  8
DEFPOINTS
 62
     0
 10
2057.3154670291692
 20
4786.7306515507153
 30
0.0
  0
ENDBLK
  5
80D8
  8
0
  0
BLOCK
  8
0
  2
*D10
 70
     1
 10
0.0
 20
0.0
 30
0.0
  3
*D10
  1

  0
LINE
  5
82AC
  8
3
 62
     0
 10
1906.8862954177259
 20
2958.5141629045111
 30
0.0
 11
1906.8862954177259
 21
3271.4913109830468
 31
0.0
  0
LINE
  5
82AD
  8
3
 62
     0
 10
1228.8862954177259
 20
3012.1567234620138
 30
0.0
 11
1228.8862954177259
 21
3271.4913109830468
 31
0.0
  0
LINE
  5
82AE
  8
3
 62
     0
 10
1856.8862954177259
 20
3246.4913109830468
 30
0.0
 11
1278.8862954177259
 21
3246.4913109830468
 31
0.0
  0
INSERT
  5
82AF
  8
3
 62
     0
  2
_OPEN
 10
1906.8862954177259
 20
3246.4913109830468
 30
0.0
 41
50.0
 42
50.0
 43
50.0
  0
INSERT
  5
82B0
  8
3
 62
     0
  2
_OPEN
 10
1228.8862954177259
 20
3246.4913109830468
 30
0.0
 41
50.0
 42
50.0
 43
50.0
 50
180.0
  0
TEXT
  8
3
  40
75
  5
8312
  62
0
  72
0
  71
0
 10
1417.89
 20
3176.24
 30
0.000000
  1
678
  0
POINT
  5
82B2
  8
DEFPOINTS
 62
     0
 10
1906.8862954177259
 20
2946.0141629045111
 30
0.0
  0
POINT
  5
82B3
  8
DEFPOINTS
 62
     0
 10
1228.8862954177259
 20
2999.6567234620138
 30
0.0
  0
POINT
  5
82B4
  8
DEFPOINTS
 62
     0
 10
1228.8862954177259
 20
3246.4913109830468
 30
0.0
  0
ENDBLK
  5
7F19
  8
0
  0
BLOCK
  8
0
  2
*D11
 70
     1
 10
0.0
 20
0.0
 30
0.0
  3
*D11
  1

  0
LINE
  5
82B5
  8
3
 62
     0
 10
1906.8862954177259
 20
2958.5141629045111
 30
0.0
 11
1906.8862954177259
 21
3119.9636870707318
 31
0.0
  0
LINE
  5
82B6
  8
3
 62
     0
 10
1256.8862954177259
 20
2958.5141629045111
 30
0.0
 11
1256.8862954177259
 21
3119.9636870707318
 31
0.0
  0
LINE
  5
82B7
  8
3
 62
     0
 10
1856.8862954177259
 20
3094.9636870707318
 30
0.0
 11
1306.8862954177259
 21
3094.9636870707318
 31
0.0
  0
INSERT
  5
82B8
  8
3
 62
     0
  2
_OPEN
 10
1906.8862954177259
 20
3094.9636870707318
 30
0.0
 41
50.0
 42
50.0
 43
50.0
  0
INSERT
  5
82B9
  8
3
 62
     0
  2
_OPEN
 10
1256.8862954177259
 20
3094.9636870707318
 30
0.0
 41
50.0
 42
50.0
 43
50.0
 50
180.0
  0
TEXT
  8
3
  40
75
  5
8313
  62
0
  72
0
  71
0
 10
1431.89
 20
3024.71
 30
0.000000
  1
650
  0
POINT
  5
82BB
  8
DEFPOINTS
 62
     0
 10
1906.8862954177259
 20
2946.0141629045111
 30
0.0
  0
POINT
  5
82BC
  8
DEFPOINTS
 62
     0
 10
1256.8862954177259
 20
2946.0141629045111
 30
0.0
  0
POINT
  5
82BD
  8
DEFPOINTS
 62
     0
 10
1256.8862954177259
 20
3094.9636870707318
 30
0.0
  0
ENDBLK
  5
7F24
  8
0
  0
BLOCK
  8
0
  2
*D12
 70
     1
 10
0.0
 20
0.0
 30
0.0
  3
*D12
  1

  0
LINE
  5
81A0
  8
0
  6
BYBLOCK
 62
     0
 10
1628.8862954177259
 20
5335.2306515507162
 30
0.0
 11
1628.8862954177259
 21
5493.304538154468
 31
0.0
  0
LINE
  5
81A1
  8
0
  6
BYBLOCK
 62
     0
 10
1908.8862954177259
 20
4799.2306515507162
 30
0.0
 11
1908.8862954177259
 21
5493.304538154468
 31
0.0
  0
LINE
  5
81A2
  8
0
  6
BYBLOCK
 62
     0
 10
1678.8862954177259
 20
5468.304538154468
 30
0.0
 11
1858.8862954177259
 21
5468.304538154468
 31
0.0
  0
TEXT
  5
81A3
  8
3
 62
     0
 10
1672.4577239891551
 20
5498.0895242577781
 30
0.0
 40
75.0
  1
280
  0
INSERT
  5
81A4
  8
0
  6
BYBLOCK
 62
     0
  2
_OPEN
 10
1628.8862954177259
 20
5468.304538154468
 30
0.0
 41
50.0
 42
50.0
 43
50.0
 50
180.0
  0
INSERT
  5
81A5
  8
0
  6
BYBLOCK
 62
     0
  2
_OPEN
 10
1908.8862954177259
 20
5468.304538154468
 30
0.0
 41
50.0
 42
50.0
 43
50.0
  0
POINT
  5
81A6
  8
DEFPOINTS
  6
BYBLOCK
 62
     0
 10
1628.8862954177259
 20
5322.7306515507171
 30
0.0
  0
POINT
  5
81A7
  8
DEFPOINTS
  6
BYBLOCK
 62
     0
 10
1908.8862954177259
 20
4786.7306515507153
 30
0.0
  0
POINT
  5
81A8
  8
DEFPOINTS
  6
BYBLOCK
 62
     0
 10
1908.8862954177259
 20
5468.304538154468
 30
0.0
  0
ENDBLK
  5
81A9
  8
0
  0
BLOCK
  8
0
  2
*D13
 70
     1
 10
0.0
 20
0.0
 30
0.0
  3
*D13
  1

  0
LINE
  5
82BE
  8
3
 62
     0
 10
2717.6257644070088
 20
2648.5141629045111
 30
0.0
 11
2717.6257644070088
 21
3270.9861096744739
 31
0.0
  0
LINE
  5
82BF
  8
3
 62
     0
 10
3762.6257644070088
 20
3230.9716666966201
 30
0.0
 11
3762.6257644070088
 21
3270.9861096744739
 31
0.0
  0
LINE
  5
82C0
  8
3
 62
     0
 10
2767.6257644070088
 20
3245.9861096744739
 30
0.0
 11
3712.6257644070088
 21
3245.9861096744739
 31
0.0
  0
INSERT
  5
82C1
  8
3
 62
     0
  2
_OPEN
 10
2717.6257644070088
 20
3245.9861096744739
 30
0.0
 41
50.0
 42
50.0
 43
50.0
 50
180.0
  0
INSERT
  5
82C2
  8
3
 62
     0
  2
_OPEN
 10
3762.6257644070088
 20
3245.9861096744739
 30
0.0
 41
50.0
 42
50.0
 43
50.0
  0
TEXT
  8
3
  40
75
  5
8314
  62
0
  72
0
  71
0
 10
3090.13
 20
3238.24
 30
0.000000
  1
MAX
  0
TEXT
  8
3
  40
75
  5
8315
  62
0
  72
0
  71
0
 10
3090.13
 20
3140.74
 30
0.000000
  1
1070
  0
POINT
  5
82C4
  8
DEFPOINTS
 62
     0
 10
2717.6257644070088
 20
2636.0141629045111
 30
0.0
  0
POINT
  5
82C5
  8
DEFPOINTS
 62
     0
 10
3762.6257644070088
 20
3218.4716666966201
 30
0.0
  0
POINT
  5
82C6
  8
DEFPOINTS
 62
     0
 10
3762.6257644070088
 20
3245.9861096744739
 30
0.0
  0
ENDBLK
  5
8133
  8
0
  0
BLOCK
  8
0
  2
*D14
 70
     1
 10
0.0
 20
0.0
 30
0.0
  3
*D14
  1

  0
LINE
  5
82C7
  8
3
 62
     0
 10
3525.1257644070079
 20
2958.5141629045111
 30
0.0
 11
3525.1257644070079
 21
3120.9414946193938
 31
0.0
  0
LINE
  5
82C8
  8
3
 62
     0
 10
4000.1257644070088
 20
2958.5141629045111
 30
0.0
 11
4000.1257644070088
 21
3120.9414946193938
 31
0.0
  0
LINE
  5
82C9
  8
3
 62
     0
 10
3575.1257644070079
 20
3095.9414946193951
 30
0.0
 11
3950.1257644070088
 21
3095.9414946193951
 31
0.0
  0
INSERT
  5
82CA
  8
3
 62
     0
  2
_OPEN
 10
3525.1257644070079
 20
3095.9414946193951
 30
0.0
 41
50.0
 42
50.0
 43
50.0
 50
180.0
  0
INSERT
  5
82CB
  8
3
 62
     0
  2
_OPEN
 10
4000.1257644070088
 20
3095.9414946193951
 30
0.0
 41
50.0
 42
50.0
 43
50.0
  0
TEXT
  8
3
  40
75
  5
8316
  62
0
  72
0
  71
0
 10
3612.63
 20
3025.69
 30
0.000000
  1
475
  0
POINT
  5
82CD
  8
DEFPOINTS
 62
     0
 10
3525.1257644070079
 20
2946.0141629045111
 30
0.0
  0
POINT
  5
82CE
  8
DEFPOINTS
 62
     0
 10
4000.1257644070088
 20
2946.0141629045111
 30
0.0
  0
POINT
  5
82CF
  8
DEFPOINTS
 62
     0
 10
4000.1257644070088
 20
3095.9414946193951
 30
0.0
  0
ENDBLK
  5
7FAE
  8
0
  0
BLOCK
  8
0
  2
_OPEN
 70
     0
 10
0.0
 20
0.0
 30
0.0
  3
_OPEN
  1

  0
LINE
  5
7EB3
  8
0
  6
BYBLOCK
 62
     0
 10
-1.0
 20
0.1666666666666666
 30
0.0
 11
0.0
 21
0.0
 31
0.0
  0
LINE
  5
7EB4
  8
0
  6
BYBLOCK
 62
     0
 10
0.0
 20
0.0
 30
0.0
 11
-1.0
 21
-0.1666666666666666
 31
0.0
  0
LINE
  5
7EB5
  8
0
  6
BYBLOCK
 62
     0
 10
0.0
 20
0.0
 30
0.0
 11
-1.0
 21
0.0
 31
0.0
  0
ENDBLK
  5
7EB6
  8
0
  0
BLOCK
  8
0
  2
_DOT
 70
     0
 10
0.0
 20
0.0
 30
0.0
  3
_DOT
  1

  0
LINE
  5
8178
  8
0
  6
BYBLOCK
 62
     0
 10
0.0
 20
0.0
 30
0.0
 11
-1.0
 21
-0.0000000000000284
 31
0.0
  0
POLYLINE
  5
8179
  8
0
  6
BYBLOCK
 62
     0
 66
     1
 10
0.0
 20
0.0
 30
0.0
 70
     1
 40
0.1666666666666666
 41
0.1666666666666666
  0
VERTEX
  5
82D9
  8
0
  6
BYBLOCK
 62
     0
 10
-0.0833333333333286
 20
-0.0000000000000284
 30
0.0
 42
1.0
  0
VERTEX
  5
82DA
  8
0
  6
BYBLOCK
 62
     0
 10
0.0833333333333286
 20
-0.0000000000000284
 30
0.0
 42
1.0
  0
SEQEND
  5
82DB
  8
0
  6
BYBLOCK
 62
     0
  0
ENDBLK
  5
8011
  8
0
  0
BLOCK
  8
0
  2
*D17
 70
     1
 10
0.0
 20
0.0
 30
0.0
  3
*D17
  1

  0
LINE
  5
82D0
  8
3
 62
     0
 10
4012.6257644070088
 20
2821.0141629045111
 30
0.0
 11
4209.12997691082
 21
2821.0141629045111
 31
0.0
  0
LINE
  5
82D1
  8
3
 62
     0
 10
4012.6257644070079
 20
2151.0141629045111
 30
0.0
 11
4209.12997691082
 21
2151.0141629045111
 31
0.0
  0
LINE
  5
82D2
  8
3
 62
     0
 10
4184.12997691082
 20
2771.0141629045111
 30
0.0
 11
4184.12997691082
 21
2201.0141629045111
 31
0.0
  0
INSERT
  5
82D3
  8
3
 62
     0
  2
_OPEN
 10
4184.12997691082
 20
2821.0141629045111
 30
0.0
 41
50.0
 42
50.0
 43
50.0
 50
90.0
  0
INSERT
  5
82D4
  8
3
 62
     0
  2
_OPEN
 10
4184.12997691082
 20
2151.0141629045111
 30
0.0
 41
50.0
 42
50.0
 43
50.0
 50
270.0
  0
TEXT
  8
3
  40
75
  5
8317
  62
0
  72
0
  71
0
 10
3971.63
 20
2364.06
 30
0.000000
  1
φ670
  0
POINT
  5
82D6
  8
DEFPOINTS
 62
     0
 10
4000.1257644070088
 20
2821.0141629045111
 30
0.0
  0
POINT
  5
82D7
  8
DEFPOINTS
 62
     0
 10
4000.1257644070079
 20
2151.0141629045111
 30
0.0
  0
POINT
  5
82D8
  8
DEFPOINTS
 62
     0
 10
4184.12997691082
 20
2151.0141629045111
 30
0.0
  0
ENDBLK
  5
8177
  8
0
  0
BLOCK
  8
0
  2
*D18
 70
     1
 10
0.0
 20
0.0
 30
0.0
  3
*D18
  1

  0
LINE
  5
8164
  8
0
  6
BYBLOCK
 62
     0
 10
4003.6257644070088
 20
2958.0525650193922
 30
0.0
 11
4003.6257644070088
 21
3270.9861096744739
 31
0.0
  0
LINE
  5
8165
  8
0
  6
BYBLOCK
 62
     0
 10
3812.6257644070088
 20
3245.9861096744739
 30
0.0
 11
3953.6257644070088
 21
3245.9861096744739
 31
0.0
  0
TEXT
  5
8166
  8
3
 62
     0
 10
3802.768621549867
 20
3274.2960854717921
 30
0.0
 40
75.0
  1
241
  0
INSERT
  5
8167
  8
0
  6
BYBLOCK
 62
     0
  2
_OPEN
 10
3762.6257644070088
 20
3245.9861096744739
 30
0.0
 41
50.0
 42
50.0
 43
50.0
 50
180.0
  0
INSERT
  5
8168
  8
0
  6
BYBLOCK
 62
     0
  2
_OPEN
 10
4003.6257644070088
 20
3245.9861096744739
 30
0.0
 41
50.0
 42
50.0
 43
50.0
  0
POINT
  5
8169
  8
DEFPOINTS
  6
BYBLOCK
 62
     0
 10
3762.6257644070088
 20
3218.4716666966201
 30
0.0
  0
POINT
  5
816A
  8
DEFPOINTS
  6
BYBLOCK
 62
     0
 10
4003.6257644070088
 20
2945.5525650193922
 30
0.0
  0
POINT
  5
816B
  8
DEFPOINTS
  6
BYBLOCK
 62
     0
 10
4003.6257644070088
 20
3245.9861096744739
 30
0.0
  0
ENDBLK
  5
816C
  8
0
  0
BLOCK
  8
0
  2
*D19
 70
     1
 10
0.0
 20
0.0
 30
0.0
  3
*D19
  1

  0
LINE
  5
82DC
  8
3
 62
     0
 10
828.88629541772661
 20
1893.5141629045111
 30
0.0
 11
828.88629541772661
 21
1710.086348330442
 31
0.0
  0
LINE
  5
82DD
  8
3
 62
     0
 10
1228.8862954177259
 20
1893.5141629045111
 30
0.0
 11
1228.8862954177259
 21
1710.086348330442
 31
0.0
  0
LINE
  5
82DE
  8
3
 62
     0
 10
878.88629541772661
 20
1735.0863483304411
 30
0.0
 11
1178.8862954177259
 21
1735.0863483304411
 31
0.0
  0
INSERT
  5
82DF
  8
3
 62
     0
  2
_OPEN
 10
828.88629541772661
 20
1735.0863483304411
 30
0.0
 41
50.0
 42
50.0
 43
50.0
 50
180.0
  0
INSERT
  5
82E0
  8
3
 62
     0
  2
_OPEN
 10
1228.8862954177259
 20
1735.0863483304411
 30
0.0
 41
50.0
 42
50.0
 43
50.0
  0
TEXT
  8
3
  40
75
  5
8318
  62
0
  72
0
  71
0
 10
878.886
 20
1664.84
 30
0.000000
  1
400
  0
POINT
  5
82E2
  8
DEFPOINTS
 62
     0
 10
828.88629541772661
 20
1906.0141629045111
 30
0.0
  0
POINT
  5
82E3
  8
DEFPOINTS
 62
     0
 10
1228.8862954177259
 20
1906.0141629045111
 30
0.0
  0
POINT
  5
82E4
  8
DEFPOINTS
 62
     0
 10
1228.8862954177259
 20
1735.0863483304411
 30
0.0
  0
ENDBLK
  5
81F2
  8
0
  0
BLOCK
  8
0
  2
*D20
 70
     1
 10
0.0
 20
0.0
 30
0.0
  3
*D20
  1

  0
LINE
  5
82E5
  8
3
 62
     0
 10
1228.8862954177259
 20
1893.5141629045111
 30
0.0
 11
1228.8862954177259
 21
1710.086348330442
 31
0.0
  0
LINE
  5
82E6
  8
3
 62
     0
 10
1908.8862954177259
 20
1893.5141629045111
 30
0.0
 11
1908.8862954177259
 21
1710.086348330442
 31
0.0
  0
LINE
  5
82E7
  8
3
 62
     0
 10
1278.8862954177259
 20
1735.0863483304411
 30
0.0
 11
1858.8862954177259
 21
1735.0863483304411
 31
0.0
  0
INSERT
  5
82E8
  8
3
 62
     0
  2
_OPEN
 10
1228.8862954177259
 20
1735.0863483304411
 30
0.0
 41
50.0
 42
50.0
 43
50.0
 50
180.0
  0
INSERT
  5
82E9
  8
3
 62
     0
  2
_OPEN
 10
1908.8862954177259
 20
1735.0863483304411
 30
0.0
 41
50.0
 42
50.0
 43
50.0
  0
TEXT
  8
3
  40
75
  5
8319
  62
0
  72
0
  71
0
 10
1418.89
 20
1664.84
 30
0.000000
  1
680
  0
POINT
  5
82EB
  8
DEFPOINTS
 62
     0
 10
1228.8862954177259
 20
1906.0141629045111
 30
0.0
  0
POINT
  5
82EC
  8
DEFPOINTS
 62
     0
 10
1908.8862954177259
 20
1906.0141629045111
 30
0.0
  0
POINT
  5
82ED
  8
DEFPOINTS
 62
     0
 10
1908.8862954177259
 20
1735.0863483304411
 30
0.0
  0
ENDBLK
  5
81FF
  8
0
  0
BLOCK
  8
0
  2
*D21
 70
     1
 10
0.0
 20
0.0
 30
0.0
  3
*D21
  1

  0
LINE
  5
82EE
  8
3
 62
     0
 10
2855.6257644070088
 20
1893.5141629045111
 30
0.0
 11
2855.6257644070088
 21
1710.086348330442
 31
0.0
  0
LINE
  5
82EF
  8
3
 62
     0
 10
3762.6257644070088
 20
1893.5141629045111
 30
0.0
 11
3762.6257644070088
 21
1710.086348330442
 31
0.0
  0
LINE
  5
82F0
  8
3
 62
     0
 10
2905.6257644070088
 20
1735.0863483304411
 30
0.0
 11
3712.6257644070088
 21
1735.0863483304411
 31
0.0
  0
INSERT
  5
82F1
  8
3
 62
     0
  2
_OPEN
 10
2855.6257644070088
 20
1735.0863483304411
 30
0.0
 41
50.0
 42
50.0
 43
50.0
 50
180.0
  0
INSERT
  5
82F2
  8
3
 62
     0
  2
_OPEN
 10
3762.6257644070088
 20
1735.0863483304411
 30
0.0
 41
50.0
 42
50.0
 43
50.0
  0
TEXT
  8
3
  40
75
  5
831A
  62
0
  72
0
  71
0
 10
3159.13
 20
1664.84
 30
0.000000
  1
907
  0
POINT
  5
82F4
  8
DEFPOINTS
 62
     0
 10
2855.6257644070088
 20
1906.0141629045111
 30
0.0
  0
POINT
  5
82F5
  8
DEFPOINTS
 62
     0
 10
3762.6257644070088
 20
1906.0141629045111
 30
0.0
  0
POINT
  5
82F6
  8
DEFPOINTS
 62
     0
 10
3762.6257644070088
 20
1735.0863483304411
 30
0.0
  0
ENDBLK
  5
820C
  8
0
  0
BLOCK
  8
0
  2
*D22
 70
     1
 10
0.0
 20
0.0
 30
0.0
  3
*D22
  1

  0
LINE
  5
82F7
  8
3
 62
     0
 10
3762.6257644070088
 20
1893.5141629045111
 30
0.0
 11
3762.6257644070088
 21
1710.086348330442
 31
0.0
  0
LINE
  5
82F8
  8
3
 62
     0
 10
4055.6257644070088
 20
1893.5141629045111
 30
0.0
 11
4055.6257644070088
 21
1710.086348330442
 31
0.0
  0
LINE
  5
82F9
  8
3
 62
     0
 10
3812.6257644070088
 20
1735.0863483304411
 30
0.0
 11
4005.6257644070088
 21
1735.0863483304411
 31
0.0
  0
INSERT
  5
82FA
  8
3
 62
     0
  2
_OPEN
 10
3762.6257644070088
 20
1735.0863483304411
 30
0.0
 41
50.0
 42
50.0
 43
50.0
 50
180.0
  0
INSERT
  5
82FB
  8
3
 62
     0
  2
_OPEN
 10
4055.6257644070088
 20
1735.0863483304411
 30
0.0
 41
50.0
 42
50.0
 43
50.0
  0
TEXT
  8
3
  40
75
  5
831B
  62
0
  72
0
  71
0
 10
3759.13
 20
1664.84
 30
0.000000
  1
293
  0
POINT
  5
82FD
  8
DEFPOINTS
 62
     0
 10
3762.6257644070088
 20
1906.0141629045111
 30
0.0
  0
POINT
  5
82FE
  8
DEFPOINTS
 62
     0
 10
4055.6257644070088
 20
1906.0141629045111
 30
0.0
  0
POINT
  5
82FF
  8
DEFPOINTS
 62
     0
 10
4055.6257644070088
 20
1735.0863483304411
 30
0.0
  0
ENDBLK
  5
821B
  8
0
  0
BLOCK
  8
0
  2
*D23
 70
     1
 10
0.0
 20
0.0
 30
0.0
  3
*D23
  1

  0
LINE
  5
8300
  8
3
 62
     0
 10
1201.8862954177259
 20
2946.0141629045111
 30
0.0
 11
424.23714121867329
 21
2946.0141629045111
 31
0.0
  0
LINE
  5
8301
  8
3
 62
     0
 10
816.38629541772661
 20
1906.0141629045111
 30
0.0
 11
424.237141218673
 21
1906.0141629045111
 31
0.0
  0
LINE
  5
8302
  8
3
 62
     0
 10
449.23714121867329
 20
2896.0141629045111
 30
0.0
 11
449.23714121867312
 21
1956.0141629045111
 31
0.0
  0
INSERT
  5
8303
  8
3
 62
     0
  2
_OPEN
 10
449.23714121867329
 20
2946.0141629045111
 30
0.0
 41
50.0
 42
50.0
 43
50.0
 50
90.0
  0
INSERT
  5
8304
  8
3
 62
     0
  2
_OPEN
 10
449.237141218673
 20
1906.0141629045111
 30
0.0
 41
50.0
 42
50.0
 43
50.0
 50
270.0
  0
TEXT
  8
3
  40
75
  5
831C
  62
0
  72
0
  71
0
 10
236.737
 20
2293.26
 30
0.000000
  1
1040
  0
POINT
  5
8306
  8
DEFPOINTS
 62
     0
 10
1214.3862954177259
 20
2946.0141629045111
 30
0.0
  0
POINT
  5
8307
  8
DEFPOINTS
 62
     0
 10
828.88629541772661
 20
1906.0141629045111
 30
0.0
  0
POINT
  5
8308
  8
DEFPOINTS
 62
     0
 10
449.237141218673
 20
1906.0141629045111
 30
0.0
  0
ENDBLK
  5
8228
  8
0
  0
ENDSEC
  0
SECTION
  2
ENTITIES
  0
DIMENSION
  5
7BE5
  8
3
  2
*D1
 10
1228.8862954177259
 20
3245.5109544754368
 30
0.0
 11
1002.9910268178591
 21
3308.0109544754368
 31
0.0
 70
     0
  1
454
 13
777.09575821799172
 23
2486.0141629045111
 33
0.0
 14
1228.8862954177259
 24
2999.6567234620138
 34
0.0
1001
ACAD
1000
DSTYLE
1002
{
1070
   287
1070
     3
1070
    40
1040
25.0
1070
   143
1040
0.039
1070
   172
1070
     1
1070
   271
1070
     0
1070
   279
1070
     0
1070
   288
1070
     1
1002
}
  0
DIMENSION
  5
7BE7
  8
3
  2
*D2
 10
627.09836830241954
 20
2486.0141629045111
 30
0.0
 11
564.5983683024192
 21
2716.0141629045111
 31
0.0
 70
     0
 13
1214.3862954177259
 23
2946.0141629045111
 33
0.0
 14
715.24373486022341
 24
2486.0141629045111
 34
0.0
 50
90.0
1001
ACAD
1000
DSTYLE
1002
{
1070
   287
1070
     3
1070
    40
1040
25.0
1070
   143
1040
0.039
1070
   172
1070
     1
1070
   271
1070
     0
1070
   279
1070
     0
1070
   288
1070
     1
1002
}
  0
LINE
  5
7BE8
  8
1
 10
1265.6629726583169
 20
2555.9318002440359
 30
0.0
 11
1765.6629726583169
 21
2292.9318002440368
 31
0.0
  0
LINE
  5
7BE9
  8
1
 10
1298.715429418847
 20
2618.7691705112052
 30
0.0
 11
1798.715429418847
 21
2355.7691705112052
 31
0.0
  0
ARC
  5
7BEA
  8
1
 10
1228.8862954177259
 20
2486.0141629045111
 30
0.0
 40
150.0
 50
62.255629830517442
 51
242.25562983051739
  0
CIRCLE
  5
7BEB
  8
1
 10
1228.8862954177259
 20
2486.0141629045111
 30
0.0
 40
79.0
  0
LINE
  5
7BEC
  8
1
 10
1906.8862954177259
 20
2946.0141629045111
 30
0.0
 11
1869.0270881474121
 21
2486.0141629045111
 31
0.0
  0
ARC
  5
7BED
  8
1
 10
1190.8862954177259
 20
2448.0141629045111
 30
0.0
 40
416.0
 50
84.75894493870328
 51
174.75894493870319
  0
LINE
  5
7BEE
  8
2
 10
1228.8862954177259
 20
2999.6567234620138
 30
0.0
 11
1228.8862954177259
 21
1906.0141629045111
 31
0.0
  0
ARC
  5
7BF0
  8
1
 10
1275.8862954177259
 20
2439.0141629045111
 30
0.0
 40
501.0
 50
174.61703135011859
 51
234.33420456171561
  0
LINE
  5
7BF4
  8
1
 10
1928.8862954177259
 20
2006.0141629045111
 30
0.0
 11
828.88629541772661
 21
2006.0141629045111
 31
0.0
  0
LINE
  5
7BF5
  8
1
 10
1908.8862954177259
 20
1906.0141629045111
 30
0.0
 11
828.88629541772661
 21
1906.0141629045111
 31
0.0
1001
ACAD
1000
ASC_BOUNDS
1002
{
1070
    19
1002
}
  0
LINE
  5
7BF6
  8
2
 10
1834.3661813090671
 20
2486.0141629045111
 30
0.0
 11
715.24373486022341
 21
2486.0141629045111
 31
0.0
  0
LINE
  5
7BF9
  8
3
 10
828.88629541772661
 20
1906.0141629045111
 30
0.0
 11
607.09836830241954
 21
1906.0141629045111
 31
0.0
  0
DIMENSION
  5
7BFD
  8
3
  2
*D3
 10
627.09836830241954
 20
1906.0141629045111
 30
0.0
 11
564.5983683024192
 21
2196.0141629045111
 31
0.0
 70
     0
 13
715.24373486022341
 23
2486.0141629045111
 33
0.0
 14
828.88629541772661
 24
1906.0141629045111
 34
0.0
 50
90.0
1001
ACAD
1000
DSTYLE
1002
{
1070
   287
1070
     3
1070
    40
1040
25.0
1070
   143
1040
0.039
1070
   172
1070
     1
1070
   271
1070
     0
1070
   279
1070
     0
1070
   288
1070
     1
1002
}
  0
LINE
  5
7BFE
  8
3
 10
627.09836830241954
 20
1946.0141629045111
 30
0.0
 11
627.09836830241954
 21
2113.5172312236441
 31
0.0
  0
POINT
  5
7C04
  8
3
 10
627.09836830241954
 20
1906.0141629045111
 30
0.0
  0
INSERT
  5
7C05
  8
3
  2
ARROW
 10
627.09836830241954
 20
1906.0141629045111
 30
0.0
 41
40.0
 42
40.0
 43
40.0
 50
270.0
  0
LINE
  5
7C07
  8
3
 10
627.09836830241954
 20
1908.0141629045111
 30
0.0
 11
627.09836830241954
 21
1948.0141629045111
 31
0.0
  0
LINE
  5
7C0E
  8
1
 10
828.88629541772661
 20
2006.0141629045111
 30
0.0
 11
828.88629541772661
 21
1906.0141629045111
 31
0.0
  0
POINT
  5
7C0F
  8
1
 10
828.88629541772661
 20
1906.0141629045111
 30
0.0
  0
LINE
  5
7C13
  8
1
 10
978.88629541772661
 20
2006.0141629045111
 30
0.0
 11
978.88629541772661
 21
1906.0141629045111
 31
0.0
  0
LINE
  5
7C14
  8
1
 10
1159.0571614166049
 20
2353.2591552978161
 30
0.0
 11
1659.0571614166049
 21
2090.2591552978161
 31
0.0
  0
LINE
  5
7C15
  8
1
 10
1192.1096181771361
 20
2416.0965255649849
 30
0.0
 11
1692.1096181771361
 21
2153.0965255649849
 31
0.0
  0
LINE
  5
7C17
  8
1
 10
1892.0404649532049
 20
2091.0141629045111
 30
0.0
 11
1565.9193819343691
 21
2091.0141629045111
 31
0.0
  0
LINE
  5
7C18
  8
2
 10
1894.4230706796759
 20
2223.0141629045111
 30
0.0
 11
1563.305267944176
 21
2223.0141629045111
 31
0.0
  0
ARC
  5
7C19
  8
1
 10
1728.8862954177259
 20
2223.0141629045111
 30
0.0
 40
142.5
 50
326.96613161763833
 51
180.0
  0
LINE
  5
7C1C
  8
1
 10
1553.8862954177259
 20
2046.0141629045111
 30
0.0
 11
1565.9193819343691
 21
2091.0141629045111
 31
0.0
  0
LINE
  5
7C1E
  8
1
 10
1553.8862954177259
 20
2046.0141629045111
 30
0.0
 11
1528.8862954177259
 21
2046.0141629045111
 31
0.0
  0
LINE
  5
7C1F
  8
1
 10
1528.8862954177259
 20
2046.0141629045111
 30
0.0
 11
1528.8862954177259
 21
2006.0141629045111
 31
0.0
  0
ARC
  5
7C20
  8
1
 10
1728.8862954177259
 20
2223.0141629045111
 30
0.0
 40
142.5
 50
180.0
 51
213.0338076719878
  0
LINE
  5
7C21
  8
1
 10
1598.8862954177259
 20
2105.8167629045111
 30
0.0
 11
1598.8862954177259
 21
2091.0141629045111
 31
0.0
  0
LINE
  5
7C22
  8
1
 10
1609.421555097666
 20
2145.33259610607
 30
0.0
 11
1598.8862954177259
 21
2106.0141629045111
 31
0.0
  0
ARC
  5
7C23
  8
1
 10
1728.8862954177259
 20
2223.0141629045111
 30
0.0
 40
150.0
 50
242.25562983051739
 51
62.255629830517442
  0
LINE
  5
7C24
  8
1
 10
1928.8862954177259
 20
2046.0141629045111
 30
0.0
 11
1903.8862954177259
 21
2046.0141629045111
 31
0.0
  0
LINE
  5
7C25
  8
1
 10
1903.8862954177259
 20
2046.0141629045111
 30
0.0
 11
1892.0404649532049
 21
2091.0141629045111
 31
0.0
  0
LINE
  5
7C26
  8
2
 10
1728.8862954177259
 20
2377.2132154248179
 30
0.0
 11
1728.8862954177259
 21
1906.0141629045111
 31
0.0
  0
LINE
  5
7C28
  8
1
 10
1908.8862954177259
 20
2006.0141629045111
 30
0.0
 11
1908.8862954177259
 21
1906.0141629045111
 31
0.0
  0
CIRCLE
  5
7C29
  8
1
 10
1728.8862954177259
 20
2223.0141629045111
 30
0.0
 40
79.0
  0
LINE
  5
7C2A
  8
1
 10
1858.8862954177259
 20
2105.8167629045111
 30
0.0
 11
1858.8862954177259
 21
2091.0141629045111
 31
0.0
  0
LINE
  5
7C2B
  8
1
 10
1848.3509534266491
 20
2145.3324695217639
 30
0.0
 11
1858.8862954177259
 21
2106.0141629045111
 31
0.0
  0
ARC
  5
7C2C
  8
1
 10
1275.8862954177259
 20
2533.0141629045111
 30
0.0
 40
595.0
 50
339.16548376356627
 51
355.46939495731732
  0
LINE
  5
7C2D
  8
1
 10
1928.8862954177259
 20
2046.0141629045111
 30
0.0
 11
1928.8862954177259
 21
2006.0141629045111
 31
0.0
  0
DIMENSION
  5
7C2E
  8
3
  2
*D4
 10
1948.8862954177259
 20
3393.959717972416
 30
0.0
 11
1362.9910268178589
 21
3456.459717972416
 31
0.0
 70
     0
  1
1174
 13
777.09575821799172
 23
3265.5109544754359
 33
0.0
 14
1948.8862954177259
 24
2946.0141629045111
 34
0.0
1001
ACAD
1000
DSTYLE
1002
{
1070
   287
1070
     3
1070
    40
1040
25.0
1070
   143
1040
0.039
1070
   172
1070
     1
1070
   271
1070
     0
1070
   279
1070
     0
1070
   288
1070
     1
1002
}
  0
DIMENSION
  5
7C2F
  8
3
  2
*D5
 10
1908.8862954177259
 20
3830.8499752646831
 30
0.0
 11
1443.8862954177259
 21
3893.3499752646831
 31
0.0
 70
     0
 13
978.88629541772661
 23
4122.7306515507162
 33
0.0
 14
1908.8862954177259
 24
4122.7306515507162
 34
0.0
1001
ACAD
1000
DSTYLE
1002
{
1070
   287
1070
     3
1070
    40
1040
25.0
1070
   143
1040
0.039
1070
   172
1070
     1
1070
   271
1070
     0
1070
   279
1070
     0
1070
   288
1070
     1
1002
}
  0
DIMENSION
  5
7C30
  8
3
  2
*D6
 10
828.88629541772661
 20
5468.304538154468
 30
0.0
 11
1228.8862954177259
 21
5530.804538154468
 31
0.0
 70
     0
 13
1628.8862954177259
 23
5322.7306515507171
 33
0.0
 14
828.88629541772661
 24
5322.7306515507171
 34
0.0
1001
ACAD
1000
DSTYLE
1002
{
1070
   287
1070
     3
1070
    40
1040
25.0
1070
   143
1040
0.039
1070
   172
1070
     1
1070
   271
1070
     0
1070
   279
1070
     0
1070
   288
1070
     1
1002
}
  0
LINE
  5
7C31
  8
1
 10
1203.8862954177259
 20
4122.7306515507162
 30
0.0
 11
978.88629541772661
 21
4122.7306515507162
 31
0.0
  0
LINE
  5
7C32
  8
1
 10
1906.8862954177259
 20
4789.2306515507171
 30
0.0
 11
777.09575821799172
 21
4789.2306515507153
 31
0.0
  0
LINE
  5
7C33
  8
1
 10
1906.8862954177259
 20
5264.2306515507153
 30
0.0
 11
777.09575821799172
 21
5264.2306515507162
 31
0.0
  0
LINE
  5
7C34
  8
2
 10
1945.785242722885
 20
5026.7306515507171
 30
0.0
 11
729.54238697340679
 21
5026.7306515507171
 31
0.0
  0
LINE
  5
7C35
  8
1
 10
1628.8862954177259
 20
5322.7306515507171
 30
0.0
 11
828.88629541772661
 21
5322.7306515507171
 31
0.0
  0
DIMENSION
  5
7C36
  8
3
  2
*D7
 10
828.88629541772661
 20
3830.8499752646831
 30
0.0
 11
664.60058113201228
 21
3893.3499752646831
 31
0.0
 70
     0
 13
978.88629541772661
 23
4122.7306515507162
 33
0.0
 14
828.88629541772661
 24
4736.7306515507162
 34
0.0
1001
ACAD
1000
DSTYLE
1002
{
1070
   287
1070
     3
1070
    40
1040
25.0
1070
   143
1040
0.039
1070
   172
1070
     1
1070
   271
1070
     0
1070
   279
1070
     0
1070
   288
1070
     1
1002
}
  0
DIMENSION
  5
7C37
  8
3
  2
*D8
 10
619.43249255700255
 20
4122.7306515507162
 30
0.0
 11
556.93249255700209
 21
4722.7306515507153
 31
0.0
 70
     0
 13
828.88629541772661
 23
5322.7306515507171
 33
0.0
 14
978.88629541772661
 24
4122.7306515507162
 34
0.0
 50
270.0
1001
ACAD
1000
DSTYLE
1002
{
1070
   287
1070
     3
1070
    40
1040
25.0
1070
   143
1040
0.039
1070
   172
1070
     1
1070
   271
1070
     0
1070
   279
1070
     0
1070
   288
1070
     1
1002
}
  0
LINE
  5
7C38
  8
1
 10
978.88629541772661
 20
4736.7306515507153
 30
0.0
 11
978.88629541772661
 21
4122.7306515507162
 31
0.0
  0
POINT
  5
7C39
  8
1
 10
978.88629541772661
 20
4122.7306515507162
 30
0.0
  0
LINE
  5
7C3A
  8
1
 10
777.09575821799172
 20
4789.2306515507162
 30
0.0
 11
777.09575821799172
 21
5264.2306515507162
 31
0.0
  0
LINE
  5
7C3B
  8
1
 10
978.88629541772661
 20
4736.7306515507162
 30
0.0
 11
828.88629541772661
 21
4736.7306515507162
 31
0.0
  0
LINE
  5
7C3C
  8
1
 10
828.88629541772661
 20
4789.2306515507153
 30
0.0
 11
828.88629541772661
 21
4736.7306515507171
 31
0.0
  0
POINT
  5
7C3D
  8
1
 10
828.88629541772661
 20
4736.7306515507162
 30
0.0
  0
LINE
  5
7C3E
  8
1
 10
828.88629541772661
 20
5322.7306515507171
 30
0.0
 11
828.88629541772661
 21
5264.2306515507162
 31
0.0
  0
LINE
  5
7C3F
  8
1
 10
1528.8862954177259
 20
4484.7306515507162
 30
0.0
 11
1528.8862954177259
 21
4424.7306515507162
 31
0.0
  0
LINE
  5
7C40
  8
1
 10
1928.8862954177259
 20
4484.7306515507162
 30
0.0
 11
1928.8862954177259
 21
4424.7306515507162
 31
0.0
  0
DIMENSION
  5
7C41
  8
3
  2
*D9
 10
2057.3154670291692
 20
4786.7306515507153
 30
0.0
 11
1994.8154670291681
 21
4454.7306515507162
 31
0.0
 70
     0
 13
1908.8862954177259
 23
4122.7306515507162
 33
0.0
 14
1908.8862954177259
 24
4786.7306515507153
 34
0.0
 50
270.0
1001
ACAD
1000
DSTYLE
1002
{
1070
   287
1070
     3
1070
    40
1040
25.0
1070
   143
1040
0.039
1070
   172
1070
     1
1070
   271
1070
     0
1070
   279
1070
     0
1070
   288
1070
     1
1002
}
  0
LINE
  5
7C42
  8
1
 10
1871.3862954177259
 20
4543.7306515507171
 30
0.0
 11
1871.3862954177259
 21
4153.7306515507153
 31
0.0
  0
LINE
  5
7C43
  8
1
 10
1586.3862954177259
 20
4543.7306515507171
 30
0.0
 11
1586.3862954177259
 21
4153.7306515507153
 31
0.0
  0
LINE
  5
7C44
  8
1
 10
1253.8862954177259
 20
4106.7306515507162
 30
0.0
 11
1253.8862954177259
 21
4789.2306515507162
 31
0.0
  0
LINE
  5
7C45
  8
1
 10
1203.8862954177259
 20
4106.7306515507162
 30
0.0
 11
1203.8862954177259
 21
4789.2306515507153
 31
0.0
  0
LINE
  5
7C48
  8
2
 10
1728.8862954177259
 20
4599.5150885917919
 30
0.0
 11
1728.8862954177259
 21
3974.2968849904851
 31
0.0
  0
LINE
  5
7C49
  8
2
 10
1228.8862954177259
 20
5294.7902507454992
 30
0.0
 11
1228.8862954177259
 21
3974.2968849904851
 31
0.0
  0
LINE
  5
7C4A
  8
1
 10
1253.8862954177259
 20
4141.7306515507162
 30
0.0
 11
1709.8862954177259
 21
4141.7306515507162
 31
0.0
  0
LINE
  5
7C4B
  8
1
 10
1709.8862954177259
 20
4144.7306515507162
 30
0.0
 11
1528.8862954177259
 21
4144.7306515507162
 31
0.0
  0
LINE
  5
7C4C
  8
1
 10
1709.8862954177259
 20
4122.7306515507162
 30
0.0
 11
1253.8862954177259
 21
4122.7306515507162
 31
0.0
  0
LINE
  5
7C4D
  8
1
 10
1871.3862954177259
 20
4153.7306515507153
 30
0.0
 11
1586.3862954177259
 21
4153.7306515507153
 31
0.0
  0
LINE
  5
7C4E
  8
1
 10
1078.886295417725
 20
3981.7306515507162
 30
0.0
 11
1878.8862954177259
 21
3981.7306515507162
 31
0.0
  0
LINE
  5
7C4F
  8
1
 10
1807.8862954177259
 20
4024.7306515507162
 30
0.0
 11
1149.8862954177259
 21
4024.7306515507162
 31
0.0
  0
LINE
  5
7C50
  8
1
 10
1807.8862954177259
 20
4106.7306515507162
 30
0.0
 11
1149.8862954177259
 21
4106.7306515507162
 31
0.0
  0
DIMENSION
  5
7C51
  8
3
  2
*D10
 10
1228.8862954177259
 20
3246.4913109830468
 30
0.0
 11
1567.8862954177259
 21
3308.9913109830468
 31
0.0
 70
     0
 13
1906.8862954177259
 23
2946.0141629045111
 33
0.0
 14
1228.8862954177259
 24
2999.6567234620138
 34
0.0
 50
180.0
1001
ACAD
1000
DSTYLE
1002
{
1070
   287
1070
     3
1070
    40
1040
25.0
1070
   143
1040
0.039
1070
   172
1070
     1
1070
   271
1070
     0
1070
   279
1070
     0
1070
   288
1070
     1
1002
}
  0
DIMENSION
  5
7C52
  8
3
  2
*D11
 10
1256.8862954177259
 20
3094.9636870707318
 30
0.0
 11
1581.8862954177259
 21
3157.4636870707318
 31
0.0
 70
     0
 13
1906.8862954177259
 23
2946.0141629045111
 33
0.0
 14
1256.8862954177259
 24
2946.0141629045111
 34
0.0
 50
180.0
1001
ACAD
1000
DSTYLE
1002
{
1070
   287
1070
     3
1070
    40
1040
25.0
1070
   143
1040
0.039
1070
   172
1070
     1
1070
   271
1070
     0
1070
   279
1070
     0
1070
   288
1070
     1
1002
}
  0
LINE
  5
7C53
  8
1
 10
1948.8862954177259
 20
2943.0141629045111
 30
0.0
 11
1214.3862954177259
 21
2943.0141629045111
 31
0.0
  0
LINE
  5
7C54
  8
1
 10
1903.5941904376989
 20
2906.0141629045111
 30
0.0
 11
1256.8862954177259
 21
2906.0141629045111
 31
0.0
  0
LINE
  5
7C55
  8
1
 10
1948.8862954177259
 20
2946.0141629045111
 30
0.0
 11
1214.3862954177259
 21
2946.0141629045111
 31
0.0
  0
LINE
  5
7C56
  8
1
 10
1214.3862954177259
 20
2943.0141629045111
 30
0.0
 11
1214.3862954177259
 21
2946.0141629045111
 31
0.0
  0
LINE
  5
7C57
  8
1
 10
1256.8862954177259
 20
2857.5467700061249
 30
0.0
 11
1256.8862954177259
 21
2946.0141629045111
 31
0.0
  0
ARC
  5
7C58
  8
1
 10
1190.8862954177259
 20
2524.0141629045111
 30
0.0
 40
340.0
 50
78.806816394316172
 51
83.582946856971333
  0
LINE
  5
7C59
  8
1
 10
1398.8862954177259
 20
4161.7306515507153
 30
0.0
 11
1253.8862954177259
 21
4161.7306515507153
 31
0.0
  0
LINE
  5
7C5A
  8
1
 10
1203.8862954177259
 20
4161.7306515507153
 30
0.0
 11
1058.8862954177259
 21
4161.7306515507153
 31
0.0
  0
LINE
  5
7C5B
  8
1
 10
1078.8862954177259
 20
4141.7306515507162
 30
0.0
 11
1203.8862954177259
 21
4141.7306515507162
 31
0.0
  0
LINE
  5
7C5C
  8
1
 10
1078.8862954177259
 20
3981.7306515507162
 30
0.0
 11
1078.8862954177259
 21
4141.7306515507162
 31
0.0
  0
LINE
  5
7C5D
  8
1
 10
1149.8862954177259
 20
4024.7306515507162
 30
0.0
 11
1149.8862954177259
 21
4106.7306515507162
 31
0.0
  0
LINE
  5
7C5E
  8
1
 10
1307.8862954177259
 20
4024.7306515507162
 30
0.0
 11
1307.8862954177259
 21
4106.7306515507162
 31
0.0
  0
LINE
  5
7C5F
  8
1
 10
1586.3862954177259
 20
4204.7306515507162
 30
0.0
 11
1528.8862954177259
 21
4204.7306515507162
 31
0.0
  0
LINE
  5
7C60
  8
1
 10
1528.8862954177259
 20
4204.7306515507162
 30
0.0
 11
1528.8862954177259
 21
4144.7306515507162
 31
0.0
  0
LINE
  5
7C61
  8
1
 10
1586.3862954177259
 20
4424.7306515507153
 30
0.0
 11
1528.8862954177259
 21
4424.7306515507162
 31
0.0
  0
LINE
  5
7C62
  8
1
 10
1948.8862954177259
 20
2943.0141629045111
 30
0.0
 11
1948.8862954177259
 21
2946.0141629045111
 31
0.0
  0
LINE
  5
7C63
  8
1
 10
1928.8862954177259
 20
4144.7306515507162
 30
0.0
 11
1747.8862954177259
 21
4144.7306515507162
 31
0.0
  0
LINE
  5
7C64
  8
1
 10
1928.8862954177259
 20
4204.7306515507162
 30
0.0
 11
1871.3862954177259
 21
4204.7306515507162
 31
0.0
  0
LINE
  5
7C65
  8
1
 10
1928.8862954177259
 20
4424.7306515507162
 30
0.0
 11
1871.3862954177259
 21
4424.7306515507162
 31
0.0
  0
LINE
  5
7C66
  8
1
 10
1747.8862954177259
 20
4141.7306515507162
 30
0.0
 11
1878.8862954177259
 21
4141.7306515507162
 31
0.0
  0
LINE
  5
7C67
  8
1
 10
1908.8862954177259
 20
4122.7306515507162
 30
0.0
 11
1747.8862954177259
 21
4122.7306515507162
 31
0.0
  0
LINE
  5
7C68
  8
1
 10
1649.8862954177259
 20
4106.7306515507162
 30
0.0
 11
1649.8862954177259
 21
4024.7306515507162
 31
0.0
  0
LINE
  5
7C69
  8
1
 10
1709.8862954177259
 20
4153.7306515507153
 30
0.0
 11
1709.8862954177259
 21
4106.7306515507153
 31
0.0
  0
LINE
  5
7C6A
  8
1
 10
1747.8862954177259
 20
4153.7306515507153
 30
0.0
 11
1747.8862954177259
 21
4106.7306515507153
 31
0.0
  0
LINE
  5
7C6B
  8
1
 10
1908.8862954177259
 20
4424.7306515507153
 30
0.0
 11
1908.8862954177259
 21
4204.7306515507162
 31
0.0
  0
LINE
  5
7C6C
  8
1
 10
1807.8862954177259
 20
4106.7306515507162
 30
0.0
 11
1807.8862954177259
 21
4024.7306515507162
 31
0.0
  0
LINE
  5
7C6D
  8
1
 10
1878.8862954177259
 20
4141.7306515507162
 30
0.0
 11
1878.8862954177259
 21
3981.7306515507162
 31
0.0
  0
LINE
  5
7C6E
  8
1
 10
1908.8862954177259
 20
4144.7306515507162
 30
0.0
 11
1908.8862954177259
 21
4122.7306515507162
 31
0.0
  0
LINE
  5
7C6F
  8
1
 10
1928.8862954177259
 20
4204.7306515507162
 30
0.0
 11
1928.8862954177259
 21
4144.7306515507162
 31
0.0
  0
LINE
  5
7C70
  8
1
 10
1256.8862954177259
 20
5264.2306515507162
 30
0.0
 11
1906.8862954177259
 21
4789.2306515507171
 31
0.0
  0
LINE
  5
7C71
  8
1
 10
1906.8862954177259
 20
5264.2306515507153
 30
0.0
 11
1256.8862954177259
 21
4789.2306515507162
 31
0.0
  0
LINE
  5
7C72
  8
1
 10
1871.3862954177259
 20
4543.7306515507171
 30
0.0
 11
1586.3862954177259
 21
4543.7306515507171
 31
0.0
  0
LINE
  5
7C73
  8
1
 10
1398.8862954177259
 20
4701.7306515507153
 30
0.0
 11
1253.8862954177259
 21
4701.7306515507153
 31
0.0
  0
LINE
  5
7C74
  8
1
 10
1256.8862954177259
 20
4789.2306515507162
 30
0.0
 11
1256.8862954177259
 21
5264.2306515507162
 31
0.0
  0
LINE
  5
7C75
  8
1
 10
1203.8862954177259
 20
4701.7306515507153
 30
0.0
 11
1058.8862954177259
 21
4701.7306515507153
 31
0.0
  0
LINE
  5
7C76
  8
1
 10
1586.3862954177259
 20
4484.7306515507171
 30
0.0
 11
1528.8862954177259
 21
4484.7306515507171
 31
0.0
  0
DIMENSION
  5
7C77
  8
3
  2
*D12
 10
1908.8862954177259
 20
5468.304538154468
 30
0.0
 11
1768.8862954177259
 21
5535.589524257779
 31
0.0
 70
   128
 13
1628.8862954177259
 23
5322.7306515507171
 33
0.0
 14
1908.8862954177259
 24
4786.7306515507153
 34
0.0
1001
ACAD
1000
DSTYLE
1002
{
1070
   288
1070
     1
1070
   172
1070
     1
1070
    40
1040
25.0
1070
   271
1070
     0
1070
   143
1040
0.039
1002
}
  0
LINE
  5
7C78
  8
1
 10
1928.8862954177259
 20
4484.7306515507162
 30
0.0
 11
1871.3862954177259
 21
4484.7306515507162
 31
0.0
  0
LINE
  5
7C79
  8
1
 10
1906.8862954177259
 20
4789.2306515507171
 30
0.0
 11
1906.8862954177259
 21
5264.2306515507162
 31
0.0
  0
LINE
  5
7C7A
  8
1
 10
1908.8862954177259
 20
4786.7306515507153
 30
0.0
 11
1628.8862954177259
 21
4786.7306515507153
 31
0.0
  0
LINE
  5
7C7B
  8
1
 10
1628.8862954177259
 20
4789.2306515507153
 30
0.0
 11
1628.8862954177259
 21
4786.7306515507153
 31
0.0
  0
LINE
  5
7C7C
  8
1
 10
1908.8862954177259
 20
4786.7306515507153
 30
0.0
 11
1908.8862954177259
 21
4484.7306515507153
 31
0.0
  0
LINE
  5
7C7D
  8
1
 10
1628.8862954177259
 20
5322.7306515507171
 30
0.0
 11
1628.8862954177259
 21
5264.2306515507153
 31
0.0
  0
LINE
  5
7C7F
  8
2
 10
3762.6257644070088
 20
3055.0851976099611
 30
0.0
 11
3762.6257644070088
 21
1906.0141629045111
 31
0.0
  0
LINE
  5
7C80
  8
1
 10
2717.6257644070088
 20
2636.0141629045111
 30
0.0
 11
2717.6257644070088
 21
2073.0141629045111
 31
0.0
  0
LINE
  5
7C81
  8
1
 10
2842.6257644070088
 20
2565.0141629045111
 30
0.0
 11
2842.6257644070088
 21
2144.0141629045111
 31
0.0
  0
LINE
  5
7C82
  8
1
 10
2760.6257644070088
 20
2565.0141629045111
 30
0.0
 11
2760.6257644070088
 21
2144.0141629045111
 31
0.0
  0
LINE
  5
7C83
  8
1
 10
3525.1257644070079
 20
2946.0141629045111
 30
0.0
 11
3525.1257644070088
 21
2006.0141629045111
 31
0.0
  0
LINE
  5
7C84
  8
1
 10
4000.1257644070088
 20
2946.0141629045111
 30
0.0
 11
4000.1257644070079
 21
2006.0141629045099
 31
0.0
  0
LINE
  5
7C87
  8
1
 10
2842.6257644070088
 20
2461.0141629045111
 30
0.0
 11
3525.1257644070079
 21
2461.0141629045111
 31
0.0
  0
LINE
  5
7C88
  8
1
 10
2842.6257644070088
 20
2511.0141629045111
 30
0.0
 11
3525.1257644070088
 21
2511.0141629045111
 31
0.0
  0
LINE
  5
7C8B
  8
1
 10
2855.6257644070088
 20
2006.0141629045111
 30
0.0
 11
4055.6257644070088
 21
2006.0141629045099
 31
0.0
  0
LINE
  5
7C8C
  8
1
 10
2855.6257644070088
 20
1906.0141629045111
 30
0.0
 11
4055.6257644070088
 21
1906.0141629045111
 31
0.0
  0
LINE
  5
7C8D
  8
2
 10
2740.0405873624568
 20
2486.0141629045111
 30
0.0
 11
4045.2504239726418
 21
2486.0141629045111
 31
0.0
  0
LINE
  5
7C8E
  8
1
 10
2842.6257644070088
 20
2204.0141629045111
 30
0.0
 11
2889.6257644070088
 21
2204.0141629045111
 31
0.0
  0
LINE
  5
7C8F
  8
1
 10
2842.6257644070088
 20
2242.0141629045111
 30
0.0
 11
2889.6257644070088
 21
2242.0141629045111
 31
0.0
  0
LINE
  5
7C90
  8
1
 10
2717.6257644070088
 20
2073.0141629045111
 30
0.0
 11
2877.6257644070088
 21
2073.0141629045111
 31
0.0
  0
LINE
  5
7C91
  8
2
 10
2740.0405873624568
 20
2223.0141629045111
 30
0.0
 11
3307.5503778548941
 21
2223.0141629045111
 31
0.0
  0
LINE
  5
7C93
  8
1
 10
2855.6257644070088
 20
2006.0141629045111
 30
0.0
 11
2855.6257644070088
 21
1906.0141629045111
 31
0.0
  0
LINE
  5
7C94
  8
1
 10
2760.6257644070088
 20
2302.0141629045102
 30
0.0
 11
2842.6257644070088
 21
2302.0141629045102
 31
0.0
  0
LINE
  5
7C95
  8
1
 10
2760.6257644070088
 20
2144.0141629045111
 30
0.0
 11
2842.6257644070088
 21
2144.0141629045111
 31
0.0
  0
LINE
  5
7C96
  8
1
 10
2760.6257644070088
 20
2407.0141629045111
 30
0.0
 11
2842.6257644070088
 21
2407.0141629045111
 31
0.0
  0
LINE
  5
7C97
  8
1
 10
2895.6257644070088
 20
2046.0141629045111
 30
0.0
 11
3205.6257644070088
 21
2046.0141629045111
 31
0.0
  0
LINE
  5
7C98
  8
1
 10
2889.6257644070088
 20
2080.5141629045111
 30
0.0
 11
3279.6257644070088
 21
2080.5141629045111
 31
0.0
  0
LINE
  5
7C99
  8
1
 10
2889.6257644070088
 20
2365.5141629045111
 30
0.0
 11
3279.6257644070088
 21
2365.5141629045111
 31
0.0
  0
LINE
  5
7C9A
  8
1
 10
2897.6257644070088
 20
2431.0141629045111
 30
0.0
 11
3437.6257644070088
 21
2431.0141629045111
 31
0.0
  0
LINE
  5
7C9B
  8
1
 10
2889.6257644070088
 20
2365.5141629045111
 30
0.0
 11
2889.6257644070088
 21
2080.5141629045111
 31
0.0
  0
LINE
  5
7C9C
  8
1
 10
2877.6257644070088
 20
2093.0141629045102
 30
0.0
 11
2877.6257644070088
 21
2073.0141629045111
 31
0.0
  0
LINE
  5
7C9D
  8
1
 10
2895.6257644070088
 20
2080.5141629045111
 30
0.0
 11
2895.6257644070088
 21
2006.0141629045111
 31
0.0
  0
LINE
  5
7C9E
  8
1
 10
2897.6257644070088
 20
2431.0141629045111
 30
0.0
 11
2897.6257644070088
 21
2365.5141629045111
 31
0.0
  0
LINE
  5
7C9F
  8
1
 10
3279.6257644070088
 20
2365.5141629045111
 30
0.0
 11
3279.6257644070088
 21
2080.5141629045111
 31
0.0
  0
LINE
  5
7CA0
  8
1
 10
3437.6257644070088
 20
2431.0141629045111
 30
0.0
 11
3437.6257644070088
 21
2006.0141629045111
 31
0.0
  0
LINE
  5
7CA1
  8
1
 10
3205.6257644070088
 20
2080.5141629045111
 30
0.0
 11
3205.6257644070088
 21
2006.0141629045111
 31
0.0
  0
LINE
  5
7CA4
  8
1
 10
4055.6257644070088
 20
2006.0141629045111
 30
0.0
 11
4055.6257644070088
 21
1906.0141629045111
 31
0.0
  0
DIMENSION
  5
7CA5
  8
3
  2
*D13
 10
3762.6257644070088
 20
3245.9861096744739
 30
0.0
 11
3240.1257644070088
 21
3370.9861096744739
 31
0.0
 70
     0
  1
MAX\P1070
 13
2717.6257644070088
 23
2636.0141629045111
 33
0.0
 14
3762.6257644070088
 24
3218.4716666966201
 34
0.0
1001
ACAD
1000
DSTYLE
1002
{
1070
   287
1070
     3
1070
    40
1040
25.0
1070
   143
1040
0.039
1070
   172
1070
     1
1070
   271
1070
     0
1070
   279
1070
     0
1070
   288
1070
     1
1002
}
  0
LINE
  5
7CAA
  8
1
 10
2717.6257644070088
 20
2636.0141629045111
 30
0.0
 11
2877.6257644070088
 21
2636.0141629045111
 31
0.0
  0
LINE
  5
7CAB
  8
1
 10
2760.6257644070088
 20
2565.0141629045111
 30
0.0
 11
2842.6257644070088
 21
2565.0141629045111
 31
0.0
  0
LINE
  5
7CAC
  8
1
 10
2877.6257644070088
 20
2636.0141629045111
 30
0.0
 11
2877.6257644070088
 21
2616.0141629045111
 31
0.0
  0
DIMENSION
  5
7CAE
  8
3
  2
*D14
 10
4000.1257644070088
 20
3095.9414946193951
 30
0.0
 11
3762.6257644070088
 21
3158.4414946193951
 31
0.0
 70
     0
 13
3525.1257644070079
 23
2946.0141629045111
 33
0.0
 14
4000.1257644070088
 24
2946.0141629045111
 34
0.0
1001
ACAD
1000
DSTYLE
1002
{
1070
   287
1070
     3
1070
    40
1040
25.0
1070
   143
1040
0.039
1070
   172
1070
     1
1070
   271
1070
     0
1070
   279
1070
     0
1070
   288
1070
     1
1002
}
  0
LINE
  5
7CAF
  8
1
 10
3525.1257644070079
 20
2906.0141629045111
 30
0.0
 11
4000.1257644070088
 21
2906.0141629045111
 31
0.0
  0
LINE
  5
7CB0
  8
1
 10
3482.6257644070088
 20
2943.0141629045111
 30
0.0
 11
4042.6257644070088
 21
2943.0141629045111
 31
0.0
  0
LINE
  5
7CB1
  8
1
 10
3482.6257644070088
 20
2946.0141629045111
 30
0.0
 11
4042.6257644070088
 21
2946.0141629045111
 31
0.0
  0
LINE
  5
7CB2
  8
1
 10
3482.6257644070088
 20
2946.0141629045111
 30
0.0
 11
3482.6257644070088
 21
2943.0141629045111
 31
0.0
  0
LINE
  5
7CB4
  8
1
 10
4042.6257644070088
 20
2946.0141629045111
 30
0.0
 11
4042.6257644070101
 21
2943.0141629045111
 31
0.0
  0
LINE
  5
8037
  8
4
 10
4625.0
 20
1250.0
 30
0.0
 11
4625.0
 21
750.0
 31
0.0
  0
LINE
  5
8038
  8
4
 10
2875.0
 20
1250.0
 30
0.0
 11
2875.0
 21
750.0
 31
0.0
  0
LINE
  5
8039
  8
4
 10
1625.0
 20
1250.0
 30
0.0
 11
1625.0
 21
750.0
 31
0.0
  0
LINE
  5
803C
  8
4
 10
1625.0
 20
750.0
 30
0.0
 11
4625.0
 21
750.0
 31
0.0
  0
LINE
  5
803D
  8
4
 10
1625.0
 20
1000.0
 30
0.0
 11
4625.0
 21
1000.0
 31
0.0
  0
TEXT
  5
803E
  8
4
 10
1721.2552021172539
 20
1078.857564666532
 30
0.0
 40
125.0
  1
機器名称
  0
TEXT
  5
803F
  8
4
 10
1715.6452650619931
 20
804.11289183002725
 30
0.0
 40
125.0
  1
機器型番
  0
TEXT
  5
8040
  8
4
 10
2878.8161434947851
 20
1058.3110764646549
 30
0.0
 40
110.0
  1
ミツヤ多翼送風機
  0
TEXT
  5
8041
  8
4
 10
2966.6362389637011
 20
792.89896069985843
 30
0.0
 40
125.0
  1
MF#4-1
  0
TEXT
  5
8043
  8
4
 10
1997.9425593657029
 20
5958.5721033312893
 30
0.0
 40
135.0
  1
床置ベット
  0
TEXT
  5
8044
  8
4
 10
737.61459183362604
 20
6334.7024404982449
 30
0.0
 40
180.0
  1
遠心式片吸込片持多翼ファン
  0
LINE
  5
8045
  8
4
 10
625.0
 20
6173.5218856620122
 30
0.0
 11
4625.0
 21
6173.5218856620122
 31
0.0
  0
LINE
  5
8046
  8
4
 10
625.0
 20
6673.5218856620122
 30
0.0
 11
4625.0
 21
6673.5218856620122
 31
0.0
  0
LINE
  5
8047
  8
4
 10
1625.0
 20
1250.0
 30
0.0
 11
4625.0
 21
1250.0
 31
0.0
  0
LINE
  5
8048
  8
4
 10
625.0
 20
6673.5218856620122
 30
0.0
 11
625.0
 21
6173.5218856620122
 31
0.0
  0
TEXT
  5
8049
  8
4
 10
908.29547875894775
 20
5955.7986938658578
 30
0.0
 40
135.0
  1
左回転上向
  0
TEXT
  5
804A
  8
4
 10
3672.4238981232238
 20
6765.1527037382721
 30
0.0
 40
140.0
  1
No.
  0
TEXT
  5
804B
  8
4
 10
3278.2401565000318
 20
5958.5721033312893
 30
0.0
 40
135.0
  1
縮尺：1/25
  0
LINE
  5
804C
  8
4
 10
4625.0
 20
6673.5218856620122
 30
0.0
 11
4625.0
 21
6173.5218856620122
 31
0.0
  0
LINE
  5
804D
  8
4
 10
5250.0
 20
7375.0
 30
0.0
 11
5250.0
 21
7375.0
 31
0.0
  0
LINE
  5
804E
  8
4
 10
3601.543555899661
 20
6703.1589578135026
 30
0.0
 11
3601.543555899661
 21
6966.6306538743811
 31
0.0
  0
LINE
  5
804F
  8
4
 10
3601.543555899661
 20
6966.6306538743811
 30
0.0
 11
4625.0
 21
6966.6306538743811
 31
0.0
  0
LINE
  5
8050
  8
4
 10
4625.0
 20
6966.6306538743811
 30
0.0
 11
4625.0
 21
6703.1589578135026
 31
0.0
  0
LINE
  5
8051
  8
4
 10
4625.0
 20
6703.1589578135026
 30
0.0
 11
3601.543555899661
 21
6703.1589578135026
 31
0.0
  0
LINE
  5
8052
  8
4
 10
0.0
 20
0.0
 30
0.0
 11
0.0
 21
7375.0
 31
0.0
  0
LINE
  5
8053
  8
4
 10
0.0
 20
7375.0
 30
0.0
 11
5250.0
 21
7375.0
 31
0.0
  0
LINE
  5
8054
  8
4
 10
5250.0
 20
7375.0
 30
0.0
 11
5250.0
 21
0.0
 31
0.0
  0
LINE
  5
8055
  8
4
 10
5250.0
 20
0.0
 30
0.0
 11
0.0
 21
0.0
 31
0.0
  0
DIMENSION
  5
8114
  8
3
  2
*D17
 10
4184.12997691082
 20
2151.0141629045111
 30
0.0
 11
4184.1299769108191
 21
2496.8149288585951
 31
0.0
 70
   128
 13
4000.1257644070088
 23
2821.0141629045111
 33
0.0
 14
4000.1257644070079
 24
2151.0141629045111
 34
0.0
 50
90.0
1001
ACAD
1000
DSTYLE
1002
{
1070
   287
1070
     3
1070
     3
1000
φ<>
1070
    40
1040
25.0
1070
   143
1040
0.039
1070
   172
1070
     1
1070
   271
1070
     0
1070
   279
1070
     0
1070
   288
1070
     1
1002
}
  0
DIMENSION
  5
8142
  8
3
  2
*D18
 10
4003.6257644070088
 20
3245.9861096744739
 30
0.0
 11
3883.1257644070088
 21
3311.7960854717921
 31
0.0
 70
   128
 13
3762.6257644070088
 23
3218.4716666966201
 33
0.0
 14
4003.6257644070088
 24
2945.5525650193922
 34
0.0
1001
ACAD
1000
DSTYLE
1002
{
1070
   288
1070
     1
1070
   172
1070
     1
1070
    75
1070
     1
1070
    40
1040
25.0
1070
   271
1070
     0
1070
   143
1040
0.039
1002
}
  0
DIMENSION
  5
81F3
  8
3
  2
*D19
 10
1228.8862954177259
 20
1735.0863483304411
 30
0.0
 11
1028.8862954177259
 21
1797.5863483304411
 31
0.0
 70
     0
 13
828.88629541772661
 23
1906.0141629045111
 33
0.0
 14
1228.8862954177259
 24
1906.0141629045111
 34
0.0
1001
ACAD
1000
DSTYLE
1002
{
1070
   287
1070
     3
1070
    40
1040
25.0
1070
   143
1040
0.039
1070
   172
1070
     1
1070
   271
1070
     0
1070
   279
1070
     0
1002
}
  0
DIMENSION
  5
8200
  8
3
  2
*D20
 10
1908.8862954177259
 20
1735.0863483304411
 30
0.0
 11
1568.8862954177259
 21
1797.5863483304411
 31
0.0
 70
     0
 13
1228.8862954177259
 23
1906.0141629045111
 33
0.0
 14
1908.8862954177259
 24
1906.0141629045111
 34
0.0
1001
ACAD
1000
DSTYLE
1002
{
1070
   287
1070
     3
1070
    40
1040
25.0
1070
   143
1040
0.039
1070
   172
1070
     1
1070
   271
1070
     0
1070
   279
1070
     0
1002
}
  0
DIMENSION
  5
820D
  8
3
  2
*D21
 10
3762.6257644070088
 20
1735.0863483304411
 30
0.0
 11
3309.1257644070088
 21
1797.5863483304411
 31
0.0
 70
     0
 13
2855.6257644070088
 23
1906.0141629045111
 33
0.0
 14
3762.6257644070088
 24
1906.0141629045111
 34
0.0
1001
ACAD
1000
DSTYLE
1002
{
1070
   287
1070
     3
1070
    40
1040
25.0
1070
   143
1040
0.039
1070
   172
1070
     1
1070
   271
1070
     0
1070
   279
1070
     0
1002
}
  0
DIMENSION
  5
821C
  8
3
  2
*D22
 10
4055.6257644070088
 20
1735.0863483304411
 30
0.0
 11
3909.1257644070088
 21
1797.5863483304411
 31
0.0
 70
     0
 13
3762.6257644070088
 23
1906.0141629045111
 33
0.0
 14
4055.6257644070088
 24
1906.0141629045111
 34
0.0
1001
ACAD
1000
DSTYLE
1002
{
1070
   287
1070
     3
1070
    40
1040
25.0
1070
   143
1040
0.039
1070
   172
1070
     1
1070
   271
1070
     0
1070
   279
1070
     0
1002
}
  0
DIMENSION
  5
8229
  8
3
  2
*D23
 10
449.237141218673
 20
1906.0141629045111
 30
0.0
 11
386.73714121867278
 21
2426.0141629045111
 31
0.0
 70
     0
 13
1214.3862954177259
 23
2946.0141629045111
 33
0.0
 14
828.88629541772661
 24
1906.0141629045111
 34
0.0
 50
90.0
1001
ACAD
1000
DSTYLE
1002
{
1070
   287
1070
     3
1070
    40
1040
25.0
1070
   143
1040
0.039
1070
   172
1070
     1
1070
   271
1070
     0
1070
   279
1070
     0
1002
}
  0
LINE
  5
8236
  8
1
 10
1058.8862954177259
 20
2431.0141629045102
 30
0.0
 11
1398.8862954177259
 21
2431.0141629045111
 31
0.0
  0
LINE
  5
8238
  8
1
 10
1058.8862954177259
 20
2431.0141629045111
 30
0.0
 11
978.88629541772661
 21
2006.0141629045111
 31
0.0
  0
LINE
  5
8239
  8
1
 10
1398.8862954177259
 20
2431.0141629045111
 30
0.0
 11
1478.8862954177259
 21
2006.0141629045111
 31
0.0
  0
LINE
  5
823A
  8
1
 10
1058.8862954177259
 20
4701.7306515507153
 30
0.0
 11
1058.8862954177259
 21
4161.7306515507153
 31
0.0
  0
LINE
  5
823B
  8
1
 10
1398.8862954177259
 20
4701.7306515507153
 30
0.0
 11
1398.8862954177259
 21
4161.7306515507153
 31
0.0
  0
ENDSEC
  0
EOF
