  0
SECTION
  2
HEADER
  9
$ACADVER
  1
AC1015
  9
$ACADMAINTVER
 70
    20
  9
$DWGCODEPAGE
  3
ANSI_932
  9
$INSBASE
 10
0.0
 20
0.0
 30
0.0
  9
$EXTMIN
 10
-0.2563359212872456
 20
-0.3600909370470617
 30
-0.0000000349181948
  9
$EXTMAX
 10
4200.256375038029
 20
5900.360145886753
 30
0.0000000814935746
  9
$LIMMIN
 10
0.0
 20
0.0
  9
$LIMMAX
 10
297.0
 20
210.0
  9
$ORTHOMODE
 70
     1
  9
$REGENMODE
 70
     1
  9
$FILLMODE
 70
     0
  9
$QTEXTMODE
 70
     0
  9
$MIRRTEXT
 70
     1
  9
$LTSCALE
 40
100.0
  9
$ATTMODE
 70
     1
  9
$TEXTSIZE
 40
180.0
  9
$TRACEWID
 40
0.05
  9
$TEXTSTYLE
  7
STANDARD
  9
$CLAYER
  8
3
  9
$CELTYPE
  6
BYLAYER
  9
$CECOLOR
 62
   256
  9
$CELTSCALE
 40
1.0
  9
$DISPSILH
 70
     0
  9
$DIMSCALE
 40
20.0
  9
$DIMASZ
 40
2.0
  9
$DIMEXO
 40
0.5
  9
$DIMDLI
 40
10.0
  9
$DIMRND
 40
0.0
  9
$DIMDLE
 40
0.0
  9
$DIMEXE
 40
1.0
  9
$DIMTP
 40
1.0
  9
$DIMTM
 40
1.0
  9
$DIMTXT
 40
3.0
  9
$DIMCEN
 40
0.0
  9
$DIMTSZ
 40
0.0
  9
$DIMTOL
 70
     0
  9
$DIMLIM
 70
     0
  9
$DIMTIH
 70
     0
  9
$DIMTOH
 70
     0
  9
$DIMSE1
 70
     0
  9
$DIMSE2
 70
     0
  9
$DIMTAD
 70
     1
  9
$DIMZIN
 70
     8
  9
$DIMBLK
  1

  9
$DIMASO
 70
     1
  9
$DIMSHO
 70
     1
  9
$DIMPOST
  1
(<>)
  9
$DIMAPOST
  1

  9
$DIMALT
 70
     0
  9
$DIMALTD
 70
     2
  9
$DIMALTF
 40
0.039
  9
$DIMLFAC
 40
1.0
  9
$DIMTOFL
 70
     1
  9
$DIMTVP
 40
0.0
  9
$DIMTIX
 70
     0
  9
$DIMSOXD
 70
     0
  9
$DIMSAH
 70
     1
  9
$DIMBLK1
  1
OPEN
  9
$DIMBLK2
  1
OPEN
  9
$DIMSTYLE
  2
IGA
  9
$DIMCLRD
 70
     0
  9
$DIMCLRE
 70
     0
  9
$DIMCLRT
 70
     0
  9
$DIMTFAC
 40
10.0
  9
$DIMGAP
 40
1.0
  9
$DIMJUST
 70
     0
  9
$DIMSD1
 70
     0
  9
$DIMSD2
 70
     0
  9
$DIMTOLJ
 70
     1
  9
$DIMTZIN
 70
     8
  9
$DIMALTZ
 70
     0
  9
$DIMALTTZ
 70
     0
  9
$DIMUPT
 70
     0
  9
$DIMDEC
 70
     0
  9
$DIMTDEC
 70
     0
  9
$DIMALTU
 70
     2
  9
$DIMALTTD
 70
     2
  9
$DIMTXSTY
  7
STANDARD
  9
$DIMAUNIT
 70
     0
  9
$DIMADEC
 70
     0
  9
$DIMALTRND
 40
0.0
  9
$DIMAZIN
 70
     0
  9
$DIMDSEP
 70
    46
  9
$DIMATFIT
 70
     3
  9
$DIMFRAC
 70
     0
  9
$DIMLDRBLK
  1
OPEN
  9
$DIMLUNIT
 70
     2
  9
$DIMLWD
 70
    -2
  9
$DIMLWE
 70
    -2
  9
$DIMTMOVE
 70
     2
  9
$LUNITS
 70
     2
  9
$LUPREC
 70
     3
  9
$SKETCHINC
 40
0.1
  9
$FILLETRAD
 40
50.0
  9
$AUNITS
 70
     0
  9
$AUPREC
 70
     0
  9
$MENU
  1
acad
  9
$ELEVATION
 40
0.0
  9
$PELEVATION
 40
0.0
  9
$THICKNESS
 40
0.0
  9
$LIMCHECK
 70
     0
  9
$CHAMFERA
 40
0.5
  9
$CHAMFERB
 40
0.5
  9
$CHAMFERC
 40
20.0
  9
$CHAMFERD
 40
0.0
  9
$SKPOLY
 70
     0
  9
$TDCREATE
 40
2451376.571122107
  9
$TDUCREATE
 40
2451376.196122107
  9
$TDUPDATE
 40
2460262.595051482
  9
$TDUUPDATE
 40
2460262.220051482
  9
$TDINDWG
 40
0.0688004514
  9
$TDUSRTIMER
 40
0.0688004514
  9
$USRTIMER
 70
     1
  9
$ANGBASE
 50
0.0
  9
$ANGDIR
 70
     0
  9
$PDMODE
 70
     0
  9
$PDSIZE
 40
0.0
  9
$PLINEWID
 40
0.0
  9
$SPLFRAME
 70
     0
  9
$SPLINETYPE
 70
     6
  9
$SPLINESEGS
 70
     8
  9
$HANDSEED
  5
825A
  9
$SURFTAB1
 70
     6
  9
$SURFTAB2
 70
     6
  9
$SURFTYPE
 70
     6
  9
$SURFU
 70
     6
  9
$SURFV
 70
     6
  9
$UCSBASE
  2

  9
$UCSNAME
  2

  9
$UCSORG
 10
0.0
 20
0.0
 30
0.0
  9
$UCSXDIR
 10
1.0
 20
0.0
 30
0.0
  9
$UCSYDIR
 10
0.0
 20
1.0
 30
0.0
  9
$UCSORTHOREF
  2

  9
$UCSORTHOVIEW
 70
     0
  9
$UCSORGTOP
 10
0.0
 20
0.0
 30
0.0
  9
$UCSORGBOTTOM
 10
0.0
 20
0.0
 30
0.0
  9
$UCSORGLEFT
 10
0.0
 20
0.0
 30
0.0
  9
$UCSORGRIGHT
 10
0.0
 20
0.0
 30
0.0
  9
$UCSORGFRONT
 10
0.0
 20
0.0
 30
0.0
  9
$UCSORGBACK
 10
0.0
 20
0.0
 30
0.0
  9
$PUCSBASE
  2

  9
$PUCSNAME
  2

  9
$PUCSORG
 10
0.0
 20
0.0
 30
0.0
  9
$PUCSXDIR
 10
1.0
 20
0.0
 30
0.0
  9
$PUCSYDIR
 10
0.0
 20
1.0
 30
0.0
  9
$PUCSORTHOREF
  2

  9
$PUCSORTHOVIEW
 70
     0
  9
$PUCSORGTOP
 10
0.0
 20
0.0
 30
0.0
  9
$PUCSORGBOTTOM
 10
0.0
 20
0.0
 30
0.0
  9
$PUCSORGLEFT
 10
0.0
 20
0.0
 30
0.0
  9
$PUCSORGRIGHT
 10
0.0
 20
0.0
 30
0.0
  9
$PUCSORGFRONT
 10
0.0
 20
0.0
 30
0.0
  9
$PUCSORGBACK
 10
0.0
 20
0.0
 30
0.0
  9
$USERI1
 70
     0
  9
$USERI2
 70
     0
  9
$USERI3
 70
     0
  9
$USERI4
 70
     0
  9
$USERI5
 70
     0
  9
$USERR1
 40
0.0
  9
$USERR2
 40
0.0
  9
$USERR3
 40
0.0
  9
$USERR4
 40
0.0
  9
$USERR5
 40
0.0
  9
$WORLDVIEW
 70
     1
  9
$SHADEDGE
 70
     3
  9
$SHADEDIF
 70
    70
  9
$TILEMODE
 70
     1
  9
$MAXACTVP
 70
    16
  9
$PINSBASE
 10
0.0
 20
0.0
 30
0.0
  9
$PLIMCHECK
 70
     0
  9
$PEXTMIN
 10
1.000000000000000E+20
 20
1.000000000000000E+20
 30
1.000000000000000E+20
  9
$PEXTMAX
 10
-1.000000000000000E+20
 20
-1.000000000000000E+20
 30
-1.000000000000000E+20
  9
$PLIMMIN
 10
0.0
 20
0.0
  9
$PLIMMAX
 10
12.0
 20
9.0
  9
$UNITMODE
 70
     0
  9
$VISRETAIN
 70
     0
  9
$PLINEGEN
 70
     0
  9
$PSLTSCALE
 70
     1
  9
$TREEDEPTH
 70
  3020
  9
$CMLSTYLE
  2
STANDARD
  9
$CMLJUST
 70
     0
  9
$CMLSCALE
 40
20.0
  9
$PROXYGRAPHICS
 70
     1
  9
$MEASUREMENT
 70
     1
  9
$CELWEIGHT
370
    -1
  9
$ENDCAPS
280
     0
  9
$JOINSTYLE
280
     0
  9
$LWDISPLAY
290
     0
  9
$INSUNITS
 70
     0
  9
$HYPERLINKBASE
  1

  9
$STYLESHEET
  1

  9
$XEDIT
290
     1
  9
$CEPSNTYPE
380
     0
  9
$PSTYLEMODE
290
     1
  9
$FINGERPRINTGUID
  2
{34CC631E-2052-4DCC-81A8-22086EAA7782}
  9
$VERSIONGUID
  2
{DF745412-4EAA-431F-BC8D-A0033FD69B91}
  9
$EXTNAMES
290
     1
  9
$PSVPSCALE
 40
0.0
  9
$OLESTARTUP
290
     0
  0
ENDSEC
  0
SECTION
  2
CLASSES
  0
CLASS
  1
ACDBDICTIONARYWDFLT
  2
AcDbDictionaryWithDefault
  3
ObjectDBX Classes
 90
        0
280
     0
281
     0
  0
CLASS
  1
ACDBPLACEHOLDER
  2
AcDbPlaceHolder
  3
ObjectDBX Classes
 90
        0
280
     0
281
     0
  0
CLASS
  1
LAYOUT
  2
AcDbLayout
  3
ObjectDBX Classes
 90
        0
280
     0
281
     0
  0
CLASS
  1
MATERIAL
  2
AcDbMaterial
  3
ObjectDBX Classes
 90
     1153
280
     0
281
     0
  0
CLASS
  1
VISUALSTYLE
  2
AcDbVisualStyle
  3
ObjectDBX Classes
 90
     4095
280
     0
281
     0
  0
CLASS
  1
TABLESTYLE
  2
AcDbTableStyle
  3
ObjectDBX Classes
 90
     4095
280
     0
281
     0
  0
CLASS
  1
SCALE
  2
AcDbScale
  3
ObjectDBX Classes
 90
     1153
280
     0
281
     0
  0
CLASS
  1
MLEADERSTYLE
  2
AcDbMLeaderStyle
  3
ACDB_MLEADERSTYLE_CLASS
 90
     4095
280
     0
281
     0
  0
CLASS
  1
ACDBSECTIONVIEWSTYLE
  2
AcDbSectionViewStyle
  3
ObjectDBX Classes
 90
     1025
280
     0
281
     0
  0
CLASS
  1
ACDBDETAILVIEWSTYLE
  2
AcDbDetailViewStyle
  3
ObjectDBX Classes
 90
     1025
280
     0
281
     0
  0
CLASS
  1
DICTIONARYVAR
  2
AcDbDictionaryVar
  3
ObjectDBX Classes
 90
        0
280
     0
281
     0
  0
CLASS
  1
CELLSTYLEMAP
  2
AcDbCellStyleMap
  3
ObjectDBX Classes
 90
     1152
280
     0
281
     0
  0
ENDSEC
  0
SECTION
  2
TABLES
  0
TABLE
  2
VPORT
  5
8
330
0
100
AcDbSymbolTable
 70
     1
  0
VPORT
  5
80F3
330
8
100
AcDbSymbolTableRecord
100
AcDbViewportTableRecord
  2
*Active
 70
     0
 10
0.0
 20
0.0
 11
1.0
 21
1.0
 12
2100.000019558371
 22
2950.000027474853
 13
0.0
 23
0.0
 14
10.0
 24
10.0
 15
10.0
 25
10.0
 16
0.0
 26
0.0
 36
1.0
 17
0.0
 27
0.0
 37
0.0
 40
5938.504998212213
 41
2.050213675213675
 42
50.0
 43
0.0
 44
0.0
 50
0.0
 51
0.0
 71
     0
 72
   100
 73
     1
 74
     0
 75
     0
 76
     0
 77
     0
 78
     0
281
     0
 65
     1
110
0.0
120
0.0
130
0.0
111
1.0
121
0.0
131
0.0
112
0.0
122
1.0
132
0.0
 79
     0
146
0.0
1001
ACAD_NAV_VCDISPLAY
1070
     3
  0
ENDTAB
  0
TABLE
  2
LTYPE
  5
5
330
0
100
AcDbSymbolTable
 70
     3
  0
LTYPE
  5
13
330
5
100
AcDbSymbolTableRecord
100
AcDbLinetypeTableRecord
  2
BYBLOCK
 70
     0
  3

 72
    65
 73
     0
 40
0.0
  0
LTYPE
  5
14
330
5
100
AcDbSymbolTableRecord
100
AcDbLinetypeTableRecord
  2
BYLAYER
 70
     0
  3

 72
    65
 73
     0
 40
0.0
  0
LTYPE
  5
15
330
5
100
AcDbSymbolTableRecord
100
AcDbLinetypeTableRecord
  2
CONTINUOUS
 70
     0
  3
Solid line
 72
    65
 73
     0
 40
0.0
  0
LTYPE
  5
1F
330
5
100
AcDbSymbolTableRecord
100
AcDbLinetypeTableRecord
  2
CENTER
 70
     0
  3
____ _ ____ _ ____ _ ____ _ ____ _ ____ _ ____ 
 72
    65
 73
     4
 40
2.0
 49
1.25
 74
     0
 49
-0.25
 74
     0
 49
0.25
 74
     0
 49
-0.25
 74
     0
  0
ENDTAB
  0
TABLE
  2
LAYER
  5
2
102
{ACAD_XDICTIONARY
360
8188
102
}
330
0
100
AcDbSymbolTable
 70
     6
  0
LAYER
  5
F
102
{ACAD_XDICTIONARY
360
817B
102
}
330
2
100
AcDbSymbolTableRecord
100
AcDbLayerTableRecord
  2
0
 70
     0
 62
     7
  6
CONTINUOUS
370
    -3
390
8081
  0
LAYER
  5
31
102
{ACAD_XDICTIONARY
360
817D
102
}
330
2
100
AcDbSymbolTableRecord
100
AcDbLayerTableRecord
  2
3
 70
     0
 62
     2
  6
CONTINUOUS
370
    -3
390
8081
  0
LAYER
  5
76D0
102
{ACAD_XDICTIONARY
360
817F
102
}
330
2
100
AcDbSymbolTableRecord
100
AcDbLayerTableRecord
  2
2
 70
     0
 62
     3
  6
CENTER
370
    -3
390
8081
  0
LAYER
  5
76D1
102
{ACAD_XDICTIONARY
360
8181
102
}
330
2
100
AcDbSymbolTableRecord
100
AcDbLayerTableRecord
  2
1
 70
     0
 62
     4
  6
CONTINUOUS
370
    -3
390
8081
  0
LAYER
  5
76D2
102
{ACAD_XDICTIONARY
360
8183
102
}
330
2
100
AcDbSymbolTableRecord
100
AcDbLayerTableRecord
  2
4
 70
     0
 62
     7
  6
CONTINUOUS
370
    -3
390
8081
  0
LAYER
  5
7B41
330
2
100
AcDbSymbolTableRecord
100
AcDbLayerTableRecord
  2
DEFPOINTS
 70
     0
 62
     7
  6
CONTINUOUS
290
     0
370
    -3
390
8081
  0
ENDTAB
  0
TABLE
  2
STYLE
  5
3
330
0
100
AcDbSymbolTable
 70
     1
  0
STYLE
  5
10
330
3
100
AcDbSymbolTableRecord
100
AcDbTextStyleTableRecord
  2
STANDARD
 70
     0
 40
0.0
 41
1.0
 50
0.0
 71
     0
 42
180.0
  3
simplex.shx
  4
extfont.shx
  0
ENDTAB
  0
TABLE
  2
VIEW
  5
6
330
0
100
AcDbSymbolTable
 70
     1
  0
ENDTAB
  0
TABLE
  2
UCS
  5
7
330
0
100
AcDbSymbolTable
 70
     0
  0
ENDTAB
  0
TABLE
  2
APPID
  5
9
330
0
100
AcDbSymbolTable
 70
     5
  0
APPID
  5
11
330
9
100
AcDbSymbolTableRecord
100
AcDbRegAppTableRecord
  2
ACAD
 70
     0
  0
APPID
  5
8145
330
9
100
AcDbSymbolTableRecord
100
AcDbRegAppTableRecord
  2
AcadAnnoMonitorAlertIconDisabled
 70
     0
  0
APPID
  5
8146
330
9
100
AcDbSymbolTableRecord
100
AcDbRegAppTableRecord
  2
ACAD_EXEMPT_FROM_CAD_STANDARDS
 70
     0
  0
APPID
  5
818E
330
9
100
AcDbSymbolTableRecord
100
AcDbRegAppTableRecord
  2
ACAD_NAV_VCDISPLAY
 70
     0
  0
APPID
  5
8255
330
9
100
AcDbSymbolTableRecord
100
AcDbRegAppTableRecord
  2
ACAD_MLEADERVER
 70
     0
  0
ENDTAB
  0
TABLE
  2
DIMSTYLE
  5
A
330
0
100
AcDbSymbolTable
 70
     2
100
AcDbDimStyleTable
 71
     1
340
1D
  0
DIMSTYLE
105
1D
102
{ACAD_REACTORS
330
7F88
330
800F
330
801C
330
8029
330
8036
330
8053
330
806B
330
8078
102
}
330
A
100
AcDbSymbolTableRecord
100
AcDbDimStyleTableRecord
  2
IGA
 70
     0
 40
2.0
 41
2.0
 42
0.5
 43
10.0
 44
1.0
 47
1.0
 48
1.0
 73
     0
 74
     0
 77
     1
 78
     8
140
3.0
141
0.0
143
0.03937
146
10.0
147
1.0
173
     1
271
     1
272
     0
279
     2
284
     8
340
10
341
79FC
343
79FC
344
79FC
  0
DIMSTYLE
105
7B43
102
{ACAD_REACTORS
330
7C31
330
7C32
330
7C33
330
7C5B
330
7C68
330
7CB3
330
7CD8
330
7CE3
330
7CE4
330
7CE5
330
7CE6
330
7CE7
330
7CF5
330
7CF6
330
7CF7
102
}
330
A
100
AcDbSymbolTableRecord
100
AcDbDimStyleTableRecord
  2
MATSU
 70
     0
 41
2.0
 42
1.0
 43
10.0
 44
1.0
 73
     0
 74
     0
 77
     1
 78
     8
140
3.0
141
0.0
143
0.03937
147
0.5
172
     1
173
     1
176
   256
177
   256
178
   256
284
     8
289
     0
340
10
341
79FC
343
79FC
344
79FC
  0
ENDTAB
  0
TABLE
  2
BLOCK_RECORD
  5
1
330
0
100
AcDbSymbolTable
 70
    26
  0
BLOCK_RECORD
  5
19
102
{ACAD_XDICTIONARY
360
80AF
102
}
330
1
100
AcDbSymbolTableRecord
100
AcDbBlockTableRecord
  2
*MODEL_SPACE
340
8084
  0
BLOCK_RECORD
  5
16
102
{ACAD_XDICTIONARY
360
80AD
102
}
330
1
100
AcDbSymbolTableRecord
100
AcDbBlockTableRecord
  2
*PAPER_SPACE
340
8085
  0
BLOCK_RECORD
  5
79FC
330
1
100
AcDbSymbolTableRecord
100
AcDbBlockTableRecord
  2
_OPEN
340
0
102
{BLKREFS
331
7E2F
331
7E30
331
7E3A
331
7E3B
331
7E45
331
7E46
331
7E90
331
7E91
331
7ED3
331
7ED4
331
7EDE
331
7EDF
331
7EFE
331
7EFF
331
7F14
331
7F15
331
7F1F
331
7F20
331
7FE6
331
7FE7
331
804C
331
804D
331
80C0
331
80C1
331
80D0
331
80D1
331
80D8
331
80D9
331
816D
331
816E
331
81A4
331
81AC
331
81AD
331
81B5
331
81B6
331
81BE
331
81BF
331
81C7
331
81C8
331
81D5
331
81D6
331
81FD
331
81FE
102
}
  0
BLOCK_RECORD
  5
7D02
330
1
100
AcDbSymbolTableRecord
100
AcDbBlockTableRecord
  2
*D1
340
0
  0
BLOCK_RECORD
  5
7D0E
330
1
100
AcDbSymbolTableRecord
100
AcDbBlockTableRecord
  2
*D2
340
0
  0
BLOCK_RECORD
  5
7D1A
330
1
100
AcDbSymbolTableRecord
100
AcDbBlockTableRecord
  2
*D3
340
0
  0
BLOCK_RECORD
  5
7D6C
330
1
100
AcDbSymbolTableRecord
100
AcDbBlockTableRecord
  2
*D4
340
0
  0
BLOCK_RECORD
  5
7D78
330
1
100
AcDbSymbolTableRecord
100
AcDbBlockTableRecord
  2
*D5
340
0
  0
BLOCK_RECORD
  5
7D84
330
1
100
AcDbSymbolTableRecord
100
AcDbBlockTableRecord
  2
*D6
340
0
  0
BLOCK_RECORD
  5
7DAA
330
1
100
AcDbSymbolTableRecord
100
AcDbBlockTableRecord
  2
*D7
340
0
  0
BLOCK_RECORD
  5
7DB5
330
1
100
AcDbSymbolTableRecord
100
AcDbBlockTableRecord
  2
*D8
340
0
  0
BLOCK_RECORD
  5
7DC1
330
1
100
AcDbSymbolTableRecord
100
AcDbBlockTableRecord
  2
*D9
340
0
  0
BLOCK_RECORD
  5
7DCD
330
1
100
AcDbSymbolTableRecord
100
AcDbBlockTableRecord
  2
*D10
340
0
  0
BLOCK_RECORD
  5
7DD8
330
1
100
AcDbSymbolTableRecord
100
AcDbBlockTableRecord
  2
*D11
340
0
  0
BLOCK_RECORD
  5
7DE4
330
1
100
AcDbSymbolTableRecord
100
AcDbBlockTableRecord
  2
*D12
340
0
  0
BLOCK_RECORD
  5
7DFC
330
1
100
AcDbSymbolTableRecord
100
AcDbBlockTableRecord
  2
*D13
340
0
  0
BLOCK_RECORD
  5
7E08
330
1
100
AcDbSymbolTableRecord
100
AcDbBlockTableRecord
  2
*D14
340
0
  0
BLOCK_RECORD
  5
7E14
330
1
100
AcDbSymbolTableRecord
100
AcDbBlockTableRecord
  2
*D15
340
0
  0
BLOCK_RECORD
  5
7F79
330
1
100
AcDbSymbolTableRecord
100
AcDbBlockTableRecord
  2
*D16
340
0
  0
BLOCK_RECORD
  5
7FB0
330
1
100
AcDbSymbolTableRecord
100
AcDbBlockTableRecord
  2
_DOT
340
0
102
{BLKREFS
331
81A3
102
}
  0
BLOCK_RECORD
  5
8003
330
1
100
AcDbSymbolTableRecord
100
AcDbBlockTableRecord
  2
*D18
340
0
  0
BLOCK_RECORD
  5
8010
330
1
100
AcDbSymbolTableRecord
100
AcDbBlockTableRecord
  2
*D19
340
0
  0
BLOCK_RECORD
  5
801D
330
1
100
AcDbSymbolTableRecord
100
AcDbBlockTableRecord
  2
*D20
340
0
  0
BLOCK_RECORD
  5
802A
330
1
100
AcDbSymbolTableRecord
100
AcDbBlockTableRecord
  2
*D21
340
0
  0
BLOCK_RECORD
  5
8037
330
1
100
AcDbSymbolTableRecord
100
AcDbBlockTableRecord
  2
_NONE
340
0
  0
BLOCK_RECORD
  5
8047
330
1
100
AcDbSymbolTableRecord
100
AcDbBlockTableRecord
  2
*D23
340
0
  0
BLOCK_RECORD
  5
8063
330
1
100
AcDbSymbolTableRecord
100
AcDbBlockTableRecord
  2
*D24
340
0
  0
BLOCK_RECORD
  5
806C
330
1
100
AcDbSymbolTableRecord
100
AcDbBlockTableRecord
  2
*D25
340
0
  0
ENDTAB
  0
ENDSEC
  0
SECTION
  2
BLOCKS
  0
BLOCK
  5
1A
330
19
100
AcDbEntity
  8
0
100
AcDbBlockBegin
  2
*MODEL_SPACE
 70
     0
 10
0.0
 20
0.0
 30
0.0
  3
*MODEL_SPACE
  1

  0
ENDBLK
  5
1B
330
19
100
AcDbEntity
  8
0
100
AcDbBlockEnd
  0
BLOCK
  5
17
330
16
100
AcDbEntity
 67
     1
  8
0
100
AcDbBlockBegin
  2
*PAPER_SPACE
 70
     0
 10
0.0
 20
0.0
 30
0.0
  3
*PAPER_SPACE
  1

  0
ENDBLK
  5
18
330
16
100
AcDbEntity
 67
     1
  8
0
100
AcDbBlockEnd
  0
BLOCK
  5
7A00
330
79FC
100
AcDbEntity
  8
0
100
AcDbBlockBegin
  2
_OPEN
 70
     0
 10
0.0
 20
0.0
 30
0.0
  3
_OPEN
  1

  0
LINE
  5
79FD
330
79FC
100
AcDbEntity
  8
0
  6
ByBlock
 62
     0
100
AcDbLine
 10
-1.0
 20
0.1666666666666666
 30
0.0
 11
0.0
 21
0.0
 31
0.0
  0
LINE
  5
79FE
330
79FC
100
AcDbEntity
  8
0
  6
ByBlock
 62
     0
100
AcDbLine
 10
0.0
 20
0.0
 30
0.0
 11
-1.0
 21
-0.1666666666666666
 31
0.0
  0
LINE
  5
79FF
330
79FC
100
AcDbEntity
  8
0
  6
ByBlock
 62
     0
100
AcDbLine
 10
0.0
 20
0.0
 30
0.0
 11
-1.0
 21
0.0
 31
0.0
  0
ENDBLK
  5
7A01
330
79FC
100
AcDbEntity
  8
0
100
AcDbBlockEnd
  0
BLOCK
  5
7E2B
330
7D02
100
AcDbEntity
  8
0
100
AcDbBlockBegin
  2
*D1
 70
     1
 10
0.0
 20
0.0
 30
0.0
  3
*D1
  1

  0
LINE
  5
7E2C
330
7D02
100
AcDbEntity
  8
0
  6
ByBlock
100
AcDbLine
 10
1660.81331100305
 20
459.7326340081979
 30
0.0
 11
1764.546025369726
 21
459.7326340081979
 31
0.0
  0
LINE
  5
7E2D
330
7D02
100
AcDbEntity
  8
0
  6
ByBlock
100
AcDbLine
 10
1660.813311003051
 20
1039.732634008197
 30
0.0
 11
1764.546025369726
 21
1039.732634008197
 31
0.0
  0
LINE
  5
7E2E
330
7D02
100
AcDbEntity
  8
0
  6
ByBlock
100
AcDbLine
 10
1744.546025369726
 20
499.7326340081979
 30
0.0
 11
1744.546025369726
 21
999.7326340081974
 31
0.0
  0
INSERT
  5
7E2F
330
7D02
100
AcDbEntity
  8
0
  6
ByBlock
100
AcDbBlockReference
  2
_OPEN
 10
1744.546025369726
 20
459.7326340081979
 30
0.0
 41
40.0
 42
40.0
 43
40.0
 50
270.0
  0
INSERT
  5
7E30
330
7D02
100
AcDbEntity
  8
0
  6
ByBlock
100
AcDbBlockReference
  2
_OPEN
 10
1744.546025369726
 20
1039.732634008197
 30
0.0
 41
40.0
 42
40.0
 43
40.0
 50
90.0
  0
MTEXT
  5
7E31
330
7D02
100
AcDbEntity
  8
0
  6
ByBlock
100
AcDbMText
 10
1704.546025369726
 20
749.7326340081976
 30
0.0
 40
60.0
 41
0.0
 71
     5
 72
     5
  1
\A1;580
 11
0.0
 21
1.0
 31
0.0
 73
     1
 44
1.0
1001
ACAD
1000
MTEXTBEGIN
1070
    73
1070
     1
1070
    44
1040
1.0
1070
    74
1070
     0
1000
MTEXTEND
  0
POINT
  5
7E32
330
7D02
100
AcDbEntity
  8
DEFPOINTS
  6
ByBlock
 62
     0
100
AcDbPoint
 10
1640.81331100305
 20
459.7326340081979
 30
0.0
  0
POINT
  5
7E33
330
7D02
100
AcDbEntity
  8
DEFPOINTS
  6
ByBlock
 62
     0
100
AcDbPoint
 10
1640.813311003051
 20
1039.732634008197
 30
0.0
  0
POINT
  5
7E34
330
7D02
100
AcDbEntity
  8
DEFPOINTS
  6
ByBlock
 62
     0
100
AcDbPoint
 10
1744.546025369726
 20
1039.732634008197
 30
0.0
  0
ENDBLK
  5
7E35
330
7D02
100
AcDbEntity
  8
0
100
AcDbBlockEnd
  0
BLOCK
  5
7E36
330
7D0E
100
AcDbEntity
  8
0
100
AcDbBlockBegin
  2
*D2
 70
     1
 10
0.0
 20
0.0
 30
0.0
  3
*D2
  1

  0
LINE
  5
7E37
330
7D0E
100
AcDbEntity
  8
0
  6
ByBlock
100
AcDbLine
 10
1672.81331100305
 20
459.7326340081979
 30
0.0
 11
1890.965878779781
 21
459.7326340081979
 31
0.0
  0
LINE
  5
7E38
330
7D0E
100
AcDbEntity
  8
0
  6
ByBlock
100
AcDbLine
 10
1704.412935568308
 20
1059.732634008197
 30
0.0
 11
1890.965878779781
 21
1059.732634008197
 31
0.0
  0
LINE
  5
7E39
330
7D0E
100
AcDbEntity
  8
0
  6
ByBlock
100
AcDbLine
 10
1870.965878779781
 20
499.7326340081979
 30
0.0
 11
1870.965878779781
 21
1019.732634008197
 31
0.0
  0
INSERT
  5
7E3A
330
7D0E
100
AcDbEntity
  8
0
  6
ByBlock
100
AcDbBlockReference
  2
_OPEN
 10
1870.965878779781
 20
459.7326340081979
 30
0.0
 41
40.0
 42
40.0
 43
40.0
 50
270.0
  0
INSERT
  5
7E3B
330
7D0E
100
AcDbEntity
  8
0
  6
ByBlock
100
AcDbBlockReference
  2
_OPEN
 10
1870.965878779781
 20
1059.732634008197
 30
0.0
 41
40.0
 42
40.0
 43
40.0
 50
90.0
  0
MTEXT
  5
7E3C
330
7D0E
100
AcDbEntity
  8
0
  6
ByBlock
100
AcDbMText
 10
1830.965878779781
 20
759.7326340081977
 30
0.0
 40
60.0
 41
0.0
 71
     5
 72
     5
  1
\A1;600
 11
0.0
 21
1.0
 31
0.0
 73
     1
 44
1.0
1001
ACAD
1000
MTEXTBEGIN
1070
    73
1070
     1
1070
    44
1040
1.0
1070
    74
1070
     0
1000
MTEXTEND
  0
POINT
  5
7E3D
330
7D0E
100
AcDbEntity
  8
DEFPOINTS
  6
ByBlock
 62
     0
100
AcDbPoint
 10
1652.81331100305
 20
459.7326340081979
 30
0.0
  0
POINT
  5
7E3E
330
7D0E
100
AcDbEntity
  8
DEFPOINTS
  6
ByBlock
 62
     0
100
AcDbPoint
 10
1684.412935568309
 20
1059.732634008197
 30
0.0
  0
POINT
  5
7E3F
330
7D0E
100
AcDbEntity
  8
DEFPOINTS
  6
ByBlock
 62
     0
100
AcDbPoint
 10
1870.965878779781
 20
1059.732634008197
 30
0.0
  0
ENDBLK
  5
7E40
330
7D0E
100
AcDbEntity
  8
0
100
AcDbBlockEnd
  0
BLOCK
  5
7E41
330
7D1A
100
AcDbEntity
  8
0
100
AcDbBlockBegin
  2
*D3
 70
     1
 10
0.0
 20
0.0
 30
0.0
  3
*D3
  1

  0
LINE
  5
7E42
330
7D1A
100
AcDbEntity
  8
0
  6
ByBlock
100
AcDbLine
 10
3512.906635817507
 20
1339.732634008198
 30
0.0
 11
3713.31995148206
 21
1339.732634008198
 31
0.0
  0
LINE
  5
7E43
330
7D1A
100
AcDbEntity
  8
0
  6
ByBlock
100
AcDbLine
 10
3512.906635817507
 20
779.7326340081976
 30
0.0
 11
3713.31995148206
 21
779.7326340081976
 31
0.0
  0
LINE
  5
7E44
330
7D1A
100
AcDbEntity
  8
0
  6
ByBlock
100
AcDbLine
 10
3693.31995148206
 20
1299.732634008198
 30
0.0
 11
3693.31995148206
 21
819.7326340081977
 31
0.0
  0
INSERT
  5
7E45
330
7D1A
100
AcDbEntity
  8
0
  6
ByBlock
100
AcDbBlockReference
  2
_OPEN
 10
3693.31995148206
 20
1339.732634008198
 30
0.0
 41
40.0
 42
40.0
 43
40.0
 50
90.0
  0
INSERT
  5
7E46
330
7D1A
100
AcDbEntity
  8
0
  6
ByBlock
100
AcDbBlockReference
  2
_OPEN
 10
3693.31995148206
 20
779.7326340081976
 30
0.0
 41
40.0
 42
40.0
 43
40.0
 50
270.0
  0
MTEXT
  5
7E47
330
7D1A
100
AcDbEntity
  8
0
  6
ByBlock
100
AcDbMText
 10
3653.31995148206
 20
1059.732634008198
 30
0.0
 40
60.0
 41
0.0
 71
     5
 72
     5
  1
\A1;\U+03C6 560
 11
0.0
 21
1.0
 31
0.0
 73
     1
 44
1.0
1001
ACAD
1000
MTEXTBEGIN
1070
    73
1070
     1
1070
    44
1040
1.0
1070
    74
1070
     0
1000
MTEXTEND
  0
POINT
  5
7E48
330
7D1A
100
AcDbEntity
  8
DEFPOINTS
  6
ByBlock
 62
     0
100
AcDbPoint
 10
3492.906635817507
 20
1339.732634008198
 30
0.0
  0
POINT
  5
7E49
330
7D1A
100
AcDbEntity
  8
DEFPOINTS
  6
ByBlock
 62
     0
100
AcDbPoint
 10
3492.906635817507
 20
779.7326340081976
 30
0.0
  0
POINT
  5
7E4A
330
7D1A
100
AcDbEntity
  8
DEFPOINTS
  6
ByBlock
 62
     0
100
AcDbPoint
 10
3693.31995148206
 20
779.7326340081976
 30
0.0
  0
ENDBLK
  5
7E4B
330
7D1A
100
AcDbEntity
  8
0
100
AcDbBlockEnd
  0
BLOCK
  5
7E8C
330
7D6C
100
AcDbEntity
  8
0
100
AcDbBlockBegin
  2
*D4
 70
     1
 10
0.0
 20
0.0
 30
0.0
  3
*D4
  1

  0
LINE
  5
7E8D
330
7D6C
100
AcDbEntity
  8
0
  6
ByBlock
100
AcDbLine
 10
2740.906635817508
 20
1479.732634008198
 30
0.0
 11
2740.906635817508
 21
1569.684429060102
 31
0.0
  0
LINE
  5
7E8E
330
7D6C
100
AcDbEntity
  8
0
  6
ByBlock
100
AcDbLine
 10
3490.906635817508
 20
1479.732634008198
 30
0.0
 11
3490.906635817508
 21
1569.684429060102
 31
0.0
  0
LINE
  5
7E8F
330
7D6C
100
AcDbEntity
  8
0
  6
ByBlock
100
AcDbLine
 10
2780.906635817508
 20
1549.684429060102
 30
0.0
 11
3450.906635817509
 21
1549.684429060102
 31
0.0
  0
INSERT
  5
7E90
330
7D6C
100
AcDbEntity
  8
0
  6
ByBlock
100
AcDbBlockReference
  2
_OPEN
 10
2740.906635817508
 20
1549.684429060102
 30
0.0
 41
40.0
 42
40.0
 43
40.0
 50
180.0
  0
INSERT
  5
7E91
330
7D6C
100
AcDbEntity
  8
0
  6
ByBlock
100
AcDbBlockReference
  2
_OPEN
 10
3490.906635817508
 20
1549.684429060102
 30
0.0
 41
40.0
 42
40.0
 43
40.0
  0
MTEXT
  5
7E92
330
7D6C
100
AcDbEntity
  8
0
  6
ByBlock
100
AcDbMText
 10
3115.906635817508
 20
1589.684429060102
 30
0.0
 40
60.0
 41
0.0
 71
     5
 72
     5
  1
\A1;750
 73
     1
 44
1.0
1001
ACAD
1000
MTEXTBEGIN
1070
    73
1070
     1
1070
    44
1040
1.0
1070
    74
1070
     0
1000
MTEXTEND
  0
POINT
  5
7E93
330
7D6C
100
AcDbEntity
  8
DEFPOINTS
  6
ByBlock
 62
     0
100
AcDbPoint
 10
2740.906635817508
 20
1459.732634008197
 30
0.0
  0
POINT
  5
7E94
330
7D6C
100
AcDbEntity
  8
DEFPOINTS
  6
ByBlock
 62
     0
100
AcDbPoint
 10
3490.906635817508
 20
1459.732634008198
 30
0.0
  0
POINT
  5
7E95
330
7D6C
100
AcDbEntity
  8
DEFPOINTS
  6
ByBlock
 62
     0
100
AcDbPoint
 10
3490.906635817508
 20
1549.684429060102
 30
0.0
  0
ENDBLK
  5
7E96
330
7D6C
100
AcDbEntity
  8
0
100
AcDbBlockEnd
  0
BLOCK
  5
7E97
330
7D78
100
AcDbEntity
  8
0
100
AcDbBlockBegin
  2
*D5
 70
     1
 10
0.0
 20
0.0
 30
0.0
  3
*D5
  1

  0
LINE
  5
816A
330
7D78
100
AcDbEntity
  8
3
370
    -2
100
AcDbLine
 10
3799.698443168352
 20
2159.251935430186
 30
0.0
 11
3799.698443168352
 21
2844.5048711531
 31
0.0
  0
LINE
  5
816B
330
7D78
100
AcDbEntity
  8
3
370
    -2
100
AcDbLine
 10
3329.698443168353
 20
2767.904687691113
 30
0.0
 11
3329.698443168353
 21
2844.5048711531
 31
0.0
  0
LINE
  5
816C
330
7D78
100
AcDbEntity
  8
3
370
    -2
100
AcDbLine
 10
3759.698443168352
 20
2824.5048711531
 30
0.0
 11
3369.698443168353
 21
2824.5048711531
 31
0.0
  0
INSERT
  5
816D
330
7D78
100
AcDbEntity
  8
3
370
    -2
100
AcDbBlockReference
  2
_OPEN
 10
3799.698443168352
 20
2824.5048711531
 30
0.0
 41
40.0
 42
40.0
 43
40.0
  0
INSERT
  5
816E
330
7D78
100
AcDbEntity
  8
3
370
    -2
100
AcDbBlockReference
  2
_OPEN
 10
3329.698443168353
 20
2824.5048711531
 30
0.0
 41
40.0
 42
40.0
 43
40.0
 50
180.0
  0
MTEXT
  5
816F
330
7D78
100
AcDbEntity
  8
3
100
AcDbMText
 10
3564.698443168352
 20
2880.219156867386
 30
0.0
 40
60.0
 41
0.0
 71
     5
 72
     1
  1
\A1;(470)
 73
     1
 44
1.0
1001
ACAD
1000
MTEXTBEGIN
1070
    73
1070
     1
1070
    44
1040
1.0
1070
    74
1070
     0
1000
MTEXTEND
  0
POINT
  5
8170
330
7D78
100
AcDbEntity
  8
DEFPOINTS
 62
     0
100
AcDbPoint
 10
3799.698443168352
 20
2139.251935430185
 30
0.0
  0
POINT
  5
8171
330
7D78
100
AcDbEntity
  8
DEFPOINTS
 62
     0
100
AcDbPoint
 10
3329.698443168353
 20
2747.904687691113
 30
0.0
  0
POINT
  5
8172
330
7D78
100
AcDbEntity
  8
DEFPOINTS
 62
     0
100
AcDbPoint
 10
3329.698443168353
 20
2824.5048711531
 30
0.0
  0
ENDBLK
  5
7EA1
330
7D78
100
AcDbEntity
  8
0
100
AcDbBlockEnd
  0
BLOCK
  5
7EA2
330
7D84
100
AcDbEntity
  8
0
100
AcDbBlockBegin
  2
*D6
 70
     1
 10
0.0
 20
0.0
 30
0.0
  3
*D6
  1

  0
LINE
  5
80BE
330
7D84
100
AcDbEntity
  8
3
100
AcDbLine
 10
1839.605118353894
 20
1472.151935430185
 30
0.0
 11
2229.854396610488
 21
1472.151935430185
 31
0.0
  0
LINE
  5
80BF
330
7D84
100
AcDbEntity
  8
3
100
AcDbLine
 10
2209.854396610487
 20
2152.151935430184
 30
0.0
 11
2209.854396610487
 21
1512.151935430185
 31
0.0
  0
INSERT
  5
80C0
330
7D84
100
AcDbEntity
  8
3
100
AcDbBlockReference
  2
_OPEN
 10
2209.854396610487
 20
2192.151935430185
 30
0.0
 41
40.0
 42
40.0
 43
40.0
 50
90.0
  0
INSERT
  5
80C1
330
7D84
100
AcDbEntity
  8
3
100
AcDbBlockReference
  2
_OPEN
 10
2209.854396610487
 20
1472.151935430185
 30
0.0
 41
40.0
 42
40.0
 43
40.0
 50
270.0
  0
MTEXT
  5
80C2
330
7D84
100
AcDbEntity
  8
3
100
AcDbMText
 10
2169.854396610487
 20
1832.151935430185
 30
0.0
 40
60.0
 41
0.0
 71
     5
 72
     5
  1
\A1;720
 11
0.0000000000000001
 21
1.0
 31
0.0
 73
     1
 44
1.0
1001
ACAD
1000
MTEXTBEGIN
1070
    73
1070
     1
1070
    44
1040
1.0
1070
    74
1070
     0
1000
MTEXTEND
  0
POINT
  5
80C3
330
7D84
100
AcDbEntity
  8
DEFPOINTS
 62
     0
100
AcDbPoint
 10
1898.204742919153
 20
2192.151935430185
 30
0.0
  0
POINT
  5
80C4
330
7D84
100
AcDbEntity
  8
DEFPOINTS
 62
     0
100
AcDbPoint
 10
1819.605118353894
 20
1472.151935430185
 30
0.0
  0
POINT
  5
80C5
330
7D84
100
AcDbEntity
  8
DEFPOINTS
 62
     0
100
AcDbPoint
 10
2209.854396610487
 20
1472.151935430185
 30
0.0
  0
ENDBLK
  5
7EAB
330
7D84
100
AcDbEntity
  8
0
100
AcDbBlockEnd
  0
BLOCK
  5
7FF1
330
7DAA
100
AcDbEntity
  8
0
100
AcDbBlockBegin
  2
*D7
 70
     1
 10
0.0
 20
0.0
 30
0.0
  3
*D7
  1

  0
LINE
  5
81FB
330
7DAA
100
AcDbEntity
  8
3
370
    -2
100
AcDbLine
 10
2619.698443168352
 20
2432.151935430185
 30
0.0
 11
2619.698443168352
 21
2844.5048711531
 31
0.0
  0
LINE
  5
81FC
330
7DAA
100
AcDbEntity
  8
3
370
    -2
100
AcDbLine
 10
3289.698443168352
 20
2824.5048711531
 30
0.0
 11
2659.698443168352
 21
2824.5048711531
 31
0.0
  0
INSERT
  5
81FD
330
7DAA
100
AcDbEntity
  8
3
370
    -2
100
AcDbBlockReference
  2
_OPEN
 10
3329.698443168353
 20
2824.5048711531
 30
0.0
 41
40.0
 42
40.0
 43
40.0
  0
INSERT
  5
81FE
330
7DAA
100
AcDbEntity
  8
3
370
    -2
100
AcDbBlockReference
  2
_OPEN
 10
2619.698443168352
 20
2824.5048711531
 30
0.0
 41
40.0
 42
40.0
 43
40.0
 50
180.0
  0
MTEXT
  5
81FF
330
7DAA
100
AcDbEntity
  8
3
100
AcDbMText
 10
2974.698443168352
 20
2880.219156867386
 30
0.0
 40
60.0
 41
0.0
 71
     5
 72
     1
  1
\A1;(710)
 73
     1
 44
1.0
1001
ACAD
1000
MTEXTBEGIN
1070
    73
1070
     1
1070
    44
1040
1.0
1070
    74
1070
     0
1000
MTEXTEND
  0
POINT
  5
8200
330
7DAA
100
AcDbEntity
  8
DEFPOINTS
 62
     0
100
AcDbPoint
 10
3329.698443168353
 20
2747.904687691113
 30
0.0
  0
POINT
  5
8201
330
7DAA
100
AcDbEntity
  8
DEFPOINTS
 62
     0
100
AcDbPoint
 10
2619.698443168352
 20
2412.151935430185
 30
0.0
  0
POINT
  5
8202
330
7DAA
100
AcDbEntity
  8
DEFPOINTS
 62
     0
100
AcDbPoint
 10
2619.698443168352
 20
2824.5048711531
 30
0.0
  0
ENDBLK
  5
7FFA
330
7DAA
100
AcDbEntity
  8
0
100
AcDbBlockEnd
  0
BLOCK
  5
7ECF
330
7DB5
100
AcDbEntity
  8
0
100
AcDbBlockBegin
  2
*D8
 70
     1
 10
0.0
 20
0.0
 30
0.0
  3
*D8
  1

  0
LINE
  5
7ED0
330
7DB5
100
AcDbEntity
  8
0
  6
ByBlock
100
AcDbLine
 10
1625.813311003051
 20
3574.073535835267
 30
0.0
 11
1822.406909054765
 21
3574.073535835267
 31
0.0
  0
LINE
  5
7ED1
330
7DB5
100
AcDbEntity
  8
0
  6
ByBlock
100
AcDbLine
 10
1625.81331100305
 20
2649.073535835267
 30
0.0
 11
1822.406909054765
 21
2649.073535835267
 31
0.0
  0
LINE
  5
7ED2
330
7DB5
100
AcDbEntity
  8
0
  6
ByBlock
100
AcDbLine
 10
1802.406909054765
 20
3534.073535835267
 30
0.0
 11
1802.406909054765
 21
2689.073535835267
 31
0.0
  0
INSERT
  5
7ED3
330
7DB5
100
AcDbEntity
  8
0
  6
ByBlock
100
AcDbBlockReference
  2
_OPEN
 10
1802.406909054765
 20
3574.073535835267
 30
0.0
 41
40.0
 42
40.0
 43
40.0
 50
90.0
  0
INSERT
  5
7ED4
330
7DB5
100
AcDbEntity
  8
0
  6
ByBlock
100
AcDbBlockReference
  2
_OPEN
 10
1802.406909054765
 20
2649.073535835267
 30
0.0
 41
40.0
 42
40.0
 43
40.0
 50
270.0
  0
MTEXT
  5
7ED5
330
7DB5
100
AcDbEntity
  8
0
  6
ByBlock
100
AcDbMText
 10
1762.406909054765
 20
3111.573535835267
 30
0.0
 40
60.0
 41
0.0
 71
     5
 72
     5
  1
\A1;925
 11
0.0
 21
1.0
 31
0.0
 73
     1
 44
1.0
1001
ACAD
1000
MTEXTBEGIN
1070
    73
1070
     1
1070
    44
1040
1.0
1070
    74
1070
     0
1000
MTEXTEND
  0
POINT
  5
7ED6
330
7DB5
100
AcDbEntity
  8
DEFPOINTS
  6
ByBlock
 62
     0
100
AcDbPoint
 10
1605.813311003051
 20
3574.073535835267
 30
0.0
  0
POINT
  5
7ED7
330
7DB5
100
AcDbEntity
  8
DEFPOINTS
  6
ByBlock
 62
     0
100
AcDbPoint
 10
1605.813311003051
 20
2649.073535835267
 30
0.0
  0
POINT
  5
7ED8
330
7DB5
100
AcDbEntity
  8
DEFPOINTS
  6
ByBlock
 62
     0
100
AcDbPoint
 10
1802.406909054765
 20
2649.073535835267
 30
0.0
  0
ENDBLK
  5
7ED9
330
7DB5
100
AcDbEntity
  8
0
100
AcDbBlockEnd
  0
BLOCK
  5
7EDA
330
7DC1
100
AcDbEntity
  8
0
100
AcDbBlockBegin
  2
*D9
 70
     1
 10
0.0
 20
0.0
 30
0.0
  3
*D9
  1

  0
LINE
  5
7EDB
330
7DC1
100
AcDbEntity
  8
0
  6
ByBlock
100
AcDbLine
 10
1605.813311003051
 20
3594.073535835266
 30
0.0
 11
1605.813311003051
 21
3749.427487599593
 31
0.0
  0
LINE
  5
7EDC
330
7DC1
100
AcDbEntity
  8
0
  6
ByBlock
100
AcDbLine
 10
895.8133110030512
 20
3594.073535835268
 30
0.0
 11
895.8133110030512
 21
3749.427487599593
 31
0.0
  0
LINE
  5
7EDD
330
7DC1
100
AcDbEntity
  8
0
  6
ByBlock
100
AcDbLine
 10
1565.813311003051
 20
3729.427487599592
 30
0.0
 11
935.8133110030513
 21
3729.427487599592
 31
0.0
  0
INSERT
  5
7EDE
330
7DC1
100
AcDbEntity
  8
0
  6
ByBlock
100
AcDbBlockReference
  2
_OPEN
 10
1605.813311003051
 20
3729.427487599592
 30
0.0
 41
40.0
 42
40.0
 43
40.0
  0
INSERT
  5
7EDF
330
7DC1
100
AcDbEntity
  8
0
  6
ByBlock
100
AcDbBlockReference
  2
_OPEN
 10
895.8133110030512
 20
3729.427487599592
 30
0.0
 41
40.0
 42
40.0
 43
40.0
 50
180.0
  0
MTEXT
  5
7EE0
330
7DC1
100
AcDbEntity
  8
0
  6
ByBlock
100
AcDbMText
 10
1250.813311003051
 20
3769.427487599593
 30
0.0
 40
60.0
 41
0.0
 71
     5
 72
     5
  1
\A1;710
 73
     1
 44
1.0
1001
ACAD
1000
MTEXTBEGIN
1070
    73
1070
     1
1070
    44
1040
1.0
1070
    74
1070
     0
1000
MTEXTEND
  0
POINT
  5
7EE1
330
7DC1
100
AcDbEntity
  8
DEFPOINTS
  6
ByBlock
 62
     0
100
AcDbPoint
 10
1605.813311003051
 20
3574.073535835267
 30
0.0
  0
POINT
  5
7EE2
330
7DC1
100
AcDbEntity
  8
DEFPOINTS
  6
ByBlock
 62
     0
100
AcDbPoint
 10
895.8133110030512
 20
3574.073535835268
 30
0.0
  0
POINT
  5
7EE3
330
7DC1
100
AcDbEntity
  8
DEFPOINTS
  6
ByBlock
 62
     0
100
AcDbPoint
 10
895.8133110030512
 20
3729.427487599592
 30
0.0
  0
ENDBLK
  5
7EE4
330
7DC1
100
AcDbEntity
  8
0
100
AcDbBlockEnd
  0
BLOCK
  5
7EE5
330
7DCD
100
AcDbEntity
  8
0
100
AcDbBlockBegin
  2
*D10
 70
     1
 10
0.0
 20
0.0
 30
0.0
  3
*D10
  1

  0
LINE
  5
80CE
330
7DCD
100
AcDbEntity
  8
3
100
AcDbLine
 10
469.6051183538957
 20
4116.51967644941
 30
0.0
 11
469.6051183538958
 21
4596.873628213736
 31
0.0
  0
LINE
  5
80CF
330
7DCD
100
AcDbEntity
  8
3
100
AcDbLine
 10
1069.605118353895
 20
4576.873628213736
 30
0.0
 11
509.6051183538957
 21
4576.873628213736
 31
0.0
  0
INSERT
  5
80D0
330
7DCD
100
AcDbEntity
  8
3
100
AcDbBlockReference
  2
_OPEN
 10
1109.605118353895
 20
4576.873628213736
 30
0.0
 41
40.0
 42
40.0
 43
40.0
  0
INSERT
  5
80D1
330
7DCD
100
AcDbEntity
  8
3
100
AcDbBlockReference
  2
_OPEN
 10
469.6051183538958
 20
4576.873628213736
 30
0.0
 41
40.0
 42
40.0
 43
40.0
 50
180.0
  0
MTEXT
  5
80D2
330
7DCD
100
AcDbEntity
  8
3
100
AcDbMText
 10
789.6051183538957
 20
4616.873628213736
 30
0.0
 40
60.0
 41
0.0
 71
     5
 72
     5
  1
\A1;640
 73
     1
 44
1.0
1001
ACAD
1000
MTEXTBEGIN
1070
    73
1070
     1
1070
    44
1040
1.0
1070
    74
1070
     0
1000
MTEXTEND
  0
POINT
  5
80D3
330
7DCD
100
AcDbEntity
  8
DEFPOINTS
 62
     0
100
AcDbPoint
 10
1109.605118353895
 20
4421.519676449412
 30
0.0
  0
POINT
  5
80D4
330
7DCD
100
AcDbEntity
  8
DEFPOINTS
 62
     0
100
AcDbPoint
 10
469.6051183538957
 20
4096.51967644941
 30
0.0
  0
POINT
  5
80D5
330
7DCD
100
AcDbEntity
  8
DEFPOINTS
 62
     0
100
AcDbPoint
 10
469.6051183538958
 20
4576.873628213736
 30
0.0
  0
ENDBLK
  5
7EEE
330
7DCD
100
AcDbEntity
  8
0
100
AcDbBlockEnd
  0
BLOCK
  5
7FE2
330
7DD8
100
AcDbEntity
  8
0
100
AcDbBlockBegin
  2
*D11
 70
     1
 10
0.0
 20
0.0
 30
0.0
  3
*D11
  1

  0
LINE
  5
7FE3
330
7DD8
100
AcDbEntity
  8
0
  6
ByBlock
100
AcDbLine
 10
449.6051183538956
 20
4096.51967644941
 30
0.0
 11
324.7564986479519
 21
4096.51967644941
 31
0.0
  0
LINE
  5
7FE4
330
7DD8
100
AcDbEntity
  8
0
  6
ByBlock
100
AcDbLine
 10
449.6051183538956
 20
3496.519676449411
 30
0.0
 11
324.7564986479519
 21
3496.519676449411
 31
0.0
  0
LINE
  5
7FE5
330
7DD8
100
AcDbEntity
  8
0
  6
ByBlock
100
AcDbLine
 10
344.756498647952
 20
4056.51967644941
 30
0.0
 11
344.756498647952
 21
3536.519676449411
 31
0.0
  0
INSERT
  5
7FE6
330
7DD8
100
AcDbEntity
  8
0
  6
ByBlock
100
AcDbBlockReference
  2
_OPEN
 10
344.756498647952
 20
4096.51967644941
 30
0.0
 41
40.0
 42
40.0
 43
40.0
 50
90.0
  0
INSERT
  5
7FE7
330
7DD8
100
AcDbEntity
  8
0
  6
ByBlock
100
AcDbBlockReference
  2
_OPEN
 10
344.756498647952
 20
3496.519676449411
 30
0.0
 41
40.0
 42
40.0
 43
40.0
 50
270.0
  0
MTEXT
  5
7FE8
330
7DD8
100
AcDbEntity
  8
0
  6
ByBlock
100
AcDbMText
 10
304.756498647952
 20
3796.51967644941
 30
0.0
 40
60.0
 41
0.0
 71
     5
 72
     5
  1
\A1;600
 11
0.0
 21
1.0
 31
0.0
 73
     1
 44
1.0
1001
ACAD
1000
MTEXTBEGIN
1070
    73
1070
     1
1070
    44
1040
1.0
1070
    74
1070
     0
1000
MTEXTEND
  0
POINT
  5
7FE9
330
7DD8
100
AcDbEntity
  8
DEFPOINTS
  6
ByBlock
 62
     0
100
AcDbPoint
 10
469.6051183538957
 20
4096.51967644941
 30
0.0
  0
POINT
  5
7FEA
330
7DD8
100
AcDbEntity
  8
DEFPOINTS
  6
ByBlock
 62
     0
100
AcDbPoint
 10
469.6051183538957
 20
3496.519676449411
 30
0.0
  0
POINT
  5
7FEB
330
7DD8
100
AcDbEntity
  8
DEFPOINTS
  6
ByBlock
 62
     0
100
AcDbPoint
 10
344.756498647952
 20
3496.519676449411
 30
0.0
  0
ENDBLK
  5
7FEC
330
7DD8
100
AcDbEntity
  8
0
100
AcDbBlockEnd
  0
BLOCK
  5
7EFA
330
7DE4
100
AcDbEntity
  8
0
100
AcDbBlockBegin
  2
*D12
 70
     1
 10
0.0
 20
0.0
 30
0.0
  3
*D12
  1

  0
LINE
  5
7EFB
330
7DE4
100
AcDbEntity
  8
0
  6
ByBlock
100
AcDbLine
 10
255.8133110030512
 20
2629.073535835268
 30
0.0
 11
255.8133110030512
 21
2194.045082035845
 31
0.0
  0
LINE
  5
7EFC
330
7DE4
100
AcDbEntity
  8
0
  6
ByBlock
100
AcDbLine
 10
1605.813311003051
 20
2629.073535835267
 30
0.0
 11
1605.813311003051
 21
2194.045082035845
 31
0.0
  0
LINE
  5
7EFD
330
7DE4
100
AcDbEntity
  8
0
  6
ByBlock
100
AcDbLine
 10
295.8133110030512
 20
2214.045082035845
 30
0.0
 11
1565.813311003051
 21
2214.045082035845
 31
0.0
  0
INSERT
  5
7EFE
330
7DE4
100
AcDbEntity
  8
0
  6
ByBlock
100
AcDbBlockReference
  2
_OPEN
 10
255.8133110030512
 20
2214.045082035845
 30
0.0
 41
40.0
 42
40.0
 43
40.0
 50
180.0
  0
INSERT
  5
7EFF
330
7DE4
100
AcDbEntity
  8
0
  6
ByBlock
100
AcDbBlockReference
  2
_OPEN
 10
1605.813311003051
 20
2214.045082035845
 30
0.0
 41
40.0
 42
40.0
 43
40.0
  0
MTEXT
  5
7F00
330
7DE4
100
AcDbEntity
  8
0
  6
ByBlock
100
AcDbMText
 10
930.813311003051
 20
2254.045082035845
 30
0.0
 40
60.0
 41
0.0
 71
     5
 72
     5
  1
\A1;1350
 73
     1
 44
1.0
1001
ACAD
1000
MTEXTBEGIN
1070
    73
1070
     1
1070
    44
1040
1.0
1070
    74
1070
     0
1000
MTEXTEND
  0
POINT
  5
7F01
330
7DE4
100
AcDbEntity
  8
DEFPOINTS
  6
ByBlock
 62
     0
100
AcDbPoint
 10
255.8133110030512
 20
2649.073535835267
 30
0.0
  0
POINT
  5
7F02
330
7DE4
100
AcDbEntity
  8
DEFPOINTS
  6
ByBlock
 62
     0
100
AcDbPoint
 10
1605.813311003051
 20
2649.073535835267
 30
0.0
  0
POINT
  5
7F03
330
7DE4
100
AcDbEntity
  8
DEFPOINTS
  6
ByBlock
 62
     0
100
AcDbPoint
 10
1605.813311003051
 20
2214.045082035845
 30
0.0
  0
ENDBLK
  5
7F04
330
7DE4
100
AcDbEntity
  8
0
100
AcDbBlockEnd
  0
BLOCK
  5
7F10
330
7DFC
100
AcDbEntity
  8
0
100
AcDbBlockBegin
  2
*D13
 70
     1
 10
0.0
 20
0.0
 30
0.0
  3
*D13
  1

  0
LINE
  5
7F11
330
7DFC
100
AcDbEntity
  8
0
  6
ByBlock
100
AcDbLine
 10
1640.813311003051
 20
1091.732634008197
 30
0.0
 11
1640.813311003051
 21
1765.367265713599
 31
0.0
  0
LINE
  5
7F12
330
7DFC
100
AcDbEntity
  8
0
  6
ByBlock
100
AcDbLine
 10
255.8133110030501
 20
434.7326340081976
 30
0.0
 11
255.8133110030501
 21
1765.367265713599
 31
0.0
  0
LINE
  5
7F13
330
7DFC
100
AcDbEntity
  8
0
  6
ByBlock
100
AcDbLine
 10
1600.81331100305
 20
1745.367265713599
 30
0.0
 11
295.8133110030501
 21
1745.367265713599
 31
0.0
  0
INSERT
  5
7F14
330
7DFC
100
AcDbEntity
  8
0
  6
ByBlock
100
AcDbBlockReference
  2
_OPEN
 10
1640.813311003051
 20
1745.367265713599
 30
0.0
 41
40.0
 42
40.0
 43
40.0
  0
INSERT
  5
7F15
330
7DFC
100
AcDbEntity
  8
0
  6
ByBlock
100
AcDbBlockReference
  2
_OPEN
 10
255.8133110030501
 20
1745.367265713599
 30
0.0
 41
40.0
 42
40.0
 43
40.0
 50
180.0
  0
MTEXT
  5
7F16
330
7DFC
100
AcDbEntity
  8
0
  6
ByBlock
100
AcDbMText
 10
948.3133110030504
 20
1785.367265713599
 30
0.0
 40
60.0
 41
0.0
 71
     5
 72
     5
  1
\A1;1385
 73
     1
 44
1.0
1001
ACAD
1000
MTEXTBEGIN
1070
    73
1070
     1
1070
    44
1040
1.0
1070
    74
1070
     0
1000
MTEXTEND
  0
POINT
  5
7F17
330
7DFC
100
AcDbEntity
  8
DEFPOINTS
  6
ByBlock
 62
     0
100
AcDbPoint
 10
1640.813311003051
 20
1071.732634008197
 30
0.0
  0
POINT
  5
7F18
330
7DFC
100
AcDbEntity
  8
DEFPOINTS
  6
ByBlock
 62
     0
100
AcDbPoint
 10
255.8133110030501
 20
414.7326340081977
 30
0.0
  0
POINT
  5
7F19
330
7DFC
100
AcDbEntity
  8
DEFPOINTS
  6
ByBlock
 62
     0
100
AcDbPoint
 10
255.8133110030501
 20
1745.367265713599
 30
0.0
  0
ENDBLK
  5
7F1A
330
7DFC
100
AcDbEntity
  8
0
100
AcDbBlockEnd
  0
BLOCK
  5
7F1B
330
7E08
100
AcDbEntity
  8
0
100
AcDbBlockBegin
  2
*D14
 70
     1
 10
0.0
 20
0.0
 30
0.0
  3
*D14
  1

  0
LINE
  5
7F1C
330
7E08
100
AcDbEntity
  8
0
  6
ByBlock
100
AcDbLine
 10
1640.813311003051
 20
1091.732634008197
 30
0.0
 11
1640.813311003051
 21
1627.412016609597
 31
0.0
  0
LINE
  5
7F1D
330
7E08
100
AcDbEntity
  8
0
  6
ByBlock
100
AcDbLine
 10
1250.81331100305
 20
1523.945579781598
 30
0.0
 11
1250.81331100305
 21
1627.412016609597
 31
0.0
  0
LINE
  5
7F1E
330
7E08
100
AcDbEntity
  8
0
  6
ByBlock
100
AcDbLine
 10
1600.81331100305
 20
1607.412016609597
 30
0.0
 11
1290.81331100305
 21
1607.412016609597
 31
0.0
  0
INSERT
  5
7F1F
330
7E08
100
AcDbEntity
  8
0
  6
ByBlock
100
AcDbBlockReference
  2
_OPEN
 10
1640.813311003051
 20
1607.412016609597
 30
0.0
 41
40.0
 42
40.0
 43
40.0
  0
INSERT
  5
7F20
330
7E08
100
AcDbEntity
  8
0
  6
ByBlock
100
AcDbBlockReference
  2
_OPEN
 10
1250.81331100305
 20
1607.412016609597
 30
0.0
 41
40.0
 42
40.0
 43
40.0
 50
180.0
  0
MTEXT
  5
7F21
330
7E08
100
AcDbEntity
  8
0
  6
ByBlock
100
AcDbMText
 10
1445.81331100305
 20
1647.412016609597
 30
0.0
 40
60.0
 41
0.0
 71
     5
 72
     5
  1
\A1;390
 73
     1
 44
1.0
1001
ACAD
1000
MTEXTBEGIN
1070
    73
1070
     1
1070
    44
1040
1.0
1070
    74
1070
     0
1000
MTEXTEND
  0
POINT
  5
7F22
330
7E08
100
AcDbEntity
  8
DEFPOINTS
  6
ByBlock
 62
     0
100
AcDbPoint
 10
1640.813311003051
 20
1071.732634008197
 30
0.0
  0
POINT
  5
7F23
330
7E08
100
AcDbEntity
  8
DEFPOINTS
  6
ByBlock
 62
     0
100
AcDbPoint
 10
1250.81331100305
 20
1503.945579781598
 30
0.0
  0
POINT
  5
7F24
330
7E08
100
AcDbEntity
  8
DEFPOINTS
  6
ByBlock
 62
     0
100
AcDbPoint
 10
1250.81331100305
 20
1607.412016609597
 30
0.0
  0
ENDBLK
  5
7F25
330
7E08
100
AcDbEntity
  8
0
100
AcDbBlockEnd
  0
BLOCK
  5
7F26
330
7E14
100
AcDbEntity
  8
0
100
AcDbBlockBegin
  2
*D15
 70
     1
 10
0.0
 20
0.0
 30
0.0
  3
*D15
  1

  0
LINE
  5
80D6
330
7E14
100
AcDbEntity
  8
3
100
AcDbLine
 10
978.9309764822277
 20
2170.151935430185
 30
0.0
 11
978.9309764822277
 21
2759.831318031585
 31
0.0
  0
LINE
  5
80D7
330
7E14
100
AcDbEntity
  8
3
100
AcDbLine
 10
1424.605118353895
 20
2739.831318031585
 30
0.0
 11
1018.930976482228
 21
2739.831318031585
 31
0.0
  0
INSERT
  5
80D8
330
7E14
100
AcDbEntity
  8
3
100
AcDbBlockReference
  2
_OPEN
 10
1464.605118353895
 20
2739.831318031585
 30
0.0
 41
40.0
 42
40.0
 43
40.0
  0
INSERT
  5
80D9
330
7E14
100
AcDbEntity
  8
3
100
AcDbBlockReference
  2
_OPEN
 10
978.9309764822277
 20
2739.831318031585
 30
0.0
 41
40.0
 42
40.0
 43
40.0
 50
180.0
  0
MTEXT
  5
80DA
330
7E14
100
AcDbEntity
  8
3
100
AcDbMText
 10
1221.768047418061
 20
2779.831318031585
 30
0.0
 40
60.0
 41
0.0
 71
     5
 72
     5
  1
\A1;484
 73
     1
 44
1.0
1001
ACAD
1000
MTEXTBEGIN
1070
    73
1070
     1
1070
    44
1040
1.0
1070
    74
1070
     0
1000
MTEXTEND
  0
POINT
  5
80DB
330
7E14
100
AcDbEntity
  8
DEFPOINTS
 62
     0
100
AcDbPoint
 10
1464.605118353895
 20
2636.364881203586
 30
0.0
  0
POINT
  5
80DC
330
7E14
100
AcDbEntity
  8
DEFPOINTS
 62
     0
100
AcDbPoint
 10
978.9309764822277
 20
2150.151935430185
 30
0.0
  0
POINT
  5
80DD
330
7E14
100
AcDbEntity
  8
DEFPOINTS
 62
     0
100
AcDbPoint
 10
978.9309764822277
 20
2739.831318031585
 30
0.0
  0
ENDBLK
  5
7F2F
330
7E14
100
AcDbEntity
  8
0
100
AcDbBlockEnd
  0
BLOCK
  5
7FC6
330
7F79
100
AcDbEntity
  8
0
100
AcDbBlockBegin
  2
*D16
 70
     1
 10
0.0
 20
0.0
 30
0.0
  3
*D16
  1

  0
LINE
  5
819E
330
7F79
100
AcDbEntity
  8
3
 62
     0
370
    -2
100
AcDbLine
 10
1829.605118353894
 20
1392.151935430185
 30
0.0
 11
2229.854396610488
 21
1392.151935430185
 31
0.0
  0
LINE
  5
819F
330
7F79
100
AcDbEntity
  8
3
 62
     0
370
    -2
100
AcDbLine
 10
1829.605118353894
 20
1317.151935430185
 30
0.0
 11
2229.854396610488
 21
1317.151935430185
 31
0.0
  0
LINE
  5
81A0
330
7F79
100
AcDbEntity
  8
3
 62
     0
370
    -2
100
AcDbLine
 10
2209.854396610487
 20
1432.151935430185
 30
0.0
 11
2209.854396610487
 21
1472.151935430185
 31
0.0
  0
LINE
  5
81A1
330
7F79
100
AcDbEntity
  8
3
 62
     0
370
    -2
100
AcDbLine
 10
2209.854396610487
 20
1277.151935430185
 30
0.0
 11
2209.854396610487
 21
1100.009078287328
 31
0.0
  0
LINE
  5
81A2
330
7F79
100
AcDbEntity
  8
3
 62
     0
370
    -2
100
AcDbLine
 10
2209.854396610487
 20
1392.151935430185
 30
0.0
 11
2209.854396610487
 21
1317.151935430185
 31
0.0
  0
INSERT
  5
81A3
330
7F79
100
AcDbEntity
  8
3
 62
     0
370
    -2
100
AcDbBlockReference
  2
_DOT
 10
2209.854396610487
 20
1392.151935430185
 30
0.0
 41
40.0
 42
40.0
 43
40.0
 50
270.0
  0
INSERT
  5
81A4
330
7F79
100
AcDbEntity
  8
3
 62
     0
370
    -2
100
AcDbBlockReference
  2
_OPEN
 10
2209.854396610487
 20
1317.151935430185
 30
0.0
 41
40.0
 42
40.0
 43
40.0
 50
90.0
  0
MTEXT
  5
81A5
330
7F79
100
AcDbEntity
  8
3
 62
     0
100
AcDbMText
 10
2159.854396610487
 20
1168.580506858757
 30
0.0
 40
60.0
 41
0.0
 71
     5
 72
     1
  1
\A1;75
 11
0.0000000000000001
 21
1.0
 31
0.0
 73
     1
 44
1.0
1001
ACAD
1000
MTEXTBEGIN
1070
    73
1070
     1
1070
    44
1040
1.0
1070
    74
1070
     0
1000
MTEXTEND
  0
POINT
  5
81A6
330
7F79
100
AcDbEntity
  8
DEFPOINTS
 62
     0
100
AcDbPoint
 10
1819.605118353894
 20
1392.151935430185
 30
0.0
  0
POINT
  5
81A7
330
7F79
100
AcDbEntity
  8
DEFPOINTS
 62
     0
100
AcDbPoint
 10
1819.605118353894
 20
1317.151935430185
 30
0.0
  0
POINT
  5
81A8
330
7F79
100
AcDbEntity
  8
DEFPOINTS
 62
     0
100
AcDbPoint
 10
2209.854396610487
 20
1317.151935430185
 30
0.0
  0
ENDBLK
  5
7FD2
330
7F79
100
AcDbEntity
  8
0
100
AcDbBlockEnd
  0
BLOCK
  5
7FB6
330
7FB0
100
AcDbEntity
  8
0
100
AcDbBlockBegin
  2
_DOT
 70
     0
 10
0.0
 20
0.0
 30
0.0
  3
_DOT
  1

  0
LWPOLYLINE
  5
7FB1
330
7FB0
100
AcDbEntity
  8
0
  6
ByBlock
 62
     0
100
AcDbPolyline
 90
        2
 70
     1
 43
0.25
 10
-0.125
 20
0.0
 42
1.0
 10
0.125
 20
0.0
 42
1.0
  0
LINE
  5
7FB5
330
7FB0
100
AcDbEntity
  8
0
  6
ByBlock
 62
     0
100
AcDbLine
 10
-0.25
 20
0.0
 30
0.0
 11
-1.0
 21
0.0
 31
0.0
  0
ENDBLK
  5
7FB7
330
7FB0
100
AcDbEntity
  8
0
100
AcDbBlockEnd
  0
BLOCK
  5
8004
330
8003
100
AcDbEntity
  8
0
100
AcDbBlockBegin
  2
*D18
 70
     1
 10
0.0
 20
0.0
 30
0.0
  3
*D18
  1

  0
LINE
  5
81A9
330
8003
100
AcDbEntity
  8
3
 62
     0
370
    -2
100
AcDbLine
 10
469.6051183538948
 20
1307.151935430185
 30
0.0
 11
469.6051183538948
 21
1166.081783633748
 31
0.0
  0
LINE
  5
81AA
330
8003
100
AcDbEntity
  8
3
 62
     0
370
    -2
100
AcDbLine
 10
1464.605118353895
 20
1307.151935430185
 30
0.0
 11
1464.605118353895
 21
1166.081783633748
 31
0.0
  0
LINE
  5
81AB
330
8003
100
AcDbEntity
  8
3
 62
     0
370
    -2
100
AcDbLine
 10
509.6051183538947
 20
1186.081783633748
 30
0.0
 11
1424.605118353895
 21
1186.081783633748
 31
0.0
  0
INSERT
  5
81AC
330
8003
100
AcDbEntity
  8
3
 62
     0
370
    -2
100
AcDbBlockReference
  2
_OPEN
 10
469.6051183538948
 20
1186.081783633748
 30
0.0
 41
40.0
 42
40.0
 43
40.0
 50
180.0
  0
INSERT
  5
81AD
330
8003
100
AcDbEntity
  8
3
 62
     0
370
    -2
100
AcDbBlockReference
  2
_OPEN
 10
1464.605118353895
 20
1186.081783633748
 30
0.0
 41
40.0
 42
40.0
 43
40.0
  0
MTEXT
  5
81AE
330
8003
100
AcDbEntity
  8
3
 62
     0
100
AcDbMText
 10
967.1051183538947
 20
1236.081783633748
 30
0.0
 40
60.0
 41
0.0
 71
     5
 72
     1
  1
\A1;995
 73
     1
 44
1.0
1001
ACAD
1000
MTEXTBEGIN
1070
    73
1070
     1
1070
    44
1040
1.0
1070
    74
1070
     0
1000
MTEXTEND
  0
POINT
  5
81AF
330
8003
100
AcDbEntity
  8
DEFPOINTS
 62
     0
100
AcDbPoint
 10
469.6051183538948
 20
1317.151935430185
 30
0.0
  0
POINT
  5
81B0
330
8003
100
AcDbEntity
  8
DEFPOINTS
 62
     0
100
AcDbPoint
 10
1464.605118353895
 20
1317.151935430185
 30
0.0
  0
POINT
  5
81B1
330
8003
100
AcDbEntity
  8
DEFPOINTS
 62
     0
100
AcDbPoint
 10
1464.605118353895
 20
1186.081783633748
 30
0.0
  0
ENDBLK
  5
800E
330
8003
100
AcDbEntity
  8
0
100
AcDbBlockEnd
  0
BLOCK
  5
8011
330
8010
100
AcDbEntity
  8
0
100
AcDbBlockBegin
  2
*D19
 70
     1
 10
0.0
 20
0.0
 30
0.0
  3
*D19
  1

  0
LINE
  5
81B2
330
8010
100
AcDbEntity
  8
3
 62
     0
370
    -2
100
AcDbLine
 10
1464.605118353895
 20
1307.151935430185
 30
0.0
 11
1464.605118353895
 21
1166.081783633748
 31
0.0
  0
LINE
  5
81B3
330
8010
100
AcDbEntity
  8
3
 62
     0
370
    -2
100
AcDbLine
 10
1819.605118353894
 20
1307.151935430185
 30
0.0
 11
1819.605118353894
 21
1166.081783633748
 31
0.0
  0
LINE
  5
81B4
330
8010
100
AcDbEntity
  8
3
 62
     0
370
    -2
100
AcDbLine
 10
1504.605118353895
 20
1186.081783633748
 30
0.0
 11
1779.605118353894
 21
1186.081783633748
 31
0.0
  0
INSERT
  5
81B5
330
8010
100
AcDbEntity
  8
3
 62
     0
370
    -2
100
AcDbBlockReference
  2
_OPEN
 10
1464.605118353895
 20
1186.081783633748
 30
0.0
 41
40.0
 42
40.0
 43
40.0
 50
180.0
  0
INSERT
  5
81B6
330
8010
100
AcDbEntity
  8
3
 62
     0
370
    -2
100
AcDbBlockReference
  2
_OPEN
 10
1819.605118353894
 20
1186.081783633748
 30
0.0
 41
40.0
 42
40.0
 43
40.0
  0
MTEXT
  5
81B7
330
8010
100
AcDbEntity
  8
3
 62
     0
100
AcDbMText
 10
1642.105118353894
 20
1236.081783633748
 30
0.0
 40
60.0
 41
0.0
 71
     5
 72
     1
  1
\A1;355
 73
     1
 44
1.0
1001
ACAD
1000
MTEXTBEGIN
1070
    73
1070
     1
1070
    44
1040
1.0
1070
    74
1070
     0
1000
MTEXTEND
  0
POINT
  5
81B8
330
8010
100
AcDbEntity
  8
DEFPOINTS
 62
     0
100
AcDbPoint
 10
1464.605118353895
 20
1317.151935430185
 30
0.0
  0
POINT
  5
81B9
330
8010
100
AcDbEntity
  8
DEFPOINTS
 62
     0
100
AcDbPoint
 10
1819.605118353894
 20
1317.151935430185
 30
0.0
  0
POINT
  5
81BA
330
8010
100
AcDbEntity
  8
DEFPOINTS
 62
     0
100
AcDbPoint
 10
1819.605118353894
 20
1186.081783633748
 30
0.0
  0
ENDBLK
  5
801B
330
8010
100
AcDbEntity
  8
0
100
AcDbBlockEnd
  0
BLOCK
  5
801E
330
801D
100
AcDbEntity
  8
0
100
AcDbBlockBegin
  2
*D20
 70
     1
 10
0.0
 20
0.0
 30
0.0
  3
*D20
  1

  0
LINE
  5
81BB
330
801D
100
AcDbEntity
  8
3
 62
     0
370
    -2
100
AcDbLine
 10
2822.698443168352
 20
1307.151935430185
 30
0.0
 11
2822.698443168352
 21
1166.081783633748
 31
0.0
  0
LINE
  5
81BC
330
801D
100
AcDbEntity
  8
3
 62
     0
370
    -2
100
AcDbLine
 10
3329.698443168352
 20
1307.151935430185
 30
0.0
 11
3329.698443168352
 21
1166.081783633748
 31
0.0
  0
LINE
  5
81BD
330
801D
100
AcDbEntity
  8
3
 62
     0
370
    -2
100
AcDbLine
 10
2862.698443168353
 20
1186.081783633748
 30
0.0
 11
3289.698443168352
 21
1186.081783633748
 31
0.0
  0
INSERT
  5
81BE
330
801D
100
AcDbEntity
  8
3
 62
     0
370
    -2
100
AcDbBlockReference
  2
_OPEN
 10
2822.698443168352
 20
1186.081783633748
 30
0.0
 41
40.0
 42
40.0
 43
40.0
 50
180.0
  0
INSERT
  5
81BF
330
801D
100
AcDbEntity
  8
3
 62
     0
370
    -2
100
AcDbBlockReference
  2
_OPEN
 10
3329.698443168352
 20
1186.081783633748
 30
0.0
 41
40.0
 42
40.0
 43
40.0
  0
MTEXT
  5
81C0
330
801D
100
AcDbEntity
  8
3
 62
     0
100
AcDbMText
 10
3076.198443168352
 20
1236.081783633748
 30
0.0
 40
60.0
 41
0.0
 71
     5
 72
     1
  1
\A1;507
 73
     1
 44
1.0
1001
ACAD
1000
MTEXTBEGIN
1070
    73
1070
     1
1070
    44
1040
1.0
1070
    74
1070
     0
1000
MTEXTEND
  0
POINT
  5
81C1
330
801D
100
AcDbEntity
  8
DEFPOINTS
 62
     0
100
AcDbPoint
 10
2822.698443168352
 20
1317.151935430185
 30
0.0
  0
POINT
  5
81C2
330
801D
100
AcDbEntity
  8
DEFPOINTS
 62
     0
100
AcDbPoint
 10
3329.698443168352
 20
1317.151935430185
 30
0.0
  0
POINT
  5
81C3
330
801D
100
AcDbEntity
  8
DEFPOINTS
 62
     0
100
AcDbPoint
 10
3329.698443168352
 20
1186.081783633748
 30
0.0
  0
ENDBLK
  5
8028
330
801D
100
AcDbEntity
  8
0
100
AcDbBlockEnd
  0
BLOCK
  5
802B
330
802A
100
AcDbEntity
  8
0
100
AcDbBlockBegin
  2
*D21
 70
     1
 10
0.0
 20
0.0
 30
0.0
  3
*D21
  1

  0
LINE
  5
81C4
330
802A
100
AcDbEntity
  8
3
 62
     0
370
    -2
100
AcDbLine
 10
3329.698443168352
 20
1307.151935430185
 30
0.0
 11
3329.698443168352
 21
1166.081783633748
 31
0.0
  0
LINE
  5
81C5
330
802A
100
AcDbEntity
  8
3
 62
     0
370
    -2
100
AcDbLine
 10
3747.698443168353
 20
1307.151935430185
 30
0.0
 11
3747.698443168353
 21
1166.081783633748
 31
0.0
  0
LINE
  5
81C6
330
802A
100
AcDbEntity
  8
3
 62
     0
370
    -2
100
AcDbLine
 10
3369.698443168352
 20
1186.081783633748
 30
0.0
 11
3707.698443168352
 21
1186.081783633748
 31
0.0
  0
INSERT
  5
81C7
330
802A
100
AcDbEntity
  8
3
 62
     0
370
    -2
100
AcDbBlockReference
  2
_OPEN
 10
3329.698443168352
 20
1186.081783633748
 30
0.0
 41
40.0
 42
40.0
 43
40.0
 50
180.0
  0
INSERT
  5
81C8
330
802A
100
AcDbEntity
  8
3
 62
     0
370
    -2
100
AcDbBlockReference
  2
_OPEN
 10
3747.698443168353
 20
1186.081783633748
 30
0.0
 41
40.0
 42
40.0
 43
40.0
  0
MTEXT
  5
81C9
330
802A
100
AcDbEntity
  8
3
 62
     0
100
AcDbMText
 10
3538.698443168352
 20
1236.081783633748
 30
0.0
 40
60.0
 41
0.0
 71
     5
 72
     1
  1
\A1;418
 73
     1
 44
1.0
1001
ACAD
1000
MTEXTBEGIN
1070
    73
1070
     1
1070
    44
1040
1.0
1070
    74
1070
     0
1000
MTEXTEND
  0
POINT
  5
81CA
330
802A
100
AcDbEntity
  8
DEFPOINTS
 62
     0
100
AcDbPoint
 10
3329.698443168352
 20
1317.151935430185
 30
0.0
  0
POINT
  5
81CB
330
802A
100
AcDbEntity
  8
DEFPOINTS
 62
     0
100
AcDbPoint
 10
3747.698443168353
 20
1317.151935430185
 30
0.0
  0
POINT
  5
81CC
330
802A
100
AcDbEntity
  8
DEFPOINTS
 62
     0
100
AcDbPoint
 10
3747.698443168353
 20
1186.081783633748
 30
0.0
  0
ENDBLK
  5
8035
330
802A
100
AcDbEntity
  8
0
100
AcDbBlockEnd
  0
BLOCK
  5
8038
330
8037
100
AcDbEntity
  8
0
100
AcDbBlockBegin
  2
_NONE
 70
     0
 10
0.0
 20
0.0
 30
0.0
  3
_NONE
  1

  0
CIRCLE
  5
8039
330
8037
100
AcDbEntity
  8
0
  6
ByBlock
 62
     0
100
AcDbCircle
 10
0.0
 20
0.0
 30
0.0
 40
0.25
  0
ENDBLK
  5
803A
330
8037
100
AcDbEntity
  8
0
100
AcDbBlockEnd
  0
BLOCK
  5
8048
330
8047
100
AcDbEntity
  8
0
100
AcDbBlockBegin
  2
*D23
 70
     1
 10
0.0
 20
0.0
 30
0.0
  3
*D23
  1

  0
LINE
  5
8049
330
8047
100
AcDbEntity
  8
0
  6
ByBlock
 62
     0
100
AcDbLine
 10
1940.294726213629
 20
2192.151935430185
 30
0.0
 11
2229.530128939601
 21
2192.151935430185
 31
0.0
  0
LINE
  5
804A
330
8047
100
AcDbEntity
  8
0
  6
ByBlock
 62
     0
100
AcDbLine
 10
1394.098701154165
 20
2592.151935430185
 30
0.0
 11
2229.530128939601
 21
2592.151935430185
 31
0.0
  0
LINE
  5
804B
330
8047
100
AcDbEntity
  8
0
  6
ByBlock
 62
     0
100
AcDbLine
 10
2209.530128939601
 20
2232.151935430184
 30
0.0
 11
2209.530128939601
 21
2552.151935430185
 31
0.0
  0
INSERT
  5
804C
330
8047
100
AcDbEntity
  8
0
  6
ByBlock
 62
     0
100
AcDbBlockReference
  2
_OPEN
 10
2209.530128939601
 20
2192.151935430185
 30
0.0
 41
40.0
 42
40.0
 43
40.0
 50
270.0
  0
INSERT
  5
804D
330
8047
100
AcDbEntity
  8
0
  6
ByBlock
 62
     0
100
AcDbBlockReference
  2
_OPEN
 10
2209.530128939601
 20
2592.151935430185
 30
0.0
 41
40.0
 42
40.0
 43
40.0
 50
90.0
  0
MTEXT
  5
804E
330
8047
100
AcDbEntity
  8
0
  6
ByBlock
 62
     0
100
AcDbMText
 10
2159.530128939601
 20
2392.151935430185
 30
0.0
 40
60.0
 41
0.0
 71
     5
 72
     5
  1
\A1;400
 11
0.0
 21
1.0
 31
0.0
 73
     1
 44
1.0
1001
ACAD
1000
MTEXTBEGIN
1070
    73
1070
     1
1070
    44
1040
1.0
1070
    74
1070
     0
1000
MTEXTEND
  0
POINT
  5
804F
330
8047
100
AcDbEntity
  8
DEFPOINTS
  6
ByBlock
 62
     0
100
AcDbPoint
 10
1930.294726213629
 20
2192.151935430185
 30
0.0
  0
POINT
  5
8050
330
8047
100
AcDbEntity
  8
DEFPOINTS
  6
ByBlock
 62
     0
100
AcDbPoint
 10
1384.098701154164
 20
2592.151935430185
 30
0.0
  0
POINT
  5
8051
330
8047
100
AcDbEntity
  8
DEFPOINTS
  6
ByBlock
 62
     0
100
AcDbPoint
 10
2209.530128939601
 20
2592.151935430185
 30
0.0
  0
ENDBLK
  5
8052
330
8047
100
AcDbEntity
  8
0
100
AcDbBlockEnd
  0
BLOCK
  5
8064
330
8063
100
AcDbEntity
  8
0
100
AcDbBlockBegin
  2
*D24
 70
     1
 10
0.0
 20
0.0
 30
0.0
  3
*D24
  1

  0
LINE
  5
81DB
330
8063
100
AcDbEntity
  8
3
 62
     0
370
    -2
100
AcDbLine
 10
2208.37279662431
 20
1392.151935430185
 30
0.0
 11
2208.37279662431
 21
1472.151935430185
 31
0.0
  0
MTEXT
  5
81DC
330
8063
100
AcDbEntity
  8
3
 62
     0
100
AcDbMText
 10
2303.754874718085
 20
1432.151935430185
 30
0.0
 40
60.0
 41
0.0
 71
     5
 72
     1
  1
\A1;(80)
 11
0.0000000000000001
 21
1.0
 31
0.0
 73
     1
 44
1.0
1001
ACAD
1000
MTEXTBEGIN
1070
    73
1070
     1
1070
    44
1040
1.0
1070
    74
1070
     0
1000
MTEXTEND
  0
POINT
  5
81DD
330
8063
100
AcDbEntity
  8
DEFPOINTS
 62
     0
100
AcDbPoint
 10
1819.605118353894
 20
1392.151935430185
 30
0.0
  0
POINT
  5
81DE
330
8063
100
AcDbEntity
  8
DEFPOINTS
 62
     0
100
AcDbPoint
 10
1819.605118353894
 20
1472.151935430185
 30
0.0
  0
POINT
  5
81DF
330
8063
100
AcDbEntity
  8
DEFPOINTS
 62
     0
100
AcDbPoint
 10
2208.37279662431
 20
1472.151935430185
 30
0.0
  0
ENDBLK
  5
806A
330
8063
100
AcDbEntity
  8
0
100
AcDbBlockEnd
  0
BLOCK
  5
806D
330
806C
100
AcDbEntity
  8
0
100
AcDbBlockBegin
  2
*D25
 70
     1
 10
0.0
 20
0.0
 30
0.0
  3
*D25
  1

  0
LINE
  5
81D2
330
806C
100
AcDbEntity
  8
3
 62
     0
370
    -2
100
AcDbLine
 10
1404.098701154165
 20
2592.151935430185
 30
0.0
 11
2376.517625273904
 21
2592.151935430185
 31
0.0
  0
LINE
  5
81D3
330
806C
100
AcDbEntity
  8
3
 62
     0
370
    -2
100
AcDbLine
 10
1829.605118353894
 20
1317.151935430185
 30
0.0
 11
2376.517625273904
 21
1317.151935430185
 31
0.0
  0
LINE
  5
81D4
330
806C
100
AcDbEntity
  8
3
 62
     0
370
    -2
100
AcDbLine
 10
2356.517625273904
 20
2552.151935430185
 30
0.0
 11
2356.517625273904
 21
1357.151935430185
 31
0.0
  0
INSERT
  5
81D5
330
806C
100
AcDbEntity
  8
3
 62
     0
370
    -2
100
AcDbBlockReference
  2
_OPEN
 10
2356.517625273904
 20
2592.151935430185
 30
0.0
 41
40.0
 42
40.0
 43
40.0
 50
90.0
  0
INSERT
  5
81D6
330
806C
100
AcDbEntity
  8
3
 62
     0
370
    -2
100
AcDbBlockReference
  2
_OPEN
 10
2356.517625273904
 20
1317.151935430185
 30
0.0
 41
40.0
 42
40.0
 43
40.0
 50
270.0
  0
MTEXT
  5
81D7
330
806C
100
AcDbEntity
  8
3
 62
     0
100
AcDbMText
 10
2290.803339559618
 20
1954.651935430185
 30
0.0
 40
60.0
 41
0.0
 71
     5
 72
     1
  1
\A1;(1275)
 11
0.0000000000000001
 21
1.0
 31
0.0
 73
     1
 44
1.0
1001
ACAD
1000
MTEXTBEGIN
1070
    73
1070
     1
1070
    44
1040
1.0
1070
    74
1070
     0
1000
MTEXTEND
  0
POINT
  5
81D8
330
806C
100
AcDbEntity
  8
DEFPOINTS
 62
     0
100
AcDbPoint
 10
1394.098701154165
 20
2592.151935430185
 30
0.0
  0
POINT
  5
81D9
330
806C
100
AcDbEntity
  8
DEFPOINTS
 62
     0
100
AcDbPoint
 10
1819.605118353894
 20
1317.151935430185
 30
0.0
  0
POINT
  5
81DA
330
806C
100
AcDbEntity
  8
DEFPOINTS
 62
     0
100
AcDbPoint
 10
2356.517625273904
 20
1317.151935430185
 30
0.0
  0
ENDBLK
  5
8077
330
806C
100
AcDbEntity
  8
0
100
AcDbBlockEnd
  0
ENDSEC
  0
SECTION
  2
ENTITIES
  0
LINE
  5
7C27
330
19
100
AcDbEntity
  8
1
100
AcDbLine
 10
1868.972627743624
 20
2191.151935430184
 30
0.0
 11
1837.301774028741
 21
2191.151935430184
 31
0.0
  0
LINE
  5
7C29
330
19
100
AcDbEntity
  8
1
100
AcDbLine
 10
2954.698443168352
 20
2592.151935430185
 30
0.0
 11
2954.698443168352
 21
1592.151935430185
 31
0.0
  0
LINE
  5
7C2A
330
19
100
AcDbEntity
  8
1
100
AcDbLine
 10
3704.698443168353
 20
2592.151935430186
 30
0.0
 11
3704.698443168353
 21
1592.151935430185
 31
0.0
  0
LINE
  5
7C2B
330
19
100
AcDbEntity
  8
2
100
AcDbLine
 10
2557.252042378099
 20
2192.151935430185
 30
0.0
 11
3808.226398798052
 21
2192.151935430185
 31
0.0
  0
LINE
  5
7C2C
330
19
100
AcDbEntity
  8
1
100
AcDbLine
 10
1851.605118353895
 20
2204.151935430184
 30
0.0
 11
1851.605118353895
 21
1560.151935430185
 31
0.0
  0
LINE
  5
7C2D
330
19
100
AcDbEntity
  8
1
100
AcDbLine
 10
1854.605118353895
 20
2174.151935430185
 30
0.0
 11
1854.605118353895
 21
1590.151935430185
 31
0.0
  0
LINE
  5
7C2E
330
19
100
AcDbEntity
  8
1
100
AcDbLine
 10
1795.056300908842
 20
2172.151935430184
 30
0.0
 11
1854.605118353895
 21
2172.151935430184
 31
0.0
  0
LINE
  5
7C2F
330
19
100
AcDbEntity
  8
2
100
AcDbLine
 10
1930.294726213629
 20
2192.151935430185
 30
0.0
 11
948.9933339292278
 21
2192.151935430185
 31
0.0
  0
LINE
  5
7C30
330
19
100
AcDbEntity
  8
1
100
AcDbLine
 10
3708.998443168352
 20
1882.151935430185
 30
0.0
 11
3706.698443168352
 21
1882.151935430185
 31
0.0
  0
DIMENSION
  5
7C31
330
19
100
AcDbEntity
  8
3
100
AcDbDimension
  2
*D1
 10
1958.33783272057
 20
2172.151935430184
 30
0.0
 11
1918.33783272057
 21
1882.151935430185
 31
0.0
 12
213.7918073508445
 22
1132.419301421987
 32
0.0
 70
    32
 71
     5
 42
-1.0
  3
MATSU
100
AcDbAlignedDimension
 13
1854.605118353895
 23
1592.151935430185
 33
0.0
 14
1854.605118353895
 24
2172.151935430184
 34
0.0
 50
90.0
100
AcDbRotatedDimension
1001
ACAD
1000
DSTYLE
1002
{
1070
    40
1040
20.0
1002
}
  0
DIMENSION
  5
7C32
330
19
100
AcDbEntity
  8
3
100
AcDbDimension
  2
*D2
 10
2084.757686130626
 20
2192.151935430185
 30
0.0
 11
2044.757686130626
 21
1892.151935430185
 31
0.0
 12
213.7918073508445
 22
1132.419301421987
 32
0.0
 70
    32
 71
     5
 42
-1.0
  3
MATSU
100
AcDbAlignedDimension
 13
1866.605118353895
 23
1592.151935430185
 33
0.0
 14
1898.204742919153
 24
2192.151935430185
 34
0.0
 50
90.0
100
AcDbRotatedDimension
1001
ACAD
1000
DSTYLE
1002
{
1070
    40
1040
20.0
1002
}
  0
DIMENSION
  5
7C33
330
19
100
AcDbEntity
  8
3
100
AcDbDimension
  2
*D3
 10
3907.111758832904
 20
1912.151935430185
 30
0.0
 11
3867.111758832905
 21
2192.151935430185
 31
0.0
 12
213.7918073508445
 22
1132.419301421987
 32
0.0
 70
    32
  1
\U+03C6 <>
 71
     5
 42
-1.0
  3
MATSU
100
AcDbAlignedDimension
 13
3706.698443168351
 23
2472.151935430185
 33
0.0
 14
3706.698443168351
 24
1912.151935430185
 34
0.0
 50
90.0
100
AcDbRotatedDimension
1001
ACAD
1000
DSTYLE
1002
{
1070
    40
1040
20.0
1002
}
  0
LINE
  5
7C34
330
19
100
AcDbEntity
  8
2
100
AcDbLine
 10
1464.605118353895
 20
3233.107334013426
 30
0.0
 11
1464.605118353896
 21
4449.287271823799
 31
0.0
  0
LINE
  5
7C35
330
19
100
AcDbEntity
  8
2
100
AcDbLine
 10
1915.349994194999
 20
4003.51967644941
 30
0.0
 11
990.6051183538952
 21
4003.51967644941
 31
0.0
  0
LINE
  5
7C36
330
19
100
AcDbEntity
  8
2
100
AcDbLine
 10
3329.698443168353
 20
2671.460544299461
 30
0.0
 11
3329.698443168352
 21
1317.151935430185
 31
0.0
  0
LINE
  5
7C37
330
19
100
AcDbEntity
  8
2
100
AcDbLine
 10
1464.605118353895
 20
2636.364881203586
 30
0.0
 11
1464.605118353894
 21
1317.151935430185
 31
0.0
  0
LWPOLYLINE
  5
7C38
330
19
100
AcDbEntity
  8
1
100
AcDbPolyline
 90
        6
 70
     0
 43
0.0
 10
1854.605118353895
 20
1592.151935430185
 10
1464.605118353894
 20
1624.151935430185
 42
-0.3910641092142224
 10
978.9309764822277
 20
2150.151935430185
 42
-0.4496421683644475
 10
1475.466771869888
 20
2590.665714730123
 42
-0.3796508156605925
 10
1799.741190353477
 20
2225.151935430185
 42
-0.0441110721615306
 10
1795.056300908842
 20
2172.151935430184
 42
-0.3936265759256327
  0
LINE
  5
7C40
330
19
100
AcDbEntity
  8
1
100
AcDbLine
 10
1824.605118353894
 20
1594.613473891723
 30
0.0
 11
1824.605118353895
 21
2172.151935430184
 31
0.0
  0
LINE
  5
7C41
330
19
100
AcDbEntity
  8
1
100
AcDbLine
 10
1851.605118353895
 20
2204.151935430184
 30
0.0
 11
1854.605118353895
 21
2204.151935430184
 31
0.0
  0
LINE
  5
7C42
330
19
100
AcDbEntity
  8
1
100
AcDbLine
 10
1854.605118353895
 20
2204.151935430184
 30
0.0
 11
1854.605118353895
 21
1560.151935430185
 31
0.0
  0
LINE
  5
7C43
330
19
100
AcDbEntity
  8
1
100
AcDbLine
 10
1854.605118353895
 20
1560.151935430185
 30
0.0
 11
1851.605118353895
 21
1560.151935430185
 31
0.0
  0
LINE
  5
7C44
330
19
100
AcDbEntity
  8
1
100
AcDbLine
 10
1819.605118353894
 20
1472.151935430185
 30
0.0
 11
469.6051183538945
 21
1472.151935430185
 31
0.0
  0
LINE
  5
7C45
330
19
100
AcDbEntity
  8
1
100
AcDbLine
 10
1819.605118353894
 20
1547.151935430185
 30
0.0
 11
469.6051183538945
 21
1547.151935430185
 31
0.0
  0
LINE
  5
7C46
330
19
100
AcDbEntity
  8
1
100
AcDbLine
 10
1819.605118353894
 20
1392.151935430185
 30
0.0
 11
469.6051183538948
 21
1392.151935430185
 31
0.0
  0
LINE
  5
7C47
330
19
100
AcDbEntity
  8
1
100
AcDbLine
 10
1819.605118353894
 20
1317.151935430185
 30
0.0
 11
469.6051183538948
 21
1317.151935430185
 31
0.0
  0
LINE
  5
7C48
330
19
100
AcDbEntity
  8
1
100
AcDbLine
 10
1819.605118353894
 20
1547.151935430185
 30
0.0
 11
1819.605118353894
 21
1472.151935430185
 31
0.0
  0
LINE
  5
7C49
330
19
100
AcDbEntity
  8
1
100
AcDbLine
 10
469.6051183538945
 20
1547.151935430185
 30
0.0
 11
469.6051183538945
 21
1472.151935430185
 31
0.0
  0
LINE
  5
7C4A
330
19
100
AcDbEntity
  8
1
100
AcDbLine
 10
1819.605118353894
 20
1392.151935430185
 30
0.0
 11
1819.605118353894
 21
1317.151935430185
 31
0.0
  0
LINE
  5
7C4B
330
19
100
AcDbEntity
  8
1
100
AcDbLine
 10
469.6051183538948
 20
1392.151935430185
 30
0.0
 11
469.6051183538948
 21
1317.151935430185
 31
0.0
  0
LINE
  5
7C4C
330
19
100
AcDbEntity
  8
1
100
AcDbLine
 10
2954.698443168352
 20
2592.151935430185
 30
0.0
 11
3704.698443168353
 21
2592.151935430186
 31
0.0
  0
LINE
  5
7C4D
330
19
100
AcDbEntity
  8
1
100
AcDbLine
 10
2822.698443168352
 20
1472.151935430185
 30
0.0
 11
3747.698443168353
 21
1472.151935430185
 31
0.0
  0
LINE
  5
7C4E
330
19
100
AcDbEntity
  8
1
100
AcDbLine
 10
2822.698443168352
 20
1547.151935430185
 30
0.0
 11
3747.698443168353
 21
1547.151935430185
 31
0.0
  0
LINE
  5
7C4F
330
19
100
AcDbEntity
  8
1
100
AcDbLine
 10
2822.698443168352
 20
1392.151935430185
 30
0.0
 11
3747.698443168353
 21
1392.151935430185
 31
0.0
  0
LINE
  5
7C50
330
19
100
AcDbEntity
  8
1
100
AcDbLine
 10
2822.698443168352
 20
1317.151935430185
 30
0.0
 11
3747.698443168353
 21
1317.151935430185
 31
0.0
  0
LINE
  5
7C51
330
19
100
AcDbEntity
  8
1
100
AcDbLine
 10
3747.698443168354
 20
1547.151935430185
 30
0.0
 11
3747.698443168353
 21
1472.151935430185
 31
0.0
  0
LINE
  5
7C52
330
19
100
AcDbEntity
  8
1
100
AcDbLine
 10
2822.698443168352
 20
1547.151935430185
 30
0.0
 11
2822.698443168352
 21
1472.151935430185
 31
0.0
  0
LINE
  5
7C53
330
19
100
AcDbEntity
  8
1
100
AcDbLine
 10
3747.698443168353
 20
1392.151935430185
 30
0.0
 11
3747.698443168353
 21
1317.151935430185
 31
0.0
  0
LINE
  5
7C54
330
19
100
AcDbEntity
  8
1
100
AcDbLine
 10
2822.698443168352
 20
1392.151935430185
 30
0.0
 11
2822.698443168352
 21
1317.151935430185
 31
0.0
  0
DIMENSION
  5
7C5B
330
19
100
AcDbEntity
  8
3
100
AcDbDimension
  2
*D4
 10
3704.698443168353
 20
2682.10373048209
 30
0.0
 11
3329.698443168353
 21
2722.10373048209
 31
0.0
 12
213.7918073508445
 22
1132.419301421987
 32
0.0
 70
    32
 71
     5
 42
-1.0
  3
MATSU
100
AcDbAlignedDimension
 13
2954.698443168352
 23
2592.151935430185
 33
0.0
 14
3704.698443168353
 24
2592.151935430186
 34
0.0
100
AcDbRotatedDimension
1001
ACAD
1000
DSTYLE
1002
{
1070
    40
1040
20.0
1002
}
  0
LINE
  5
7C5C
330
19
100
AcDbEntity
  8
1
100
AcDbLine
 10
3799.698443168352
 20
2139.251935430185
 30
0.0
 11
3799.698443168353
 21
2059.251935430185
 31
0.0
  0
LINE
  5
7C5D
330
19
100
AcDbEntity
  8
1
100
AcDbLine
 10
3729.698443168353
 20
2149.251935430186
 30
0.0
 11
3729.698443168353
 21
2049.251935430186
 31
0.0
  0
LINE
  5
7C5E
330
19
100
AcDbEntity
  8
1
100
AcDbLine
 10
3729.698443168353
 20
2149.251935430186
 30
0.0
 11
3789.698443168353
 21
2149.251935430186
 31
0.0
  0
LINE
  5
7C5F
330
19
100
AcDbEntity
  8
1
100
AcDbLine
 10
3729.698443168353
 20
2049.251935430186
 30
0.0
 11
3789.698443168354
 21
2049.251935430186
 31
0.0
  0
LINE
  5
7C60
330
19
100
AcDbEntity
  8
1
100
AcDbLine
 10
3789.698443168353
 20
2149.251935430186
 30
0.0
 11
3799.698443168352
 21
2139.251935430185
 31
0.0
  0
LINE
  5
7C61
330
19
100
AcDbEntity
  8
1
100
AcDbLine
 10
3799.698443168353
 20
2059.251935430185
 30
0.0
 11
3789.698443168354
 21
2049.251935430186
 31
0.0
  0
LINE
  5
7C62
330
19
100
AcDbEntity
  8
1
100
AcDbLine
 10
2874.698443168353
 20
2128.151935430185
 30
0.0
 11
2874.698443168353
 21
2048.151935430186
 31
0.0
  0
LINE
  5
7C63
330
19
100
AcDbEntity
  8
1
100
AcDbLine
 10
2944.698443168352
 20
2138.151935430185
 30
0.0
 11
2944.698443168352
 21
2038.151935430185
 31
0.0
  0
LINE
  5
7C64
330
19
100
AcDbEntity
  8
1
100
AcDbLine
 10
2884.698443168353
 20
2138.151935430185
 30
0.0
 11
2944.698443168352
 21
2138.151935430185
 31
0.0
  0
LINE
  5
7C65
330
19
100
AcDbEntity
  8
1
100
AcDbLine
 10
2884.698443168353
 20
2038.151935430185
 30
0.0
 11
2944.698443168352
 21
2038.151935430185
 31
0.0
  0
LINE
  5
7C66
330
19
100
AcDbEntity
  8
1
100
AcDbLine
 10
2874.698443168353
 20
2048.151935430186
 30
0.0
 11
2884.698443168353
 21
2038.151935430185
 31
0.0
  0
LINE
  5
7C67
330
19
100
AcDbEntity
  8
1
100
AcDbLine
 10
2884.698443168353
 20
2138.151935430185
 30
0.0
 11
2874.698443168353
 21
2128.151935430185
 31
0.0
  0
DIMENSION
  5
7C68
330
19
100
AcDbEntity
  8
3
100
AcDbDimension
  2
*D5
 10
3329.698443168353
 20
2824.5048711531
 30
0.0
 11
3564.698443168352
 21
2880.219156867386
 31
0.0
 70
    32
  1
(<>)
 71
     5
 42
470.0
  3
MATSU
100
AcDbAlignedDimension
 13
3799.698443168352
 23
2139.251935430185
 33
0.0
 14
3329.698443168353
 24
2747.904687691113
 34
0.0
100
AcDbRotatedDimension
1001
ACAD
1000
DSTYLE
1002
{
1070
    40
1040
20.0
1002
}
  0
LINE
  5
7C69
330
19
100
AcDbEntity
  8
1
100
AcDbLine
 10
2619.698443168352
 20
2412.151935430185
 30
0.0
 11
2619.698443168352
 21
1562.151935430185
 31
0.0
  0
LINE
  5
7C6A
330
19
100
AcDbEntity
  8
1
100
AcDbLine
 10
2809.698443168353
 20
2412.151935430185
 30
0.0
 11
2809.698443168353
 21
2337.373097910449
 31
0.0
  0
LINE
  5
7C6B
330
19
100
AcDbEntity
  8
1
100
AcDbLine
 10
1819.605118353895
 20
3496.51967644941
 30
0.0
 11
1819.605118353895
 21
3628.51967644941
 31
0.0
  0
LINE
  5
7C6C
330
19
100
AcDbEntity
  8
1
100
AcDbLine
 10
469.6051183538957
 20
3496.519676449411
 30
0.0
 11
469.6051183538948
 21
4096.51967644941
 31
0.0
  0
LINE
  5
7C6D
330
19
100
AcDbEntity
  8
1
100
AcDbLine
 10
1819.605118353896
 20
4421.51967644941
 30
0.0
 11
1109.605118353895
 21
4421.519676449412
 31
0.0
  0
LINE
  5
7C6E
330
19
100
AcDbEntity
  8
1
100
AcDbLine
 10
1819.605118353895
 20
3496.51967644941
 30
0.0
 11
469.6051183538957
 21
3496.519676449411
 31
0.0
  0
LINE
  5
7C6F
330
19
100
AcDbEntity
  8
1
100
AcDbLine
 10
1109.605118353895
 20
4378.51967644941
 30
0.0
 11
1109.605118353895
 21
4421.51967644941
 31
0.0
  0
LINE
  5
7C70
330
19
100
AcDbEntity
  8
1
100
AcDbLine
 10
990.6051183538957
 20
4096.51967644941
 30
0.0
 11
469.6051183538957
 21
4096.51967644941
 31
0.0
  0
LINE
  5
7C71
330
19
100
AcDbEntity
  8
2
100
AcDbLine
 10
764.6051183538957
 20
4088.428734449411
 30
0.0
 11
764.6051183538957
 21
3268.637373877744
 31
0.0
  0
ARC
  5
7C73
330
19
100
AcDbEntity
  8
1
100
AcDbCircle
 10
764.6051183538948
 20
1782.151935430185
 30
0.0
 40
185.0
100
AcDbArc
 50
287.9452510000001
 51
252.054749
  0
LINE
  5
7C74
330
19
100
AcDbEntity
  8
2
100
AcDbLine
 10
764.6051183538948
 20
2049.869330874099
 30
0.0
 11
764.6051183538944
 21
1317.151935430185
 31
0.0
  0
LINE
  5
7C75
330
19
100
AcDbEntity
  8
1
100
AcDbLine
 10
821.6051183538946
 20
1606.151935430185
 30
0.0
 11
707.6051183538945
 21
1606.151935430185
 31
0.0
  0
LINE
  5
7C77
330
19
100
AcDbEntity
  8
1
100
AcDbLine
 10
926.6051183538946
 20
1677.410968430185
 30
0.0
 11
926.6051183538946
 21
1602.151935430186
 31
0.0
  0
LINE
  5
7C78
330
19
100
AcDbEntity
  8
1
100
AcDbLine
 10
867.1051183538946
 20
1607.300494430185
 30
0.0
 11
857.5984043538944
 21
1622.223102430185
 31
0.0
  0
LINE
  5
7C7B
330
19
100
AcDbEntity
  8
1
100
AcDbLine
 10
867.1051183538946
 20
1619.151935430185
 30
0.0
 11
867.1051183538946
 21
1602.151935430185
 31
0.0
  0
LINE
  5
7C7C
330
19
100
AcDbEntity
  8
1
100
AcDbLine
 10
867.1051183538946
 20
1602.151935430185
 30
0.0
 11
926.6051183538946
 21
1602.151935430186
 31
0.0
  0
LINE
  5
7C7E
330
19
100
AcDbEntity
  8
1
100
AcDbLine
 10
870.1051183538945
 20
1622.151935430185
 30
0.0
 11
923.6051183538945
 21
1622.151935430186
 31
0.0
  0
ARC
  5
7C7F
330
19
100
AcDbEntity
  8
1
100
AcDbCircle
 10
923.6051183538945
 20
1619.151935430186
 30
0.0
 40
3.0
100
AcDbArc
 50
0.0
 51
89.99999999999998
  0
LINE
  5
7C86
330
19
100
AcDbEntity
  8
1
100
AcDbLine
 10
875.4290313538946
 20
1622.151935430185
 30
0.0
 11
870.2492833538947
 21
1630.282550430185
 31
0.0
  0
ARC
  5
7C88
330
19
100
AcDbEntity
  8
1
100
AcDbCircle
 10
870.1051183538945
 20
1619.151935430185
 30
0.0
 40
3.0
100
AcDbArc
 50
89.99999999999998
 51
180.0
  0
LINE
  5
7C89
330
19
100
AcDbEntity
  8
1
100
AcDbLine
 10
926.6051183538946
 20
1677.410968430185
 30
0.0
 11
920.2211463538944
 21
1682.108722430185
 31
0.0
  0
LINE
  5
7C8E
330
19
100
AcDbEntity
  8
1
100
AcDbLine
 10
662.1051183538945
 20
1607.300494430185
 30
0.0
 11
671.6118323538946
 21
1622.223102430185
 31
0.0
  0
LINE
  5
7C92
330
19
100
AcDbEntity
  8
1
100
AcDbLine
 10
662.1051183538945
 20
1619.151935430185
 30
0.0
 11
662.1051183538945
 21
1602.151935430185
 31
0.0
  0
LINE
  5
7C93
330
19
100
AcDbEntity
  8
1
100
AcDbLine
 10
602.6051183538945
 20
1677.410968430185
 30
0.0
 11
602.6051183538945
 21
1602.151935430185
 31
0.0
  0
LINE
  5
7C94
330
19
100
AcDbEntity
  8
1
100
AcDbLine
 10
662.1051183538945
 20
1602.151935430185
 30
0.0
 11
602.6051183538945
 21
1602.151935430185
 31
0.0
  0
LINE
  5
7C96
330
19
100
AcDbEntity
  8
1
100
AcDbLine
 10
659.1051183538946
 20
1622.151935430185
 30
0.0
 11
605.6051183538945
 21
1622.151935430185
 31
0.0
  0
LINE
  5
7C98
330
19
100
AcDbEntity
  8
1
100
AcDbLine
 10
653.7812043538945
 20
1622.151935430185
 30
0.0
 11
658.9609533538943
 21
1630.282550430185
 31
0.0
  0
ARC
  5
7C99
330
19
100
AcDbEntity
  8
1
100
AcDbCircle
 10
659.1051183538946
 20
1619.151935430185
 30
0.0
 40
3.0
100
AcDbArc
 50
0.0
 51
89.99999999999998
  0
ARC
  5
7C9A
330
19
100
AcDbEntity
  8
1
100
AcDbCircle
 10
605.6051183538945
 20
1619.151935430185
 30
0.0
 40
3.0
100
AcDbArc
 50
89.99999999999998
 51
180.0
  0
LINE
  5
7CA5
330
19
100
AcDbEntity
  8
1
100
AcDbLine
 10
602.6051183538945
 20
1677.410968430185
 30
0.0
 11
608.9890293538944
 21
1682.108722430185
 31
0.0
  0
LINE
  5
7CA6
330
19
100
AcDbEntity
  8
2
100
AcDbLine
 10
485.3091459673064
 20
1782.151935430185
 30
0.0
 11
995.3869603428897
 21
1782.151935430185
 31
0.0
  0
LINE
  5
7CA7
330
19
100
AcDbEntity
  8
1
100
AcDbLine
 10
788.6051183538957
 20
3476.019676449411
 30
0.0
 11
788.6051183538957
 21
3446.019676449412
 31
0.0
  0
LINE
  5
7CA8
330
19
100
AcDbEntity
  8
1
100
AcDbLine
 10
740.6051183538957
 20
3476.019676449411
 30
0.0
 11
740.6051183538965
 21
3446.019676449412
 31
0.0
  0
LINE
  5
7CA9
330
19
100
AcDbEntity
  8
1
100
AcDbLine
 10
979.6051183538946
 20
1602.151935430185
 30
0.0
 11
834.6051183538945
 21
1602.151935430185
 31
0.0
  0
LINE
  5
7CAA
330
19
100
AcDbEntity
  8
1
100
AcDbLine
 10
834.6051183538945
 20
1602.151935430185
 30
0.0
 11
834.6051183538945
 21
1592.151935430185
 31
0.0
  0
LINE
  5
7CAB
330
19
100
AcDbEntity
  8
1
100
AcDbLine
 10
694.6051183538945
 20
1602.151935430185
 30
0.0
 11
694.6051183538945
 21
1592.151935430185
 31
0.0
  0
LINE
  5
7CAD
330
19
100
AcDbEntity
  8
1
100
AcDbLine
 10
834.6051183538945
 20
1592.151935430185
 30
0.0
 11
694.6051183538945
 21
1592.151935430185
 31
0.0
  0
LINE
  5
7CAE
330
19
100
AcDbEntity
  8
1
100
AcDbLine
 10
694.6051183538945
 20
1602.151935430185
 30
0.0
 11
549.605118353895
 21
1602.151935430185
 31
0.0
  0
LINE
  5
7CB1
330
19
100
AcDbEntity
  8
1
100
AcDbLine
 10
549.6051183538945
 20
1602.151935430185
 30
0.0
 11
539.6051183538941
 21
1547.151935430185
 31
0.0
  0
LINE
  5
7CB2
330
19
100
AcDbEntity
  8
1
100
AcDbLine
 10
979.6051183538946
 20
1602.151935430185
 30
0.0
 11
989.6051183538945
 21
1547.151935430185
 31
0.0
  0
DIMENSION
  5
7CB3
330
19
100
AcDbEntity
  8
3
100
AcDbDimension
  2
*D6
 10
2209.854396610487
 20
1472.151935430185
 30
0.0
 11
2169.854396610487
 21
1832.151935430185
 31
0.0
 70
    32
 71
     5
 42
-1.0
  3
MATSU
100
AcDbAlignedDimension
 13
1898.204742919153
 23
2192.151935430185
 33
0.0
 14
1819.605118353894
 24
1472.151935430185
 34
0.0
 50
90.0
100
AcDbRotatedDimension
1001
ACAD
1000
DSTYLE
1002
{
1070
   287
1070
     4
1070
    40
1040
20.0
1070
    75
1070
     1
1070
   279
1070
     1
1070
   289
1070
     3
1002
}
  0
CIRCLE
  5
7CB6
330
19
100
AcDbEntity
  8
1
100
AcDbCircle
 10
1464.605118353894
 20
2192.151935430185
 30
0.0
 40
280.0
  0
CIRCLE
  5
7CB7
330
19
100
AcDbEntity
  8
1
100
AcDbCircle
 10
1464.605118353894
 20
2192.151935430185
 30
0.0
 40
310.0
  0
LINE
  5
7CB8
330
19
100
AcDbEntity
  8
1
100
AcDbLine
 10
1854.605118353895
 20
3628.519676449411
 30
0.0
 11
990.6051183538947
 21
3628.51967644941
 31
0.0
  0
LINE
  5
7CB9
330
19
100
AcDbEntity
  8
1
100
AcDbLine
 10
1854.605118353896
 20
4378.51967644941
 30
0.0
 11
990.6051183538957
 21
4378.51967644941
 31
0.0
  0
LINE
  5
7CBA
330
19
100
AcDbEntity
  8
1
100
AcDbLine
 10
1854.605118353895
 20
3598.519676449411
 30
0.0
 11
1854.605118353896
 21
4408.519676449411
 31
0.0
  0
LINE
  5
7CBB
330
19
100
AcDbEntity
  8
1
100
AcDbLine
 10
990.6051183538947
 20
3628.51967644941
 30
0.0
 11
990.6051183538957
 21
4378.51967644941
 31
0.0
  0
LINE
  5
7CBC
330
19
100
AcDbEntity
  8
1
100
AcDbLine
 10
1854.605118353896
 20
4408.519676449411
 30
0.0
 11
1851.605118353896
 21
4408.519676449411
 31
0.0
  0
LINE
  5
7CBD
330
19
100
AcDbEntity
  8
1
100
AcDbLine
 10
1854.605118353895
 20
3598.519676449411
 30
0.0
 11
1851.605118353895
 21
3598.519676449412
 31
0.0
  0
LINE
  5
7CBE
330
19
100
AcDbEntity
  8
1
100
AcDbLine
 10
1851.605118353895
 20
3598.519676449411
 30
0.0
 11
1851.605118353896
 21
4408.519676449411
 31
0.0
  0
LINE
  5
7CBF
330
19
100
AcDbEntity
  8
1
100
AcDbLine
 10
1684.605118353896
 20
3293.519676449411
 30
0.0
 11
544.6051183538957
 21
3293.519676449411
 31
0.0
  0
LINE
  5
7CC0
330
19
100
AcDbEntity
  8
1
100
AcDbLine
 10
1684.605118353895
 20
3483.519676449411
 30
0.0
 11
544.6051183538957
 21
3483.519676449411
 31
0.0
  0
LINE
  5
7CC1
330
19
100
AcDbEntity
  8
1
100
AcDbLine
 10
544.6051183538957
 20
3293.519676449411
 30
0.0
 11
544.6051183538957
 21
3483.519676449411
 31
0.0
  0
LINE
  5
7CC2
330
19
100
AcDbEntity
  8
1
100
AcDbLine
 10
1684.605118353896
 20
3293.519676449411
 30
0.0
 11
1684.605118353895
 21
3483.519676449411
 31
0.0
  0
LINE
  5
7CC3
330
19
100
AcDbEntity
  8
1
100
AcDbLine
 10
1574.605118353895
 20
3446.019676449411
 30
0.0
 11
1354.605118353896
 21
3446.019676449411
 31
0.0
  0
LINE
  5
7CC4
330
19
100
AcDbEntity
  8
1
100
AcDbLine
 10
1574.605118353896
 20
3361.019676449411
 30
0.0
 11
1354.605118353896
 21
3361.019676449411
 31
0.0
  0
LINE
  5
7CC5
330
19
100
AcDbEntity
  8
1
100
AcDbLine
 10
1574.605118353896
 20
3361.019676449411
 30
0.0
 11
1574.605118353895
 21
3446.019676449411
 31
0.0
  0
LINE
  5
7CC6
330
19
100
AcDbEntity
  8
1
100
AcDbLine
 10
1354.605118353896
 20
3361.019676449411
 30
0.0
 11
1354.605118353896
 21
3446.019676449411
 31
0.0
  0
LINE
  5
7CC7
330
19
100
AcDbEntity
  8
1
100
AcDbLine
 10
904.1051183538957
 20
3361.019676449411
 30
0.0
 11
904.1051183538957
 21
3446.019676449411
 31
0.0
  0
LINE
  5
7CC8
330
19
100
AcDbEntity
  8
1
100
AcDbLine
 10
625.1051183538956
 20
3361.019676449411
 30
0.0
 11
625.1051183538956
 21
3446.019676449411
 31
0.0
  0
LINE
  5
7CC9
330
19
100
AcDbEntity
  8
1
100
AcDbLine
 10
904.1051183538957
 20
3446.019676449411
 30
0.0
 11
625.1051183538956
 21
3446.019676449411
 31
0.0
  0
LINE
  5
7CCA
330
19
100
AcDbEntity
  8
1
100
AcDbLine
 10
904.1051183538957
 20
3361.019676449411
 30
0.0
 11
625.1051183538956
 21
3361.019676449411
 31
0.0
  0
LINE
  5
7CCB
330
19
100
AcDbEntity
  8
1
100
AcDbLine
 10
1487.105118353895
 20
3446.019676449411
 30
0.0
 11
1487.105118353895
 21
3628.519676449411
 31
0.0
  0
LINE
  5
7CCC
330
19
100
AcDbEntity
  8
1
100
AcDbLine
 10
1442.105118353895
 20
3446.019676449411
 30
0.0
 11
1442.105118353895
 21
3628.51967644941
 31
0.0
  0
LINE
  5
7CCD
330
19
100
AcDbEntity
  8
1
100
AcDbLine
 10
2619.698443168352
 20
2412.151935430185
 30
0.0
 11
2809.698443168353
 21
2412.151935430185
 31
0.0
  0
LINE
  5
7CCE
330
19
100
AcDbEntity
  8
2
100
AcDbLine
 10
2561.747997582383
 20
1782.151935430185
 30
0.0
 11
2994.698443168352
 21
1782.151935430185
 31
0.0
  0
LINE
  5
7CCF
330
19
100
AcDbEntity
  8
1
100
AcDbLine
 10
2619.698443168352
 20
1562.151935430185
 30
0.0
 11
2809.698443168353
 21
1562.151935430185
 31
0.0
  0
LINE
  5
7CD0
330
19
100
AcDbEntity
  8
1
100
AcDbLine
 10
2772.198443168353
 20
2302.151935430185
 30
0.0
 11
2772.198443168352
 21
1633.651935430185
 31
0.0
  0
LINE
  5
7CD1
330
19
100
AcDbEntity
  8
1
100
AcDbLine
 10
2687.198443168352
 20
2302.151935430185
 30
0.0
 11
2687.198443168352
 21
1633.651935430185
 31
0.0
  0
LINE
  5
7CD2
330
19
100
AcDbEntity
  8
1
100
AcDbLine
 10
2687.198443168352
 20
2302.151935430185
 30
0.0
 11
2772.198443168353
 21
2302.151935430185
 31
0.0
  0
LINE
  5
7CD3
330
19
100
AcDbEntity
  8
1
100
AcDbLine
 10
2687.198443168352
 20
2082.151935430184
 30
0.0
 11
2772.198443168352
 21
2082.151935430184
 31
0.0
  0
LINE
  5
7CD4
330
19
100
AcDbEntity
  8
1
100
AcDbLine
 10
2687.198443168352
 20
1930.651935430185
 30
0.0
 11
2772.198443168352
 21
1930.651935430185
 31
0.0
  0
LINE
  5
7CD5
330
19
100
AcDbEntity
  8
1
100
AcDbLine
 10
2687.198443168352
 20
1633.651935430185
 30
0.0
 11
2772.198443168352
 21
1633.651935430185
 31
0.0
  0
LINE
  5
7CD6
330
19
100
AcDbEntity
  8
1
100
AcDbLine
 10
2772.198443168353
 20
2214.651935430185
 30
0.0
 11
2954.698443168352
 21
2214.651935430185
 31
0.0
  0
LINE
  5
7CD7
330
19
100
AcDbEntity
  8
1
100
AcDbLine
 10
2772.198443168353
 20
2169.651935430185
 30
0.0
 11
2954.698443168352
 21
2169.651935430185
 31
0.0
  0
DIMENSION
  5
7CD8
330
19
100
AcDbEntity
  8
3
100
AcDbDimension
  2
*D7
 10
2619.698443168352
 20
2824.5048711531
 30
0.0
 11
2974.698443168352
 21
2880.219156867386
 31
0.0
 70
    32
  1
(<>)
 71
     5
 42
710.0
  3
MATSU
100
AcDbAlignedDimension
 13
3329.698443168353
 23
2747.904687691113
 33
0.0
 14
2619.698443168352
 24
2412.151935430185
 34
0.0
100
AcDbRotatedDimension
1001
ACAD
1000
DSTYLE
1002
{
1070
   287
1070
     4
1070
    40
1040
20.0
1070
    75
1070
     1
1070
   279
1070
     1
1070
   289
1070
     3
1002
}
  0
LINE
  5
7CD9
330
19
100
AcDbEntity
  8
1
100
AcDbLine
 10
582.1051183538948
 20
4037.51967644941
 30
0.0
 11
582.1051183538948
 21
3476.019676449411
 31
0.0
  0
LINE
  5
7CDA
330
19
100
AcDbEntity
  8
1
100
AcDbLine
 10
947.1051183538948
 20
4037.51967644941
 30
0.0
 11
947.1051183538957
 21
3476.019676449411
 31
0.0
  0
LINE
  5
7CDB
330
19
100
AcDbEntity
  8
1
100
AcDbLine
 10
582.1051183538957
 20
4037.51967644941
 30
0.0
 11
947.1051183538948
 21
4037.51967644941
 31
0.0
  0
LINE
  5
7CDC
330
19
100
AcDbEntity
  8
1
100
AcDbLine
 10
582.1051183538948
 20
3476.019676449411
 30
0.0
 11
947.1051183538957
 21
3476.01967644941
 31
0.0
  0
LINE
  5
7CDD
330
19
100
AcDbEntity
  8
1
100
AcDbLine
 10
2954.698443168352
 20
1599.651935430185
 30
0.0
 11
2802.198443168352
 21
1599.651935430185
 31
0.0
  0
LINE
  5
7CDE
330
19
100
AcDbEntity
  8
1
100
AcDbLine
 10
2802.198443168352
 20
1758.151935430185
 30
0.0
 11
2772.198443168352
 21
1758.151935430185
 31
0.0
  0
LINE
  5
7CDF
330
19
100
AcDbEntity
  8
1
100
AcDbLine
 10
2802.198443168352
 20
1806.151935430184
 30
0.0
 11
2772.198443168352
 21
1806.151935430185
 31
0.0
  0
LINE
  5
7CE0
330
19
100
AcDbEntity
  8
1
100
AcDbLine
 10
2777.198443168352
 20
2059.651935430185
 30
0.0
 11
2772.198443168353
 21
2059.651935430185
 31
0.0
  0
LINE
  5
7CE1
330
19
100
AcDbEntity
  8
1
100
AcDbLine
 10
2802.198443168353
 20
1967.151935430185
 30
0.0
 11
2802.198443168352
 21
1599.651935430185
 31
0.0
  0
LINE
  5
7CE2
330
19
100
AcDbEntity
  8
1
100
AcDbLine
 10
2809.698443168353
 20
1649.006746141918
 30
0.0
 11
2809.698443168353
 21
1562.151935430185
 31
0.0
  0
DIMENSION
  5
7CE3
330
19
100
AcDbEntity
  8
3
100
AcDbDimension
  2
*D8
 10
2016.19871640561
 20
3496.51967644941
 30
0.0
 11
1976.198716405609
 21
3959.01967644941
 31
0.0
 12
213.7918073508445
 22
847.4461406141436
 32
0.0
 70
    32
 71
     5
 42
-1.0
  3
MATSU
100
AcDbAlignedDimension
 13
1819.605118353896
 23
4421.51967644941
 33
0.0
 14
1819.605118353895
 24
3496.51967644941
 34
0.0
 50
90.0
100
AcDbRotatedDimension
1001
ACAD
1000
DSTYLE
1002
{
1070
    40
1040
20.0
1002
}
  0
DIMENSION
  5
7CE4
330
19
100
AcDbEntity
  8
3
100
AcDbDimension
  2
*D9
 10
1109.605118353895
 20
4576.873628213736
 30
0.0
 11
1464.605118353896
 21
4616.873628213736
 31
0.0
 12
213.7918073508445
 22
847.4461406141436
 32
0.0
 70
    32
 71
     5
 42
-1.0
  3
MATSU
100
AcDbAlignedDimension
 13
1819.605118353896
 23
4421.51967644941
 33
0.0
 14
1109.605118353895
 24
4421.519676449412
 34
0.0
100
AcDbRotatedDimension
1001
ACAD
1000
DSTYLE
1002
{
1070
    40
1040
20.0
1002
}
  0
DIMENSION
  5
7CE5
330
19
100
AcDbEntity
  8
3
100
AcDbDimension
  2
*D10
 10
469.6051183538958
 20
4576.873628213736
 30
0.0
 11
789.6051183538957
 21
4616.873628213736
 31
0.0
 70
    32
 71
     5
 42
-1.0
  3
MATSU
100
AcDbAlignedDimension
 13
1109.605118353895
 23
4421.519676449412
 33
0.0
 14
469.6051183538957
 24
4096.51967644941
 34
0.0
100
AcDbRotatedDimension
1001
ACAD
1000
DSTYLE
1002
{
1070
   287
1070
     4
1070
    40
1040
20.0
1070
    75
1070
     1
1070
   279
1070
     1
1070
   289
1070
     3
1002
}
  0
DIMENSION
  5
7CE6
330
19
100
AcDbEntity
  8
3
100
AcDbDimension
  2
*D11
 10
344.756498647952
 20
3496.519676449411
 30
0.0
 11
304.756498647952
 21
3796.51967644941
 31
0.0
 70
    32
 71
     5
 42
-1.0
  3
MATSU
100
AcDbAlignedDimension
 13
469.6051183538957
 23
4096.51967644941
 33
0.0
 14
469.6051183538957
 24
3496.519676449411
 34
0.0
 50
90.0
100
AcDbRotatedDimension
1001
ACAD
1000
DSTYLE
1002
{
1070
    40
1040
20.0
1002
}
  0
DIMENSION
  5
7CE7
330
19
100
AcDbEntity
  8
3
100
AcDbDimension
  2
*D12
 10
1819.605118353895
 20
3061.491222649989
 30
0.0
 11
1144.605118353895
 21
3101.491222649989
 31
0.0
 12
213.7918073508445
 22
847.4461406141436
 32
0.0
 70
    32
 71
     5
 42
-1.0
  3
MATSU
100
AcDbAlignedDimension
 13
469.6051183538957
 23
3496.519676449411
 33
0.0
 14
1819.605118353895
 24
3496.51967644941
 34
0.0
100
AcDbRotatedDimension
1001
ACAD
1000
DSTYLE
1002
{
1070
    40
1040
20.0
1002
}
  0
CIRCLE
  5
7CEE
330
19
100
AcDbEntity
  8
1
100
AcDbCircle
 10
764.6051183538948
 20
1782.151935430185
 30
0.0
 40
139.5
  0
CIRCLE
  5
7CEF
330
19
100
AcDbEntity
  8
1
100
AcDbCircle
 10
1464.605118353894
 20
2192.151935430185
 30
0.0
 40
110.0
  0
ARC
  5
7CF0
330
19
100
AcDbEntity
  8
1
100
AcDbCircle
 10
1464.605118353894
 20
2192.151935430185
 30
0.0
 40
220.0
100
AcDbArc
 50
300.3581154587666
 51
122.6201055887722
  0
ARC
  5
7CF1
330
19
100
AcDbEntity
  8
1
100
AcDbCircle
 10
764.6051183538948
 20
1782.151935430185
 30
0.0
 40
220.0
100
AcDbArc
 50
120.3581154587666
 51
300.3581154587667
  0
LINE
  5
7CF2
330
19
100
AcDbEntity
  8
1
100
AcDbLine
 10
2802.198443168352
 20
1967.151935430185
 30
0.0
 11
2994.698443168352
 21
1967.151935430185
 31
0.0
  0
LINE
  5
7CF3
330
19
100
AcDbEntity
  8
1
100
AcDbLine
 10
1819.605118353896
 20
4378.51967644941
 30
0.0
 11
1819.605118353896
 21
4421.51967644941
 31
0.0
  0
DIMENSION
  5
7CF5
330
19
100
AcDbEntity
  8
3
100
AcDbDimension
  2
*D13
 10
469.6051183538945
 20
2877.786567135586
 30
0.0
 11
1162.105118353895
 21
2917.786567135586
 31
0.0
 12
213.7918073508445
 22
1132.419301421987
 32
0.0
 70
    32
 71
     5
 42
-1.0
  3
MATSU
100
AcDbAlignedDimension
 13
1854.605118353895
 23
2204.151935430184
 33
0.0
 14
469.6051183538945
 24
1547.151935430185
 34
0.0
100
AcDbRotatedDimension
1001
ACAD
1000
DSTYLE
1002
{
1070
    40
1040
20.0
1002
}
  0
DIMENSION
  5
7CF6
330
19
100
AcDbEntity
  8
3
100
AcDbDimension
  2
*D14
 10
1464.605118353895
 20
2739.831318031585
 30
0.0
 11
1659.605118353895
 21
2779.831318031585
 31
0.0
 12
213.7918073508445
 22
1132.419301421987
 32
0.0
 70
    32
 71
     5
 42
-1.0
  3
MATSU
100
AcDbAlignedDimension
 13
1854.605118353895
 23
2204.151935430184
 33
0.0
 14
1464.605118353895
 24
2636.364881203586
 34
0.0
100
AcDbRotatedDimension
1001
ACAD
1000
DSTYLE
1002
{
1070
    40
1040
20.0
1002
}
  0
DIMENSION
  5
7CF7
330
19
100
AcDbEntity
  8
3
100
AcDbDimension
  2
*D15
 10
978.9309764822277
 20
2739.831318031585
 30
0.0
 11
1221.768047418061
 21
2779.831318031585
 31
0.0
 70
    32
  1
484
 71
     5
 42
-1.0
  3
MATSU
100
AcDbAlignedDimension
 13
1464.605118353895
 23
2636.364881203586
 33
0.0
 14
978.9309764822277
 24
2150.151935430185
 34
0.0
100
AcDbRotatedDimension
1001
ACAD
1000
DSTYLE
1002
{
1070
   287
1070
     4
1070
    40
1040
20.0
1070
    75
1070
     1
1070
   279
1070
     1
1070
   289
1070
     3
1002
}
  0
LINE
  5
7CF9
330
19
100
AcDbEntity
  8
1
100
AcDbLine
 10
2954.698443168352
 20
1592.151935430185
 30
0.0
 11
3704.698443168353
 21
1592.151935430185
 31
0.0
  0
LINE
  5
7CFA
330
19
100
AcDbEntity
  8
1
100
AcDbLine
 10
2954.698443168352
 20
2172.151935430185
 30
0.0
 11
3704.698443168353
 21
2172.151935430186
 31
0.0
  0
LINE
  5
7CFB
330
19
100
AcDbEntity
  8
1
100
AcDbLine
 10
3704.698443168353
 20
2172.151935430186
 30
0.0
 11
2954.698443168352
 21
1592.151935430185
 31
0.0
  0
LINE
  5
7CFC
330
19
100
AcDbEntity
  8
1
100
AcDbLine
 10
2954.698443168352
 20
2169.651935430185
 30
0.0
 11
3217.685456155366
 21
1967.151935430185
 31
0.0
  0
LINE
  5
7CFD
330
19
100
AcDbEntity
  8
1
100
AcDbLine
 10
3217.685456155365
 20
1967.151935430185
 30
0.0
 11
3704.698443168353
 21
1592.151935430185
 31
0.0
  0
LINE
  5
7CFE
330
19
100
AcDbEntity
  8
1
100
AcDbLine
 10
1353.416433822388
 20
2381.98627487422
 30
0.0
 11
653.4164338223886
 21
1971.98627487422
 31
0.0
  0
LINE
  5
7CFF
330
19
100
AcDbEntity
  8
1
100
AcDbLine
 10
1575.793802885401
 20
2002.31759598615
 30
0.0
 11
875.7938028854008
 21
1592.317595986149
 31
0.0
  0
LINE
  5
7D00
330
19
100
AcDbEntity
  8
1
100
AcDbLine
 10
1412.499149421448
 20
2289.027979948997
 30
0.0
 11
698.5252759350187
 21
1905.008373706315
 31
0.0
  0
LINE
  5
7D01
330
19
100
AcDbEntity
  8
1
100
AcDbLine
 10
1523.614293486008
 20
2099.319197399749
 30
0.0
 11
839.4394813623469
 21
1664.42314492795
 31
0.0
  0
LINE
  5
7F3B
330
19
100
AcDbEntity
  8
4
100
AcDbLine
 10
3700.0
 20
852.2157982012412
 30
0.0
 11
3700.0
 21
452.2157982012413
 31
0.0
  0
LINE
  5
7F3C
330
19
100
AcDbEntity
  8
4
100
AcDbLine
 10
2300.0
 20
852.2157982012412
 30
0.0
 11
2300.0
 21
452.2157982012413
 31
0.0
  0
LINE
  5
7F3D
330
19
100
AcDbEntity
  8
4
100
AcDbLine
 10
1300.0
 20
852.2157982012412
 30
0.0
 11
1300.0
 21
452.2157982012413
 31
0.0
  0
LINE
  5
7F40
330
19
100
AcDbEntity
  8
4
100
AcDbLine
 10
1300.0
 20
452.2157982012413
 30
0.0
 11
3700.0
 21
452.2157982012413
 31
0.0
  0
LINE
  5
7F41
330
19
100
AcDbEntity
  8
4
100
AcDbLine
 10
1300.0
 20
652.2157982012413
 30
0.0
 11
3700.0
 21
652.2157982012413
 31
0.0
  0
TEXT
  5
7F42
330
19
100
AcDbEntity
  8
4
100
AcDbText
 10
1377.004161693803
 20
715.301849934467
 30
0.0
 40
100.0
  1
機器名称
100
AcDbText
  0
TEXT
  5
7F43
330
19
100
AcDbEntity
  8
4
100
AcDbText
 10
1372.516212049595
 20
495.5061116652632
 30
0.0
 40
100.0
  1
機器型番
100
AcDbText
  0
TEXT
  5
7F44
330
19
100
AcDbEntity
  8
4
100
AcDbText
 10
2356.357072020481
 20
696.1481596911457
 30
0.0
 40
80.0
  1
ミツヤ多翼送風機
100
AcDbText
  0
TEXT
  5
7F45
330
19
100
AcDbEntity
  8
4
100
AcDbText
 10
2373.308991170961
 20
486.5349667611281
 30
0.0
 40
100.0
  1
MF#3 1/2-5
100
AcDbText
  0
TEXT
  5
7F47
330
19
100
AcDbEntity
  8
4
100
AcDbText
 10
1651.158421999124
 20
4766.857682665031
 30
0.0
 40
108.0
  1
床置防振ベット
100
AcDbText
  0
TEXT
  5
7F48
330
19
100
AcDbEntity
  8
4
100
AcDbText
 10
632.3351866588928
 20
5067.761952398596
 30
0.0
 40
144.0
  1
遠心式両吸込両持多翼ファン
100
AcDbText
  0
LINE
  5
7F49
330
19
100
AcDbEntity
  8
4
100
AcDbLine
 10
500.0
 20
4938.817508529609
 30
0.0
 11
3700.0
 21
4938.817508529609
 31
0.0
  0
LINE
  5
7F4A
330
19
100
AcDbEntity
  8
4
100
AcDbLine
 10
500.0
 20
5338.81750852961
 30
0.0
 11
3700.0
 21
5338.81750852961
 31
0.0
  0
LINE
  5
7F4B
330
19
100
AcDbEntity
  8
4
100
AcDbLine
 10
1300.0
 20
852.2157982012412
 30
0.0
 11
3700.0
 21
852.2157982012412
 31
0.0
  0
LINE
  5
7F4C
330
19
100
AcDbEntity
  8
4
100
AcDbLine
 10
500.0
 20
5338.81750852961
 30
0.0
 11
500.0
 21
4938.817508529609
 31
0.0
  0
TEXT
  5
7F4D
330
19
100
AcDbEntity
  8
4
100
AcDbText
 10
779.4407575137193
 20
4764.638955092687
 30
0.0
 40
108.0
  1
左回転右横向
100
AcDbText
  0
TEXT
  5
7F4E
330
19
100
AcDbEntity
  8
4
100
AcDbText
 10
2937.93911849858
 20
5412.122162990618
 30
0.0
 40
112.0
  1
No.
100
AcDbText
  0
TEXT
  5
7F4F
330
19
100
AcDbEntity
  8
4
100
AcDbText
 10
2622.592125200026
 20
4766.857682665031
 30
0.0
 40
108.0
  1
縮尺：1/20
100
AcDbText
  0
LINE
  5
7F50
330
19
100
AcDbEntity
  8
4
100
AcDbLine
 10
3700.0
 20
5338.81750852961
 30
0.0
 11
3700.0
 21
4938.817508529609
 31
0.0
  0
LINE
  5
7F51
330
19
100
AcDbEntity
  8
4
100
AcDbLine
 10
4200.0
 20
5900.0
 30
0.0
 11
4200.0
 21
5900.0
 31
0.0
  0
LINE
  5
7F52
330
19
100
AcDbEntity
  8
4
100
AcDbLine
 10
2881.234844719729
 20
5362.527166250802
 30
0.0
 11
2881.234844719729
 21
5573.304523099505
 31
0.0
  0
LINE
  5
7F53
330
19
100
AcDbEntity
  8
4
100
AcDbLine
 10
2881.234844719729
 20
5573.304523099505
 30
0.0
 11
3700.0
 21
5573.304523099505
 31
0.0
  0
LINE
  5
7F54
330
19
100
AcDbEntity
  8
4
100
AcDbLine
 10
3700.0
 20
5573.304523099505
 30
0.0
 11
3700.0
 21
5362.527166250802
 31
0.0
  0
LINE
  5
7F55
330
19
100
AcDbEntity
  8
4
100
AcDbLine
 10
3700.0
 20
5362.527166250802
 30
0.0
 11
2881.234844719729
 21
5362.527166250802
 31
0.0
  0
LINE
  5
7F56
330
19
100
AcDbEntity
  8
4
100
AcDbLine
 10
0.0
 20
0.0
 30
0.0
 11
0.0
 21
5900.0
 31
0.0
  0
LINE
  5
7F57
330
19
100
AcDbEntity
  8
4
100
AcDbLine
 10
0.0
 20
5900.0
 30
0.0
 11
4200.0
 21
5900.0
 31
0.0
  0
LINE
  5
7F58
330
19
100
AcDbEntity
  8
4
100
AcDbLine
 10
4200.0
 20
5900.0
 30
0.0
 11
4200.0
 21
0.0
 31
0.0
  0
LINE
  5
7F59
330
19
100
AcDbEntity
  8
4
100
AcDbLine
 10
4200.0
 20
0.0
 30
0.0
 11
0.0
 21
0.0
 31
0.0
  0
DIMENSION
  5
7F88
330
19
100
AcDbEntity
  8
3
100
AcDbDimension
  2
*D16
 10
2209.854396610487
 20
1317.151935430185
 30
0.0
 11
2159.854396610487
 21
1168.580506858757
 31
0.0
 70
    32
 71
     5
 42
74.99999999999977
  3
IGA
100
AcDbAlignedDimension
 13
1819.605118353894
 23
1392.151935430185
 33
0.0
 14
1819.605118353894
 24
1317.151935430185
 34
0.0
 50
90.0
100
AcDbRotatedDimension
1001
ACAD
1000
DSTYLE
1002
{
1070
   287
1070
     3
1070
    40
1040
20.0
1070
   143
1040
0.039
1070
   172
1070
     1
1070
   271
1070
     0
1070
   279
1070
     0
1070
   288
1070
     1
1070
     6
1000
DOT
1002
}
  0
DIMENSION
  5
800F
330
19
100
AcDbEntity
  8
3
100
AcDbDimension
  2
*D18
 10
1464.605118353895
 20
1186.081783633748
 30
0.0
 11
967.1051183538947
 21
1236.081783633748
 31
0.0
 70
    32
 71
     5
 42
995.0
  3
IGA
100
AcDbAlignedDimension
 13
469.6051183538948
 23
1317.151935430185
 33
0.0
 14
1464.605118353895
 24
1317.151935430185
 34
0.0
100
AcDbRotatedDimension
1001
ACAD
1000
DSTYLE
1002
{
1070
   172
1070
     1
1070
    40
1040
20.0
1070
   271
1070
     0
1070
   143
1040
0.039
1002
}
  0
DIMENSION
  5
801C
330
19
100
AcDbEntity
  8
3
100
AcDbDimension
  2
*D19
 10
1819.605118353894
 20
1186.081783633748
 30
0.0
 11
1642.105118353894
 21
1236.081783633748
 31
0.0
 70
    32
 71
     5
 42
354.9999999999991
  3
IGA
100
AcDbAlignedDimension
 13
1464.605118353895
 23
1317.151935430185
 33
0.0
 14
1819.605118353894
 24
1317.151935430185
 34
0.0
100
AcDbRotatedDimension
1001
ACAD
1000
DSTYLE
1002
{
1070
   172
1070
     1
1070
    40
1040
20.0
1070
   271
1070
     0
1070
   143
1040
0.039
1002
}
  0
DIMENSION
  5
8029
330
19
100
AcDbEntity
  8
3
100
AcDbDimension
  2
*D20
 10
3329.698443168352
 20
1186.081783633748
 30
0.0
 11
3076.198443168352
 21
1236.081783633748
 31
0.0
 70
    32
 71
     5
 42
506.9999999999995
  3
IGA
100
AcDbAlignedDimension
 13
2822.698443168352
 23
1317.151935430185
 33
0.0
 14
3329.698443168352
 24
1317.151935430185
 34
0.0
100
AcDbRotatedDimension
1001
ACAD
1000
DSTYLE
1002
{
1070
   172
1070
     1
1070
    40
1040
20.0
1070
   271
1070
     0
1070
   143
1040
0.039
1002
}
  0
DIMENSION
  5
8036
330
19
100
AcDbEntity
  8
3
100
AcDbDimension
  2
*D21
 10
3747.698443168353
 20
1186.081783633748
 30
0.0
 11
3538.698443168352
 21
1236.081783633748
 31
0.0
 70
    32
 71
     5
 42
418.0000000000005
  3
IGA
100
AcDbAlignedDimension
 13
3329.698443168352
 23
1317.151935430185
 33
0.0
 14
3747.698443168353
 24
1317.151935430185
 34
0.0
100
AcDbRotatedDimension
1001
ACAD
1000
DSTYLE
1002
{
1070
   172
1070
     1
1070
    40
1040
20.0
1070
   271
1070
     0
1070
   143
1040
0.039
1002
}
  0
DIMENSION
  5
8053
330
19
100
AcDbEntity
  8
3
100
AcDbDimension
  2
*D23
 10
2209.530128939601
 20
2592.151935430185
 30
0.0
 11
2159.530128939601
 21
2392.151935430185
 31
0.0
 70
    32
 71
     5
 42
-1.0
  3
IGA
100
AcDbAlignedDimension
 13
1930.294726213629
 23
2192.151935430185
 33
0.0
 14
1384.098701154164
 24
2592.151935430185
 34
0.0
 50
90.0
100
AcDbRotatedDimension
1001
ACAD
1000
DSTYLE
1002
{
1070
   172
1070
     1
1070
    40
1040
20.0
1070
   271
1070
     0
1070
   143
1040
0.039
1002
}
  0
DIMENSION
  5
806B
330
19
100
AcDbEntity
  8
3
100
AcDbDimension
  2
*D24
 10
2208.37279662431
 20
1472.151935430185
 30
0.0
 11
2303.754874718085
 21
1432.151935430185
 31
0.0
 70
   160
 71
     5
 42
80.0
  3
IGA
100
AcDbAlignedDimension
 13
1819.605118353894
 23
1392.151935430185
 33
0.0
 14
1819.605118353894
 24
1472.151935430185
 34
0.0
 50
90.0
100
AcDbRotatedDimension
1001
ACAD
1000
DSTYLE
1002
{
1070
     3
1000
(<>)
1070
    40
1040
20.0
1070
    75
1070
     1
1070
    76
1070
     1
1070
   143
1040
0.039
1070
   172
1070
     1
1070
   271
1070
     0
1070
   343
1005
8037
1070
   344
1005
8037
1002
}
  0
DIMENSION
  5
8078
330
19
100
AcDbEntity
  8
3
100
AcDbDimension
  2
*D25
 10
2356.517625273904
 20
1317.151935430185
 30
0.0
 11
2290.803339559618
 21
1954.651935430185
 31
0.0
 70
    32
 71
     5
 42
1274.999999999999
  3
IGA
100
AcDbAlignedDimension
 13
1394.098701154165
 23
2592.151935430185
 33
0.0
 14
1819.605118353894
 24
1317.151935430185
 34
0.0
 50
90.0
100
AcDbRotatedDimension
1001
ACAD
1000
DSTYLE
1002
{
1070
   172
1070
     1
1070
    40
1040
20.0
1070
     3
1000
(<>)
1070
   271
1070
     0
1070
   143
1040
0.039
1002
}
  0
ENDSEC
  0
SECTION
  2
OBJECTS
  0
DICTIONARY
  5
C
330
0
100
AcDbDictionary
281
     1
  3
ACAD_CIP_PREVIOUS_PRODUCT_INFO
350
8144
  3
ACAD_COLOR
350
8127
  3
ACAD_DETAILVIEWSTYLE
350
8140
  3
ACAD_GROUP
350
D
  3
ACAD_LAYOUT
350
8082
  3
ACAD_MATERIAL
350
80F5
  3
ACAD_MLEADERSTYLE
350
813C
  3
ACAD_MLINESTYLE
350
E
  3
ACAD_PLOTSETTINGS
350
8083
  3
ACAD_PLOTSTYLENAME
350
8080
  3
ACAD_SCALELIST
350
812A
  3
ACAD_SECTIONVIEWSTYLE
350
813E
  3
ACAD_TABLESTYLE
350
8128
  3
ACAD_VISUALSTYLE
350
810E
  3
ACDB_RECOMPOSE_DATA
350
8213
  3
AcDbVariableDictionary
350
81EC
  3
AcDsDecomposeData
350
821A
  3
DWGPROPS
350
8214
  0
DICTIONARY
  5
8188
330
2
100
AcDbDictionary
280
     1
281
     1
  3
ACAD_LAYERSTATES
360
8189
  0
DICTIONARY
  5
817B
330
F
100
AcDbDictionary
280
     1
281
     1
  3
ADSK_XREC_LAYER_RECONCILED
360
817C
  0
DICTIONARY
  5
817D
330
31
100
AcDbDictionary
280
     1
281
     1
  3
ADSK_XREC_LAYER_RECONCILED
360
817E
  0
DICTIONARY
  5
817F
330
76D0
100
AcDbDictionary
280
     1
281
     1
  3
ADSK_XREC_LAYER_RECONCILED
360
8180
  0
DICTIONARY
  5
8181
330
76D1
100
AcDbDictionary
280
     1
281
     1
  3
ADSK_XREC_LAYER_RECONCILED
360
8182
  0
DICTIONARY
  5
8183
330
76D2
100
AcDbDictionary
280
     1
281
     1
  3
ADSK_XREC_LAYER_RECONCILED
360
8184
  0
DICTIONARY
  5
80AF
330
19
100
AcDbDictionary
280
     1
281
     1
  3
ACAD_LAYOUTSELFREF
360
80B0
  0
DICTIONARY
  5
80AD
330
16
100
AcDbDictionary
280
     1
281
     1
  3
ACAD_LAYOUTSELFREF
360
80AE
  0
XRECORD
  5
8144
102
{ACAD_REACTORS
330
C
102
}
330
C
100
AcDbXrecord
280
     1
300
ACDLT
300
2015
300
INVLTS_F_S
  0
DICTIONARY
  5
8127
102
{ACAD_REACTORS
330
C
102
}
330
C
100
AcDbDictionary
281
     1
  0
DICTIONARY
  5
8140
102
{ACAD_REACTORS
330
C
102
}
330
C
100
AcDbDictionary
281
     1
  3
Metric50
350
8141
  0
DICTIONARY
  5
D
102
{ACAD_REACTORS
330
C
102
}
330
C
100
AcDbDictionary
281
     1
  0
DICTIONARY
  5
8082
102
{ACAD_REACTORS
330
C
102
}
330
C
100
AcDbDictionary
281
     1
  3
Model
350
8084
  3
ﾚｲｱｳﾄ1
350
8085
  0
DICTIONARY
  5
80F5
102
{ACAD_REACTORS
330
C
102
}
330
C
100
AcDbDictionary
281
     1
  3
ByBlock
350
80FE
  3
ByLayer
350
80F6
  3
Global
350
8106
  0
DICTIONARY
  5
813C
102
{ACAD_REACTORS
330
C
102
}
330
C
100
AcDbDictionary
281
     1
  3
Standard
350
813D
  0
DICTIONARY
  5
E
102
{ACAD_REACTORS
330
C
102
}
330
C
100
AcDbDictionary
281
     1
  3
STANDARD
350
1C
  0
DICTIONARY
  5
8083
102
{ACAD_REACTORS
330
C
102
}
330
C
100
AcDbDictionary
281
     1
  0
ACDBDICTIONARYWDFLT
  5
8080
102
{ACAD_REACTORS
330
C
102
}
330
C
100
AcDbDictionary
281
     1
  3
Normal
350
8081
100
AcDbDictionaryWithDefault
340
8081
  0
DICTIONARY
  5
812A
102
{ACAD_REACTORS
330
C
102
}
330
C
100
AcDbDictionary
281
     1
  3
A0
350
812B
  3
A1
350
812C
  3
A2
350
812D
  3
A3
350
812E
  3
A4
350
812F
  3
A5
350
8130
  3
A6
350
8131
  3
A7
350
8132
  3
A8
350
8133
  3
A9
350
8134
  3
B0
350
8135
  3
B1
350
8136
  3
B2
350
8137
  3
B3
350
8138
  3
B4
350
8139
  3
B5
350
813A
  3
B6
350
813B
  0
DICTIONARY
  5
813E
102
{ACAD_REACTORS
330
C
102
}
330
C
100
AcDbDictionary
281
     1
  3
Metric50
350
813F
  0
DICTIONARY
  5
8128
102
{ACAD_REACTORS
330
C
102
}
330
C
100
AcDbDictionary
281
     1
  3
Standard
350
8129
  0
DICTIONARY
  5
810E
102
{ACAD_REACTORS
330
C
102
}
330
C
100
AcDbDictionary
281
     1
  3
2dWireframe
350
8114
  3
Basic
350
8113
  3
Brighten
350
811A
  3
ColorChange
350
811E
  3
Conceptual
350
8117
  3
Dim
350
8119
  3
EdgeColorOff
350
8126
  3
Facepattern
350
811D
  3
Flat
350
810F
  3
FlatWithEdges
350
8110
  3
Gouraud
350
8111
  3
GouraudWithEdges
350
8112
  3
Hidden
350
8116
  3
JitterOff
350
8124
  3
Linepattern
350
811C
  3
OverhangOff
350
8125
  3
Realistic
350
8118
  3
Shaded
350
8123
  3
Shaded with edges
350
8122
  3
Shades of Gray
350
811F
  3
Sketchy
350
8120
  3
Thicken
350
811B
  3
Wireframe
350
8115
  3
X-Ray
350
8121
  0
XRECORD
  5
8213
102
{ACAD_REACTORS
330
C
102
}
330
C
100
AcDbXrecord
280
     1
 90
        1
330
7CB3
330
7CD8
330
7CE5
330
7CF7
330
8129
  0
DICTIONARY
  5
81EC
102
{ACAD_REACTORS
330
C
102
}
330
C
100
AcDbDictionary
281
     1
  3
CANNOSCALE
350
81F2
  3
CMLEADERSTYLE
350
81EE
  3
CTABLESTYLE
350
81ED
  3
CVIEWDETAILSTYLE
350
81EF
  3
CVIEWSECTIONSTYLE
350
81F0
  3
DIMASSOC
350
820F
  3
INDEXCTL
350
820E
  3
LAYEREVAL
350
81F4
  3
LAYERNOTIFY
350
81F5
  3
LIGHTINGUNITS
350
81F3
  3
MSLTSCALE
350
81F1
  3
SORTENTS
350
820D
  3
XCLIPFRAME
350
8210
  0
DICTIONARY
  5
821A
102
{ACAD_REACTORS
330
C
102
}
330
C
100
AcDbDictionary
281
     1
  3
AcDsRecords
350
821C
  3
AcDsSchemas
350
821B
1001
ACAD
1070
     2
  0
XRECORD
  5
8214
102
{ACAD_REACTORS
330
C
102
}
330
C
100
AcDbXrecord
280
     1
  1
DWGPROPS COOKIE
  2

  3

  4

  6

  7

  8
yasukiyo.ogawa
  9

300
=
301
=
302
=
303
=
304
=
305
=
306
=
307
=
308
=
309
=
 40
0.0687995601851852
 41
2451376.571122107
 42
2460262.595051482
  1

 90
        0
  0
DICTIONARY
  5
8189
102
{ACAD_REACTORS
330
8188
102
}
330
8188
100
AcDbDictionary
281
     1
  0
XRECORD
  5
817C
102
{ACAD_REACTORS
330
817B
102
}
330
817B
100
AcDbXrecord
280
     1
290
     1
  0
XRECORD
  5
817E
102
{ACAD_REACTORS
330
817D
102
}
330
817D
100
AcDbXrecord
280
     1
290
     1
  0
XRECORD
  5
8180
102
{ACAD_REACTORS
330
817F
102
}
330
817F
100
AcDbXrecord
280
     1
290
     1
  0
XRECORD
  5
8182
102
{ACAD_REACTORS
330
8181
102
}
330
8181
100
AcDbXrecord
280
     1
290
     1
  0
XRECORD
  5
8184
102
{ACAD_REACTORS
330
8183
102
}
330
8183
100
AcDbXrecord
280
     1
290
     1
  0
XRECORD
  5
80B0
102
{ACAD_REACTORS
330
80AF
102
}
330
80AF
100
AcDbXrecord
280
     1
340
19
  0
XRECORD
  5
80AE
102
{ACAD_REACTORS
330
80AD
102
}
330
80AD
100
AcDbXrecord
280
     1
340
16
  0
ACDBDETAILVIEWSTYLE
  5
8141
102
{ACAD_XDICTIONARY
360
81E9
102
}
102
{ACAD_REACTORS
330
8140
102
}
330
8140
100
AcDbModelDocViewStyle
 70
     0
  3
Metric50
290
     0
100
AcDbDetailViewStyle
 70
     0
 71
     0
 90
        3
 71
     1
340
10
 40
5.0
340
0
 40
5.0
300

 40
0.0
280
     1
 71
     2
340
15
 90
       25
 71
     3
340
10
 40
5.0
 90
        0
 40
15.0
 90
        1
300
%<\AcVar ViewDetailId>% (%<\AcVar ViewScale \f "%sn">%)
 71
     4
340
15
 90
       25
340
15
 90
       25
280
     0
  0
LAYOUT
  5
8084
102
{ACAD_XDICTIONARY
360
821D
102
}
102
{ACAD_REACTORS
330
8082
102
}
330
8082
100
AcDbPlotSettings
  1

  2
EPSON LP-9300
  4

  6

 40
0.0
 41
0.0
 42
0.0
 43
0.0
 44
0.0
 45
0.0
 46
0.0
 47
0.0
 48
0.0
 49
0.0
140
0.0
141
0.0
142
1.0
143
1.0
 70
  1712
 72
     0
 73
     0
 74
     0
  7

 75
     0
147
1.0
148
0.0
149
0.0
100
AcDbLayout
  1
Model
 70
     1
 71
     0
 10
0.0
 20
0.0
 11
12.0
 21
9.0
 12
0.0
 22
0.0
 32
0.0
 14
0.0
 24
0.0
 34
0.0
 15
0.0
 25
0.0
 35
0.0
146
0.0
 13
0.0
 23
0.0
 33
0.0
 16
1.0
 26
0.0
 36
0.0
 17
0.0
 27
1.0
 37
0.0
 76
     0
330
19
331
80F3
  0
LAYOUT
  5
8085
102
{ACAD_XDICTIONARY
360
821F
102
}
102
{ACAD_REACTORS
330
8082
102
}
330
8082
100
AcDbPlotSettings
  1

  2
EPSON LP-9300
  4

  6

 40
0.0
 41
0.0
 42
0.0
 43
0.0
 44
0.0
 45
0.0
 46
0.0
 47
0.0
 48
0.0
 49
0.0
140
0.0
141
0.0
142
1.0
143
1.0
 70
   688
 72
     0
 73
     0
 74
     5
  7

 75
    16
147
1.0
148
0.0
149
0.0
100
AcDbLayout
  1
ﾚｲｱｳﾄ1
 70
     1
 71
     1
 10
0.0
 20
0.0
 11
12.0
 21
9.0
 12
0.0
 22
0.0
 32
0.0
 14
1.000000000000000E+20
 24
1.000000000000000E+20
 34
1.000000000000000E+20
 15
-1.000000000000000E+20
 25
-1.000000000000000E+20
 35
-1.000000000000000E+20
146
0.0
 13
0.0
 23
0.0
 33
0.0
 16
1.0
 26
0.0
 36
0.0
 17
0.0
 27
1.0
 37
0.0
 76
     0
330
16
  0
MATERIAL
  5
80FE
102
{ACAD_XDICTIONARY
360
80FF
102
}
102
{ACAD_REACTORS
330
80F5
102
}
330
80F5
100
AcDbMaterial
  1
ByBlock
 72
     0
 43
0.0208333333333333
 43
0.0
 43
0.0
 43
0.0
 43
0.0
 43
0.0208333333333333
 43
0.0
 43
0.0
 43
0.0
 43
0.0
 43
1.0
 43
0.0
 43
0.0
 43
0.0
 43
0.0
 43
1.0
 77
     0
 47
0.0208333333333333
 47
0.0
 47
0.0
 47
0.0
 47
0.0
 47
0.0208333333333333
 47
0.0
 47
0.0
 47
0.0
 47
0.0
 47
1.0
 47
0.0
 47
0.0
 47
0.0
 47
0.0
 47
1.0
171
     0
 49
0.0208333333333333
 49
0.0
 49
0.0
 49
0.0
 49
0.0
 49
0.0208333333333333
 49
0.0
 49
0.0
 49
0.0
 49
0.0
 49
1.0
 49
0.0
 49
0.0
 49
0.0
 49
0.0
 49
1.0
175
     0
142
0.0208333333333333
142
0.0
142
0.0
142
0.0
142
0.0
142
0.0208333333333333
142
0.0
142
0.0
142
0.0
142
0.0
142
1.0
142
0.0
142
0.0
142
0.0
142
0.0
142
1.0
179
     0
144
0.0208333333333333
144
0.0
144
0.0
144
0.0
144
0.0
144
0.0208333333333333
144
0.0
144
0.0
144
0.0
144
0.0
144
1.0
144
0.0
144
0.0
144
0.0
144
0.0
144
1.0
147
0.0208333333333333
147
0.0
147
0.0
147
0.0
147
0.0
147
0.0208333333333333
147
0.0
147
0.0
147
0.0
147
0.0
147
1.0
147
0.0
147
0.0
147
0.0
147
0.0
147
1.0
  0
MATERIAL
  5
80F6
102
{ACAD_XDICTIONARY
360
80F7
102
}
102
{ACAD_REACTORS
330
80F5
102
}
330
80F5
100
AcDbMaterial
  1
ByLayer
 72
     0
 43
0.0208333333333333
 43
0.0
 43
0.0
 43
0.0
 43
0.0
 43
0.0208333333333333
 43
0.0
 43
0.0
 43
0.0
 43
0.0
 43
1.0
 43
0.0
 43
0.0
 43
0.0
 43
0.0
 43
1.0
 77
     0
 47
0.0208333333333333
 47
0.0
 47
0.0
 47
0.0
 47
0.0
 47
0.0208333333333333
 47
0.0
 47
0.0
 47
0.0
 47
0.0
 47
1.0
 47
0.0
 47
0.0
 47
0.0
 47
0.0
 47
1.0
171
     0
 49
0.0208333333333333
 49
0.0
 49
0.0
 49
0.0
 49
0.0
 49
0.0208333333333333
 49
0.0
 49
0.0
 49
0.0
 49
0.0
 49
1.0
 49
0.0
 49
0.0
 49
0.0
 49
0.0
 49
1.0
175
     0
142
0.0208333333333333
142
0.0
142
0.0
142
0.0
142
0.0
142
0.0208333333333333
142
0.0
142
0.0
142
0.0
142
0.0
142
1.0
142
0.0
142
0.0
142
0.0
142
0.0
142
1.0
179
     0
144
0.0208333333333333
144
0.0
144
0.0
144
0.0
144
0.0
144
0.0208333333333333
144
0.0
144
0.0
144
0.0
144
0.0
144
1.0
144
0.0
144
0.0
144
0.0
144
0.0
144
1.0
147
0.0208333333333333
147
0.0
147
0.0
147
0.0
147
0.0
147
0.0208333333333333
147
0.0
147
0.0
147
0.0
147
0.0
147
1.0
147
0.0
147
0.0
147
0.0
147
0.0
147
1.0
  0
MATERIAL
  5
8106
102
{ACAD_XDICTIONARY
360
8107
102
}
102
{ACAD_REACTORS
330
80F5
102
}
330
80F5
100
AcDbMaterial
  1
Global
 72
     0
 43
0.0208333333333333
 43
0.0
 43
0.0
 43
0.0
 43
0.0
 43
0.0208333333333333
 43
0.0
 43
0.0
 43
0.0
 43
0.0
 43
1.0
 43
0.0
 43
0.0
 43
0.0
 43
0.0
 43
1.0
 77
     0
 47
0.0208333333333333
 47
0.0
 47
0.0
 47
0.0
 47
0.0
 47
0.0208333333333333
 47
0.0
 47
0.0
 47
0.0
 47
0.0
 47
1.0
 47
0.0
 47
0.0
 47
0.0
 47
0.0
 47
1.0
171
     0
 49
0.0208333333333333
 49
0.0
 49
0.0
 49
0.0
 49
0.0
 49
0.0208333333333333
 49
0.0
 49
0.0
 49
0.0
 49
0.0
 49
1.0
 49
0.0
 49
0.0
 49
0.0
 49
0.0
 49
1.0
175
     0
142
0.0208333333333333
142
0.0
142
0.0
142
0.0
142
0.0
142
0.0208333333333333
142
0.0
142
0.0
142
0.0
142
0.0
142
1.0
142
0.0
142
0.0
142
0.0
142
0.0
142
1.0
179
     0
144
0.0208333333333333
144
0.0
144
0.0
144
0.0
144
0.0
144
0.0208333333333333
144
0.0
144
0.0
144
0.0
144
0.0
144
1.0
144
0.0
144
0.0
144
0.0
144
0.0
144
1.0
147
0.0208333333333333
147
0.0
147
0.0
147
0.0
147
0.0
147
0.0208333333333333
147
0.0
147
0.0
147
0.0
147
0.0
147
1.0
147
0.0
147
0.0
147
0.0
147
0.0
147
1.0
  0
MLEADERSTYLE
  5
813D
102
{ACAD_XDICTIONARY
360
8256
102
}
102
{ACAD_REACTORS
330
813C
102
}
330
813C
100
AcDbMLeaderStyle
170
     2
171
     1
172
     0
 90
        2
 40
0.0
 41
0.0
173
     1
 91
-1056964608
340
13
 92
       -2
290
     1
 42
2.0
291
     1
 43
0.36
  3
Standard
 44
4.0
300

342
10
174
     1
178
     6
175
     1
176
     0
 93
-1056964608
 45
4.0
292
     0
297
     0
 46
4.0
 94
-1056964608
 47
1.0
 49
1.0
140
1.0
293
     1
141
0.0
294
     1
177
     0
142
1.0
295
     0
296
     0
143
0.125
1001
ACAD_MLEADERVER
1070
     2
  0
MLINESTYLE
  5
1C
102
{ACAD_REACTORS
330
E
102
}
330
E
100
AcDbMlineStyle
  2
STANDARD
 70
     0
  3

 62
     0
 51
90.0
 52
90.0
 71
     2
 49
0.5
 62
   256
  6
BYLAYER
 49
-0.5
 62
   256
  6
BYLAYER
  0
ACDBPLACEHOLDER
  5
8081
102
{ACAD_REACTORS
330
8080
102
}
330
8080
  0
SCALE
  5
812B
102
{ACAD_REACTORS
330
812A
102
}
330
812A
100
AcDbScale
 70
     0
300
1:1
140
1.0
141
1.0
290
     1
  0
SCALE
  5
812C
102
{ACAD_REACTORS
330
812A
102
}
330
812A
100
AcDbScale
 70
     0
300
1:2
140
1.0
141
2.0
290
     0
  0
SCALE
  5
812D
102
{ACAD_REACTORS
330
812A
102
}
330
812A
100
AcDbScale
 70
     0
300
1:4
140
1.0
141
4.0
290
     0
  0
SCALE
  5
812E
102
{ACAD_REACTORS
330
812A
102
}
330
812A
100
AcDbScale
 70
     0
300
1:5
140
1.0
141
5.0
290
     0
  0
SCALE
  5
812F
102
{ACAD_REACTORS
330
812A
102
}
330
812A
100
AcDbScale
 70
     0
300
1:8
140
1.0
141
8.0
290
     0
  0
SCALE
  5
8130
102
{ACAD_REACTORS
330
812A
102
}
330
812A
100
AcDbScale
 70
     0
300
1:10
140
1.0
141
10.0
290
     0
  0
SCALE
  5
8131
102
{ACAD_REACTORS
330
812A
102
}
330
812A
100
AcDbScale
 70
     0
300
1:16
140
1.0
141
16.0
290
     0
  0
SCALE
  5
8132
102
{ACAD_REACTORS
330
812A
102
}
330
812A
100
AcDbScale
 70
     0
300
1:20
140
1.0
141
20.0
290
     0
  0
SCALE
  5
8133
102
{ACAD_REACTORS
330
812A
102
}
330
812A
100
AcDbScale
 70
     0
300
1:30
140
1.0
141
30.0
290
     0
  0
SCALE
  5
8134
102
{ACAD_REACTORS
330
812A
102
}
330
812A
100
AcDbScale
 70
     0
300
1:40
140
1.0
141
40.0
290
     0
  0
SCALE
  5
8135
102
{ACAD_REACTORS
330
812A
102
}
330
812A
100
AcDbScale
 70
     0
300
1:50
140
1.0
141
50.0
290
     0
  0
SCALE
  5
8136
102
{ACAD_REACTORS
330
812A
102
}
330
812A
100
AcDbScale
 70
     0
300
1:100
140
1.0
141
100.0
290
     0
  0
SCALE
  5
8137
102
{ACAD_REACTORS
330
812A
102
}
330
812A
100
AcDbScale
 70
     0
300
2:1
140
2.0
141
1.0
290
     0
  0
SCALE
  5
8138
102
{ACAD_REACTORS
330
812A
102
}
330
812A
100
AcDbScale
 70
     0
300
4:1
140
4.0
141
1.0
290
     0
  0
SCALE
  5
8139
102
{ACAD_REACTORS
330
812A
102
}
330
812A
100
AcDbScale
 70
     0
300
8:1
140
8.0
141
1.0
290
     0
  0
SCALE
  5
813A
102
{ACAD_REACTORS
330
812A
102
}
330
812A
100
AcDbScale
 70
     0
300
10:1
140
10.0
141
1.0
290
     0
  0
SCALE
  5
813B
102
{ACAD_REACTORS
330
812A
102
}
330
812A
100
AcDbScale
 70
     0
300
100:1
140
100.0
141
1.0
290
     0
  0
ACDBSECTIONVIEWSTYLE
  5
813F
102
{ACAD_XDICTIONARY
360
81E7
102
}
102
{ACAD_REACTORS
330
813E
102
}
330
813E
100
AcDbModelDocViewStyle
 70
     0
  3
Metric50
290
     0
100
AcDbSectionViewStyle
 70
     0
 71
     0
 90
      102
 71
     1
340
10
 40
5.0
340
0
340
0
 40
5.0
300
I, O, Q, S, X, Z
 40
10.0
 90
        0
 40
2.5
 90
        0
 71
     2
340
15
 90
       25
340
15
 90
       50
 40
5.0
 40
2.5
 40
5.0
 71
     3
340
10
 40
5.0
 90
        0
 40
15.0
 90
        1
300
%<\AcVar ViewSectionStartId>%-%<\AcVar ViewSectionEndId>% (%<\AcVar ViewScale \f "%sn">%)
 71
     4
300
ANSI31
 40
1.0
 90
        0
290
     0
290
     0
 90
        6
 40
0.0
 40
1.570796326794896
 40
0.2617993877991494
 40
1.308996938995747
 40
-0.2617993877991494
 40
1.832595714594046
  0
TABLESTYLE
  5
8129
102
{ACAD_XDICTIONARY
360
8211
102
}
102
{ACAD_REACTORS
330
8128
102
}
330
8128
100
AcDbTableStyle
  3
Standard
 70
     0
 71
     0
 40
1.5
 41
1.5
280
     0
281
     0
  7
STANDARD
140
4.5
170
     2
 62
     0
 63
     7
283
     0
274
    -2
284
     1
 64
     0
275
    -2
285
     1
 65
     0
276
    -2
286
     1
 66
     0
277
    -2
287
     1
 67
     0
278
    -2
288
     1
 68
     0
279
    -2
289
     1
 69
     0
  7
STANDARD
140
6.0
170
     5
 62
     0
 63
     7
283
     0
274
    -2
284
     1
 64
     0
275
    -2
285
     1
 65
     0
276
    -2
286
     1
 66
     0
277
    -2
287
     1
 67
     0
278
    -2
288
     1
 68
     0
279
    -2
289
     1
 69
     0
  7
STANDARD
140
4.5
170
     5
 62
     0
 63
     7
283
     0
274
    -2
284
     1
 64
     0
275
    -2
285
     1
 65
     0
276
    -2
286
     1
 66
     0
277
    -2
287
     1
 67
     0
278
    -2
288
     1
 68
     0
279
    -2
289
     1
 69
     0
  0
VISUALSTYLE
  5
8114
102
{ACAD_XDICTIONARY
360
822E
102
}
102
{ACAD_REACTORS
330
810E
102
}
330
810E
100
AcDbVisualStyle
  2
2dWireframe
 70
     4
 71
     0
 72
     2
 73
     0
 90
        0
 40
-0.6
 41
-30.0
 62
     5
 63
     7
 74
     1
 91
        4
 64
     7
 65
   257
 75
     1
175
     1
 42
1.0
 92
        0
 66
   257
 43
1.0
 76
     1
 77
     6
 78
     2
 67
     7
 79
     5
170
     0
171
     0
290
     0
174
     0
 93
        1
 44
0.0
173
     0
291
     0
 45
0.0
1001
ACAD
1000
AcDbSavedByObjectVersion
1070
     0
  0
VISUALSTYLE
  5
8113
102
{ACAD_XDICTIONARY
360
822C
102
}
102
{ACAD_REACTORS
330
810E
102
}
330
810E
100
AcDbVisualStyle
  2
Basic
 70
     7
 71
     1
 72
     0
 73
     1
 90
        0
 40
-0.6
 41
-30.0
 62
     5
 63
     7
 74
     0
 91
        4
 64
     7
 65
   257
 75
     1
175
     1
 42
1.0
 92
        8
 66
     7
 43
1.0
 76
     1
 77
     6
 78
     2
 67
     7
 79
     5
170
     0
171
     0
290
     0
174
     0
 93
        1
 44
0.0
173
     0
291
     1
 45
0.0
1001
ACAD
1000
AcDbSavedByObjectVersion
1070
     0
  0
VISUALSTYLE
  5
811A
102
{ACAD_XDICTIONARY
360
823A
102
}
102
{ACAD_REACTORS
330
810E
102
}
330
810E
100
AcDbVisualStyle
  2
Brighten
 70
    12
 71
     2
 72
     2
 73
     0
 90
        0
 40
-0.6
 41
-30.0
 62
     5
 63
     7
 74
     1
 91
        4
 64
     7
 65
   257
 75
     1
175
     1
 42
1.0
 92
        8
 66
     7
 43
1.0
 76
     1
 77
     6
 78
     2
 67
     7
 79
     5
170
     0
171
     0
290
     0
174
     0
 93
        1
 44
50.0
173
     0
291
     1
 45
0.0
1001
ACAD
1000
AcDbSavedByObjectVersion
1070
     0
  0
VISUALSTYLE
  5
811E
102
{ACAD_XDICTIONARY
360
8242
102
}
102
{ACAD_REACTORS
330
810E
102
}
330
810E
100
AcDbVisualStyle
  2
ColorChange
 70
    16
 71
     2
 72
     2
 73
     3
 90
        0
 40
-0.6
 41
-30.0
 62
     5
 63
     8
 74
     1
 91
        4
 64
     7
 65
   257
 75
     1
175
     1
 42
1.0
 92
        8
 66
     8
 43
1.0
 76
     1
 77
     6
 78
     2
 67
     7
 79
     5
170
     0
171
     0
290
     0
174
     0
 93
        1
 44
0.0
173
     0
291
     1
 45
0.0
1001
ACAD
1000
AcDbSavedByObjectVersion
1070
     0
  0
VISUALSTYLE
  5
8117
102
{ACAD_XDICTIONARY
360
8234
102
}
102
{ACAD_REACTORS
330
810E
102
}
330
810E
100
AcDbVisualStyle
  2
Conceptual
 70
     9
 71
     3
 72
     2
 73
     0
 90
        0
 40
-0.6
 41
-30.0
 62
     5
 63
     7
 74
     2
 91
        2
 64
     7
 65
   257
 75
     1
175
     1
 42
179.0
 92
        8
 66
     7
 43
1.0
 76
     1
 77
     6
 78
     2
 67
     7
 79
     3
170
     0
171
     0
290
     0
174
     0
 93
        1
 44
0.0
173
     0
291
     0
 45
0.0
1001
ACAD
1000
AcDbSavedByObjectVersion
1070
     0
  0
VISUALSTYLE
  5
8119
102
{ACAD_XDICTIONARY
360
8238
102
}
102
{ACAD_REACTORS
330
810E
102
}
330
810E
100
AcDbVisualStyle
  2
Dim
 70
    11
 71
     2
 72
     2
 73
     0
 90
        0
 40
-0.6
 41
-30.0
 62
     5
 63
     7
 74
     1
 91
        4
 64
     7
 65
   257
 75
     1
175
     1
 42
1.0
 92
        8
 66
     7
 43
1.0
 76
     1
 77
     6
 78
     2
 67
     7
 79
     5
170
     0
171
     0
290
     0
174
     0
 93
        1
 44
-50.0
173
     0
291
     1
 45
0.0
1001
ACAD
1000
AcDbSavedByObjectVersion
1070
     0
  0
VISUALSTYLE
  5
8126
102
{ACAD_XDICTIONARY
360
8252
102
}
102
{ACAD_REACTORS
330
810E
102
}
330
810E
100
AcDbVisualStyle
  2
EdgeColorOff
 70
    22
 71
     2
 72
     2
 73
     0
 90
        0
 40
-0.6
 41
-30.0
 62
     5
 63
     7
 74
     1
 91
        4
 64
     7
 65
   257
 75
     1
175
     1
 42
1.0
 92
        8
 66
     7
 43
1.0
 76
     1
 77
     6
 78
     2
 67
     7
 79
     5
170
     0
171
     0
290
     0
174
     0
 93
        1
 44
0.0
173
     0
291
     1
 45
0.0
1001
ACAD
1000
AcDbSavedByObjectVersion
1070
     0
  0
VISUALSTYLE
  5
811D
102
{ACAD_XDICTIONARY
360
8240
102
}
102
{ACAD_REACTORS
330
810E
102
}
330
810E
100
AcDbVisualStyle
  2
Facepattern
 70
    15
 71
     2
 72
     2
 73
     0
 90
        0
 40
-0.6
 41
-30.0
 62
     5
 63
     7
 74
     1
 91
        4
 64
     7
 65
   257
 75
     1
175
     1
 42
1.0
 92
        8
 66
     7
 43
1.0
 76
     1
 77
     6
 78
     2
 67
     7
 79
     5
170
     0
171
     0
290
     0
174
     0
 93
        1
 44
0.0
173
     0
291
     1
 45
0.0
1001
ACAD
1000
AcDbSavedByObjectVersion
1070
     0
  0
VISUALSTYLE
  5
810F
102
{ACAD_XDICTIONARY
360
8224
102
}
102
{ACAD_REACTORS
330
810E
102
}
330
810E
100
AcDbVisualStyle
  2
Flat
 70
     0
 71
     2
 72
     1
 73
     1
 90
        2
 40
-0.6
 41
30.0
 62
     5
 63
     7
 74
     0
 91
        0
 64
     7
 65
   257
 75
     1
175
     1
 42
1.0
 92
        8
 66
     7
 43
1.0
 76
     1
 77
     6
 78
     2
 67
     7
 79
     5
170
     0
171
     0
290
     0
174
     0
 93
       13
 44
0.0
173
     0
291
     1
 45
0.0
1001
ACAD
1000
AcDbSavedByObjectVersion
1070
     0
  0
VISUALSTYLE
  5
8110
102
{ACAD_XDICTIONARY
360
8226
102
}
102
{ACAD_REACTORS
330
810E
102
}
330
810E
100
AcDbVisualStyle
  2
FlatWithEdges
 70
     1
 71
     2
 72
     1
 73
     1
 90
        2
 40
-0.6
 41
30.0
 62
     5
 63
     7
 74
     1
 91
        0
 64
     7
 65
   257
 75
     1
175
     1
 42
1.0
 92
        0
 66
   257
 43
1.0
 76
     1
 77
     6
 78
     2
 67
     7
 79
     5
170
     0
171
     0
290
     0
174
     0
 93
       13
 44
0.0
173
     0
291
     1
 45
0.0
1001
ACAD
1000
AcDbSavedByObjectVersion
1070
     0
  0
VISUALSTYLE
  5
8111
102
{ACAD_XDICTIONARY
360
8228
102
}
102
{ACAD_REACTORS
330
810E
102
}
330
810E
100
AcDbVisualStyle
  2
Gouraud
 70
     2
 71
     2
 72
     2
 73
     1
 90
        2
 40
-0.6
 41
30.0
 62
     5
 63
     7
 74
     0
 91
        0
 64
     7
 65
   257
 75
     1
175
     1
 42
1.0
 92
        0
 66
     7
 43
1.0
 76
     1
 77
     6
 78
     2
 67
     7
 79
     5
170
     0
171
     0
290
     0
174
     0
 93
       13
 44
0.0
173
     0
291
     1
 45
0.0
1001
ACAD
1000
AcDbSavedByObjectVersion
1070
     0
  0
VISUALSTYLE
  5
8112
102
{ACAD_XDICTIONARY
360
822A
102
}
102
{ACAD_REACTORS
330
810E
102
}
330
810E
100
AcDbVisualStyle
  2
GouraudWithEdges
 70
     3
 71
     2
 72
     2
 73
     1
 90
        2
 40
-0.6
 41
30.0
 62
     5
 63
     7
 74
     1
 91
        0
 64
     7
 65
   257
 75
     1
175
     1
 42
1.0
 92
        0
 66
   257
 43
1.0
 76
     1
 77
     6
 78
     2
 67
     7
 79
     5
170
     0
171
     0
290
     0
174
     0
 93
       13
 44
0.0
173
     0
291
     1
 45
0.0
1001
ACAD
1000
AcDbSavedByObjectVersion
1070
     0
  0
VISUALSTYLE
  5
8116
102
{ACAD_XDICTIONARY
360
8232
102
}
102
{ACAD_REACTORS
330
810E
102
}
330
810E
100
AcDbVisualStyle
  2
Hidden
 70
     6
 71
     1
 72
     2
 73
     2
 90
        0
 40
-0.6
 41
-30.0
 62
     5
 63
     7
 74
     2
 91
        2
 64
     7
 65
   257
 75
     2
175
     1
 42
40.0
 92
        0
 66
   257
 43
1.0
 76
     1
 77
     6
 78
     2
 67
     7
 79
     3
170
     0
171
     0
290
     0
174
     0
 93
        1
 44
0.0
173
     0
291
     0
 45
0.0
1001
ACAD
1000
AcDbSavedByObjectVersion
1070
     0
  0
VISUALSTYLE
  5
8124
102
{ACAD_XDICTIONARY
360
824E
102
}
102
{ACAD_REACTORS
330
810E
102
}
330
810E
100
AcDbVisualStyle
  2
JitterOff
 70
    20
 71
     2
 72
     2
 73
     0
 90
        0
 40
-0.6
 41
-30.0
 62
     5
 63
     7
 74
     1
 91
        4
 64
     7
 65
   257
 75
     1
175
     1
 42
1.0
 92
       10
 66
     7
 43
1.0
 76
     1
 77
     6
 78
     2
 67
     7
 79
     5
170
     0
171
     0
290
     0
174
     0
 93
        1
 44
0.0
173
     0
291
     1
 45
0.0
1001
ACAD
1000
AcDbSavedByObjectVersion
1070
     0
  0
VISUALSTYLE
  5
811C
102
{ACAD_XDICTIONARY
360
823E
102
}
102
{ACAD_REACTORS
330
810E
102
}
330
810E
100
AcDbVisualStyle
  2
Linepattern
 70
    14
 71
     2
 72
     2
 73
     0
 90
        0
 40
-0.6
 41
-30.0
 62
     5
 63
     7
 74
     1
 91
        4
 64
     7
 65
   257
 75
     7
175
     7
 42
1.0
 92
        8
 66
     7
 43
1.0
 76
     1
 77
     6
 78
     2
 67
     7
 79
     5
170
     0
171
     0
290
     0
174
     0
 93
        1
 44
0.0
173
     0
291
     1
 45
0.0
1001
ACAD
1000
AcDbSavedByObjectVersion
1070
     0
  0
VISUALSTYLE
  5
8125
102
{ACAD_XDICTIONARY
360
8250
102
}
102
{ACAD_REACTORS
330
810E
102
}
330
810E
100
AcDbVisualStyle
  2
OverhangOff
 70
    21
 71
     2
 72
     2
 73
     0
 90
        0
 40
-0.6
 41
-30.0
 62
     5
 63
     7
 74
     1
 91
        4
 64
     7
 65
   257
 75
     1
175
     1
 42
1.0
 92
        9
 66
     7
 43
1.0
 76
     1
 77
     6
 78
     2
 67
     7
 79
     5
170
     0
171
     0
290
     0
174
     0
 93
        1
 44
0.0
173
     0
291
     1
 45
0.0
1001
ACAD
1000
AcDbSavedByObjectVersion
1070
     0
  0
VISUALSTYLE
  5
8118
102
{ACAD_XDICTIONARY
360
8236
102
}
102
{ACAD_REACTORS
330
810E
102
}
330
810E
100
AcDbVisualStyle
  2
Realistic
 70
     8
 71
     2
 72
     3
 73
     0
 90
        2
 40
-0.6
 41
30.0
 62
     5
 63
     7
 74
     0
 91
        0
 64
     7
 65
   257
 75
     1
175
     1
 42
1.0
 92
        8
 66
   257
 43
1.0
 76
     1
 77
     6
 78
     2
 67
     7
 79
     3
170
     0
171
     0
290
     0
174
     0
 93
       13
 44
0.0
173
     0
291
     0
 45
0.0
1001
ACAD
1000
AcDbSavedByObjectVersion
1070
     0
  0
VISUALSTYLE
  5
8123
102
{ACAD_XDICTIONARY
360
824C
102
}
102
{ACAD_REACTORS
330
810E
102
}
330
810E
100
AcDbVisualStyle
  2
Shaded
 70
    27
 71
     2
 72
     2
 73
     1
 90
        2
 40
-0.6
 41
30.0
 62
     5
 63
     7
 74
     0
 91
        4
 64
     7
 65
   257
 75
     1
175
     1
 42
1.0
 92
        8
 66
   257
 43
1.0
 76
     1
 77
     6
 78
     2
 67
     8
 79
     3
170
     0
171
     0
290
     0
174
     0
 93
        5
 44
0.0
173
     0
291
     0
 45
0.0
1001
ACAD
1000
AcDbSavedByObjectVersion
1070
     0
  0
VISUALSTYLE
  5
8122
102
{ACAD_XDICTIONARY
360
824A
102
}
102
{ACAD_REACTORS
330
810E
102
}
330
810E
100
AcDbVisualStyle
  2
Shaded with edges
 70
    26
 71
     2
 72
     2
 73
     1
 90
        2
 40
-0.6
 41
30.0
 62
     5
 63
     7
 74
     1
 91
       10
 64
     7
 65
   257
 75
     2
175
     1
 42
1.0
 92
        8
 66
   257
 43
1.0
 76
     1
 77
     6
 78
     2
 67
     7
 79
     3
170
     0
171
     0
290
     0
174
     0
 93
        5
 44
0.0
173
     0
291
     0
 45
0.0
1001
ACAD
1000
AcDbSavedByObjectVersion
1070
     0
  0
VISUALSTYLE
  5
811F
102
{ACAD_XDICTIONARY
360
8244
102
}
102
{ACAD_REACTORS
330
810E
102
}
330
810E
100
AcDbVisualStyle
  2
Shades of Gray
 70
    23
 71
     2
 72
     2
 73
     3
 90
        0
 40
-0.6
 41
-30.0
 62
     5
 63
     7
 74
     2
 91
        2
 64
     7
 65
     7
 75
     1
175
     1
 42
40.0
 92
        8
 66
     7
 43
1.0
 76
     1
 77
     6
 78
     2
 67
     7
 79
     3
170
     0
171
     0
290
     0
174
     0
 93
        1
 44
0.0
173
     0
291
     0
 45
0.0
1001
ACAD
1000
AcDbSavedByObjectVersion
1070
     0
  0
VISUALSTYLE
  5
8120
102
{ACAD_XDICTIONARY
360
8246
102
}
102
{ACAD_REACTORS
330
810E
102
}
330
810E
100
AcDbVisualStyle
  2
Sketchy
 70
    24
 71
     1
 72
     2
 73
     2
 90
        0
 40
-0.6
 41
-30.0
 62
     5
 63
     7
 74
     2
 91
        2
 64
     7
 65
     7
 75
     1
175
     1
 42
40.0
 92
       11
 66
     7
 43
1.0
 76
     1
 77
     6
 78
     2
 67
     7
 79
     6
170
     0
171
     0
290
     0
174
     0
 93
        1
 44
0.0
173
     0
291
     0
 45
0.0
1001
ACAD
1000
AcDbSavedByObjectVersion
1070
     0
  0
VISUALSTYLE
  5
811B
102
{ACAD_XDICTIONARY
360
823C
102
}
102
{ACAD_REACTORS
330
810E
102
}
330
810E
100
AcDbVisualStyle
  2
Thicken
 70
    13
 71
     2
 72
     2
 73
     0
 90
        0
 40
-0.6
 41
-30.0
 62
     5
 63
     7
 74
     1
 91
        4
 64
     7
 65
   257
 75
     1
175
     1
 42
1.0
 92
       12
 66
     7
 43
1.0
 76
     1
 77
     6
 78
     2
 67
     7
 79
     5
170
     0
171
     0
290
     0
174
     0
 93
        1
 44
0.0
173
     0
291
     1
 45
0.0
1001
ACAD
1000
AcDbSavedByObjectVersion
1070
     0
  0
VISUALSTYLE
  5
8115
102
{ACAD_XDICTIONARY
360
8230
102
}
102
{ACAD_REACTORS
330
810E
102
}
330
810E
100
AcDbVisualStyle
  2
Wireframe
 70
     5
 71
     0
 72
     2
 73
     0
 90
        0
 40
-0.6
 41
-30.0
 62
     5
 63
     7
 74
     1
 91
        4
 64
     7
 65
   257
 75
     1
175
     1
 42
1.0
 92
        0
 66
   257
 43
1.0
 76
     1
 77
     6
 78
     2
 67
     7
 79
     3
170
     0
171
     0
290
     0
174
     0
 93
        1
 44
0.0
173
     0
291
     0
 45
0.0
1001
ACAD
1000
AcDbSavedByObjectVersion
1070
     0
  0
VISUALSTYLE
  5
8121
102
{ACAD_XDICTIONARY
360
8248
102
}
102
{ACAD_REACTORS
330
810E
102
}
330
810E
100
AcDbVisualStyle
  2
X-Ray
 70
    25
 71
     2
 72
     2
 73
     1
 90
        1
 40
0.5
 41
-30.0
 62
     5
 63
     7
 74
     1
 91
        0
 64
     7
 65
   257
 75
     1
175
     1
 42
1.0
 92
        8
 66
     7
 43
1.0
 76
     1
 77
     6
 78
     2
 67
     7
 79
     3
170
     0
171
     0
290
     0
174
     0
 93
       13
 44
0.0
173
     0
291
     0
 45
0.0
1001
ACAD
1000
AcDbSavedByObjectVersion
1070
     0
  0
DICTIONARYVAR
  5
81F2
102
{ACAD_REACTORS
330
81EC
102
}
330
81EC
100
DictionaryVariables
280
     0
  1
1:1
  0
DICTIONARYVAR
  5
81EE
102
{ACAD_REACTORS
330
81EC
102
}
330
81EC
100
DictionaryVariables
280
     0
  1
STANDARD
  0
DICTIONARYVAR
  5
81ED
102
{ACAD_REACTORS
330
81EC
102
}
330
81EC
100
DictionaryVariables
280
     0
  1
STANDARD
  0
DICTIONARYVAR
  5
81EF
102
{ACAD_REACTORS
330
81EC
102
}
330
81EC
100
DictionaryVariables
280
     0
  1
Metric50
  0
DICTIONARYVAR
  5
81F0
102
{ACAD_REACTORS
330
81EC
102
}
330
81EC
100
DictionaryVariables
280
     0
  1
Metric50
  0
DICTIONARYVAR
  5
820F
102
{ACAD_REACTORS
330
81EC
102
}
330
81EC
100
DictionaryVariables
280
     0
  1
1
  0
DICTIONARYVAR
  5
820E
102
{ACAD_REACTORS
330
81EC
102
}
330
81EC
100
DictionaryVariables
280
     0
  1
0
  0
DICTIONARYVAR
  5
81F4
102
{ACAD_REACTORS
330
81EC
102
}
330
81EC
100
DictionaryVariables
280
     0
  1
1
  0
DICTIONARYVAR
  5
81F5
102
{ACAD_REACTORS
330
81EC
102
}
330
81EC
100
DictionaryVariables
280
     0
  1
15
  0
DICTIONARYVAR
  5
81F3
102
{ACAD_REACTORS
330
81EC
102
}
330
81EC
100
DictionaryVariables
280
     0
  1
0
  0
DICTIONARYVAR
  5
81F1
102
{ACAD_REACTORS
330
81EC
102
}
330
81EC
100
DictionaryVariables
280
     0
  1
0
  0
DICTIONARYVAR
  5
820D
102
{ACAD_REACTORS
330
81EC
102
}
330
81EC
100
DictionaryVariables
280
     0
  1
127
  0
DICTIONARYVAR
  5
8210
102
{ACAD_REACTORS
330
81EC
102
}
330
81EC
100
DictionaryVariables
280
     0
  1
2
  0
DICTIONARY
  5
821C
102
{ACAD_REACTORS
330
821A
102
}
330
821A
100
AcDbDictionary
281
     1
  0
DICTIONARY
  5
821B
102
{ACAD_REACTORS
330
821A
102
}
330
821A
100
AcDbDictionary
281
     1
  3
140688321200720
350
8215
  3
140688321200736
350
8216
  3
140688321200752
350
8217
  3
140688321200768
350
8218
  3
140688321200784
350
8219
  0
DICTIONARY
  5
81E9
330
8141
100
AcDbDictionary
280
     1
281
     1
  3
ACAD_XREC_ROUNDTRIP
360
8259
  0
DICTIONARY
  5
821D
330
8084
100
AcDbDictionary
280
     1
281
     1
  3
ACAD_XREC_ROUNDTRIP
360
821E
  0
DICTIONARY
  5
821F
330
8085
100
AcDbDictionary
280
     1
281
     1
  3
ACAD_XREC_ROUNDTRIP
360
8220
  0
DICTIONARY
  5
80FF
330
80FE
100
AcDbDictionary
280
     1
281
     1
  3
ACAD_XREC_ROUNDTRIP
360
8222
  3
BUMPTILE
360
8101
  3
DIFFUSETILE
360
8100
  3
OPACITYTILE
360
8104
  3
REFLECTIONTILE
360
8103
  3
REFRACTIONTILE
360
8105
  3
SPECULARTILE
360
8102
  0
DICTIONARY
  5
80F7
330
80F6
100
AcDbDictionary
280
     1
281
     1
  3
ACAD_XREC_ROUNDTRIP
360
8221
  3
BUMPTILE
360
80F9
  3
DIFFUSETILE
360
80F8
  3
OPACITYTILE
360
80FC
  3
REFLECTIONTILE
360
80FB
  3
REFRACTIONTILE
360
80FD
  3
SPECULARTILE
360
80FA
  0
DICTIONARY
  5
8107
330
8106
100
AcDbDictionary
280
     1
281
     1
  3
ACAD_XREC_ROUNDTRIP
360
8223
  3
BUMPTILE
360
8109
  3
DIFFUSETILE
360
8108
  3
OPACITYTILE
360
810C
  3
REFLECTIONTILE
360
810B
  3
REFRACTIONTILE
360
810D
  3
SPECULARTILE
360
810A
  0
DICTIONARY
  5
8256
330
813D
100
AcDbDictionary
280
     1
281
     1
  3
ACAD_XREC_ROUNDTRIP
360
8257
  0
DICTIONARY
  5
81E7
330
813F
100
AcDbDictionary
280
     1
281
     1
  3
ACAD_XREC_ROUNDTRIP
360
8258
  0
DICTIONARY
  5
8211
330
8129
100
AcDbDictionary
280
     1
281
     1
  3
ACAD_ROUNDTRIP_2008_TABLESTYLE_CELLSTYLEMAP
360
8212
  3
ACAD_XREC_ROUNDTRIP
360
8254
  0
DICTIONARY
  5
822E
330
8114
100
AcDbDictionary
280
     1
281
     1
  3
ACAD_XREC_ROUNDTRIP
360
822F
  0
DICTIONARY
  5
822C
330
8113
100
AcDbDictionary
280
     1
281
     1
  3
ACAD_XREC_ROUNDTRIP
360
822D
  0
DICTIONARY
  5
823A
330
811A
100
AcDbDictionary
280
     1
281
     1
  3
ACAD_XREC_ROUNDTRIP
360
823B
  0
DICTIONARY
  5
8242
330
811E
100
AcDbDictionary
280
     1
281
     1
  3
ACAD_XREC_ROUNDTRIP
360
8243
  0
DICTIONARY
  5
8234
330
8117
100
AcDbDictionary
280
     1
281
     1
  3
ACAD_XREC_ROUNDTRIP
360
8235
  0
DICTIONARY
  5
8238
330
8119
100
AcDbDictionary
280
     1
281
     1
  3
ACAD_XREC_ROUNDTRIP
360
8239
  0
DICTIONARY
  5
8252
330
8126
100
AcDbDictionary
280
     1
281
     1
  3
ACAD_XREC_ROUNDTRIP
360
8253
  0
DICTIONARY
  5
8240
330
811D
100
AcDbDictionary
280
     1
281
     1
  3
ACAD_XREC_ROUNDTRIP
360
8241
  0
DICTIONARY
  5
8224
330
810F
100
AcDbDictionary
280
     1
281
     1
  3
ACAD_XREC_ROUNDTRIP
360
8225
  0
DICTIONARY
  5
8226
330
8110
100
AcDbDictionary
280
     1
281
     1
  3
ACAD_XREC_ROUNDTRIP
360
8227
  0
DICTIONARY
  5
8228
330
8111
100
AcDbDictionary
280
     1
281
     1
  3
ACAD_XREC_ROUNDTRIP
360
8229
  0
DICTIONARY
  5
822A
330
8112
100
AcDbDictionary
280
     1
281
     1
  3
ACAD_XREC_ROUNDTRIP
360
822B
  0
DICTIONARY
  5
8232
330
8116
100
AcDbDictionary
280
     1
281
     1
  3
ACAD_XREC_ROUNDTRIP
360
8233
  0
DICTIONARY
  5
824E
330
8124
100
AcDbDictionary
280
     1
281
     1
  3
ACAD_XREC_ROUNDTRIP
360
824F
  0
DICTIONARY
  5
823E
330
811C
100
AcDbDictionary
280
     1
281
     1
  3
ACAD_XREC_ROUNDTRIP
360
823F
  0
DICTIONARY
  5
8250
330
8125
100
AcDbDictionary
280
     1
281
     1
  3
ACAD_XREC_ROUNDTRIP
360
8251
  0
DICTIONARY
  5
8236
330
8118
100
AcDbDictionary
280
     1
281
     1
  3
ACAD_XREC_ROUNDTRIP
360
8237
  0
DICTIONARY
  5
824C
330
8123
100
AcDbDictionary
280
     1
281
     1
  3
ACAD_XREC_ROUNDTRIP
360
824D
  0
DICTIONARY
  5
824A
330
8122
100
AcDbDictionary
280
     1
281
     1
  3
ACAD_XREC_ROUNDTRIP
360
824B
  0
DICTIONARY
  5
8244
330
811F
100
AcDbDictionary
280
     1
281
     1
  3
ACAD_XREC_ROUNDTRIP
360
8245
  0
DICTIONARY
  5
8246
330
8120
100
AcDbDictionary
280
     1
281
     1
  3
ACAD_XREC_ROUNDTRIP
360
8247
  0
DICTIONARY
  5
823C
330
811B
100
AcDbDictionary
280
     1
281
     1
  3
ACAD_XREC_ROUNDTRIP
360
823D
  0
DICTIONARY
  5
8230
330
8115
100
AcDbDictionary
280
     1
281
     1
  3
ACAD_XREC_ROUNDTRIP
360
8231
  0
DICTIONARY
  5
8248
330
8121
100
AcDbDictionary
280
     1
281
     1
  3
ACAD_XREC_ROUNDTRIP
360
8249
  0
XRECORD
  5
8215
102
{ACAD_REACTORS
330
821B
102
}
330
821B
100
AcDbXrecord
280
     1
  1
AcDb_Thumbnail_Schema
102
{ATTRRECORD
341
8216
  2
AcDbDs::TreatedAsObjectData
280
     1
291
     1
102
ATTRRECORD}
102
{ATTRRECORD
341
8217
  2
AcDbDs::Legacy
280
     1
291
     1
102
ATTRRECORD}
  2
AcDbDs::ID
280
    10
 91
        8
102
{ATTRRECORD
341
8218
  2
AcDs:Indexable
280
     1
291
     1
102
ATTRRECORD}
102
{ATTRRECORD
341
8219
  2
AcDbDs::HandleAttribute
280
     7
282
     1
102
ATTRRECORD}
  2
Thumbnail_Data
280
    15
 91
        0
  0
XRECORD
  5
8216
102
{ACAD_REACTORS
330
821B
102
}
330
821B
100
AcDbXrecord
280
     1
  1
AcDbDs::TreatedAsObjectDataSchema
  2
AcDbDs::TreatedAsObjectData
280
     1
 91
        0
  0
XRECORD
  5
8217
102
{ACAD_REACTORS
330
821B
102
}
330
821B
100
AcDbXrecord
280
     1
  1
AcDbDs::LegacySchema
  2
AcDbDs::Legacy
280
     1
 91
        0
  0
XRECORD
  5
8218
102
{ACAD_REACTORS
330
821B
102
}
330
821B
100
AcDbXrecord
280
     1
  1
AcDbDs::IndexedPropertySchema
  2
AcDs:Indexable
280
     1
 91
        0
  0
XRECORD
  5
8219
102
{ACAD_REACTORS
330
821B
102
}
330
821B
100
AcDbXrecord
280
     1
  1
AcDbDs::HandleAttributeSchema
  2
AcDbDs::HandleAttribute
280
     7
 91
        1
284
     1
  0
XRECORD
  5
8259
102
{ACAD_REACTORS
330
81E9
102
}
330
81E9
100
AcDbXrecord
280
     1
102
DISPLAYNAME
  1
Metric50
102
FLAGS
 90
        0
  0
XRECORD
  5
821E
102
{ACAD_REACTORS
330
821D
102
}
330
821D
100
AcDbXrecord
280
     1
102
SHADEPLOT
 70
     0
102
SHADEPLOTRESLEVEL
 70
     2
102
SHADEPLOTCUSTOMDPI
 70
   300
  0
XRECORD
  5
8220
102
{ACAD_REACTORS
330
821F
102
}
330
821F
100
AcDbXrecord
280
     1
102
SHADEPLOT
 70
     0
102
SHADEPLOTRESLEVEL
 70
     2
102
SHADEPLOTCUSTOMDPI
 70
   300
  0
XRECORD
  5
8222
102
{ACAD_REACTORS
330
80FF
102
}
330
80FF
100
AcDbXrecord
280
     1
102
MATERIAL
148
0.0
149
0.0
149
0.0
 93
        0
 94
      127
282
     0
 72
     0
 77
     0
171
     0
175
     0
179
     0
273
     0
  0
XRECORD
  5
8101
102
{ACAD_REACTORS
330
80FF
102
}
330
80FF
100
AcDbXrecord
280
     1
270
     1
271
     1
  0
XRECORD
  5
8100
102
{ACAD_REACTORS
330
80FF
102
}
330
80FF
100
AcDbXrecord
280
     1
270
     1
271
     1
  0
XRECORD
  5
8104
102
{ACAD_REACTORS
330
80FF
102
}
330
80FF
100
AcDbXrecord
280
     1
270
     1
271
     1
  0
XRECORD
  5
8103
102
{ACAD_REACTORS
330
80FF
102
}
330
80FF
100
AcDbXrecord
280
     1
270
     1
271
     1
  0
XRECORD
  5
8105
102
{ACAD_REACTORS
330
80FF
102
}
330
80FF
100
AcDbXrecord
280
     1
270
     1
271
     1
  0
XRECORD
  5
8102
102
{ACAD_REACTORS
330
80FF
102
}
330
80FF
100
AcDbXrecord
280
     1
270
     1
271
     1
  0
XRECORD
  5
8221
102
{ACAD_REACTORS
330
80F7
102
}
330
80F7
100
AcDbXrecord
280
     1
102
MATERIAL
148
0.0
149
0.0
149
0.0
 93
        0
 94
      127
282
     0
 72
     0
 77
     0
171
     0
175
     0
179
     0
273
     0
  0
XRECORD
  5
80F9
102
{ACAD_REACTORS
330
80F7
102
}
330
80F7
100
AcDbXrecord
280
     1
270
     1
271
     1
  0
XRECORD
  5
80F8
102
{ACAD_REACTORS
330
80F7
102
}
330
80F7
100
AcDbXrecord
280
     1
270
     1
271
     1
  0
XRECORD
  5
80FC
102
{ACAD_REACTORS
330
80F7
102
}
330
80F7
100
AcDbXrecord
280
     1
270
     1
271
     1
  0
XRECORD
  5
80FB
102
{ACAD_REACTORS
330
80F7
102
}
330
80F7
100
AcDbXrecord
280
     1
270
     1
271
     1
  0
XRECORD
  5
80FD
102
{ACAD_REACTORS
330
80F7
102
}
330
80F7
100
AcDbXrecord
280
     1
270
     1
271
     1
  0
XRECORD
  5
80FA
102
{ACAD_REACTORS
330
80F7
102
}
330
80F7
100
AcDbXrecord
280
     1
270
     1
271
     1
  0
XRECORD
  5
8223
102
{ACAD_REACTORS
330
8107
102
}
330
8107
100
AcDbXrecord
280
     1
102
MATERIAL
148
0.0
149
0.0
149
0.0
 93
        0
 94
      127
282
     0
 72
     0
 77
     0
171
     0
175
     0
179
     0
273
     0
  0
XRECORD
  5
8109
102
{ACAD_REACTORS
330
8107
102
}
330
8107
100
AcDbXrecord
280
     1
270
     1
271
     1
  0
XRECORD
  5
8108
102
{ACAD_REACTORS
330
8107
102
}
330
8107
100
AcDbXrecord
280
     1
270
     1
271
     1
  0
XRECORD
  5
810C
102
{ACAD_REACTORS
330
8107
102
}
330
8107
100
AcDbXrecord
280
     1
270
     1
271
     1
  0
XRECORD
  5
810B
102
{ACAD_REACTORS
330
8107
102
}
330
8107
100
AcDbXrecord
280
     1
270
     1
271
     1
  0
XRECORD
  5
810D
102
{ACAD_REACTORS
330
8107
102
}
330
8107
100
AcDbXrecord
280
     1
270
     1
271
     1
  0
XRECORD
  5
810A
102
{ACAD_REACTORS
330
8107
102
}
330
8107
100
AcDbXrecord
280
     1
270
     1
271
     1
  0
XRECORD
  5
8257
102
{ACAD_REACTORS
330
8256
102
}
330
8256
100
AcDbXrecord
280
     1
102
ACAD_ROUNDTRIP_2012_MLEADER_STYLE
298
     1
  0
XRECORD
  5
8258
102
{ACAD_REACTORS
330
81E7
102
}
330
81E7
100
AcDbXrecord
280
     1
102
DISPLAYNAME
  1
Metric50
102
FLAGS
 90
        0
  0
CELLSTYLEMAP
  5
8212
102
{ACAD_REACTORS
330
8211
102
}
330
8211
100
AcDbCellStyleMap
 90
        3
300
CELLSTYLE
  1
TABLEFORMAT_BEGIN
 90
        5
170
     1
 91
        0
 92
    32768
 62
   257
 93
        1
300
CONTENTFORMAT
  1
CONTENTFORMAT_BEGIN
 90
        0
 91
        0
 92
      512
 93
        0
300

 40
0.0
140
1.0
 94
        5
 62
     0
340
10
144
6.0
309
CONTENTFORMAT_END
171
     1
301
MARGIN
  1
CELLMARGIN_BEGIN
 40
1.5
 40
1.5
 40
1.5
 40
1.5
 40
4.5
 40
4.5
309
CELLMARGIN_END
 94
        6
 95
        1
302
GRIDFORMAT
  1
GRIDFORMAT_BEGIN
 90
        0
 91
        1
 62
     0
 92
       -2
340
0
 93
        0
 40
1.125
309
GRIDFORMAT_END
 95
        2
302
GRIDFORMAT
  1
GRIDFORMAT_BEGIN
 90
        0
 91
        1
 62
     0
 92
       -2
340
0
 93
        0
 40
1.125
309
GRIDFORMAT_END
 95
        4
302
GRIDFORMAT
  1
GRIDFORMAT_BEGIN
 90
        0
 91
        1
 62
     0
 92
       -2
340
0
 93
        0
 40
1.125
309
GRIDFORMAT_END
 95
        8
302
GRIDFORMAT
  1
GRIDFORMAT_BEGIN
 90
        0
 91
        1
 62
     0
 92
       -2
340
0
 93
        0
 40
1.125
309
GRIDFORMAT_END
 95
       16
302
GRIDFORMAT
  1
GRIDFORMAT_BEGIN
 90
        0
 91
        1
 62
     0
 92
       -2
340
0
 93
        0
 40
1.125
309
GRIDFORMAT_END
 95
       32
302
GRIDFORMAT
  1
GRIDFORMAT_BEGIN
 90
        0
 91
        1
 62
     0
 92
       -2
340
0
 93
        0
 40
1.125
309
GRIDFORMAT_END
309
TABLEFORMAT_END
  1
CELLSTYLE_BEGIN
 90
        1
 91
        1
300
_TITLE
309
CELLSTYLE_END
300
CELLSTYLE
  1
TABLEFORMAT_BEGIN
 90
        5
170
     1
 91
        0
 92
        0
 62
   257
 93
        1
300
CONTENTFORMAT
  1
CONTENTFORMAT_BEGIN
 90
        0
 91
        0
 92
      512
 93
        0
300

 40
0.0
140
1.0
 94
        5
 62
     0
340
10
144
4.5
309
CONTENTFORMAT_END
171
     1
301
MARGIN
  1
CELLMARGIN_BEGIN
 40
1.5
 40
1.5
 40
1.5
 40
1.5
 40
4.5
 40
4.5
309
CELLMARGIN_END
 94
        6
 95
        1
302
GRIDFORMAT
  1
GRIDFORMAT_BEGIN
 90
        0
 91
        1
 62
     0
 92
       -2
340
0
 93
        0
 40
1.125
309
GRIDFORMAT_END
 95
        2
302
GRIDFORMAT
  1
GRIDFORMAT_BEGIN
 90
        0
 91
        1
 62
     0
 92
       -2
340
0
 93
        0
 40
1.125
309
GRIDFORMAT_END
 95
        4
302
GRIDFORMAT
  1
GRIDFORMAT_BEGIN
 90
        0
 91
        1
 62
     0
 92
       -2
340
0
 93
        0
 40
1.125
309
GRIDFORMAT_END
 95
        8
302
GRIDFORMAT
  1
GRIDFORMAT_BEGIN
 90
        0
 91
        1
 62
     0
 92
       -2
340
0
 93
        0
 40
1.125
309
GRIDFORMAT_END
 95
       16
302
GRIDFORMAT
  1
GRIDFORMAT_BEGIN
 90
        0
 91
        1
 62
     0
 92
       -2
340
0
 93
        0
 40
1.125
309
GRIDFORMAT_END
 95
       32
302
GRIDFORMAT
  1
GRIDFORMAT_BEGIN
 90
        0
 91
        1
 62
     0
 92
       -2
340
0
 93
        0
 40
1.125
309
GRIDFORMAT_END
309
TABLEFORMAT_END
  1
CELLSTYLE_BEGIN
 90
        2
 91
        1
300
_HEADER
309
CELLSTYLE_END
300
CELLSTYLE
  1
TABLEFORMAT_BEGIN
 90
        5
170
     1
 91
        0
 92
        0
 62
   257
 93
        1
300
CONTENTFORMAT
  1
CONTENTFORMAT_BEGIN
 90
        0
 91
        0
 92
      512
 93
        0
300

 40
0.0
140
1.0
 94
        2
 62
     0
340
10
144
4.5
309
CONTENTFORMAT_END
171
     1
301
MARGIN
  1
CELLMARGIN_BEGIN
 40
1.5
 40
1.5
 40
1.5
 40
1.5
 40
4.5
 40
4.5
309
CELLMARGIN_END
 94
        6
 95
        1
302
GRIDFORMAT
  1
GRIDFORMAT_BEGIN
 90
        0
 91
        1
 62
     0
 92
       -2
340
0
 93
        0
 40
1.125
309
GRIDFORMAT_END
 95
        2
302
GRIDFORMAT
  1
GRIDFORMAT_BEGIN
 90
        0
 91
        1
 62
     0
 92
       -2
340
0
 93
        0
 40
1.125
309
GRIDFORMAT_END
 95
        4
302
GRIDFORMAT
  1
GRIDFORMAT_BEGIN
 90
        0
 91
        1
 62
     0
 92
       -2
340
0
 93
        0
 40
1.125
309
GRIDFORMAT_END
 95
        8
302
GRIDFORMAT
  1
GRIDFORMAT_BEGIN
 90
        0
 91
        1
 62
     0
 92
       -2
340
0
 93
        0
 40
1.125
309
GRIDFORMAT_END
 95
       16
302
GRIDFORMAT
  1
GRIDFORMAT_BEGIN
 90
        0
 91
        1
 62
     0
 92
       -2
340
0
 93
        0
 40
1.125
309
GRIDFORMAT_END
 95
       32
302
GRIDFORMAT
  1
GRIDFORMAT_BEGIN
 90
        0
 91
        1
 62
     0
 92
       -2
340
0
 93
        0
 40
1.125
309
GRIDFORMAT_END
309
TABLEFORMAT_END
  1
CELLSTYLE_BEGIN
 90
        3
 91
        2
300
_DATA
309
CELLSTYLE_END
  0
XRECORD
  5
8254
102
{ACAD_REACTORS
330
8211
102
}
330
8211
100
AcDbXrecord
280
     1
102
ACAD_ROUNDTRIP_PRE2007_TABLESTYLE
 90
      512
 91
        0
  1

 92
      512
 93
        0
  2

 94
      512
 95
        0
  3

  0
XRECORD
  5
822F
102
{ACAD_REACTORS
330
822E
102
}
330
822E
100
AcDbXrecord
280
     1
102
RTVSPost2010Prop28
280
     1
102
RTVSPost2010PropOp28
 70
     1
102
RTVSPost2010Prop29
280
     1
102
RTVSPost2010PropOp29
 70
     1
102
RTVSPost2010Prop30
280
     0
102
RTVSPost2010PropOp30
 70
     1
102
RTVSPost2010Prop31
280
     0
102
RTVSPost2010PropOp31
 70
     1
102
RTVSPost2010Prop32
280
     0
102
RTVSPost2010PropOp32
 70
     1
102
RTVSPost2010Prop33
280
     0
102
RTVSPost2010PropOp33
 70
     1
102
RTVSPost2010Prop34
280
     0
102
RTVSPost2010PropOp34
 70
     1
102
RTVSPost2010Prop35
280
     0
102
RTVSPost2010PropOp35
 70
     1
102
RTVSPost2010Prop36
280
     0
102
RTVSPost2010PropOp36
 70
     1
102
RTVSPost2010Prop37
 90
       50
102
RTVSPost2010PropOp37
 70
     1
102
RTVSPost2010Prop38
140
0.0
102
RTVSPost2010PropOp38
 70
     1
102
RTVSPost2010Prop39
140
1.0
102
RTVSPost2010PropOp39
 70
     1
102
RTVSPost2010Prop40
 90
        0
102
RTVSPost2010PropOp40
 70
     1
102
RTVSPost2010Prop41ColorIndex
 90
       18
102
RTVSPost2010Prop41ColorRGB
 90
        0
102
RTVSPost2010PropOp41
 70
     1
102
RTVSPost2010Prop42
 90
       50
102
RTVSPost2010PropOp42
 70
     1
102
RTVSPost2010Prop43
 90
        3
102
RTVSPost2010PropOp43
 70
     1
102
RTVSPost2010Prop44ColorIndex
 90
        5
102
RTVSPost2010Prop44ColorRGB
 90
      255
102
RTVSPost2010PropOp44
 70
     1
102
RTVSPost2010Prop45
280
     0
102
RTVSPost2010PropOp45
 70
     1
102
RTVSPost2010Prop46
 90
       50
102
RTVSPost2010PropOp46
 70
     1
102
RTVSPost2010Prop47
 90
       50
102
RTVSPost2010PropOp47
 70
     1
102
RTVSPost2010Prop48
 90
       50
102
RTVSPost2010PropOp48
 70
     1
102
RTVSPost2010Prop49
280
     0
102
RTVSPost2010PropOp49
 70
     1
102
RTVSPost2010Prop50
 90
       50
102
RTVSPost2010PropOp50
 70
     1
102
RTVSPost2010Prop51ColorIndex
 90
      256
102
RTVSPost2010Prop51ColorRGB
 90
-16777216
102
RTVSPost2010PropOp51
 70
     0
102
RTVSPost2010Prop52
140
1.0
102
RTVSPost2010PropOp52
 70
     0
102
RTVSPost2010Prop53
 90
        2
102
RTVSPost2010PropOp53
 70
     1
102
RTVSPost2010Prop54
  1
strokes_ogs.tif
102
RTVSPost2010PropOp54
 70
     1
102
RTVSPost2010Prop55
280
     0
102
RTVSPost2010PropOp55
 70
     1
102
RTVSPost2010Prop56
140
1.0
102
RTVSPost2010PropOp56
 70
     1
102
RTVSPost2010Prop57
140
1.0
102
RTVSPost2010PropOp57
 70
     1
102
RTVSPropertyOp0
 70
     1
102
RTVSPropertyOp1
 70
     1
102
RTVSPropertyOp2
 70
     1
102
RTVSPropertyOp3
 70
     1
102
RTVSPropertyOp4
 70
     1
102
RTVSPropertyOp5
 70
     1
102
RTVSPropertyOp6
 70
     1
102
RTVSPropertyOp7
 70
     1
102
RTVSPropertyOp8
 70
     1
102
RTVSPropertyOp9
 70
     1
102
RTVSPropertyOp10
 70
     1
102
RTVSPropertyOp11
 70
     1
102
RTVSPropertyOp12
 70
     1
102
RTVSPropertyOp13
 70
     1
102
RTVSPropertyOp14
 70
     1
102
RTVSPropertyOp15
 70
     1
102
RTVSPropertyOp16
 70
     1
102
RTVSPropertyOp17
 70
     1
102
RTVSPropertyOp18
 70
     1
102
RTVSPropertyOp19
 70
     1
102
RTVSPropertyOp20
 70
     1
102
RTVSPropertyOp21
 70
     1
102
RTVSPropertyOp22
 70
     1
102
RTVSPropertyOp23
 70
     1
102
RTVSPropertyOp24
 70
     1
102
RTVSPropertyOp25
 70
     1
102
RTVSPropertyOp26
 70
     1
102
RTVSPropertyOp27
 70
     1
102
RTVSPropertyOp28
 70
     1
102
RTVSPropertyOp29
 70
     1
102
RTVSPropertyOp30
 70
     1
102
RTVSPropertyOp31
 70
     1
102
RTVSPropertyOp32
 70
     1
102
RTVSPropertyOp33
 70
     1
102
RTVSPropertyOp34
 70
     1
102
RTVSPropertyOp35
 70
     1
102
RTVSPropertyOp36
 70
     1
102
RTVSPropertyOp37
 70
     1
102
RTVSPropertyOp38
 70
     1
102
RTVSPropertyOp39
 70
     1
102
RTVSPropertyOp40
 70
     1
102
RTVSPropertyOp41
 70
     1
102
RTVSPropertyOp42
 70
     1
102
RTVSPropertyOp43
 70
     1
102
RTVSPropertyOp44
 70
     1
102
RTVSPropertyOp45
 70
     1
102
RTVSPropertyOp46
 70
     1
102
RTVSPropertyOp47
 70
     1
102
RTVSPropertyOp48
 70
     1
102
RTVSPropertyOp49
 70
     1
102
RTVSPropertyOp50
 70
     1
102
RTVSPropertyOp51
 70
     0
102
RTVSPropertyOp52
 70
     0
102
RTVSPropertyOp53
 70
     1
102
RTVSPropertyOp54
 70
     1
102
RTVSPropertyOp55
 70
     1
102
RTVSPropertyOp56
 70
     1
102
RTVSPropertyOp57
 70
     1
102
RTVSPropertyOp58
 70
     1
102
RTVSPropertyOp59
 70
     1
102
RTVSPropertyOp60
 70
     1
102
RTVSPropertyOp61
 70
     1
102
RTVSPropertyOp62
 70
     1
  0
XRECORD
  5
822D
102
{ACAD_REACTORS
330
822C
102
}
330
822C
100
AcDbXrecord
280
     1
102
RTVSPost2010Prop28
280
     0
102
RTVSPost2010PropOp28
 70
     1
102
RTVSPost2010Prop29
280
     1
102
RTVSPost2010PropOp29
 70
     1
102
RTVSPost2010Prop30
280
     1
102
RTVSPost2010PropOp30
 70
     1
102
RTVSPost2010Prop31
280
     0
102
RTVSPost2010PropOp31
 70
     1
102
RTVSPost2010Prop32
280
     0
102
RTVSPost2010PropOp32
 70
     1
102
RTVSPost2010Prop33
280
     0
102
RTVSPost2010PropOp33
 70
     1
102
RTVSPost2010Prop34
280
     0
102
RTVSPost2010PropOp34
 70
     1
102
RTVSPost2010Prop35
280
     0
102
RTVSPost2010PropOp35
 70
     1
102
RTVSPost2010Prop36
280
     0
102
RTVSPost2010PropOp36
 70
     1
102
RTVSPost2010Prop37
 90
       50
102
RTVSPost2010PropOp37
 70
     1
102
RTVSPost2010Prop38
140
0.0
102
RTVSPost2010PropOp38
 70
     1
102
RTVSPost2010Prop39
140
1.0
102
RTVSPost2010PropOp39
 70
     1
102
RTVSPost2010Prop40
 90
        0
102
RTVSPost2010PropOp40
 70
     1
102
RTVSPost2010Prop41ColorIndex
 90
       18
102
RTVSPost2010Prop41ColorRGB
 90
        0
102
RTVSPost2010PropOp41
 70
     1
102
RTVSPost2010Prop42
 90
       50
102
RTVSPost2010PropOp42
 70
     1
102
RTVSPost2010Prop43
 90
        3
102
RTVSPost2010PropOp43
 70
     1
102
RTVSPost2010Prop44ColorIndex
 90
        5
102
RTVSPost2010Prop44ColorRGB
 90
      255
102
RTVSPost2010PropOp44
 70
     1
102
RTVSPost2010Prop45
280
     0
102
RTVSPost2010PropOp45
 70
     1
102
RTVSPost2010Prop46
 90
       50
102
RTVSPost2010PropOp46
 70
     1
102
RTVSPost2010Prop47
 90
       50
102
RTVSPost2010PropOp47
 70
     1
102
RTVSPost2010Prop48
 90
       50
102
RTVSPost2010PropOp48
 70
     1
102
RTVSPost2010Prop49
280
     0
102
RTVSPost2010PropOp49
 70
     1
102
RTVSPost2010Prop50
 90
       50
102
RTVSPost2010PropOp50
 70
     1
102
RTVSPost2010Prop51ColorIndex
 90
      256
102
RTVSPost2010Prop51ColorRGB
 90
-16777216
102
RTVSPost2010PropOp51
 70
     0
102
RTVSPost2010Prop52
140
1.0
102
RTVSPost2010PropOp52
 70
     0
102
RTVSPost2010Prop53
 90
        2
102
RTVSPost2010PropOp53
 70
     1
102
RTVSPost2010Prop54
  1
strokes_ogs.tif
102
RTVSPost2010PropOp54
 70
     1
102
RTVSPost2010Prop55
280
     0
102
RTVSPost2010PropOp55
 70
     1
102
RTVSPost2010Prop56
140
1.0
102
RTVSPost2010PropOp56
 70
     1
102
RTVSPost2010Prop57
140
1.0
102
RTVSPost2010PropOp57
 70
     1
102
RTVSPropertyOp0
 70
     1
102
RTVSPropertyOp1
 70
     1
102
RTVSPropertyOp2
 70
     1
102
RTVSPropertyOp3
 70
     1
102
RTVSPropertyOp4
 70
     1
102
RTVSPropertyOp5
 70
     1
102
RTVSPropertyOp6
 70
     1
102
RTVSPropertyOp7
 70
     1
102
RTVSPropertyOp8
 70
     1
102
RTVSPropertyOp9
 70
     1
102
RTVSPropertyOp10
 70
     1
102
RTVSPropertyOp11
 70
     1
102
RTVSPropertyOp12
 70
     1
102
RTVSPropertyOp13
 70
     1
102
RTVSPropertyOp14
 70
     1
102
RTVSPropertyOp15
 70
     1
102
RTVSPropertyOp16
 70
     1
102
RTVSPropertyOp17
 70
     1
102
RTVSPropertyOp18
 70
     1
102
RTVSPropertyOp19
 70
     1
102
RTVSPropertyOp20
 70
     1
102
RTVSPropertyOp21
 70
     1
102
RTVSPropertyOp22
 70
     1
102
RTVSPropertyOp23
 70
     1
102
RTVSPropertyOp24
 70
     1
102
RTVSPropertyOp25
 70
     1
102
RTVSPropertyOp26
 70
     1
102
RTVSPropertyOp27
 70
     1
102
RTVSPropertyOp28
 70
     1
102
RTVSPropertyOp29
 70
     1
102
RTVSPropertyOp30
 70
     1
102
RTVSPropertyOp31
 70
     1
102
RTVSPropertyOp32
 70
     1
102
RTVSPropertyOp33
 70
     1
102
RTVSPropertyOp34
 70
     1
102
RTVSPropertyOp35
 70
     1
102
RTVSPropertyOp36
 70
     1
102
RTVSPropertyOp37
 70
     1
102
RTVSPropertyOp38
 70
     1
102
RTVSPropertyOp39
 70
     1
102
RTVSPropertyOp40
 70
     1
102
RTVSPropertyOp41
 70
     1
102
RTVSPropertyOp42
 70
     1
102
RTVSPropertyOp43
 70
     1
102
RTVSPropertyOp44
 70
     1
102
RTVSPropertyOp45
 70
     1
102
RTVSPropertyOp46
 70
     1
102
RTVSPropertyOp47
 70
     1
102
RTVSPropertyOp48
 70
     1
102
RTVSPropertyOp49
 70
     1
102
RTVSPropertyOp50
 70
     1
102
RTVSPropertyOp51
 70
     0
102
RTVSPropertyOp52
 70
     0
102
RTVSPropertyOp53
 70
     1
102
RTVSPropertyOp54
 70
     1
102
RTVSPropertyOp55
 70
     1
102
RTVSPropertyOp56
 70
     1
102
RTVSPropertyOp57
 70
     1
102
RTVSPropertyOp58
 70
     1
102
RTVSPropertyOp59
 70
     1
102
RTVSPropertyOp60
 70
     1
102
RTVSPropertyOp61
 70
     1
102
RTVSPropertyOp62
 70
     1
  0
XRECORD
  5
823B
102
{ACAD_REACTORS
330
823A
102
}
330
823A
100
AcDbXrecord
280
     1
102
RTVSPost2010Prop28
280
     0
102
RTVSPost2010PropOp28
 70
     1
102
RTVSPost2010Prop29
280
     1
102
RTVSPost2010PropOp29
 70
     1
102
RTVSPost2010Prop30
280
     1
102
RTVSPost2010PropOp30
 70
     1
102
RTVSPost2010Prop31
280
     0
102
RTVSPost2010PropOp31
 70
     1
102
RTVSPost2010Prop32
280
     0
102
RTVSPost2010PropOp32
 70
     1
102
RTVSPost2010Prop33
280
     0
102
RTVSPost2010PropOp33
 70
     1
102
RTVSPost2010Prop34
280
     0
102
RTVSPost2010PropOp34
 70
     1
102
RTVSPost2010Prop35
280
     0
102
RTVSPost2010PropOp35
 70
     1
102
RTVSPost2010Prop36
280
     0
102
RTVSPost2010PropOp36
 70
     1
102
RTVSPost2010Prop37
 90
       50
102
RTVSPost2010PropOp37
 70
     1
102
RTVSPost2010Prop38
140
0.0
102
RTVSPost2010PropOp38
 70
     1
102
RTVSPost2010Prop39
140
1.0
102
RTVSPost2010PropOp39
 70
     1
102
RTVSPost2010Prop40
 90
        0
102
RTVSPost2010PropOp40
 70
     1
102
RTVSPost2010Prop41ColorIndex
 90
       18
102
RTVSPost2010Prop41ColorRGB
 90
        0
102
RTVSPost2010PropOp41
 70
     1
102
RTVSPost2010Prop42
 90
       50
102
RTVSPost2010PropOp42
 70
     1
102
RTVSPost2010Prop43
 90
        3
102
RTVSPost2010PropOp43
 70
     1
102
RTVSPost2010Prop44ColorIndex
 90
        5
102
RTVSPost2010Prop44ColorRGB
 90
      255
102
RTVSPost2010PropOp44
 70
     1
102
RTVSPost2010Prop45
280
     0
102
RTVSPost2010PropOp45
 70
     1
102
RTVSPost2010Prop46
 90
       50
102
RTVSPost2010PropOp46
 70
     1
102
RTVSPost2010Prop47
 90
       50
102
RTVSPost2010PropOp47
 70
     1
102
RTVSPost2010Prop48
 90
       50
102
RTVSPost2010PropOp48
 70
     1
102
RTVSPost2010Prop49
280
     0
102
RTVSPost2010PropOp49
 70
     1
102
RTVSPost2010Prop50
 90
       50
102
RTVSPost2010PropOp50
 70
     1
102
RTVSPost2010Prop51ColorIndex
 90
      256
102
RTVSPost2010Prop51ColorRGB
 90
-16777216
102
RTVSPost2010PropOp51
 70
     0
102
RTVSPost2010Prop52
140
1.0
102
RTVSPost2010PropOp52
 70
     0
102
RTVSPost2010Prop53
 90
        2
102
RTVSPost2010PropOp53
 70
     1
102
RTVSPost2010Prop54
  1
strokes_ogs.tif
102
RTVSPost2010PropOp54
 70
     1
102
RTVSPost2010Prop55
280
     0
102
RTVSPost2010PropOp55
 70
     1
102
RTVSPost2010Prop56
140
1.0
102
RTVSPost2010PropOp56
 70
     1
102
RTVSPost2010Prop57
140
1.0
102
RTVSPost2010PropOp57
 70
     1
102
RTVSPropertyOp0
 70
     1
102
RTVSPropertyOp1
 70
     1
102
RTVSPropertyOp2
 70
     1
102
RTVSPropertyOp3
 70
     1
102
RTVSPropertyOp4
 70
     1
102
RTVSPropertyOp5
 70
     1
102
RTVSPropertyOp6
 70
     1
102
RTVSPropertyOp7
 70
     1
102
RTVSPropertyOp8
 70
     1
102
RTVSPropertyOp9
 70
     1
102
RTVSPropertyOp10
 70
     1
102
RTVSPropertyOp11
 70
     1
102
RTVSPropertyOp12
 70
     1
102
RTVSPropertyOp13
 70
     1
102
RTVSPropertyOp14
 70
     1
102
RTVSPropertyOp15
 70
     1
102
RTVSPropertyOp16
 70
     1
102
RTVSPropertyOp17
 70
     1
102
RTVSPropertyOp18
 70
     1
102
RTVSPropertyOp19
 70
     1
102
RTVSPropertyOp20
 70
     1
102
RTVSPropertyOp21
 70
     1
102
RTVSPropertyOp22
 70
     1
102
RTVSPropertyOp23
 70
     1
102
RTVSPropertyOp24
 70
     1
102
RTVSPropertyOp25
 70
     1
102
RTVSPropertyOp26
 70
     1
102
RTVSPropertyOp27
 70
     1
102
RTVSPropertyOp28
 70
     1
102
RTVSPropertyOp29
 70
     1
102
RTVSPropertyOp30
 70
     1
102
RTVSPropertyOp31
 70
     1
102
RTVSPropertyOp32
 70
     1
102
RTVSPropertyOp33
 70
     1
102
RTVSPropertyOp34
 70
     1
102
RTVSPropertyOp35
 70
     1
102
RTVSPropertyOp36
 70
     1
102
RTVSPropertyOp37
 70
     1
102
RTVSPropertyOp38
 70
     1
102
RTVSPropertyOp39
 70
     1
102
RTVSPropertyOp40
 70
     1
102
RTVSPropertyOp41
 70
     1
102
RTVSPropertyOp42
 70
     1
102
RTVSPropertyOp43
 70
     1
102
RTVSPropertyOp44
 70
     1
102
RTVSPropertyOp45
 70
     1
102
RTVSPropertyOp46
 70
     1
102
RTVSPropertyOp47
 70
     1
102
RTVSPropertyOp48
 70
     1
102
RTVSPropertyOp49
 70
     1
102
RTVSPropertyOp50
 70
     1
102
RTVSPropertyOp51
 70
     0
102
RTVSPropertyOp52
 70
     0
102
RTVSPropertyOp53
 70
     1
102
RTVSPropertyOp54
 70
     1
102
RTVSPropertyOp55
 70
     1
102
RTVSPropertyOp56
 70
     1
102
RTVSPropertyOp57
 70
     1
102
RTVSPropertyOp58
 70
     1
102
RTVSPropertyOp59
 70
     1
102
RTVSPropertyOp60
 70
     1
102
RTVSPropertyOp61
 70
     1
102
RTVSPropertyOp62
 70
     1
  0
XRECORD
  5
8243
102
{ACAD_REACTORS
330
8242
102
}
330
8242
100
AcDbXrecord
280
     1
102
RTVSPost2010Prop28
280
     0
102
RTVSPost2010PropOp28
 70
     1
102
RTVSPost2010Prop29
280
     1
102
RTVSPost2010PropOp29
 70
     1
102
RTVSPost2010Prop30
280
     1
102
RTVSPost2010PropOp30
 70
     1
102
RTVSPost2010Prop31
280
     0
102
RTVSPost2010PropOp31
 70
     1
102
RTVSPost2010Prop32
280
     0
102
RTVSPost2010PropOp32
 70
     1
102
RTVSPost2010Prop33
280
     0
102
RTVSPost2010PropOp33
 70
     1
102
RTVSPost2010Prop34
280
     0
102
RTVSPost2010PropOp34
 70
     1
102
RTVSPost2010Prop35
280
     0
102
RTVSPost2010PropOp35
 70
     1
102
RTVSPost2010Prop36
280
     0
102
RTVSPost2010PropOp36
 70
     1
102
RTVSPost2010Prop37
 90
       50
102
RTVSPost2010PropOp37
 70
     1
102
RTVSPost2010Prop38
140
0.0
102
RTVSPost2010PropOp38
 70
     1
102
RTVSPost2010Prop39
140
1.0
102
RTVSPost2010PropOp39
 70
     1
102
RTVSPost2010Prop40
 90
        0
102
RTVSPost2010PropOp40
 70
     1
102
RTVSPost2010Prop41ColorIndex
 90
       18
102
RTVSPost2010Prop41ColorRGB
 90
        0
102
RTVSPost2010PropOp41
 70
     1
102
RTVSPost2010Prop42
 90
       50
102
RTVSPost2010PropOp42
 70
     1
102
RTVSPost2010Prop43
 90
        3
102
RTVSPost2010PropOp43
 70
     1
102
RTVSPost2010Prop44ColorIndex
 90
        5
102
RTVSPost2010Prop44ColorRGB
 90
      255
102
RTVSPost2010PropOp44
 70
     1
102
RTVSPost2010Prop45
280
     0
102
RTVSPost2010PropOp45
 70
     1
102
RTVSPost2010Prop46
 90
       50
102
RTVSPost2010PropOp46
 70
     1
102
RTVSPost2010Prop47
 90
       50
102
RTVSPost2010PropOp47
 70
     1
102
RTVSPost2010Prop48
 90
       50
102
RTVSPost2010PropOp48
 70
     1
102
RTVSPost2010Prop49
280
     0
102
RTVSPost2010PropOp49
 70
     1
102
RTVSPost2010Prop50
 90
       50
102
RTVSPost2010PropOp50
 70
     1
102
RTVSPost2010Prop51ColorIndex
 90
      256
102
RTVSPost2010Prop51ColorRGB
 90
-16777216
102
RTVSPost2010PropOp51
 70
     0
102
RTVSPost2010Prop52
140
1.0
102
RTVSPost2010PropOp52
 70
     0
102
RTVSPost2010Prop53
 90
        2
102
RTVSPost2010PropOp53
 70
     1
102
RTVSPost2010Prop54
  1
strokes_ogs.tif
102
RTVSPost2010PropOp54
 70
     1
102
RTVSPost2010Prop55
280
     0
102
RTVSPost2010PropOp55
 70
     1
102
RTVSPost2010Prop56
140
1.0
102
RTVSPost2010PropOp56
 70
     1
102
RTVSPost2010Prop57
140
1.0
102
RTVSPost2010PropOp57
 70
     1
102
RTVSPropertyOp0
 70
     1
102
RTVSPropertyOp1
 70
     1
102
RTVSPropertyOp2
 70
     1
102
RTVSPropertyOp3
 70
     1
102
RTVSPropertyOp4
 70
     1
102
RTVSPropertyOp5
 70
     1
102
RTVSPropertyOp6
 70
     1
102
RTVSPropertyOp7
 70
     1
102
RTVSPropertyOp8
 70
     1
102
RTVSPropertyOp9
 70
     1
102
RTVSPropertyOp10
 70
     1
102
RTVSPropertyOp11
 70
     1
102
RTVSPropertyOp12
 70
     1
102
RTVSPropertyOp13
 70
     1
102
RTVSPropertyOp14
 70
     1
102
RTVSPropertyOp15
 70
     1
102
RTVSPropertyOp16
 70
     1
102
RTVSPropertyOp17
 70
     1
102
RTVSPropertyOp18
 70
     1
102
RTVSPropertyOp19
 70
     1
102
RTVSPropertyOp20
 70
     1
102
RTVSPropertyOp21
 70
     1
102
RTVSPropertyOp22
 70
     1
102
RTVSPropertyOp23
 70
     1
102
RTVSPropertyOp24
 70
     1
102
RTVSPropertyOp25
 70
     1
102
RTVSPropertyOp26
 70
     1
102
RTVSPropertyOp27
 70
     1
102
RTVSPropertyOp28
 70
     1
102
RTVSPropertyOp29
 70
     1
102
RTVSPropertyOp30
 70
     1
102
RTVSPropertyOp31
 70
     1
102
RTVSPropertyOp32
 70
     1
102
RTVSPropertyOp33
 70
     1
102
RTVSPropertyOp34
 70
     1
102
RTVSPropertyOp35
 70
     1
102
RTVSPropertyOp36
 70
     1
102
RTVSPropertyOp37
 70
     1
102
RTVSPropertyOp38
 70
     1
102
RTVSPropertyOp39
 70
     1
102
RTVSPropertyOp40
 70
     1
102
RTVSPropertyOp41
 70
     1
102
RTVSPropertyOp42
 70
     1
102
RTVSPropertyOp43
 70
     1
102
RTVSPropertyOp44
 70
     1
102
RTVSPropertyOp45
 70
     1
102
RTVSPropertyOp46
 70
     1
102
RTVSPropertyOp47
 70
     1
102
RTVSPropertyOp48
 70
     1
102
RTVSPropertyOp49
 70
     1
102
RTVSPropertyOp50
 70
     1
102
RTVSPropertyOp51
 70
     0
102
RTVSPropertyOp52
 70
     0
102
RTVSPropertyOp53
 70
     1
102
RTVSPropertyOp54
 70
     1
102
RTVSPropertyOp55
 70
     1
102
RTVSPropertyOp56
 70
     1
102
RTVSPropertyOp57
 70
     1
102
RTVSPropertyOp58
 70
     1
102
RTVSPropertyOp59
 70
     1
102
RTVSPropertyOp60
 70
     1
102
RTVSPropertyOp61
 70
     1
102
RTVSPropertyOp62
 70
     1
  0
XRECORD
  5
8235
102
{ACAD_REACTORS
330
8234
102
}
330
8234
100
AcDbXrecord
280
     1
102
RTVSPost2010Prop28
280
     0
102
RTVSPost2010PropOp28
 70
     1
102
RTVSPost2010Prop29
280
     1
102
RTVSPost2010PropOp29
 70
     1
102
RTVSPost2010Prop30
280
     1
102
RTVSPost2010PropOp30
 70
     1
102
RTVSPost2010Prop31
280
     0
102
RTVSPost2010PropOp31
 70
     1
102
RTVSPost2010Prop32
280
     0
102
RTVSPost2010PropOp32
 70
     1
102
RTVSPost2010Prop33
280
     0
102
RTVSPost2010PropOp33
 70
     1
102
RTVSPost2010Prop34
280
     0
102
RTVSPost2010PropOp34
 70
     1
102
RTVSPost2010Prop35
280
     0
102
RTVSPost2010PropOp35
 70
     1
102
RTVSPost2010Prop36
280
     0
102
RTVSPost2010PropOp36
 70
     1
102
RTVSPost2010Prop37
 90
       50
102
RTVSPost2010PropOp37
 70
     1
102
RTVSPost2010Prop38
140
0.0
102
RTVSPost2010PropOp38
 70
     1
102
RTVSPost2010Prop39
140
1.0
102
RTVSPost2010PropOp39
 70
     1
102
RTVSPost2010Prop40
 90
        0
102
RTVSPost2010PropOp40
 70
     1
102
RTVSPost2010Prop41ColorIndex
 90
       18
102
RTVSPost2010Prop41ColorRGB
 90
        0
102
RTVSPost2010PropOp41
 70
     1
102
RTVSPost2010Prop42
 90
       50
102
RTVSPost2010PropOp42
 70
     1
102
RTVSPost2010Prop43
 90
        3
102
RTVSPost2010PropOp43
 70
     1
102
RTVSPost2010Prop44ColorIndex
 90
        5
102
RTVSPost2010Prop44ColorRGB
 90
      255
102
RTVSPost2010PropOp44
 70
     1
102
RTVSPost2010Prop45
280
     0
102
RTVSPost2010PropOp45
 70
     1
102
RTVSPost2010Prop46
 90
       50
102
RTVSPost2010PropOp46
 70
     1
102
RTVSPost2010Prop47
 90
       50
102
RTVSPost2010PropOp47
 70
     1
102
RTVSPost2010Prop48
 90
       50
102
RTVSPost2010PropOp48
 70
     1
102
RTVSPost2010Prop49
280
     0
102
RTVSPost2010PropOp49
 70
     1
102
RTVSPost2010Prop50
 90
       50
102
RTVSPost2010PropOp50
 70
     1
102
RTVSPost2010Prop51ColorIndex
 90
      256
102
RTVSPost2010Prop51ColorRGB
 90
-16777216
102
RTVSPost2010PropOp51
 70
     0
102
RTVSPost2010Prop52
140
1.0
102
RTVSPost2010PropOp52
 70
     0
102
RTVSPost2010Prop53
 90
        2
102
RTVSPost2010PropOp53
 70
     1
102
RTVSPost2010Prop54
  1
strokes_ogs.tif
102
RTVSPost2010PropOp54
 70
     1
102
RTVSPost2010Prop55
280
     0
102
RTVSPost2010PropOp55
 70
     1
102
RTVSPost2010Prop56
140
1.0
102
RTVSPost2010PropOp56
 70
     1
102
RTVSPost2010Prop57
140
1.0
102
RTVSPost2010PropOp57
 70
     1
102
RTVSPropertyOp0
 70
     1
102
RTVSPropertyOp1
 70
     1
102
RTVSPropertyOp2
 70
     1
102
RTVSPropertyOp3
 70
     1
102
RTVSPropertyOp4
 70
     1
102
RTVSPropertyOp5
 70
     1
102
RTVSPropertyOp6
 70
     1
102
RTVSPropertyOp7
 70
     1
102
RTVSPropertyOp8
 70
     1
102
RTVSPropertyOp9
 70
     1
102
RTVSPropertyOp10
 70
     1
102
RTVSPropertyOp11
 70
     1
102
RTVSPropertyOp12
 70
     1
102
RTVSPropertyOp13
 70
     1
102
RTVSPropertyOp14
 70
     1
102
RTVSPropertyOp15
 70
     1
102
RTVSPropertyOp16
 70
     1
102
RTVSPropertyOp17
 70
     1
102
RTVSPropertyOp18
 70
     1
102
RTVSPropertyOp19
 70
     1
102
RTVSPropertyOp20
 70
     1
102
RTVSPropertyOp21
 70
     1
102
RTVSPropertyOp22
 70
     1
102
RTVSPropertyOp23
 70
     1
102
RTVSPropertyOp24
 70
     1
102
RTVSPropertyOp25
 70
     1
102
RTVSPropertyOp26
 70
     1
102
RTVSPropertyOp27
 70
     1
102
RTVSPropertyOp28
 70
     1
102
RTVSPropertyOp29
 70
     1
102
RTVSPropertyOp30
 70
     1
102
RTVSPropertyOp31
 70
     1
102
RTVSPropertyOp32
 70
     1
102
RTVSPropertyOp33
 70
     1
102
RTVSPropertyOp34
 70
     1
102
RTVSPropertyOp35
 70
     1
102
RTVSPropertyOp36
 70
     1
102
RTVSPropertyOp37
 70
     1
102
RTVSPropertyOp38
 70
     1
102
RTVSPropertyOp39
 70
     1
102
RTVSPropertyOp40
 70
     1
102
RTVSPropertyOp41
 70
     1
102
RTVSPropertyOp42
 70
     1
102
RTVSPropertyOp43
 70
     1
102
RTVSPropertyOp44
 70
     1
102
RTVSPropertyOp45
 70
     1
102
RTVSPropertyOp46
 70
     1
102
RTVSPropertyOp47
 70
     1
102
RTVSPropertyOp48
 70
     1
102
RTVSPropertyOp49
 70
     1
102
RTVSPropertyOp50
 70
     1
102
RTVSPropertyOp51
 70
     0
102
RTVSPropertyOp52
 70
     0
102
RTVSPropertyOp53
 70
     1
102
RTVSPropertyOp54
 70
     1
102
RTVSPropertyOp55
 70
     1
102
RTVSPropertyOp56
 70
     1
102
RTVSPropertyOp57
 70
     1
102
RTVSPropertyOp58
 70
     1
102
RTVSPropertyOp59
 70
     1
102
RTVSPropertyOp60
 70
     1
102
RTVSPropertyOp61
 70
     1
102
RTVSPropertyOp62
 70
     1
  0
XRECORD
  5
8239
102
{ACAD_REACTORS
330
8238
102
}
330
8238
100
AcDbXrecord
280
     1
102
RTVSPost2010Prop28
280
     0
102
RTVSPost2010PropOp28
 70
     1
102
RTVSPost2010Prop29
280
     1
102
RTVSPost2010PropOp29
 70
     1
102
RTVSPost2010Prop30
280
     1
102
RTVSPost2010PropOp30
 70
     1
102
RTVSPost2010Prop31
280
     0
102
RTVSPost2010PropOp31
 70
     1
102
RTVSPost2010Prop32
280
     0
102
RTVSPost2010PropOp32
 70
     1
102
RTVSPost2010Prop33
280
     0
102
RTVSPost2010PropOp33
 70
     1
102
RTVSPost2010Prop34
280
     0
102
RTVSPost2010PropOp34
 70
     1
102
RTVSPost2010Prop35
280
     0
102
RTVSPost2010PropOp35
 70
     1
102
RTVSPost2010Prop36
280
     0
102
RTVSPost2010PropOp36
 70
     1
102
RTVSPost2010Prop37
 90
       50
102
RTVSPost2010PropOp37
 70
     1
102
RTVSPost2010Prop38
140
0.0
102
RTVSPost2010PropOp38
 70
     1
102
RTVSPost2010Prop39
140
1.0
102
RTVSPost2010PropOp39
 70
     1
102
RTVSPost2010Prop40
 90
        0
102
RTVSPost2010PropOp40
 70
     1
102
RTVSPost2010Prop41ColorIndex
 90
       18
102
RTVSPost2010Prop41ColorRGB
 90
        0
102
RTVSPost2010PropOp41
 70
     1
102
RTVSPost2010Prop42
 90
       50
102
RTVSPost2010PropOp42
 70
     1
102
RTVSPost2010Prop43
 90
        3
102
RTVSPost2010PropOp43
 70
     1
102
RTVSPost2010Prop44ColorIndex
 90
        5
102
RTVSPost2010Prop44ColorRGB
 90
      255
102
RTVSPost2010PropOp44
 70
     1
102
RTVSPost2010Prop45
280
     0
102
RTVSPost2010PropOp45
 70
     1
102
RTVSPost2010Prop46
 90
       50
102
RTVSPost2010PropOp46
 70
     1
102
RTVSPost2010Prop47
 90
       50
102
RTVSPost2010PropOp47
 70
     1
102
RTVSPost2010Prop48
 90
       50
102
RTVSPost2010PropOp48
 70
     1
102
RTVSPost2010Prop49
280
     0
102
RTVSPost2010PropOp49
 70
     1
102
RTVSPost2010Prop50
 90
       50
102
RTVSPost2010PropOp50
 70
     1
102
RTVSPost2010Prop51ColorIndex
 90
      256
102
RTVSPost2010Prop51ColorRGB
 90
-16777216
102
RTVSPost2010PropOp51
 70
     0
102
RTVSPost2010Prop52
140
1.0
102
RTVSPost2010PropOp52
 70
     0
102
RTVSPost2010Prop53
 90
        2
102
RTVSPost2010PropOp53
 70
     1
102
RTVSPost2010Prop54
  1
strokes_ogs.tif
102
RTVSPost2010PropOp54
 70
     1
102
RTVSPost2010Prop55
280
     0
102
RTVSPost2010PropOp55
 70
     1
102
RTVSPost2010Prop56
140
1.0
102
RTVSPost2010PropOp56
 70
     1
102
RTVSPost2010Prop57
140
1.0
102
RTVSPost2010PropOp57
 70
     1
102
RTVSPropertyOp0
 70
     1
102
RTVSPropertyOp1
 70
     1
102
RTVSPropertyOp2
 70
     1
102
RTVSPropertyOp3
 70
     1
102
RTVSPropertyOp4
 70
     1
102
RTVSPropertyOp5
 70
     1
102
RTVSPropertyOp6
 70
     1
102
RTVSPropertyOp7
 70
     1
102
RTVSPropertyOp8
 70
     1
102
RTVSPropertyOp9
 70
     1
102
RTVSPropertyOp10
 70
     1
102
RTVSPropertyOp11
 70
     1
102
RTVSPropertyOp12
 70
     1
102
RTVSPropertyOp13
 70
     1
102
RTVSPropertyOp14
 70
     1
102
RTVSPropertyOp15
 70
     1
102
RTVSPropertyOp16
 70
     1
102
RTVSPropertyOp17
 70
     1
102
RTVSPropertyOp18
 70
     1
102
RTVSPropertyOp19
 70
     1
102
RTVSPropertyOp20
 70
     1
102
RTVSPropertyOp21
 70
     1
102
RTVSPropertyOp22
 70
     1
102
RTVSPropertyOp23
 70
     1
102
RTVSPropertyOp24
 70
     1
102
RTVSPropertyOp25
 70
     1
102
RTVSPropertyOp26
 70
     1
102
RTVSPropertyOp27
 70
     1
102
RTVSPropertyOp28
 70
     1
102
RTVSPropertyOp29
 70
     1
102
RTVSPropertyOp30
 70
     1
102
RTVSPropertyOp31
 70
     1
102
RTVSPropertyOp32
 70
     1
102
RTVSPropertyOp33
 70
     1
102
RTVSPropertyOp34
 70
     1
102
RTVSPropertyOp35
 70
     1
102
RTVSPropertyOp36
 70
     1
102
RTVSPropertyOp37
 70
     1
102
RTVSPropertyOp38
 70
     1
102
RTVSPropertyOp39
 70
     1
102
RTVSPropertyOp40
 70
     1
102
RTVSPropertyOp41
 70
     1
102
RTVSPropertyOp42
 70
     1
102
RTVSPropertyOp43
 70
     1
102
RTVSPropertyOp44
 70
     1
102
RTVSPropertyOp45
 70
     1
102
RTVSPropertyOp46
 70
     1
102
RTVSPropertyOp47
 70
     1
102
RTVSPropertyOp48
 70
     1
102
RTVSPropertyOp49
 70
     1
102
RTVSPropertyOp50
 70
     1
102
RTVSPropertyOp51
 70
     0
102
RTVSPropertyOp52
 70
     0
102
RTVSPropertyOp53
 70
     1
102
RTVSPropertyOp54
 70
     1
102
RTVSPropertyOp55
 70
     1
102
RTVSPropertyOp56
 70
     1
102
RTVSPropertyOp57
 70
     1
102
RTVSPropertyOp58
 70
     1
102
RTVSPropertyOp59
 70
     1
102
RTVSPropertyOp60
 70
     1
102
RTVSPropertyOp61
 70
     1
102
RTVSPropertyOp62
 70
     1
  0
XRECORD
  5
8253
102
{ACAD_REACTORS
330
8252
102
}
330
8252
100
AcDbXrecord
280
     1
102
RTVSPost2010Prop28
280
     0
102
RTVSPost2010PropOp28
 70
     0
102
RTVSPost2010Prop29
280
     1
102
RTVSPost2010PropOp29
 70
     0
102
RTVSPost2010Prop30
280
     1
102
RTVSPost2010PropOp30
 70
     0
102
RTVSPost2010Prop31
280
     0
102
RTVSPost2010PropOp31
 70
     0
102
RTVSPost2010Prop32
280
     0
102
RTVSPost2010PropOp32
 70
     0
102
RTVSPost2010Prop33
280
     0
102
RTVSPost2010PropOp33
 70
     0
102
RTVSPost2010Prop34
280
     0
102
RTVSPost2010PropOp34
 70
     0
102
RTVSPost2010Prop35
280
     0
102
RTVSPost2010PropOp35
 70
     0
102
RTVSPost2010Prop36
280
     0
102
RTVSPost2010PropOp36
 70
     0
102
RTVSPost2010Prop37
 90
       50
102
RTVSPost2010PropOp37
 70
     0
102
RTVSPost2010Prop38
140
0.0
102
RTVSPost2010PropOp38
 70
     0
102
RTVSPost2010Prop39
140
1.0
102
RTVSPost2010PropOp39
 70
     0
102
RTVSPost2010Prop40
 90
        0
102
RTVSPost2010PropOp40
 70
     0
102
RTVSPost2010Prop41ColorIndex
 90
       18
102
RTVSPost2010Prop41ColorRGB
 90
        0
102
RTVSPost2010PropOp41
 70
     0
102
RTVSPost2010Prop42
 90
       50
102
RTVSPost2010PropOp42
 70
     0
102
RTVSPost2010Prop43
 90
        3
102
RTVSPost2010PropOp43
 70
     0
102
RTVSPost2010Prop44ColorIndex
 90
        5
102
RTVSPost2010Prop44ColorRGB
 90
      255
102
RTVSPost2010PropOp44
 70
     0
102
RTVSPost2010Prop45
280
     0
102
RTVSPost2010PropOp45
 70
     0
102
RTVSPost2010Prop46
 90
       50
102
RTVSPost2010PropOp46
 70
     0
102
RTVSPost2010Prop47
 90
       50
102
RTVSPost2010PropOp47
 70
     0
102
RTVSPost2010Prop48
 90
       50
102
RTVSPost2010PropOp48
 70
     0
102
RTVSPost2010Prop49
280
     0
102
RTVSPost2010PropOp49
 70
     0
102
RTVSPost2010Prop50
 90
       50
102
RTVSPost2010PropOp50
 70
     0
102
RTVSPost2010Prop51ColorIndex
 90
      256
102
RTVSPost2010Prop51ColorRGB
 90
-16777216
102
RTVSPost2010PropOp51
 70
     0
102
RTVSPost2010Prop52
140
1.0
102
RTVSPost2010PropOp52
 70
     0
102
RTVSPost2010Prop53
 90
        2
102
RTVSPost2010PropOp53
 70
     0
102
RTVSPost2010Prop54
  1
strokes_ogs.tif
102
RTVSPost2010PropOp54
 70
     0
102
RTVSPost2010Prop55
280
     0
102
RTVSPost2010PropOp55
 70
     0
102
RTVSPost2010Prop56
140
1.0
102
RTVSPost2010PropOp56
 70
     0
102
RTVSPost2010Prop57
140
1.0
102
RTVSPost2010PropOp57
 70
     0
102
RTVSPropertyOp0
 70
     0
102
RTVSPropertyOp1
 70
     0
102
RTVSPropertyOp2
 70
     0
102
RTVSPropertyOp3
 70
     0
102
RTVSPropertyOp4
 70
     0
102
RTVSPropertyOp5
 70
     0
102
RTVSPropertyOp6
 70
     0
102
RTVSPropertyOp7
 70
     0
102
RTVSPropertyOp8
 70
     0
102
RTVSPropertyOp9
 70
     0
102
RTVSPropertyOp10
 70
     0
102
RTVSPropertyOp11
 70
     0
102
RTVSPropertyOp12
 70
     0
102
RTVSPropertyOp13
 70
     0
102
RTVSPropertyOp14
 70
     2
102
RTVSPropertyOp15
 70
     0
102
RTVSPropertyOp16
 70
     0
102
RTVSPropertyOp17
 70
     0
102
RTVSPropertyOp18
 70
     0
102
RTVSPropertyOp19
 70
     0
102
RTVSPropertyOp20
 70
     0
102
RTVSPropertyOp21
 70
     0
102
RTVSPropertyOp22
 70
     0
102
RTVSPropertyOp23
 70
     0
102
RTVSPropertyOp24
 70
     0
102
RTVSPropertyOp25
 70
     0
102
RTVSPropertyOp26
 70
     0
102
RTVSPropertyOp27
 70
     0
102
RTVSPropertyOp28
 70
     0
102
RTVSPropertyOp29
 70
     0
102
RTVSPropertyOp30
 70
     0
102
RTVSPropertyOp31
 70
     0
102
RTVSPropertyOp32
 70
     0
102
RTVSPropertyOp33
 70
     0
102
RTVSPropertyOp34
 70
     0
102
RTVSPropertyOp35
 70
     0
102
RTVSPropertyOp36
 70
     0
102
RTVSPropertyOp37
 70
     0
102
RTVSPropertyOp38
 70
     0
102
RTVSPropertyOp39
 70
     0
102
RTVSPropertyOp40
 70
     0
102
RTVSPropertyOp41
 70
     0
102
RTVSPropertyOp42
 70
     0
102
RTVSPropertyOp43
 70
     0
102
RTVSPropertyOp44
 70
     0
102
RTVSPropertyOp45
 70
     0
102
RTVSPropertyOp46
 70
     0
102
RTVSPropertyOp47
 70
     0
102
RTVSPropertyOp48
 70
     0
102
RTVSPropertyOp49
 70
     0
102
RTVSPropertyOp50
 70
     0
102
RTVSPropertyOp51
 70
     0
102
RTVSPropertyOp52
 70
     0
102
RTVSPropertyOp53
 70
     0
102
RTVSPropertyOp54
 70
     0
102
RTVSPropertyOp55
 70
     0
102
RTVSPropertyOp56
 70
     0
102
RTVSPropertyOp57
 70
     0
102
RTVSPropertyOp58
 70
     1
102
RTVSPropertyOp59
 70
     1
102
RTVSPropertyOp60
 70
     1
102
RTVSPropertyOp61
 70
     1
102
RTVSPropertyOp62
 70
     1
  0
XRECORD
  5
8241
102
{ACAD_REACTORS
330
8240
102
}
330
8240
100
AcDbXrecord
280
     1
102
RTVSPost2010Prop28
280
     0
102
RTVSPost2010PropOp28
 70
     1
102
RTVSPost2010Prop29
280
     1
102
RTVSPost2010PropOp29
 70
     1
102
RTVSPost2010Prop30
280
     1
102
RTVSPost2010PropOp30
 70
     1
102
RTVSPost2010Prop31
280
     0
102
RTVSPost2010PropOp31
 70
     1
102
RTVSPost2010Prop32
280
     0
102
RTVSPost2010PropOp32
 70
     1
102
RTVSPost2010Prop33
280
     0
102
RTVSPost2010PropOp33
 70
     1
102
RTVSPost2010Prop34
280
     0
102
RTVSPost2010PropOp34
 70
     1
102
RTVSPost2010Prop35
280
     0
102
RTVSPost2010PropOp35
 70
     1
102
RTVSPost2010Prop36
280
     0
102
RTVSPost2010PropOp36
 70
     1
102
RTVSPost2010Prop37
 90
       50
102
RTVSPost2010PropOp37
 70
     1
102
RTVSPost2010Prop38
140
0.0
102
RTVSPost2010PropOp38
 70
     1
102
RTVSPost2010Prop39
140
1.0
102
RTVSPost2010PropOp39
 70
     1
102
RTVSPost2010Prop40
 90
        0
102
RTVSPost2010PropOp40
 70
     1
102
RTVSPost2010Prop41ColorIndex
 90
       18
102
RTVSPost2010Prop41ColorRGB
 90
        0
102
RTVSPost2010PropOp41
 70
     1
102
RTVSPost2010Prop42
 90
       50
102
RTVSPost2010PropOp42
 70
     1
102
RTVSPost2010Prop43
 90
        3
102
RTVSPost2010PropOp43
 70
     1
102
RTVSPost2010Prop44ColorIndex
 90
        5
102
RTVSPost2010Prop44ColorRGB
 90
      255
102
RTVSPost2010PropOp44
 70
     1
102
RTVSPost2010Prop45
280
     0
102
RTVSPost2010PropOp45
 70
     1
102
RTVSPost2010Prop46
 90
       50
102
RTVSPost2010PropOp46
 70
     1
102
RTVSPost2010Prop47
 90
       50
102
RTVSPost2010PropOp47
 70
     1
102
RTVSPost2010Prop48
 90
       50
102
RTVSPost2010PropOp48
 70
     1
102
RTVSPost2010Prop49
280
     0
102
RTVSPost2010PropOp49
 70
     1
102
RTVSPost2010Prop50
 90
       50
102
RTVSPost2010PropOp50
 70
     1
102
RTVSPost2010Prop51ColorIndex
 90
      256
102
RTVSPost2010Prop51ColorRGB
 90
-16777216
102
RTVSPost2010PropOp51
 70
     0
102
RTVSPost2010Prop52
140
1.0
102
RTVSPost2010PropOp52
 70
     0
102
RTVSPost2010Prop53
 90
        2
102
RTVSPost2010PropOp53
 70
     1
102
RTVSPost2010Prop54
  1
strokes_ogs.tif
102
RTVSPost2010PropOp54
 70
     1
102
RTVSPost2010Prop55
280
     0
102
RTVSPost2010PropOp55
 70
     1
102
RTVSPost2010Prop56
140
1.0
102
RTVSPost2010PropOp56
 70
     1
102
RTVSPost2010Prop57
140
1.0
102
RTVSPost2010PropOp57
 70
     1
102
RTVSPropertyOp0
 70
     1
102
RTVSPropertyOp1
 70
     1
102
RTVSPropertyOp2
 70
     1
102
RTVSPropertyOp3
 70
     1
102
RTVSPropertyOp4
 70
     1
102
RTVSPropertyOp5
 70
     1
102
RTVSPropertyOp6
 70
     1
102
RTVSPropertyOp7
 70
     1
102
RTVSPropertyOp8
 70
     1
102
RTVSPropertyOp9
 70
     1
102
RTVSPropertyOp10
 70
     1
102
RTVSPropertyOp11
 70
     1
102
RTVSPropertyOp12
 70
     1
102
RTVSPropertyOp13
 70
     1
102
RTVSPropertyOp14
 70
     1
102
RTVSPropertyOp15
 70
     1
102
RTVSPropertyOp16
 70
     1
102
RTVSPropertyOp17
 70
     1
102
RTVSPropertyOp18
 70
     1
102
RTVSPropertyOp19
 70
     1
102
RTVSPropertyOp20
 70
     1
102
RTVSPropertyOp21
 70
     1
102
RTVSPropertyOp22
 70
     1
102
RTVSPropertyOp23
 70
     1
102
RTVSPropertyOp24
 70
     1
102
RTVSPropertyOp25
 70
     1
102
RTVSPropertyOp26
 70
     1
102
RTVSPropertyOp27
 70
     1
102
RTVSPropertyOp28
 70
     1
102
RTVSPropertyOp29
 70
     1
102
RTVSPropertyOp30
 70
     1
102
RTVSPropertyOp31
 70
     1
102
RTVSPropertyOp32
 70
     1
102
RTVSPropertyOp33
 70
     1
102
RTVSPropertyOp34
 70
     1
102
RTVSPropertyOp35
 70
     1
102
RTVSPropertyOp36
 70
     1
102
RTVSPropertyOp37
 70
     1
102
RTVSPropertyOp38
 70
     1
102
RTVSPropertyOp39
 70
     1
102
RTVSPropertyOp40
 70
     1
102
RTVSPropertyOp41
 70
     1
102
RTVSPropertyOp42
 70
     1
102
RTVSPropertyOp43
 70
     1
102
RTVSPropertyOp44
 70
     1
102
RTVSPropertyOp45
 70
     1
102
RTVSPropertyOp46
 70
     1
102
RTVSPropertyOp47
 70
     1
102
RTVSPropertyOp48
 70
     1
102
RTVSPropertyOp49
 70
     1
102
RTVSPropertyOp50
 70
     1
102
RTVSPropertyOp51
 70
     0
102
RTVSPropertyOp52
 70
     0
102
RTVSPropertyOp53
 70
     1
102
RTVSPropertyOp54
 70
     1
102
RTVSPropertyOp55
 70
     1
102
RTVSPropertyOp56
 70
     1
102
RTVSPropertyOp57
 70
     1
102
RTVSPropertyOp58
 70
     1
102
RTVSPropertyOp59
 70
     1
102
RTVSPropertyOp60
 70
     1
102
RTVSPropertyOp61
 70
     1
102
RTVSPropertyOp62
 70
     1
  0
XRECORD
  5
8225
102
{ACAD_REACTORS
330
8224
102
}
330
8224
100
AcDbXrecord
280
     1
102
RTVSPost2010Prop28
280
     0
102
RTVSPost2010PropOp28
 70
     1
102
RTVSPost2010Prop29
280
     1
102
RTVSPost2010PropOp29
 70
     1
102
RTVSPost2010Prop30
280
     1
102
RTVSPost2010PropOp30
 70
     1
102
RTVSPost2010Prop31
280
     0
102
RTVSPost2010PropOp31
 70
     1
102
RTVSPost2010Prop32
280
     0
102
RTVSPost2010PropOp32
 70
     1
102
RTVSPost2010Prop33
280
     0
102
RTVSPost2010PropOp33
 70
     1
102
RTVSPost2010Prop34
280
     0
102
RTVSPost2010PropOp34
 70
     1
102
RTVSPost2010Prop35
280
     0
102
RTVSPost2010PropOp35
 70
     1
102
RTVSPost2010Prop36
280
     0
102
RTVSPost2010PropOp36
 70
     1
102
RTVSPost2010Prop37
 90
       50
102
RTVSPost2010PropOp37
 70
     1
102
RTVSPost2010Prop38
140
0.0
102
RTVSPost2010PropOp38
 70
     1
102
RTVSPost2010Prop39
140
1.0
102
RTVSPost2010PropOp39
 70
     1
102
RTVSPost2010Prop40
 90
        0
102
RTVSPost2010PropOp40
 70
     1
102
RTVSPost2010Prop41ColorIndex
 90
       18
102
RTVSPost2010Prop41ColorRGB
 90
        0
102
RTVSPost2010PropOp41
 70
     1
102
RTVSPost2010Prop42
 90
       50
102
RTVSPost2010PropOp42
 70
     1
102
RTVSPost2010Prop43
 90
        3
102
RTVSPost2010PropOp43
 70
     1
102
RTVSPost2010Prop44ColorIndex
 90
        5
102
RTVSPost2010Prop44ColorRGB
 90
      255
102
RTVSPost2010PropOp44
 70
     1
102
RTVSPost2010Prop45
280
     0
102
RTVSPost2010PropOp45
 70
     1
102
RTVSPost2010Prop46
 90
       50
102
RTVSPost2010PropOp46
 70
     1
102
RTVSPost2010Prop47
 90
       50
102
RTVSPost2010PropOp47
 70
     1
102
RTVSPost2010Prop48
 90
       50
102
RTVSPost2010PropOp48
 70
     1
102
RTVSPost2010Prop49
280
     0
102
RTVSPost2010PropOp49
 70
     1
102
RTVSPost2010Prop50
 90
       50
102
RTVSPost2010PropOp50
 70
     1
102
RTVSPost2010Prop51ColorIndex
 90
      256
102
RTVSPost2010Prop51ColorRGB
 90
-16777216
102
RTVSPost2010PropOp51
 70
     0
102
RTVSPost2010Prop52
140
1.0
102
RTVSPost2010PropOp52
 70
     0
102
RTVSPost2010Prop53
 90
        2
102
RTVSPost2010PropOp53
 70
     1
102
RTVSPost2010Prop54
  1
strokes_ogs.tif
102
RTVSPost2010PropOp54
 70
     1
102
RTVSPost2010Prop55
280
     0
102
RTVSPost2010PropOp55
 70
     1
102
RTVSPost2010Prop56
140
1.0
102
RTVSPost2010PropOp56
 70
     1
102
RTVSPost2010Prop57
140
1.0
102
RTVSPost2010PropOp57
 70
     1
102
RTVSPropertyOp0
 70
     1
102
RTVSPropertyOp1
 70
     1
102
RTVSPropertyOp2
 70
     1
102
RTVSPropertyOp3
 70
     1
102
RTVSPropertyOp4
 70
     1
102
RTVSPropertyOp5
 70
     1
102
RTVSPropertyOp6
 70
     1
102
RTVSPropertyOp7
 70
     1
102
RTVSPropertyOp8
 70
     1
102
RTVSPropertyOp9
 70
     1
102
RTVSPropertyOp10
 70
     1
102
RTVSPropertyOp11
 70
     1
102
RTVSPropertyOp12
 70
     1
102
RTVSPropertyOp13
 70
     1
102
RTVSPropertyOp14
 70
     1
102
RTVSPropertyOp15
 70
     1
102
RTVSPropertyOp16
 70
     1
102
RTVSPropertyOp17
 70
     1
102
RTVSPropertyOp18
 70
     1
102
RTVSPropertyOp19
 70
     1
102
RTVSPropertyOp20
 70
     1
102
RTVSPropertyOp21
 70
     1
102
RTVSPropertyOp22
 70
     1
102
RTVSPropertyOp23
 70
     1
102
RTVSPropertyOp24
 70
     1
102
RTVSPropertyOp25
 70
     1
102
RTVSPropertyOp26
 70
     1
102
RTVSPropertyOp27
 70
     1
102
RTVSPropertyOp28
 70
     1
102
RTVSPropertyOp29
 70
     1
102
RTVSPropertyOp30
 70
     1
102
RTVSPropertyOp31
 70
     1
102
RTVSPropertyOp32
 70
     1
102
RTVSPropertyOp33
 70
     1
102
RTVSPropertyOp34
 70
     1
102
RTVSPropertyOp35
 70
     1
102
RTVSPropertyOp36
 70
     1
102
RTVSPropertyOp37
 70
     1
102
RTVSPropertyOp38
 70
     1
102
RTVSPropertyOp39
 70
     1
102
RTVSPropertyOp40
 70
     1
102
RTVSPropertyOp41
 70
     1
102
RTVSPropertyOp42
 70
     1
102
RTVSPropertyOp43
 70
     1
102
RTVSPropertyOp44
 70
     1
102
RTVSPropertyOp45
 70
     1
102
RTVSPropertyOp46
 70
     1
102
RTVSPropertyOp47
 70
     1
102
RTVSPropertyOp48
 70
     1
102
RTVSPropertyOp49
 70
     1
102
RTVSPropertyOp50
 70
     1
102
RTVSPropertyOp51
 70
     0
102
RTVSPropertyOp52
 70
     0
102
RTVSPropertyOp53
 70
     1
102
RTVSPropertyOp54
 70
     1
102
RTVSPropertyOp55
 70
     1
102
RTVSPropertyOp56
 70
     1
102
RTVSPropertyOp57
 70
     1
102
RTVSPropertyOp58
 70
     1
102
RTVSPropertyOp59
 70
     1
102
RTVSPropertyOp60
 70
     1
102
RTVSPropertyOp61
 70
     1
102
RTVSPropertyOp62
 70
     1
  0
XRECORD
  5
8227
102
{ACAD_REACTORS
330
8226
102
}
330
8226
100
AcDbXrecord
280
     1
102
RTVSPost2010Prop28
280
     0
102
RTVSPost2010PropOp28
 70
     1
102
RTVSPost2010Prop29
280
     1
102
RTVSPost2010PropOp29
 70
     1
102
RTVSPost2010Prop30
280
     1
102
RTVSPost2010PropOp30
 70
     1
102
RTVSPost2010Prop31
280
     0
102
RTVSPost2010PropOp31
 70
     1
102
RTVSPost2010Prop32
280
     0
102
RTVSPost2010PropOp32
 70
     1
102
RTVSPost2010Prop33
280
     0
102
RTVSPost2010PropOp33
 70
     1
102
RTVSPost2010Prop34
280
     0
102
RTVSPost2010PropOp34
 70
     1
102
RTVSPost2010Prop35
280
     0
102
RTVSPost2010PropOp35
 70
     1
102
RTVSPost2010Prop36
280
     0
102
RTVSPost2010PropOp36
 70
     1
102
RTVSPost2010Prop37
 90
       50
102
RTVSPost2010PropOp37
 70
     1
102
RTVSPost2010Prop38
140
0.0
102
RTVSPost2010PropOp38
 70
     1
102
RTVSPost2010Prop39
140
1.0
102
RTVSPost2010PropOp39
 70
     1
102
RTVSPost2010Prop40
 90
        0
102
RTVSPost2010PropOp40
 70
     1
102
RTVSPost2010Prop41ColorIndex
 90
       18
102
RTVSPost2010Prop41ColorRGB
 90
        0
102
RTVSPost2010PropOp41
 70
     1
102
RTVSPost2010Prop42
 90
       50
102
RTVSPost2010PropOp42
 70
     1
102
RTVSPost2010Prop43
 90
        3
102
RTVSPost2010PropOp43
 70
     1
102
RTVSPost2010Prop44ColorIndex
 90
        5
102
RTVSPost2010Prop44ColorRGB
 90
      255
102
RTVSPost2010PropOp44
 70
     1
102
RTVSPost2010Prop45
280
     0
102
RTVSPost2010PropOp45
 70
     1
102
RTVSPost2010Prop46
 90
       50
102
RTVSPost2010PropOp46
 70
     1
102
RTVSPost2010Prop47
 90
       50
102
RTVSPost2010PropOp47
 70
     1
102
RTVSPost2010Prop48
 90
       50
102
RTVSPost2010PropOp48
 70
     1
102
RTVSPost2010Prop49
280
     0
102
RTVSPost2010PropOp49
 70
     1
102
RTVSPost2010Prop50
 90
       50
102
RTVSPost2010PropOp50
 70
     1
102
RTVSPost2010Prop51ColorIndex
 90
      256
102
RTVSPost2010Prop51ColorRGB
 90
-16777216
102
RTVSPost2010PropOp51
 70
     0
102
RTVSPost2010Prop52
140
1.0
102
RTVSPost2010PropOp52
 70
     0
102
RTVSPost2010Prop53
 90
        2
102
RTVSPost2010PropOp53
 70
     1
102
RTVSPost2010Prop54
  1
strokes_ogs.tif
102
RTVSPost2010PropOp54
 70
     1
102
RTVSPost2010Prop55
280
     0
102
RTVSPost2010PropOp55
 70
     1
102
RTVSPost2010Prop56
140
1.0
102
RTVSPost2010PropOp56
 70
     1
102
RTVSPost2010Prop57
140
1.0
102
RTVSPost2010PropOp57
 70
     1
102
RTVSPropertyOp0
 70
     1
102
RTVSPropertyOp1
 70
     1
102
RTVSPropertyOp2
 70
     1
102
RTVSPropertyOp3
 70
     1
102
RTVSPropertyOp4
 70
     1
102
RTVSPropertyOp5
 70
     1
102
RTVSPropertyOp6
 70
     1
102
RTVSPropertyOp7
 70
     1
102
RTVSPropertyOp8
 70
     1
102
RTVSPropertyOp9
 70
     1
102
RTVSPropertyOp10
 70
     1
102
RTVSPropertyOp11
 70
     1
102
RTVSPropertyOp12
 70
     1
102
RTVSPropertyOp13
 70
     1
102
RTVSPropertyOp14
 70
     1
102
RTVSPropertyOp15
 70
     1
102
RTVSPropertyOp16
 70
     1
102
RTVSPropertyOp17
 70
     1
102
RTVSPropertyOp18
 70
     1
102
RTVSPropertyOp19
 70
     1
102
RTVSPropertyOp20
 70
     1
102
RTVSPropertyOp21
 70
     1
102
RTVSPropertyOp22
 70
     1
102
RTVSPropertyOp23
 70
     1
102
RTVSPropertyOp24
 70
     1
102
RTVSPropertyOp25
 70
     1
102
RTVSPropertyOp26
 70
     1
102
RTVSPropertyOp27
 70
     1
102
RTVSPropertyOp28
 70
     1
102
RTVSPropertyOp29
 70
     1
102
RTVSPropertyOp30
 70
     1
102
RTVSPropertyOp31
 70
     1
102
RTVSPropertyOp32
 70
     1
102
RTVSPropertyOp33
 70
     1
102
RTVSPropertyOp34
 70
     1
102
RTVSPropertyOp35
 70
     1
102
RTVSPropertyOp36
 70
     1
102
RTVSPropertyOp37
 70
     1
102
RTVSPropertyOp38
 70
     1
102
RTVSPropertyOp39
 70
     1
102
RTVSPropertyOp40
 70
     1
102
RTVSPropertyOp41
 70
     1
102
RTVSPropertyOp42
 70
     1
102
RTVSPropertyOp43
 70
     1
102
RTVSPropertyOp44
 70
     1
102
RTVSPropertyOp45
 70
     1
102
RTVSPropertyOp46
 70
     1
102
RTVSPropertyOp47
 70
     1
102
RTVSPropertyOp48
 70
     1
102
RTVSPropertyOp49
 70
     1
102
RTVSPropertyOp50
 70
     1
102
RTVSPropertyOp51
 70
     0
102
RTVSPropertyOp52
 70
     0
102
RTVSPropertyOp53
 70
     1
102
RTVSPropertyOp54
 70
     1
102
RTVSPropertyOp55
 70
     1
102
RTVSPropertyOp56
 70
     1
102
RTVSPropertyOp57
 70
     1
102
RTVSPropertyOp58
 70
     1
102
RTVSPropertyOp59
 70
     1
102
RTVSPropertyOp60
 70
     1
102
RTVSPropertyOp61
 70
     1
102
RTVSPropertyOp62
 70
     1
  0
XRECORD
  5
8229
102
{ACAD_REACTORS
330
8228
102
}
330
8228
100
AcDbXrecord
280
     1
102
RTVSPost2010Prop28
280
     0
102
RTVSPost2010PropOp28
 70
     1
102
RTVSPost2010Prop29
280
     1
102
RTVSPost2010PropOp29
 70
     1
102
RTVSPost2010Prop30
280
     1
102
RTVSPost2010PropOp30
 70
     1
102
RTVSPost2010Prop31
280
     0
102
RTVSPost2010PropOp31
 70
     1
102
RTVSPost2010Prop32
280
     0
102
RTVSPost2010PropOp32
 70
     1
102
RTVSPost2010Prop33
280
     0
102
RTVSPost2010PropOp33
 70
     1
102
RTVSPost2010Prop34
280
     0
102
RTVSPost2010PropOp34
 70
     1
102
RTVSPost2010Prop35
280
     0
102
RTVSPost2010PropOp35
 70
     1
102
RTVSPost2010Prop36
280
     0
102
RTVSPost2010PropOp36
 70
     1
102
RTVSPost2010Prop37
 90
       50
102
RTVSPost2010PropOp37
 70
     1
102
RTVSPost2010Prop38
140
0.0
102
RTVSPost2010PropOp38
 70
     1
102
RTVSPost2010Prop39
140
1.0
102
RTVSPost2010PropOp39
 70
     1
102
RTVSPost2010Prop40
 90
        0
102
RTVSPost2010PropOp40
 70
     1
102
RTVSPost2010Prop41ColorIndex
 90
       18
102
RTVSPost2010Prop41ColorRGB
 90
        0
102
RTVSPost2010PropOp41
 70
     1
102
RTVSPost2010Prop42
 90
       50
102
RTVSPost2010PropOp42
 70
     1
102
RTVSPost2010Prop43
 90
        3
102
RTVSPost2010PropOp43
 70
     1
102
RTVSPost2010Prop44ColorIndex
 90
        5
102
RTVSPost2010Prop44ColorRGB
 90
      255
102
RTVSPost2010PropOp44
 70
     1
102
RTVSPost2010Prop45
280
     0
102
RTVSPost2010PropOp45
 70
     1
102
RTVSPost2010Prop46
 90
       50
102
RTVSPost2010PropOp46
 70
     1
102
RTVSPost2010Prop47
 90
       50
102
RTVSPost2010PropOp47
 70
     1
102
RTVSPost2010Prop48
 90
       50
102
RTVSPost2010PropOp48
 70
     1
102
RTVSPost2010Prop49
280
     0
102
RTVSPost2010PropOp49
 70
     1
102
RTVSPost2010Prop50
 90
       50
102
RTVSPost2010PropOp50
 70
     1
102
RTVSPost2010Prop51ColorIndex
 90
      256
102
RTVSPost2010Prop51ColorRGB
 90
-16777216
102
RTVSPost2010PropOp51
 70
     0
102
RTVSPost2010Prop52
140
1.0
102
RTVSPost2010PropOp52
 70
     0
102
RTVSPost2010Prop53
 90
        2
102
RTVSPost2010PropOp53
 70
     1
102
RTVSPost2010Prop54
  1
strokes_ogs.tif
102
RTVSPost2010PropOp54
 70
     1
102
RTVSPost2010Prop55
280
     0
102
RTVSPost2010PropOp55
 70
     1
102
RTVSPost2010Prop56
140
1.0
102
RTVSPost2010PropOp56
 70
     1
102
RTVSPost2010Prop57
140
1.0
102
RTVSPost2010PropOp57
 70
     1
102
RTVSPropertyOp0
 70
     1
102
RTVSPropertyOp1
 70
     1
102
RTVSPropertyOp2
 70
     1
102
RTVSPropertyOp3
 70
     1
102
RTVSPropertyOp4
 70
     1
102
RTVSPropertyOp5
 70
     1
102
RTVSPropertyOp6
 70
     1
102
RTVSPropertyOp7
 70
     1
102
RTVSPropertyOp8
 70
     1
102
RTVSPropertyOp9
 70
     1
102
RTVSPropertyOp10
 70
     1
102
RTVSPropertyOp11
 70
     1
102
RTVSPropertyOp12
 70
     1
102
RTVSPropertyOp13
 70
     1
102
RTVSPropertyOp14
 70
     1
102
RTVSPropertyOp15
 70
     1
102
RTVSPropertyOp16
 70
     1
102
RTVSPropertyOp17
 70
     1
102
RTVSPropertyOp18
 70
     1
102
RTVSPropertyOp19
 70
     1
102
RTVSPropertyOp20
 70
     1
102
RTVSPropertyOp21
 70
     1
102
RTVSPropertyOp22
 70
     1
102
RTVSPropertyOp23
 70
     1
102
RTVSPropertyOp24
 70
     1
102
RTVSPropertyOp25
 70
     1
102
RTVSPropertyOp26
 70
     1
102
RTVSPropertyOp27
 70
     1
102
RTVSPropertyOp28
 70
     1
102
RTVSPropertyOp29
 70
     1
102
RTVSPropertyOp30
 70
     1
102
RTVSPropertyOp31
 70
     1
102
RTVSPropertyOp32
 70
     1
102
RTVSPropertyOp33
 70
     1
102
RTVSPropertyOp34
 70
     1
102
RTVSPropertyOp35
 70
     1
102
RTVSPropertyOp36
 70
     1
102
RTVSPropertyOp37
 70
     1
102
RTVSPropertyOp38
 70
     1
102
RTVSPropertyOp39
 70
     1
102
RTVSPropertyOp40
 70
     1
102
RTVSPropertyOp41
 70
     1
102
RTVSPropertyOp42
 70
     1
102
RTVSPropertyOp43
 70
     1
102
RTVSPropertyOp44
 70
     1
102
RTVSPropertyOp45
 70
     1
102
RTVSPropertyOp46
 70
     1
102
RTVSPropertyOp47
 70
     1
102
RTVSPropertyOp48
 70
     1
102
RTVSPropertyOp49
 70
     1
102
RTVSPropertyOp50
 70
     1
102
RTVSPropertyOp51
 70
     0
102
RTVSPropertyOp52
 70
     0
102
RTVSPropertyOp53
 70
     1
102
RTVSPropertyOp54
 70
     1
102
RTVSPropertyOp55
 70
     1
102
RTVSPropertyOp56
 70
     1
102
RTVSPropertyOp57
 70
     1
102
RTVSPropertyOp58
 70
     1
102
RTVSPropertyOp59
 70
     1
102
RTVSPropertyOp60
 70
     1
102
RTVSPropertyOp61
 70
     1
102
RTVSPropertyOp62
 70
     1
  0
XRECORD
  5
822B
102
{ACAD_REACTORS
330
822A
102
}
330
822A
100
AcDbXrecord
280
     1
102
RTVSPost2010Prop28
280
     0
102
RTVSPost2010PropOp28
 70
     1
102
RTVSPost2010Prop29
280
     1
102
RTVSPost2010PropOp29
 70
     1
102
RTVSPost2010Prop30
280
     1
102
RTVSPost2010PropOp30
 70
     1
102
RTVSPost2010Prop31
280
     0
102
RTVSPost2010PropOp31
 70
     1
102
RTVSPost2010Prop32
280
     0
102
RTVSPost2010PropOp32
 70
     1
102
RTVSPost2010Prop33
280
     0
102
RTVSPost2010PropOp33
 70
     1
102
RTVSPost2010Prop34
280
     0
102
RTVSPost2010PropOp34
 70
     1
102
RTVSPost2010Prop35
280
     0
102
RTVSPost2010PropOp35
 70
     1
102
RTVSPost2010Prop36
280
     0
102
RTVSPost2010PropOp36
 70
     1
102
RTVSPost2010Prop37
 90
       50
102
RTVSPost2010PropOp37
 70
     1
102
RTVSPost2010Prop38
140
0.0
102
RTVSPost2010PropOp38
 70
     1
102
RTVSPost2010Prop39
140
1.0
102
RTVSPost2010PropOp39
 70
     1
102
RTVSPost2010Prop40
 90
        0
102
RTVSPost2010PropOp40
 70
     1
102
RTVSPost2010Prop41ColorIndex
 90
       18
102
RTVSPost2010Prop41ColorRGB
 90
        0
102
RTVSPost2010PropOp41
 70
     1
102
RTVSPost2010Prop42
 90
       50
102
RTVSPost2010PropOp42
 70
     1
102
RTVSPost2010Prop43
 90
        3
102
RTVSPost2010PropOp43
 70
     1
102
RTVSPost2010Prop44ColorIndex
 90
        5
102
RTVSPost2010Prop44ColorRGB
 90
      255
102
RTVSPost2010PropOp44
 70
     1
102
RTVSPost2010Prop45
280
     0
102
RTVSPost2010PropOp45
 70
     1
102
RTVSPost2010Prop46
 90
       50
102
RTVSPost2010PropOp46
 70
     1
102
RTVSPost2010Prop47
 90
       50
102
RTVSPost2010PropOp47
 70
     1
102
RTVSPost2010Prop48
 90
       50
102
RTVSPost2010PropOp48
 70
     1
102
RTVSPost2010Prop49
280
     0
102
RTVSPost2010PropOp49
 70
     1
102
RTVSPost2010Prop50
 90
       50
102
RTVSPost2010PropOp50
 70
     1
102
RTVSPost2010Prop51ColorIndex
 90
      256
102
RTVSPost2010Prop51ColorRGB
 90
-16777216
102
RTVSPost2010PropOp51
 70
     0
102
RTVSPost2010Prop52
140
1.0
102
RTVSPost2010PropOp52
 70
     0
102
RTVSPost2010Prop53
 90
        2
102
RTVSPost2010PropOp53
 70
     1
102
RTVSPost2010Prop54
  1
strokes_ogs.tif
102
RTVSPost2010PropOp54
 70
     1
102
RTVSPost2010Prop55
280
     0
102
RTVSPost2010PropOp55
 70
     1
102
RTVSPost2010Prop56
140
1.0
102
RTVSPost2010PropOp56
 70
     1
102
RTVSPost2010Prop57
140
1.0
102
RTVSPost2010PropOp57
 70
     1
102
RTVSPropertyOp0
 70
     1
102
RTVSPropertyOp1
 70
     1
102
RTVSPropertyOp2
 70
     1
102
RTVSPropertyOp3
 70
     1
102
RTVSPropertyOp4
 70
     1
102
RTVSPropertyOp5
 70
     1
102
RTVSPropertyOp6
 70
     1
102
RTVSPropertyOp7
 70
     1
102
RTVSPropertyOp8
 70
     1
102
RTVSPropertyOp9
 70
     1
102
RTVSPropertyOp10
 70
     1
102
RTVSPropertyOp11
 70
     1
102
RTVSPropertyOp12
 70
     1
102
RTVSPropertyOp13
 70
     1
102
RTVSPropertyOp14
 70
     1
102
RTVSPropertyOp15
 70
     1
102
RTVSPropertyOp16
 70
     1
102
RTVSPropertyOp17
 70
     1
102
RTVSPropertyOp18
 70
     1
102
RTVSPropertyOp19
 70
     1
102
RTVSPropertyOp20
 70
     1
102
RTVSPropertyOp21
 70
     1
102
RTVSPropertyOp22
 70
     1
102
RTVSPropertyOp23
 70
     1
102
RTVSPropertyOp24
 70
     1
102
RTVSPropertyOp25
 70
     1
102
RTVSPropertyOp26
 70
     1
102
RTVSPropertyOp27
 70
     1
102
RTVSPropertyOp28
 70
     1
102
RTVSPropertyOp29
 70
     1
102
RTVSPropertyOp30
 70
     1
102
RTVSPropertyOp31
 70
     1
102
RTVSPropertyOp32
 70
     1
102
RTVSPropertyOp33
 70
     1
102
RTVSPropertyOp34
 70
     1
102
RTVSPropertyOp35
 70
     1
102
RTVSPropertyOp36
 70
     1
102
RTVSPropertyOp37
 70
     1
102
RTVSPropertyOp38
 70
     1
102
RTVSPropertyOp39
 70
     1
102
RTVSPropertyOp40
 70
     1
102
RTVSPropertyOp41
 70
     1
102
RTVSPropertyOp42
 70
     1
102
RTVSPropertyOp43
 70
     1
102
RTVSPropertyOp44
 70
     1
102
RTVSPropertyOp45
 70
     1
102
RTVSPropertyOp46
 70
     1
102
RTVSPropertyOp47
 70
     1
102
RTVSPropertyOp48
 70
     1
102
RTVSPropertyOp49
 70
     1
102
RTVSPropertyOp50
 70
     1
102
RTVSPropertyOp51
 70
     0
102
RTVSPropertyOp52
 70
     0
102
RTVSPropertyOp53
 70
     1
102
RTVSPropertyOp54
 70
     1
102
RTVSPropertyOp55
 70
     1
102
RTVSPropertyOp56
 70
     1
102
RTVSPropertyOp57
 70
     1
102
RTVSPropertyOp58
 70
     1
102
RTVSPropertyOp59
 70
     1
102
RTVSPropertyOp60
 70
     1
102
RTVSPropertyOp61
 70
     1
102
RTVSPropertyOp62
 70
     1
  0
XRECORD
  5
8233
102
{ACAD_REACTORS
330
8232
102
}
330
8232
100
AcDbXrecord
280
     1
102
RTVSPost2010Prop28
280
     0
102
RTVSPost2010PropOp28
 70
     1
102
RTVSPost2010Prop29
280
     1
102
RTVSPost2010PropOp29
 70
     1
102
RTVSPost2010Prop30
280
     1
102
RTVSPost2010PropOp30
 70
     1
102
RTVSPost2010Prop31
280
     0
102
RTVSPost2010PropOp31
 70
     1
102
RTVSPost2010Prop32
280
     0
102
RTVSPost2010PropOp32
 70
     1
102
RTVSPost2010Prop33
280
     0
102
RTVSPost2010PropOp33
 70
     1
102
RTVSPost2010Prop34
280
     0
102
RTVSPost2010PropOp34
 70
     1
102
RTVSPost2010Prop35
280
     0
102
RTVSPost2010PropOp35
 70
     1
102
RTVSPost2010Prop36
280
     0
102
RTVSPost2010PropOp36
 70
     1
102
RTVSPost2010Prop37
 90
       50
102
RTVSPost2010PropOp37
 70
     1
102
RTVSPost2010Prop38
140
0.0
102
RTVSPost2010PropOp38
 70
     1
102
RTVSPost2010Prop39
140
1.0
102
RTVSPost2010PropOp39
 70
     1
102
RTVSPost2010Prop40
 90
        0
102
RTVSPost2010PropOp40
 70
     1
102
RTVSPost2010Prop41ColorIndex
 90
       18
102
RTVSPost2010Prop41ColorRGB
 90
        0
102
RTVSPost2010PropOp41
 70
     1
102
RTVSPost2010Prop42
 90
       50
102
RTVSPost2010PropOp42
 70
     1
102
RTVSPost2010Prop43
 90
        3
102
RTVSPost2010PropOp43
 70
     1
102
RTVSPost2010Prop44ColorIndex
 90
        5
102
RTVSPost2010Prop44ColorRGB
 90
      255
102
RTVSPost2010PropOp44
 70
     1
102
RTVSPost2010Prop45
280
     0
102
RTVSPost2010PropOp45
 70
     1
102
RTVSPost2010Prop46
 90
       50
102
RTVSPost2010PropOp46
 70
     1
102
RTVSPost2010Prop47
 90
       50
102
RTVSPost2010PropOp47
 70
     1
102
RTVSPost2010Prop48
 90
       50
102
RTVSPost2010PropOp48
 70
     1
102
RTVSPost2010Prop49
280
     0
102
RTVSPost2010PropOp49
 70
     1
102
RTVSPost2010Prop50
 90
       50
102
RTVSPost2010PropOp50
 70
     1
102
RTVSPost2010Prop51ColorIndex
 90
      256
102
RTVSPost2010Prop51ColorRGB
 90
-16777216
102
RTVSPost2010PropOp51
 70
     0
102
RTVSPost2010Prop52
140
1.0
102
RTVSPost2010PropOp52
 70
     0
102
RTVSPost2010Prop53
 90
        2
102
RTVSPost2010PropOp53
 70
     1
102
RTVSPost2010Prop54
  1
strokes_ogs.tif
102
RTVSPost2010PropOp54
 70
     1
102
RTVSPost2010Prop55
280
     0
102
RTVSPost2010PropOp55
 70
     1
102
RTVSPost2010Prop56
140
1.0
102
RTVSPost2010PropOp56
 70
     1
102
RTVSPost2010Prop57
140
1.0
102
RTVSPost2010PropOp57
 70
     1
102
RTVSPropertyOp0
 70
     1
102
RTVSPropertyOp1
 70
     1
102
RTVSPropertyOp2
 70
     1
102
RTVSPropertyOp3
 70
     1
102
RTVSPropertyOp4
 70
     1
102
RTVSPropertyOp5
 70
     1
102
RTVSPropertyOp6
 70
     1
102
RTVSPropertyOp7
 70
     1
102
RTVSPropertyOp8
 70
     1
102
RTVSPropertyOp9
 70
     1
102
RTVSPropertyOp10
 70
     1
102
RTVSPropertyOp11
 70
     1
102
RTVSPropertyOp12
 70
     1
102
RTVSPropertyOp13
 70
     1
102
RTVSPropertyOp14
 70
     1
102
RTVSPropertyOp15
 70
     1
102
RTVSPropertyOp16
 70
     1
102
RTVSPropertyOp17
 70
     1
102
RTVSPropertyOp18
 70
     1
102
RTVSPropertyOp19
 70
     1
102
RTVSPropertyOp20
 70
     1
102
RTVSPropertyOp21
 70
     1
102
RTVSPropertyOp22
 70
     1
102
RTVSPropertyOp23
 70
     1
102
RTVSPropertyOp24
 70
     1
102
RTVSPropertyOp25
 70
     1
102
RTVSPropertyOp26
 70
     1
102
RTVSPropertyOp27
 70
     1
102
RTVSPropertyOp28
 70
     1
102
RTVSPropertyOp29
 70
     1
102
RTVSPropertyOp30
 70
     1
102
RTVSPropertyOp31
 70
     1
102
RTVSPropertyOp32
 70
     1
102
RTVSPropertyOp33
 70
     1
102
RTVSPropertyOp34
 70
     1
102
RTVSPropertyOp35
 70
     1
102
RTVSPropertyOp36
 70
     1
102
RTVSPropertyOp37
 70
     1
102
RTVSPropertyOp38
 70
     1
102
RTVSPropertyOp39
 70
     1
102
RTVSPropertyOp40
 70
     1
102
RTVSPropertyOp41
 70
     1
102
RTVSPropertyOp42
 70
     1
102
RTVSPropertyOp43
 70
     1
102
RTVSPropertyOp44
 70
     1
102
RTVSPropertyOp45
 70
     1
102
RTVSPropertyOp46
 70
     1
102
RTVSPropertyOp47
 70
     1
102
RTVSPropertyOp48
 70
     1
102
RTVSPropertyOp49
 70
     1
102
RTVSPropertyOp50
 70
     1
102
RTVSPropertyOp51
 70
     0
102
RTVSPropertyOp52
 70
     0
102
RTVSPropertyOp53
 70
     1
102
RTVSPropertyOp54
 70
     1
102
RTVSPropertyOp55
 70
     1
102
RTVSPropertyOp56
 70
     1
102
RTVSPropertyOp57
 70
     1
102
RTVSPropertyOp58
 70
     1
102
RTVSPropertyOp59
 70
     1
102
RTVSPropertyOp60
 70
     1
102
RTVSPropertyOp61
 70
     1
102
RTVSPropertyOp62
 70
     1
  0
XRECORD
  5
824F
102
{ACAD_REACTORS
330
824E
102
}
330
824E
100
AcDbXrecord
280
     1
102
RTVSPost2010Prop28
280
     0
102
RTVSPost2010PropOp28
 70
     0
102
RTVSPost2010Prop29
280
     1
102
RTVSPost2010PropOp29
 70
     0
102
RTVSPost2010Prop30
280
     1
102
RTVSPost2010PropOp30
 70
     0
102
RTVSPost2010Prop31
280
     0
102
RTVSPost2010PropOp31
 70
     0
102
RTVSPost2010Prop32
280
     0
102
RTVSPost2010PropOp32
 70
     0
102
RTVSPost2010Prop33
280
     0
102
RTVSPost2010PropOp33
 70
     0
102
RTVSPost2010Prop34
280
     0
102
RTVSPost2010PropOp34
 70
     0
102
RTVSPost2010Prop35
280
     0
102
RTVSPost2010PropOp35
 70
     0
102
RTVSPost2010Prop36
280
     0
102
RTVSPost2010PropOp36
 70
     0
102
RTVSPost2010Prop37
 90
       50
102
RTVSPost2010PropOp37
 70
     0
102
RTVSPost2010Prop38
140
0.0
102
RTVSPost2010PropOp38
 70
     0
102
RTVSPost2010Prop39
140
1.0
102
RTVSPost2010PropOp39
 70
     0
102
RTVSPost2010Prop40
 90
        0
102
RTVSPost2010PropOp40
 70
     0
102
RTVSPost2010Prop41ColorIndex
 90
       18
102
RTVSPost2010Prop41ColorRGB
 90
        0
102
RTVSPost2010PropOp41
 70
     0
102
RTVSPost2010Prop42
 90
       50
102
RTVSPost2010PropOp42
 70
     0
102
RTVSPost2010Prop43
 90
        3
102
RTVSPost2010PropOp43
 70
     0
102
RTVSPost2010Prop44ColorIndex
 90
        5
102
RTVSPost2010Prop44ColorRGB
 90
      255
102
RTVSPost2010PropOp44
 70
     0
102
RTVSPost2010Prop45
280
     0
102
RTVSPost2010PropOp45
 70
     0
102
RTVSPost2010Prop46
 90
       50
102
RTVSPost2010PropOp46
 70
     0
102
RTVSPost2010Prop47
 90
       50
102
RTVSPost2010PropOp47
 70
     0
102
RTVSPost2010Prop48
 90
       50
102
RTVSPost2010PropOp48
 70
     0
102
RTVSPost2010Prop49
280
     0
102
RTVSPost2010PropOp49
 70
     0
102
RTVSPost2010Prop50
 90
       50
102
RTVSPost2010PropOp50
 70
     0
102
RTVSPost2010Prop51ColorIndex
 90
      256
102
RTVSPost2010Prop51ColorRGB
 90
-16777216
102
RTVSPost2010PropOp51
 70
     0
102
RTVSPost2010Prop52
140
1.0
102
RTVSPost2010PropOp52
 70
     0
102
RTVSPost2010Prop53
 90
        2
102
RTVSPost2010PropOp53
 70
     0
102
RTVSPost2010Prop54
  1
strokes_ogs.tif
102
RTVSPost2010PropOp54
 70
     0
102
RTVSPost2010Prop55
280
     0
102
RTVSPost2010PropOp55
 70
     0
102
RTVSPost2010Prop56
140
1.0
102
RTVSPost2010PropOp56
 70
     0
102
RTVSPost2010Prop57
140
1.0
102
RTVSPost2010PropOp57
 70
     0
102
RTVSPropertyOp0
 70
     0
102
RTVSPropertyOp1
 70
     0
102
RTVSPropertyOp2
 70
     0
102
RTVSPropertyOp3
 70
     0
102
RTVSPropertyOp4
 70
     0
102
RTVSPropertyOp5
 70
     0
102
RTVSPropertyOp6
 70
     0
102
RTVSPropertyOp7
 70
     0
102
RTVSPropertyOp8
 70
     0
102
RTVSPropertyOp9
 70
     0
102
RTVSPropertyOp10
 70
     0
102
RTVSPropertyOp11
 70
     0
102
RTVSPropertyOp12
 70
     0
102
RTVSPropertyOp13
 70
     0
102
RTVSPropertyOp14
 70
     2
102
RTVSPropertyOp15
 70
     0
102
RTVSPropertyOp16
 70
     0
102
RTVSPropertyOp17
 70
     0
102
RTVSPropertyOp18
 70
     0
102
RTVSPropertyOp19
 70
     0
102
RTVSPropertyOp20
 70
     0
102
RTVSPropertyOp21
 70
     0
102
RTVSPropertyOp22
 70
     0
102
RTVSPropertyOp23
 70
     0
102
RTVSPropertyOp24
 70
     0
102
RTVSPropertyOp25
 70
     0
102
RTVSPropertyOp26
 70
     0
102
RTVSPropertyOp27
 70
     0
102
RTVSPropertyOp28
 70
     0
102
RTVSPropertyOp29
 70
     0
102
RTVSPropertyOp30
 70
     0
102
RTVSPropertyOp31
 70
     0
102
RTVSPropertyOp32
 70
     0
102
RTVSPropertyOp33
 70
     0
102
RTVSPropertyOp34
 70
     0
102
RTVSPropertyOp35
 70
     0
102
RTVSPropertyOp36
 70
     0
102
RTVSPropertyOp37
 70
     0
102
RTVSPropertyOp38
 70
     0
102
RTVSPropertyOp39
 70
     0
102
RTVSPropertyOp40
 70
     0
102
RTVSPropertyOp41
 70
     0
102
RTVSPropertyOp42
 70
     0
102
RTVSPropertyOp43
 70
     0
102
RTVSPropertyOp44
 70
     0
102
RTVSPropertyOp45
 70
     0
102
RTVSPropertyOp46
 70
     0
102
RTVSPropertyOp47
 70
     0
102
RTVSPropertyOp48
 70
     0
102
RTVSPropertyOp49
 70
     0
102
RTVSPropertyOp50
 70
     0
102
RTVSPropertyOp51
 70
     0
102
RTVSPropertyOp52
 70
     0
102
RTVSPropertyOp53
 70
     0
102
RTVSPropertyOp54
 70
     0
102
RTVSPropertyOp55
 70
     0
102
RTVSPropertyOp56
 70
     0
102
RTVSPropertyOp57
 70
     0
102
RTVSPropertyOp58
 70
     1
102
RTVSPropertyOp59
 70
     1
102
RTVSPropertyOp60
 70
     1
102
RTVSPropertyOp61
 70
     1
102
RTVSPropertyOp62
 70
     1
  0
XRECORD
  5
823F
102
{ACAD_REACTORS
330
823E
102
}
330
823E
100
AcDbXrecord
280
     1
102
RTVSPost2010Prop28
280
     0
102
RTVSPost2010PropOp28
 70
     1
102
RTVSPost2010Prop29
280
     1
102
RTVSPost2010PropOp29
 70
     1
102
RTVSPost2010Prop30
280
     1
102
RTVSPost2010PropOp30
 70
     1
102
RTVSPost2010Prop31
280
     0
102
RTVSPost2010PropOp31
 70
     1
102
RTVSPost2010Prop32
280
     0
102
RTVSPost2010PropOp32
 70
     1
102
RTVSPost2010Prop33
280
     0
102
RTVSPost2010PropOp33
 70
     1
102
RTVSPost2010Prop34
280
     0
102
RTVSPost2010PropOp34
 70
     1
102
RTVSPost2010Prop35
280
     0
102
RTVSPost2010PropOp35
 70
     1
102
RTVSPost2010Prop36
280
     0
102
RTVSPost2010PropOp36
 70
     1
102
RTVSPost2010Prop37
 90
       50
102
RTVSPost2010PropOp37
 70
     1
102
RTVSPost2010Prop38
140
0.0
102
RTVSPost2010PropOp38
 70
     1
102
RTVSPost2010Prop39
140
1.0
102
RTVSPost2010PropOp39
 70
     1
102
RTVSPost2010Prop40
 90
        0
102
RTVSPost2010PropOp40
 70
     1
102
RTVSPost2010Prop41ColorIndex
 90
       18
102
RTVSPost2010Prop41ColorRGB
 90
        0
102
RTVSPost2010PropOp41
 70
     1
102
RTVSPost2010Prop42
 90
       50
102
RTVSPost2010PropOp42
 70
     1
102
RTVSPost2010Prop43
 90
        3
102
RTVSPost2010PropOp43
 70
     1
102
RTVSPost2010Prop44ColorIndex
 90
        5
102
RTVSPost2010Prop44ColorRGB
 90
      255
102
RTVSPost2010PropOp44
 70
     1
102
RTVSPost2010Prop45
280
     0
102
RTVSPost2010PropOp45
 70
     1
102
RTVSPost2010Prop46
 90
       50
102
RTVSPost2010PropOp46
 70
     1
102
RTVSPost2010Prop47
 90
       50
102
RTVSPost2010PropOp47
 70
     1
102
RTVSPost2010Prop48
 90
       50
102
RTVSPost2010PropOp48
 70
     1
102
RTVSPost2010Prop49
280
     0
102
RTVSPost2010PropOp49
 70
     1
102
RTVSPost2010Prop50
 90
       50
102
RTVSPost2010PropOp50
 70
     1
102
RTVSPost2010Prop51ColorIndex
 90
      256
102
RTVSPost2010Prop51ColorRGB
 90
-16777216
102
RTVSPost2010PropOp51
 70
     0
102
RTVSPost2010Prop52
140
1.0
102
RTVSPost2010PropOp52
 70
     0
102
RTVSPost2010Prop53
 90
        2
102
RTVSPost2010PropOp53
 70
     1
102
RTVSPost2010Prop54
  1
strokes_ogs.tif
102
RTVSPost2010PropOp54
 70
     1
102
RTVSPost2010Prop55
280
     0
102
RTVSPost2010PropOp55
 70
     1
102
RTVSPost2010Prop56
140
1.0
102
RTVSPost2010PropOp56
 70
     1
102
RTVSPost2010Prop57
140
1.0
102
RTVSPost2010PropOp57
 70
     1
102
RTVSPropertyOp0
 70
     1
102
RTVSPropertyOp1
 70
     1
102
RTVSPropertyOp2
 70
     1
102
RTVSPropertyOp3
 70
     1
102
RTVSPropertyOp4
 70
     1
102
RTVSPropertyOp5
 70
     1
102
RTVSPropertyOp6
 70
     1
102
RTVSPropertyOp7
 70
     1
102
RTVSPropertyOp8
 70
     1
102
RTVSPropertyOp9
 70
     1
102
RTVSPropertyOp10
 70
     1
102
RTVSPropertyOp11
 70
     1
102
RTVSPropertyOp12
 70
     1
102
RTVSPropertyOp13
 70
     1
102
RTVSPropertyOp14
 70
     1
102
RTVSPropertyOp15
 70
     1
102
RTVSPropertyOp16
 70
     1
102
RTVSPropertyOp17
 70
     1
102
RTVSPropertyOp18
 70
     1
102
RTVSPropertyOp19
 70
     1
102
RTVSPropertyOp20
 70
     1
102
RTVSPropertyOp21
 70
     1
102
RTVSPropertyOp22
 70
     1
102
RTVSPropertyOp23
 70
     1
102
RTVSPropertyOp24
 70
     1
102
RTVSPropertyOp25
 70
     1
102
RTVSPropertyOp26
 70
     1
102
RTVSPropertyOp27
 70
     1
102
RTVSPropertyOp28
 70
     1
102
RTVSPropertyOp29
 70
     1
102
RTVSPropertyOp30
 70
     1
102
RTVSPropertyOp31
 70
     1
102
RTVSPropertyOp32
 70
     1
102
RTVSPropertyOp33
 70
     1
102
RTVSPropertyOp34
 70
     1
102
RTVSPropertyOp35
 70
     1
102
RTVSPropertyOp36
 70
     1
102
RTVSPropertyOp37
 70
     1
102
RTVSPropertyOp38
 70
     1
102
RTVSPropertyOp39
 70
     1
102
RTVSPropertyOp40
 70
     1
102
RTVSPropertyOp41
 70
     1
102
RTVSPropertyOp42
 70
     1
102
RTVSPropertyOp43
 70
     1
102
RTVSPropertyOp44
 70
     1
102
RTVSPropertyOp45
 70
     1
102
RTVSPropertyOp46
 70
     1
102
RTVSPropertyOp47
 70
     1
102
RTVSPropertyOp48
 70
     1
102
RTVSPropertyOp49
 70
     1
102
RTVSPropertyOp50
 70
     1
102
RTVSPropertyOp51
 70
     0
102
RTVSPropertyOp52
 70
     0
102
RTVSPropertyOp53
 70
     1
102
RTVSPropertyOp54
 70
     1
102
RTVSPropertyOp55
 70
     1
102
RTVSPropertyOp56
 70
     1
102
RTVSPropertyOp57
 70
     1
102
RTVSPropertyOp58
 70
     1
102
RTVSPropertyOp59
 70
     1
102
RTVSPropertyOp60
 70
     1
102
RTVSPropertyOp61
 70
     1
102
RTVSPropertyOp62
 70
     1
  0
XRECORD
  5
8251
102
{ACAD_REACTORS
330
8250
102
}
330
8250
100
AcDbXrecord
280
     1
102
RTVSPost2010Prop28
280
     0
102
RTVSPost2010PropOp28
 70
     0
102
RTVSPost2010Prop29
280
     1
102
RTVSPost2010PropOp29
 70
     0
102
RTVSPost2010Prop30
280
     1
102
RTVSPost2010PropOp30
 70
     0
102
RTVSPost2010Prop31
280
     0
102
RTVSPost2010PropOp31
 70
     0
102
RTVSPost2010Prop32
280
     0
102
RTVSPost2010PropOp32
 70
     0
102
RTVSPost2010Prop33
280
     0
102
RTVSPost2010PropOp33
 70
     0
102
RTVSPost2010Prop34
280
     0
102
RTVSPost2010PropOp34
 70
     0
102
RTVSPost2010Prop35
280
     0
102
RTVSPost2010PropOp35
 70
     0
102
RTVSPost2010Prop36
280
     0
102
RTVSPost2010PropOp36
 70
     0
102
RTVSPost2010Prop37
 90
       50
102
RTVSPost2010PropOp37
 70
     0
102
RTVSPost2010Prop38
140
0.0
102
RTVSPost2010PropOp38
 70
     0
102
RTVSPost2010Prop39
140
1.0
102
RTVSPost2010PropOp39
 70
     0
102
RTVSPost2010Prop40
 90
        0
102
RTVSPost2010PropOp40
 70
     0
102
RTVSPost2010Prop41ColorIndex
 90
       18
102
RTVSPost2010Prop41ColorRGB
 90
        0
102
RTVSPost2010PropOp41
 70
     0
102
RTVSPost2010Prop42
 90
       50
102
RTVSPost2010PropOp42
 70
     0
102
RTVSPost2010Prop43
 90
        3
102
RTVSPost2010PropOp43
 70
     0
102
RTVSPost2010Prop44ColorIndex
 90
        5
102
RTVSPost2010Prop44ColorRGB
 90
      255
102
RTVSPost2010PropOp44
 70
     0
102
RTVSPost2010Prop45
280
     0
102
RTVSPost2010PropOp45
 70
     0
102
RTVSPost2010Prop46
 90
       50
102
RTVSPost2010PropOp46
 70
     0
102
RTVSPost2010Prop47
 90
       50
102
RTVSPost2010PropOp47
 70
     0
102
RTVSPost2010Prop48
 90
       50
102
RTVSPost2010PropOp48
 70
     0
102
RTVSPost2010Prop49
280
     0
102
RTVSPost2010PropOp49
 70
     0
102
RTVSPost2010Prop50
 90
       50
102
RTVSPost2010PropOp50
 70
     0
102
RTVSPost2010Prop51ColorIndex
 90
      256
102
RTVSPost2010Prop51ColorRGB
 90
-16777216
102
RTVSPost2010PropOp51
 70
     0
102
RTVSPost2010Prop52
140
1.0
102
RTVSPost2010PropOp52
 70
     0
102
RTVSPost2010Prop53
 90
        2
102
RTVSPost2010PropOp53
 70
     0
102
RTVSPost2010Prop54
  1
strokes_ogs.tif
102
RTVSPost2010PropOp54
 70
     0
102
RTVSPost2010Prop55
280
     0
102
RTVSPost2010PropOp55
 70
     0
102
RTVSPost2010Prop56
140
1.0
102
RTVSPost2010PropOp56
 70
     0
102
RTVSPost2010Prop57
140
1.0
102
RTVSPost2010PropOp57
 70
     0
102
RTVSPropertyOp0
 70
     0
102
RTVSPropertyOp1
 70
     0
102
RTVSPropertyOp2
 70
     0
102
RTVSPropertyOp3
 70
     0
102
RTVSPropertyOp4
 70
     0
102
RTVSPropertyOp5
 70
     0
102
RTVSPropertyOp6
 70
     0
102
RTVSPropertyOp7
 70
     0
102
RTVSPropertyOp8
 70
     0
102
RTVSPropertyOp9
 70
     0
102
RTVSPropertyOp10
 70
     0
102
RTVSPropertyOp11
 70
     0
102
RTVSPropertyOp12
 70
     0
102
RTVSPropertyOp13
 70
     0
102
RTVSPropertyOp14
 70
     2
102
RTVSPropertyOp15
 70
     0
102
RTVSPropertyOp16
 70
     0
102
RTVSPropertyOp17
 70
     0
102
RTVSPropertyOp18
 70
     0
102
RTVSPropertyOp19
 70
     0
102
RTVSPropertyOp20
 70
     0
102
RTVSPropertyOp21
 70
     0
102
RTVSPropertyOp22
 70
     0
102
RTVSPropertyOp23
 70
     0
102
RTVSPropertyOp24
 70
     0
102
RTVSPropertyOp25
 70
     0
102
RTVSPropertyOp26
 70
     0
102
RTVSPropertyOp27
 70
     0
102
RTVSPropertyOp28
 70
     0
102
RTVSPropertyOp29
 70
     0
102
RTVSPropertyOp30
 70
     0
102
RTVSPropertyOp31
 70
     0
102
RTVSPropertyOp32
 70
     0
102
RTVSPropertyOp33
 70
     0
102
RTVSPropertyOp34
 70
     0
102
RTVSPropertyOp35
 70
     0
102
RTVSPropertyOp36
 70
     0
102
RTVSPropertyOp37
 70
     0
102
RTVSPropertyOp38
 70
     0
102
RTVSPropertyOp39
 70
     0
102
RTVSPropertyOp40
 70
     0
102
RTVSPropertyOp41
 70
     0
102
RTVSPropertyOp42
 70
     0
102
RTVSPropertyOp43
 70
     0
102
RTVSPropertyOp44
 70
     0
102
RTVSPropertyOp45
 70
     0
102
RTVSPropertyOp46
 70
     0
102
RTVSPropertyOp47
 70
     0
102
RTVSPropertyOp48
 70
     0
102
RTVSPropertyOp49
 70
     0
102
RTVSPropertyOp50
 70
     0
102
RTVSPropertyOp51
 70
     0
102
RTVSPropertyOp52
 70
     0
102
RTVSPropertyOp53
 70
     0
102
RTVSPropertyOp54
 70
     0
102
RTVSPropertyOp55
 70
     0
102
RTVSPropertyOp56
 70
     0
102
RTVSPropertyOp57
 70
     0
102
RTVSPropertyOp58
 70
     1
102
RTVSPropertyOp59
 70
     1
102
RTVSPropertyOp60
 70
     1
102
RTVSPropertyOp61
 70
     1
102
RTVSPropertyOp62
 70
     1
  0
XRECORD
  5
8237
102
{ACAD_REACTORS
330
8236
102
}
330
8236
100
AcDbXrecord
280
     1
102
RTVSPost2010Prop28
280
     0
102
RTVSPost2010PropOp28
 70
     1
102
RTVSPost2010Prop29
280
     1
102
RTVSPost2010PropOp29
 70
     1
102
RTVSPost2010Prop30
280
     1
102
RTVSPost2010PropOp30
 70
     1
102
RTVSPost2010Prop31
280
     0
102
RTVSPost2010PropOp31
 70
     1
102
RTVSPost2010Prop32
280
     0
102
RTVSPost2010PropOp32
 70
     1
102
RTVSPost2010Prop33
280
     0
102
RTVSPost2010PropOp33
 70
     1
102
RTVSPost2010Prop34
280
     0
102
RTVSPost2010PropOp34
 70
     1
102
RTVSPost2010Prop35
280
     0
102
RTVSPost2010PropOp35
 70
     1
102
RTVSPost2010Prop36
280
     0
102
RTVSPost2010PropOp36
 70
     1
102
RTVSPost2010Prop37
 90
       50
102
RTVSPost2010PropOp37
 70
     1
102
RTVSPost2010Prop38
140
0.0
102
RTVSPost2010PropOp38
 70
     1
102
RTVSPost2010Prop39
140
1.0
102
RTVSPost2010PropOp39
 70
     1
102
RTVSPost2010Prop40
 90
        0
102
RTVSPost2010PropOp40
 70
     1
102
RTVSPost2010Prop41ColorIndex
 90
       18
102
RTVSPost2010Prop41ColorRGB
 90
        0
102
RTVSPost2010PropOp41
 70
     1
102
RTVSPost2010Prop42
 90
       50
102
RTVSPost2010PropOp42
 70
     1
102
RTVSPost2010Prop43
 90
        3
102
RTVSPost2010PropOp43
 70
     1
102
RTVSPost2010Prop44ColorIndex
 90
        5
102
RTVSPost2010Prop44ColorRGB
 90
      255
102
RTVSPost2010PropOp44
 70
     1
102
RTVSPost2010Prop45
280
     0
102
RTVSPost2010PropOp45
 70
     1
102
RTVSPost2010Prop46
 90
       50
102
RTVSPost2010PropOp46
 70
     1
102
RTVSPost2010Prop47
 90
       50
102
RTVSPost2010PropOp47
 70
     1
102
RTVSPost2010Prop48
 90
       50
102
RTVSPost2010PropOp48
 70
     1
102
RTVSPost2010Prop49
280
     0
102
RTVSPost2010PropOp49
 70
     1
102
RTVSPost2010Prop50
 90
       50
102
RTVSPost2010PropOp50
 70
     1
102
RTVSPost2010Prop51ColorIndex
 90
      256
102
RTVSPost2010Prop51ColorRGB
 90
-16777216
102
RTVSPost2010PropOp51
 70
     0
102
RTVSPost2010Prop52
140
1.0
102
RTVSPost2010PropOp52
 70
     0
102
RTVSPost2010Prop53
 90
        2
102
RTVSPost2010PropOp53
 70
     1
102
RTVSPost2010Prop54
  1
strokes_ogs.tif
102
RTVSPost2010PropOp54
 70
     1
102
RTVSPost2010Prop55
280
     0
102
RTVSPost2010PropOp55
 70
     1
102
RTVSPost2010Prop56
140
1.0
102
RTVSPost2010PropOp56
 70
     1
102
RTVSPost2010Prop57
140
1.0
102
RTVSPost2010PropOp57
 70
     1
102
RTVSPropertyOp0
 70
     1
102
RTVSPropertyOp1
 70
     1
102
RTVSPropertyOp2
 70
     1
102
RTVSPropertyOp3
 70
     1
102
RTVSPropertyOp4
 70
     1
102
RTVSPropertyOp5
 70
     1
102
RTVSPropertyOp6
 70
     1
102
RTVSPropertyOp7
 70
     1
102
RTVSPropertyOp8
 70
     1
102
RTVSPropertyOp9
 70
     1
102
RTVSPropertyOp10
 70
     1
102
RTVSPropertyOp11
 70
     1
102
RTVSPropertyOp12
 70
     1
102
RTVSPropertyOp13
 70
     1
102
RTVSPropertyOp14
 70
     1
102
RTVSPropertyOp15
 70
     1
102
RTVSPropertyOp16
 70
     1
102
RTVSPropertyOp17
 70
     1
102
RTVSPropertyOp18
 70
     1
102
RTVSPropertyOp19
 70
     1
102
RTVSPropertyOp20
 70
     1
102
RTVSPropertyOp21
 70
     1
102
RTVSPropertyOp22
 70
     1
102
RTVSPropertyOp23
 70
     1
102
RTVSPropertyOp24
 70
     1
102
RTVSPropertyOp25
 70
     1
102
RTVSPropertyOp26
 70
     1
102
RTVSPropertyOp27
 70
     1
102
RTVSPropertyOp28
 70
     1
102
RTVSPropertyOp29
 70
     1
102
RTVSPropertyOp30
 70
     1
102
RTVSPropertyOp31
 70
     1
102
RTVSPropertyOp32
 70
     1
102
RTVSPropertyOp33
 70
     1
102
RTVSPropertyOp34
 70
     1
102
RTVSPropertyOp35
 70
     1
102
RTVSPropertyOp36
 70
     1
102
RTVSPropertyOp37
 70
     1
102
RTVSPropertyOp38
 70
     1
102
RTVSPropertyOp39
 70
     1
102
RTVSPropertyOp40
 70
     1
102
RTVSPropertyOp41
 70
     1
102
RTVSPropertyOp42
 70
     1
102
RTVSPropertyOp43
 70
     1
102
RTVSPropertyOp44
 70
     1
102
RTVSPropertyOp45
 70
     1
102
RTVSPropertyOp46
 70
     1
102
RTVSPropertyOp47
 70
     1
102
RTVSPropertyOp48
 70
     1
102
RTVSPropertyOp49
 70
     1
102
RTVSPropertyOp50
 70
     1
102
RTVSPropertyOp51
 70
     0
102
RTVSPropertyOp52
 70
     0
102
RTVSPropertyOp53
 70
     1
102
RTVSPropertyOp54
 70
     1
102
RTVSPropertyOp55
 70
     1
102
RTVSPropertyOp56
 70
     1
102
RTVSPropertyOp57
 70
     1
102
RTVSPropertyOp58
 70
     1
102
RTVSPropertyOp59
 70
     1
102
RTVSPropertyOp60
 70
     1
102
RTVSPropertyOp61
 70
     1
102
RTVSPropertyOp62
 70
     1
  0
XRECORD
  5
824D
102
{ACAD_REACTORS
330
824C
102
}
330
824C
100
AcDbXrecord
280
     1
102
RTVSPost2010Prop28
280
     0
102
RTVSPost2010PropOp28
 70
     1
102
RTVSPost2010Prop29
280
     1
102
RTVSPost2010PropOp29
 70
     1
102
RTVSPost2010Prop30
280
     1
102
RTVSPost2010PropOp30
 70
     1
102
RTVSPost2010Prop31
280
     0
102
RTVSPost2010PropOp31
 70
     1
102
RTVSPost2010Prop32
280
     0
102
RTVSPost2010PropOp32
 70
     1
102
RTVSPost2010Prop33
280
     0
102
RTVSPost2010PropOp33
 70
     1
102
RTVSPost2010Prop34
280
     0
102
RTVSPost2010PropOp34
 70
     1
102
RTVSPost2010Prop35
280
     0
102
RTVSPost2010PropOp35
 70
     1
102
RTVSPost2010Prop36
280
     0
102
RTVSPost2010PropOp36
 70
     1
102
RTVSPost2010Prop37
 90
       50
102
RTVSPost2010PropOp37
 70
     1
102
RTVSPost2010Prop38
140
0.0
102
RTVSPost2010PropOp38
 70
     1
102
RTVSPost2010Prop39
140
1.0
102
RTVSPost2010PropOp39
 70
     1
102
RTVSPost2010Prop40
 90
        0
102
RTVSPost2010PropOp40
 70
     1
102
RTVSPost2010Prop41ColorIndex
 90
       18
102
RTVSPost2010Prop41ColorRGB
 90
        0
102
RTVSPost2010PropOp41
 70
     1
102
RTVSPost2010Prop42
 90
       50
102
RTVSPost2010PropOp42
 70
     1
102
RTVSPost2010Prop43
 90
        3
102
RTVSPost2010PropOp43
 70
     1
102
RTVSPost2010Prop44ColorIndex
 90
        5
102
RTVSPost2010Prop44ColorRGB
 90
      255
102
RTVSPost2010PropOp44
 70
     1
102
RTVSPost2010Prop45
280
     0
102
RTVSPost2010PropOp45
 70
     1
102
RTVSPost2010Prop46
 90
       50
102
RTVSPost2010PropOp46
 70
     1
102
RTVSPost2010Prop47
 90
       50
102
RTVSPost2010PropOp47
 70
     1
102
RTVSPost2010Prop48
 90
       50
102
RTVSPost2010PropOp48
 70
     1
102
RTVSPost2010Prop49
280
     0
102
RTVSPost2010PropOp49
 70
     1
102
RTVSPost2010Prop50
 90
       50
102
RTVSPost2010PropOp50
 70
     1
102
RTVSPost2010Prop51ColorIndex
 90
      256
102
RTVSPost2010Prop51ColorRGB
 90
-16777216
102
RTVSPost2010PropOp51
 70
     0
102
RTVSPost2010Prop52
140
1.0
102
RTVSPost2010PropOp52
 70
     0
102
RTVSPost2010Prop53
 90
        2
102
RTVSPost2010PropOp53
 70
     1
102
RTVSPost2010Prop54
  1
strokes_ogs.tif
102
RTVSPost2010PropOp54
 70
     1
102
RTVSPost2010Prop55
280
     0
102
RTVSPost2010PropOp55
 70
     1
102
RTVSPost2010Prop56
140
1.0
102
RTVSPost2010PropOp56
 70
     1
102
RTVSPost2010Prop57
140
1.0
102
RTVSPost2010PropOp57
 70
     1
102
RTVSPropertyOp0
 70
     1
102
RTVSPropertyOp1
 70
     1
102
RTVSPropertyOp2
 70
     1
102
RTVSPropertyOp3
 70
     1
102
RTVSPropertyOp4
 70
     1
102
RTVSPropertyOp5
 70
     1
102
RTVSPropertyOp6
 70
     1
102
RTVSPropertyOp7
 70
     1
102
RTVSPropertyOp8
 70
     1
102
RTVSPropertyOp9
 70
     1
102
RTVSPropertyOp10
 70
     1
102
RTVSPropertyOp11
 70
     1
102
RTVSPropertyOp12
 70
     1
102
RTVSPropertyOp13
 70
     1
102
RTVSPropertyOp14
 70
     1
102
RTVSPropertyOp15
 70
     1
102
RTVSPropertyOp16
 70
     1
102
RTVSPropertyOp17
 70
     1
102
RTVSPropertyOp18
 70
     1
102
RTVSPropertyOp19
 70
     1
102
RTVSPropertyOp20
 70
     1
102
RTVSPropertyOp21
 70
     1
102
RTVSPropertyOp22
 70
     1
102
RTVSPropertyOp23
 70
     1
102
RTVSPropertyOp24
 70
     1
102
RTVSPropertyOp25
 70
     1
102
RTVSPropertyOp26
 70
     1
102
RTVSPropertyOp27
 70
     1
102
RTVSPropertyOp28
 70
     1
102
RTVSPropertyOp29
 70
     1
102
RTVSPropertyOp30
 70
     1
102
RTVSPropertyOp31
 70
     1
102
RTVSPropertyOp32
 70
     1
102
RTVSPropertyOp33
 70
     1
102
RTVSPropertyOp34
 70
     1
102
RTVSPropertyOp35
 70
     1
102
RTVSPropertyOp36
 70
     1
102
RTVSPropertyOp37
 70
     1
102
RTVSPropertyOp38
 70
     1
102
RTVSPropertyOp39
 70
     1
102
RTVSPropertyOp40
 70
     1
102
RTVSPropertyOp41
 70
     1
102
RTVSPropertyOp42
 70
     1
102
RTVSPropertyOp43
 70
     1
102
RTVSPropertyOp44
 70
     1
102
RTVSPropertyOp45
 70
     1
102
RTVSPropertyOp46
 70
     1
102
RTVSPropertyOp47
 70
     1
102
RTVSPropertyOp48
 70
     1
102
RTVSPropertyOp49
 70
     1
102
RTVSPropertyOp50
 70
     1
102
RTVSPropertyOp51
 70
     0
102
RTVSPropertyOp52
 70
     0
102
RTVSPropertyOp53
 70
     1
102
RTVSPropertyOp54
 70
     1
102
RTVSPropertyOp55
 70
     1
102
RTVSPropertyOp56
 70
     1
102
RTVSPropertyOp57
 70
     1
102
RTVSPropertyOp58
 70
     1
102
RTVSPropertyOp59
 70
     1
102
RTVSPropertyOp60
 70
     1
102
RTVSPropertyOp61
 70
     1
102
RTVSPropertyOp62
 70
     1
  0
XRECORD
  5
824B
102
{ACAD_REACTORS
330
824A
102
}
330
824A
100
AcDbXrecord
280
     1
102
RTVSPost2010Prop28
280
     0
102
RTVSPost2010PropOp28
 70
     1
102
RTVSPost2010Prop29
280
     1
102
RTVSPost2010PropOp29
 70
     1
102
RTVSPost2010Prop30
280
     1
102
RTVSPost2010PropOp30
 70
     1
102
RTVSPost2010Prop31
280
     0
102
RTVSPost2010PropOp31
 70
     1
102
RTVSPost2010Prop32
280
     0
102
RTVSPost2010PropOp32
 70
     1
102
RTVSPost2010Prop33
280
     0
102
RTVSPost2010PropOp33
 70
     1
102
RTVSPost2010Prop34
280
     0
102
RTVSPost2010PropOp34
 70
     1
102
RTVSPost2010Prop35
280
     0
102
RTVSPost2010PropOp35
 70
     1
102
RTVSPost2010Prop36
280
     0
102
RTVSPost2010PropOp36
 70
     1
102
RTVSPost2010Prop37
 90
       50
102
RTVSPost2010PropOp37
 70
     1
102
RTVSPost2010Prop38
140
0.0
102
RTVSPost2010PropOp38
 70
     1
102
RTVSPost2010Prop39
140
1.0
102
RTVSPost2010PropOp39
 70
     1
102
RTVSPost2010Prop40
 90
        0
102
RTVSPost2010PropOp40
 70
     1
102
RTVSPost2010Prop41ColorIndex
 90
       18
102
RTVSPost2010Prop41ColorRGB
 90
        0
102
RTVSPost2010PropOp41
 70
     1
102
RTVSPost2010Prop42
 90
       50
102
RTVSPost2010PropOp42
 70
     1
102
RTVSPost2010Prop43
 90
        3
102
RTVSPost2010PropOp43
 70
     1
102
RTVSPost2010Prop44ColorIndex
 90
        5
102
RTVSPost2010Prop44ColorRGB
 90
      255
102
RTVSPost2010PropOp44
 70
     1
102
RTVSPost2010Prop45
280
     0
102
RTVSPost2010PropOp45
 70
     1
102
RTVSPost2010Prop46
 90
       50
102
RTVSPost2010PropOp46
 70
     1
102
RTVSPost2010Prop47
 90
       50
102
RTVSPost2010PropOp47
 70
     1
102
RTVSPost2010Prop48
 90
       50
102
RTVSPost2010PropOp48
 70
     1
102
RTVSPost2010Prop49
280
     0
102
RTVSPost2010PropOp49
 70
     1
102
RTVSPost2010Prop50
 90
       50
102
RTVSPost2010PropOp50
 70
     1
102
RTVSPost2010Prop51ColorIndex
 90
      256
102
RTVSPost2010Prop51ColorRGB
 90
-16777216
102
RTVSPost2010PropOp51
 70
     0
102
RTVSPost2010Prop52
140
1.0
102
RTVSPost2010PropOp52
 70
     0
102
RTVSPost2010Prop53
 90
        2
102
RTVSPost2010PropOp53
 70
     1
102
RTVSPost2010Prop54
  1
strokes_ogs.tif
102
RTVSPost2010PropOp54
 70
     1
102
RTVSPost2010Prop55
280
     0
102
RTVSPost2010PropOp55
 70
     1
102
RTVSPost2010Prop56
140
1.0
102
RTVSPost2010PropOp56
 70
     1
102
RTVSPost2010Prop57
140
1.0
102
RTVSPost2010PropOp57
 70
     1
102
RTVSPropertyOp0
 70
     1
102
RTVSPropertyOp1
 70
     1
102
RTVSPropertyOp2
 70
     1
102
RTVSPropertyOp3
 70
     1
102
RTVSPropertyOp4
 70
     1
102
RTVSPropertyOp5
 70
     1
102
RTVSPropertyOp6
 70
     1
102
RTVSPropertyOp7
 70
     1
102
RTVSPropertyOp8
 70
     1
102
RTVSPropertyOp9
 70
     1
102
RTVSPropertyOp10
 70
     1
102
RTVSPropertyOp11
 70
     1
102
RTVSPropertyOp12
 70
     1
102
RTVSPropertyOp13
 70
     1
102
RTVSPropertyOp14
 70
     1
102
RTVSPropertyOp15
 70
     1
102
RTVSPropertyOp16
 70
     1
102
RTVSPropertyOp17
 70
     1
102
RTVSPropertyOp18
 70
     1
102
RTVSPropertyOp19
 70
     1
102
RTVSPropertyOp20
 70
     1
102
RTVSPropertyOp21
 70
     1
102
RTVSPropertyOp22
 70
     1
102
RTVSPropertyOp23
 70
     1
102
RTVSPropertyOp24
 70
     1
102
RTVSPropertyOp25
 70
     1
102
RTVSPropertyOp26
 70
     1
102
RTVSPropertyOp27
 70
     1
102
RTVSPropertyOp28
 70
     1
102
RTVSPropertyOp29
 70
     1
102
RTVSPropertyOp30
 70
     1
102
RTVSPropertyOp31
 70
     1
102
RTVSPropertyOp32
 70
     1
102
RTVSPropertyOp33
 70
     1
102
RTVSPropertyOp34
 70
     1
102
RTVSPropertyOp35
 70
     1
102
RTVSPropertyOp36
 70
     1
102
RTVSPropertyOp37
 70
     1
102
RTVSPropertyOp38
 70
     1
102
RTVSPropertyOp39
 70
     1
102
RTVSPropertyOp40
 70
     1
102
RTVSPropertyOp41
 70
     1
102
RTVSPropertyOp42
 70
     1
102
RTVSPropertyOp43
 70
     1
102
RTVSPropertyOp44
 70
     1
102
RTVSPropertyOp45
 70
     1
102
RTVSPropertyOp46
 70
     1
102
RTVSPropertyOp47
 70
     1
102
RTVSPropertyOp48
 70
     1
102
RTVSPropertyOp49
 70
     1
102
RTVSPropertyOp50
 70
     1
102
RTVSPropertyOp51
 70
     0
102
RTVSPropertyOp52
 70
     0
102
RTVSPropertyOp53
 70
     1
102
RTVSPropertyOp54
 70
     1
102
RTVSPropertyOp55
 70
     1
102
RTVSPropertyOp56
 70
     1
102
RTVSPropertyOp57
 70
     1
102
RTVSPropertyOp58
 70
     1
102
RTVSPropertyOp59
 70
     1
102
RTVSPropertyOp60
 70
     1
102
RTVSPropertyOp61
 70
     1
102
RTVSPropertyOp62
 70
     1
  0
XRECORD
  5
8245
102
{ACAD_REACTORS
330
8244
102
}
330
8244
100
AcDbXrecord
280
     1
102
RTVSPost2010Prop28
280
     0
102
RTVSPost2010PropOp28
 70
     1
102
RTVSPost2010Prop29
280
     1
102
RTVSPost2010PropOp29
 70
     1
102
RTVSPost2010Prop30
280
     1
102
RTVSPost2010PropOp30
 70
     1
102
RTVSPost2010Prop31
280
     0
102
RTVSPost2010PropOp31
 70
     1
102
RTVSPost2010Prop32
280
     0
102
RTVSPost2010PropOp32
 70
     1
102
RTVSPost2010Prop33
280
     0
102
RTVSPost2010PropOp33
 70
     1
102
RTVSPost2010Prop34
280
     0
102
RTVSPost2010PropOp34
 70
     1
102
RTVSPost2010Prop35
280
     0
102
RTVSPost2010PropOp35
 70
     1
102
RTVSPost2010Prop36
280
     0
102
RTVSPost2010PropOp36
 70
     1
102
RTVSPost2010Prop37
 90
       50
102
RTVSPost2010PropOp37
 70
     1
102
RTVSPost2010Prop38
140
0.0
102
RTVSPost2010PropOp38
 70
     1
102
RTVSPost2010Prop39
140
1.0
102
RTVSPost2010PropOp39
 70
     1
102
RTVSPost2010Prop40
 90
        0
102
RTVSPost2010PropOp40
 70
     1
102
RTVSPost2010Prop41ColorIndex
 90
       18
102
RTVSPost2010Prop41ColorRGB
 90
        0
102
RTVSPost2010PropOp41
 70
     1
102
RTVSPost2010Prop42
 90
       50
102
RTVSPost2010PropOp42
 70
     1
102
RTVSPost2010Prop43
 90
        3
102
RTVSPost2010PropOp43
 70
     1
102
RTVSPost2010Prop44ColorIndex
 90
        5
102
RTVSPost2010Prop44ColorRGB
 90
      255
102
RTVSPost2010PropOp44
 70
     1
102
RTVSPost2010Prop45
280
     0
102
RTVSPost2010PropOp45
 70
     1
102
RTVSPost2010Prop46
 90
       50
102
RTVSPost2010PropOp46
 70
     1
102
RTVSPost2010Prop47
 90
       50
102
RTVSPost2010PropOp47
 70
     1
102
RTVSPost2010Prop48
 90
       50
102
RTVSPost2010PropOp48
 70
     1
102
RTVSPost2010Prop49
280
     0
102
RTVSPost2010PropOp49
 70
     1
102
RTVSPost2010Prop50
 90
       50
102
RTVSPost2010PropOp50
 70
     1
102
RTVSPost2010Prop51ColorIndex
 90
      256
102
RTVSPost2010Prop51ColorRGB
 90
-16777216
102
RTVSPost2010PropOp51
 70
     0
102
RTVSPost2010Prop52
140
1.0
102
RTVSPost2010PropOp52
 70
     0
102
RTVSPost2010Prop53
 90
        2
102
RTVSPost2010PropOp53
 70
     1
102
RTVSPost2010Prop54
  1
strokes_ogs.tif
102
RTVSPost2010PropOp54
 70
     1
102
RTVSPost2010Prop55
280
     0
102
RTVSPost2010PropOp55
 70
     1
102
RTVSPost2010Prop56
140
1.0
102
RTVSPost2010PropOp56
 70
     1
102
RTVSPost2010Prop57
140
1.0
102
RTVSPost2010PropOp57
 70
     1
102
RTVSPropertyOp0
 70
     1
102
RTVSPropertyOp1
 70
     1
102
RTVSPropertyOp2
 70
     1
102
RTVSPropertyOp3
 70
     1
102
RTVSPropertyOp4
 70
     1
102
RTVSPropertyOp5
 70
     1
102
RTVSPropertyOp6
 70
     1
102
RTVSPropertyOp7
 70
     1
102
RTVSPropertyOp8
 70
     1
102
RTVSPropertyOp9
 70
     1
102
RTVSPropertyOp10
 70
     1
102
RTVSPropertyOp11
 70
     1
102
RTVSPropertyOp12
 70
     1
102
RTVSPropertyOp13
 70
     1
102
RTVSPropertyOp14
 70
     1
102
RTVSPropertyOp15
 70
     1
102
RTVSPropertyOp16
 70
     1
102
RTVSPropertyOp17
 70
     1
102
RTVSPropertyOp18
 70
     1
102
RTVSPropertyOp19
 70
     1
102
RTVSPropertyOp20
 70
     1
102
RTVSPropertyOp21
 70
     1
102
RTVSPropertyOp22
 70
     1
102
RTVSPropertyOp23
 70
     1
102
RTVSPropertyOp24
 70
     1
102
RTVSPropertyOp25
 70
     1
102
RTVSPropertyOp26
 70
     1
102
RTVSPropertyOp27
 70
     1
102
RTVSPropertyOp28
 70
     1
102
RTVSPropertyOp29
 70
     1
102
RTVSPropertyOp30
 70
     1
102
RTVSPropertyOp31
 70
     1
102
RTVSPropertyOp32
 70
     1
102
RTVSPropertyOp33
 70
     1
102
RTVSPropertyOp34
 70
     1
102
RTVSPropertyOp35
 70
     1
102
RTVSPropertyOp36
 70
     1
102
RTVSPropertyOp37
 70
     1
102
RTVSPropertyOp38
 70
     1
102
RTVSPropertyOp39
 70
     1
102
RTVSPropertyOp40
 70
     1
102
RTVSPropertyOp41
 70
     1
102
RTVSPropertyOp42
 70
     1
102
RTVSPropertyOp43
 70
     1
102
RTVSPropertyOp44
 70
     1
102
RTVSPropertyOp45
 70
     1
102
RTVSPropertyOp46
 70
     1
102
RTVSPropertyOp47
 70
     1
102
RTVSPropertyOp48
 70
     1
102
RTVSPropertyOp49
 70
     1
102
RTVSPropertyOp50
 70
     1
102
RTVSPropertyOp51
 70
     0
102
RTVSPropertyOp52
 70
     0
102
RTVSPropertyOp53
 70
     1
102
RTVSPropertyOp54
 70
     1
102
RTVSPropertyOp55
 70
     1
102
RTVSPropertyOp56
 70
     1
102
RTVSPropertyOp57
 70
     1
102
RTVSPropertyOp58
 70
     1
102
RTVSPropertyOp59
 70
     1
102
RTVSPropertyOp60
 70
     1
102
RTVSPropertyOp61
 70
     1
102
RTVSPropertyOp62
 70
     1
  0
XRECORD
  5
8247
102
{ACAD_REACTORS
330
8246
102
}
330
8246
100
AcDbXrecord
280
     1
102
RTVSPost2010Prop28
280
     0
102
RTVSPost2010PropOp28
 70
     1
102
RTVSPost2010Prop29
280
     1
102
RTVSPost2010PropOp29
 70
     1
102
RTVSPost2010Prop30
280
     1
102
RTVSPost2010PropOp30
 70
     1
102
RTVSPost2010Prop31
280
     0
102
RTVSPost2010PropOp31
 70
     1
102
RTVSPost2010Prop32
280
     0
102
RTVSPost2010PropOp32
 70
     1
102
RTVSPost2010Prop33
280
     0
102
RTVSPost2010PropOp33
 70
     1
102
RTVSPost2010Prop34
280
     0
102
RTVSPost2010PropOp34
 70
     1
102
RTVSPost2010Prop35
280
     0
102
RTVSPost2010PropOp35
 70
     1
102
RTVSPost2010Prop36
280
     0
102
RTVSPost2010PropOp36
 70
     1
102
RTVSPost2010Prop37
 90
       50
102
RTVSPost2010PropOp37
 70
     1
102
RTVSPost2010Prop38
140
0.0
102
RTVSPost2010PropOp38
 70
     1
102
RTVSPost2010Prop39
140
1.0
102
RTVSPost2010PropOp39
 70
     1
102
RTVSPost2010Prop40
 90
        0
102
RTVSPost2010PropOp40
 70
     1
102
RTVSPost2010Prop41ColorIndex
 90
       18
102
RTVSPost2010Prop41ColorRGB
 90
        0
102
RTVSPost2010PropOp41
 70
     1
102
RTVSPost2010Prop42
 90
       50
102
RTVSPost2010PropOp42
 70
     1
102
RTVSPost2010Prop43
 90
        3
102
RTVSPost2010PropOp43
 70
     1
102
RTVSPost2010Prop44ColorIndex
 90
        5
102
RTVSPost2010Prop44ColorRGB
 90
      255
102
RTVSPost2010PropOp44
 70
     1
102
RTVSPost2010Prop45
280
     0
102
RTVSPost2010PropOp45
 70
     1
102
RTVSPost2010Prop46
 90
       50
102
RTVSPost2010PropOp46
 70
     1
102
RTVSPost2010Prop47
 90
       50
102
RTVSPost2010PropOp47
 70
     1
102
RTVSPost2010Prop48
 90
       50
102
RTVSPost2010PropOp48
 70
     1
102
RTVSPost2010Prop49
280
     0
102
RTVSPost2010PropOp49
 70
     1
102
RTVSPost2010Prop50
 90
       50
102
RTVSPost2010PropOp50
 70
     1
102
RTVSPost2010Prop51ColorIndex
 90
      256
102
RTVSPost2010Prop51ColorRGB
 90
-16777216
102
RTVSPost2010PropOp51
 70
     0
102
RTVSPost2010Prop52
140
1.0
102
RTVSPost2010PropOp52
 70
     0
102
RTVSPost2010Prop53
 90
        2
102
RTVSPost2010PropOp53
 70
     1
102
RTVSPost2010Prop54
  1
strokes_ogs.tif
102
RTVSPost2010PropOp54
 70
     1
102
RTVSPost2010Prop55
280
     0
102
RTVSPost2010PropOp55
 70
     1
102
RTVSPost2010Prop56
140
1.0
102
RTVSPost2010PropOp56
 70
     1
102
RTVSPost2010Prop57
140
1.0
102
RTVSPost2010PropOp57
 70
     1
102
RTVSPropertyOp0
 70
     1
102
RTVSPropertyOp1
 70
     1
102
RTVSPropertyOp2
 70
     1
102
RTVSPropertyOp3
 70
     1
102
RTVSPropertyOp4
 70
     1
102
RTVSPropertyOp5
 70
     1
102
RTVSPropertyOp6
 70
     1
102
RTVSPropertyOp7
 70
     1
102
RTVSPropertyOp8
 70
     1
102
RTVSPropertyOp9
 70
     1
102
RTVSPropertyOp10
 70
     1
102
RTVSPropertyOp11
 70
     1
102
RTVSPropertyOp12
 70
     1
102
RTVSPropertyOp13
 70
     1
102
RTVSPropertyOp14
 70
     1
102
RTVSPropertyOp15
 70
     1
102
RTVSPropertyOp16
 70
     1
102
RTVSPropertyOp17
 70
     1
102
RTVSPropertyOp18
 70
     1
102
RTVSPropertyOp19
 70
     1
102
RTVSPropertyOp20
 70
     1
102
RTVSPropertyOp21
 70
     1
102
RTVSPropertyOp22
 70
     1
102
RTVSPropertyOp23
 70
     1
102
RTVSPropertyOp24
 70
     1
102
RTVSPropertyOp25
 70
     1
102
RTVSPropertyOp26
 70
     1
102
RTVSPropertyOp27
 70
     1
102
RTVSPropertyOp28
 70
     1
102
RTVSPropertyOp29
 70
     1
102
RTVSPropertyOp30
 70
     1
102
RTVSPropertyOp31
 70
     1
102
RTVSPropertyOp32
 70
     1
102
RTVSPropertyOp33
 70
     1
102
RTVSPropertyOp34
 70
     1
102
RTVSPropertyOp35
 70
     1
102
RTVSPropertyOp36
 70
     1
102
RTVSPropertyOp37
 70
     1
102
RTVSPropertyOp38
 70
     1
102
RTVSPropertyOp39
 70
     1
102
RTVSPropertyOp40
 70
     1
102
RTVSPropertyOp41
 70
     1
102
RTVSPropertyOp42
 70
     1
102
RTVSPropertyOp43
 70
     1
102
RTVSPropertyOp44
 70
     1
102
RTVSPropertyOp45
 70
     1
102
RTVSPropertyOp46
 70
     1
102
RTVSPropertyOp47
 70
     1
102
RTVSPropertyOp48
 70
     1
102
RTVSPropertyOp49
 70
     1
102
RTVSPropertyOp50
 70
     1
102
RTVSPropertyOp51
 70
     0
102
RTVSPropertyOp52
 70
     0
102
RTVSPropertyOp53
 70
     1
102
RTVSPropertyOp54
 70
     1
102
RTVSPropertyOp55
 70
     1
102
RTVSPropertyOp56
 70
     1
102
RTVSPropertyOp57
 70
     1
102
RTVSPropertyOp58
 70
     1
102
RTVSPropertyOp59
 70
     1
102
RTVSPropertyOp60
 70
     1
102
RTVSPropertyOp61
 70
     1
102
RTVSPropertyOp62
 70
     1
  0
XRECORD
  5
823D
102
{ACAD_REACTORS
330
823C
102
}
330
823C
100
AcDbXrecord
280
     1
102
RTVSPost2010Prop28
280
     0
102
RTVSPost2010PropOp28
 70
     1
102
RTVSPost2010Prop29
280
     1
102
RTVSPost2010PropOp29
 70
     1
102
RTVSPost2010Prop30
280
     1
102
RTVSPost2010PropOp30
 70
     1
102
RTVSPost2010Prop31
280
     0
102
RTVSPost2010PropOp31
 70
     1
102
RTVSPost2010Prop32
280
     0
102
RTVSPost2010PropOp32
 70
     1
102
RTVSPost2010Prop33
280
     0
102
RTVSPost2010PropOp33
 70
     1
102
RTVSPost2010Prop34
280
     0
102
RTVSPost2010PropOp34
 70
     1
102
RTVSPost2010Prop35
280
     0
102
RTVSPost2010PropOp35
 70
     1
102
RTVSPost2010Prop36
280
     0
102
RTVSPost2010PropOp36
 70
     1
102
RTVSPost2010Prop37
 90
       50
102
RTVSPost2010PropOp37
 70
     1
102
RTVSPost2010Prop38
140
0.0
102
RTVSPost2010PropOp38
 70
     1
102
RTVSPost2010Prop39
140
1.0
102
RTVSPost2010PropOp39
 70
     1
102
RTVSPost2010Prop40
 90
        0
102
RTVSPost2010PropOp40
 70
     1
102
RTVSPost2010Prop41ColorIndex
 90
       18
102
RTVSPost2010Prop41ColorRGB
 90
        0
102
RTVSPost2010PropOp41
 70
     1
102
RTVSPost2010Prop42
 90
       50
102
RTVSPost2010PropOp42
 70
     1
102
RTVSPost2010Prop43
 90
        3
102
RTVSPost2010PropOp43
 70
     1
102
RTVSPost2010Prop44ColorIndex
 90
        5
102
RTVSPost2010Prop44ColorRGB
 90
      255
102
RTVSPost2010PropOp44
 70
     1
102
RTVSPost2010Prop45
280
     0
102
RTVSPost2010PropOp45
 70
     1
102
RTVSPost2010Prop46
 90
       50
102
RTVSPost2010PropOp46
 70
     1
102
RTVSPost2010Prop47
 90
       50
102
RTVSPost2010PropOp47
 70
     1
102
RTVSPost2010Prop48
 90
       50
102
RTVSPost2010PropOp48
 70
     1
102
RTVSPost2010Prop49
280
     0
102
RTVSPost2010PropOp49
 70
     1
102
RTVSPost2010Prop50
 90
       50
102
RTVSPost2010PropOp50
 70
     1
102
RTVSPost2010Prop51ColorIndex
 90
      256
102
RTVSPost2010Prop51ColorRGB
 90
-16777216
102
RTVSPost2010PropOp51
 70
     0
102
RTVSPost2010Prop52
140
1.0
102
RTVSPost2010PropOp52
 70
     0
102
RTVSPost2010Prop53
 90
        2
102
RTVSPost2010PropOp53
 70
     1
102
RTVSPost2010Prop54
  1
strokes_ogs.tif
102
RTVSPost2010PropOp54
 70
     1
102
RTVSPost2010Prop55
280
     0
102
RTVSPost2010PropOp55
 70
     1
102
RTVSPost2010Prop56
140
1.0
102
RTVSPost2010PropOp56
 70
     1
102
RTVSPost2010Prop57
140
1.0
102
RTVSPost2010PropOp57
 70
     1
102
RTVSPropertyOp0
 70
     1
102
RTVSPropertyOp1
 70
     1
102
RTVSPropertyOp2
 70
     1
102
RTVSPropertyOp3
 70
     1
102
RTVSPropertyOp4
 70
     1
102
RTVSPropertyOp5
 70
     1
102
RTVSPropertyOp6
 70
     1
102
RTVSPropertyOp7
 70
     1
102
RTVSPropertyOp8
 70
     1
102
RTVSPropertyOp9
 70
     1
102
RTVSPropertyOp10
 70
     1
102
RTVSPropertyOp11
 70
     1
102
RTVSPropertyOp12
 70
     1
102
RTVSPropertyOp13
 70
     1
102
RTVSPropertyOp14
 70
     1
102
RTVSPropertyOp15
 70
     1
102
RTVSPropertyOp16
 70
     1
102
RTVSPropertyOp17
 70
     1
102
RTVSPropertyOp18
 70
     1
102
RTVSPropertyOp19
 70
     1
102
RTVSPropertyOp20
 70
     1
102
RTVSPropertyOp21
 70
     1
102
RTVSPropertyOp22
 70
     1
102
RTVSPropertyOp23
 70
     1
102
RTVSPropertyOp24
 70
     1
102
RTVSPropertyOp25
 70
     1
102
RTVSPropertyOp26
 70
     1
102
RTVSPropertyOp27
 70
     1
102
RTVSPropertyOp28
 70
     1
102
RTVSPropertyOp29
 70
     1
102
RTVSPropertyOp30
 70
     1
102
RTVSPropertyOp31
 70
     1
102
RTVSPropertyOp32
 70
     1
102
RTVSPropertyOp33
 70
     1
102
RTVSPropertyOp34
 70
     1
102
RTVSPropertyOp35
 70
     1
102
RTVSPropertyOp36
 70
     1
102
RTVSPropertyOp37
 70
     1
102
RTVSPropertyOp38
 70
     1
102
RTVSPropertyOp39
 70
     1
102
RTVSPropertyOp40
 70
     1
102
RTVSPropertyOp41
 70
     1
102
RTVSPropertyOp42
 70
     1
102
RTVSPropertyOp43
 70
     1
102
RTVSPropertyOp44
 70
     1
102
RTVSPropertyOp45
 70
     1
102
RTVSPropertyOp46
 70
     1
102
RTVSPropertyOp47
 70
     1
102
RTVSPropertyOp48
 70
     1
102
RTVSPropertyOp49
 70
     1
102
RTVSPropertyOp50
 70
     1
102
RTVSPropertyOp51
 70
     0
102
RTVSPropertyOp52
 70
     0
102
RTVSPropertyOp53
 70
     1
102
RTVSPropertyOp54
 70
     1
102
RTVSPropertyOp55
 70
     1
102
RTVSPropertyOp56
 70
     1
102
RTVSPropertyOp57
 70
     1
102
RTVSPropertyOp58
 70
     1
102
RTVSPropertyOp59
 70
     1
102
RTVSPropertyOp60
 70
     1
102
RTVSPropertyOp61
 70
     1
102
RTVSPropertyOp62
 70
     1
  0
XRECORD
  5
8231
102
{ACAD_REACTORS
330
8230
102
}
330
8230
100
AcDbXrecord
280
     1
102
RTVSPost2010Prop28
280
     0
102
RTVSPost2010PropOp28
 70
     1
102
RTVSPost2010Prop29
280
     1
102
RTVSPost2010PropOp29
 70
     1
102
RTVSPost2010Prop30
280
     1
102
RTVSPost2010PropOp30
 70
     1
102
RTVSPost2010Prop31
280
     0
102
RTVSPost2010PropOp31
 70
     1
102
RTVSPost2010Prop32
280
     0
102
RTVSPost2010PropOp32
 70
     1
102
RTVSPost2010Prop33
280
     0
102
RTVSPost2010PropOp33
 70
     1
102
RTVSPost2010Prop34
280
     0
102
RTVSPost2010PropOp34
 70
     1
102
RTVSPost2010Prop35
280
     0
102
RTVSPost2010PropOp35
 70
     1
102
RTVSPost2010Prop36
280
     0
102
RTVSPost2010PropOp36
 70
     1
102
RTVSPost2010Prop37
 90
       50
102
RTVSPost2010PropOp37
 70
     1
102
RTVSPost2010Prop38
140
0.0
102
RTVSPost2010PropOp38
 70
     1
102
RTVSPost2010Prop39
140
1.0
102
RTVSPost2010PropOp39
 70
     1
102
RTVSPost2010Prop40
 90
        0
102
RTVSPost2010PropOp40
 70
     1
102
RTVSPost2010Prop41ColorIndex
 90
       18
102
RTVSPost2010Prop41ColorRGB
 90
        0
102
RTVSPost2010PropOp41
 70
     1
102
RTVSPost2010Prop42
 90
       50
102
RTVSPost2010PropOp42
 70
     1
102
RTVSPost2010Prop43
 90
        3
102
RTVSPost2010PropOp43
 70
     1
102
RTVSPost2010Prop44ColorIndex
 90
        5
102
RTVSPost2010Prop44ColorRGB
 90
      255
102
RTVSPost2010PropOp44
 70
     1
102
RTVSPost2010Prop45
280
     0
102
RTVSPost2010PropOp45
 70
     1
102
RTVSPost2010Prop46
 90
       50
102
RTVSPost2010PropOp46
 70
     1
102
RTVSPost2010Prop47
 90
       50
102
RTVSPost2010PropOp47
 70
     1
102
RTVSPost2010Prop48
 90
       50
102
RTVSPost2010PropOp48
 70
     1
102
RTVSPost2010Prop49
280
     0
102
RTVSPost2010PropOp49
 70
     1
102
RTVSPost2010Prop50
 90
       50
102
RTVSPost2010PropOp50
 70
     1
102
RTVSPost2010Prop51ColorIndex
 90
      256
102
RTVSPost2010Prop51ColorRGB
 90
-16777216
102
RTVSPost2010PropOp51
 70
     0
102
RTVSPost2010Prop52
140
1.0
102
RTVSPost2010PropOp52
 70
     0
102
RTVSPost2010Prop53
 90
        2
102
RTVSPost2010PropOp53
 70
     1
102
RTVSPost2010Prop54
  1
strokes_ogs.tif
102
RTVSPost2010PropOp54
 70
     1
102
RTVSPost2010Prop55
280
     0
102
RTVSPost2010PropOp55
 70
     1
102
RTVSPost2010Prop56
140
1.0
102
RTVSPost2010PropOp56
 70
     1
102
RTVSPost2010Prop57
140
1.0
102
RTVSPost2010PropOp57
 70
     1
102
RTVSPropertyOp0
 70
     1
102
RTVSPropertyOp1
 70
     1
102
RTVSPropertyOp2
 70
     1
102
RTVSPropertyOp3
 70
     1
102
RTVSPropertyOp4
 70
     1
102
RTVSPropertyOp5
 70
     1
102
RTVSPropertyOp6
 70
     1
102
RTVSPropertyOp7
 70
     1
102
RTVSPropertyOp8
 70
     1
102
RTVSPropertyOp9
 70
     1
102
RTVSPropertyOp10
 70
     1
102
RTVSPropertyOp11
 70
     1
102
RTVSPropertyOp12
 70
     1
102
RTVSPropertyOp13
 70
     1
102
RTVSPropertyOp14
 70
     1
102
RTVSPropertyOp15
 70
     1
102
RTVSPropertyOp16
 70
     1
102
RTVSPropertyOp17
 70
     1
102
RTVSPropertyOp18
 70
     1
102
RTVSPropertyOp19
 70
     1
102
RTVSPropertyOp20
 70
     1
102
RTVSPropertyOp21
 70
     1
102
RTVSPropertyOp22
 70
     1
102
RTVSPropertyOp23
 70
     1
102
RTVSPropertyOp24
 70
     1
102
RTVSPropertyOp25
 70
     1
102
RTVSPropertyOp26
 70
     1
102
RTVSPropertyOp27
 70
     1
102
RTVSPropertyOp28
 70
     1
102
RTVSPropertyOp29
 70
     1
102
RTVSPropertyOp30
 70
     1
102
RTVSPropertyOp31
 70
     1
102
RTVSPropertyOp32
 70
     1
102
RTVSPropertyOp33
 70
     1
102
RTVSPropertyOp34
 70
     1
102
RTVSPropertyOp35
 70
     1
102
RTVSPropertyOp36
 70
     1
102
RTVSPropertyOp37
 70
     1
102
RTVSPropertyOp38
 70
     1
102
RTVSPropertyOp39
 70
     1
102
RTVSPropertyOp40
 70
     1
102
RTVSPropertyOp41
 70
     1
102
RTVSPropertyOp42
 70
     1
102
RTVSPropertyOp43
 70
     1
102
RTVSPropertyOp44
 70
     1
102
RTVSPropertyOp45
 70
     1
102
RTVSPropertyOp46
 70
     1
102
RTVSPropertyOp47
 70
     1
102
RTVSPropertyOp48
 70
     1
102
RTVSPropertyOp49
 70
     1
102
RTVSPropertyOp50
 70
     1
102
RTVSPropertyOp51
 70
     0
102
RTVSPropertyOp52
 70
     0
102
RTVSPropertyOp53
 70
     1
102
RTVSPropertyOp54
 70
     1
102
RTVSPropertyOp55
 70
     1
102
RTVSPropertyOp56
 70
     1
102
RTVSPropertyOp57
 70
     1
102
RTVSPropertyOp58
 70
     1
102
RTVSPropertyOp59
 70
     1
102
RTVSPropertyOp60
 70
     1
102
RTVSPropertyOp61
 70
     1
102
RTVSPropertyOp62
 70
     1
  0
XRECORD
  5
8249
102
{ACAD_REACTORS
330
8248
102
}
330
8248
100
AcDbXrecord
280
     1
102
RTVSPost2010Prop28
280
     0
102
RTVSPost2010PropOp28
 70
     1
102
RTVSPost2010Prop29
280
     1
102
RTVSPost2010PropOp29
 70
     1
102
RTVSPost2010Prop30
280
     1
102
RTVSPost2010PropOp30
 70
     1
102
RTVSPost2010Prop31
280
     0
102
RTVSPost2010PropOp31
 70
     1
102
RTVSPost2010Prop32
280
     0
102
RTVSPost2010PropOp32
 70
     1
102
RTVSPost2010Prop33
280
     0
102
RTVSPost2010PropOp33
 70
     1
102
RTVSPost2010Prop34
280
     0
102
RTVSPost2010PropOp34
 70
     1
102
RTVSPost2010Prop35
280
     0
102
RTVSPost2010PropOp35
 70
     1
102
RTVSPost2010Prop36
280
     0
102
RTVSPost2010PropOp36
 70
     1
102
RTVSPost2010Prop37
 90
       50
102
RTVSPost2010PropOp37
 70
     1
102
RTVSPost2010Prop38
140
0.0
102
RTVSPost2010PropOp38
 70
     1
102
RTVSPost2010Prop39
140
1.0
102
RTVSPost2010PropOp39
 70
     1
102
RTVSPost2010Prop40
 90
        0
102
RTVSPost2010PropOp40
 70
     1
102
RTVSPost2010Prop41ColorIndex
 90
       18
102
RTVSPost2010Prop41ColorRGB
 90
        0
102
RTVSPost2010PropOp41
 70
     1
102
RTVSPost2010Prop42
 90
       50
102
RTVSPost2010PropOp42
 70
     1
102
RTVSPost2010Prop43
 90
        3
102
RTVSPost2010PropOp43
 70
     1
102
RTVSPost2010Prop44ColorIndex
 90
        5
102
RTVSPost2010Prop44ColorRGB
 90
      255
102
RTVSPost2010PropOp44
 70
     1
102
RTVSPost2010Prop45
280
     0
102
RTVSPost2010PropOp45
 70
     1
102
RTVSPost2010Prop46
 90
       50
102
RTVSPost2010PropOp46
 70
     1
102
RTVSPost2010Prop47
 90
       50
102
RTVSPost2010PropOp47
 70
     1
102
RTVSPost2010Prop48
 90
       50
102
RTVSPost2010PropOp48
 70
     1
102
RTVSPost2010Prop49
280
     0
102
RTVSPost2010PropOp49
 70
     1
102
RTVSPost2010Prop50
 90
       50
102
RTVSPost2010PropOp50
 70
     1
102
RTVSPost2010Prop51ColorIndex
 90
      256
102
RTVSPost2010Prop51ColorRGB
 90
-16777216
102
RTVSPost2010PropOp51
 70
     0
102
RTVSPost2010Prop52
140
1.0
102
RTVSPost2010PropOp52
 70
     0
102
RTVSPost2010Prop53
 90
        2
102
RTVSPost2010PropOp53
 70
     1
102
RTVSPost2010Prop54
  1
strokes_ogs.tif
102
RTVSPost2010PropOp54
 70
     1
102
RTVSPost2010Prop55
280
     0
102
RTVSPost2010PropOp55
 70
     1
102
RTVSPost2010Prop56
140
1.0
102
RTVSPost2010PropOp56
 70
     1
102
RTVSPost2010Prop57
140
1.0
102
RTVSPost2010PropOp57
 70
     1
102
RTVSPropertyOp0
 70
     1
102
RTVSPropertyOp1
 70
     1
102
RTVSPropertyOp2
 70
     1
102
RTVSPropertyOp3
 70
     1
102
RTVSPropertyOp4
 70
     1
102
RTVSPropertyOp5
 70
     1
102
RTVSPropertyOp6
 70
     1
102
RTVSPropertyOp7
 70
     1
102
RTVSPropertyOp8
 70
     1
102
RTVSPropertyOp9
 70
     1
102
RTVSPropertyOp10
 70
     1
102
RTVSPropertyOp11
 70
     1
102
RTVSPropertyOp12
 70
     1
102
RTVSPropertyOp13
 70
     1
102
RTVSPropertyOp14
 70
     1
102
RTVSPropertyOp15
 70
     1
102
RTVSPropertyOp16
 70
     1
102
RTVSPropertyOp17
 70
     1
102
RTVSPropertyOp18
 70
     1
102
RTVSPropertyOp19
 70
     1
102
RTVSPropertyOp20
 70
     1
102
RTVSPropertyOp21
 70
     1
102
RTVSPropertyOp22
 70
     1
102
RTVSPropertyOp23
 70
     1
102
RTVSPropertyOp24
 70
     1
102
RTVSPropertyOp25
 70
     1
102
RTVSPropertyOp26
 70
     1
102
RTVSPropertyOp27
 70
     1
102
RTVSPropertyOp28
 70
     1
102
RTVSPropertyOp29
 70
     1
102
RTVSPropertyOp30
 70
     1
102
RTVSPropertyOp31
 70
     1
102
RTVSPropertyOp32
 70
     1
102
RTVSPropertyOp33
 70
     1
102
RTVSPropertyOp34
 70
     1
102
RTVSPropertyOp35
 70
     1
102
RTVSPropertyOp36
 70
     1
102
RTVSPropertyOp37
 70
     1
102
RTVSPropertyOp38
 70
     1
102
RTVSPropertyOp39
 70
     1
102
RTVSPropertyOp40
 70
     1
102
RTVSPropertyOp41
 70
     1
102
RTVSPropertyOp42
 70
     1
102
RTVSPropertyOp43
 70
     1
102
RTVSPropertyOp44
 70
     1
102
RTVSPropertyOp45
 70
     1
102
RTVSPropertyOp46
 70
     1
102
RTVSPropertyOp47
 70
     1
102
RTVSPropertyOp48
 70
     1
102
RTVSPropertyOp49
 70
     1
102
RTVSPropertyOp50
 70
     1
102
RTVSPropertyOp51
 70
     0
102
RTVSPropertyOp52
 70
     0
102
RTVSPropertyOp53
 70
     1
102
RTVSPropertyOp54
 70
     1
102
RTVSPropertyOp55
 70
     1
102
RTVSPropertyOp56
 70
     1
102
RTVSPropertyOp57
 70
     1
102
RTVSPropertyOp58
 70
     1
102
RTVSPropertyOp59
 70
     1
102
RTVSPropertyOp60
 70
     1
102
RTVSPropertyOp61
 70
     1
102
RTVSPropertyOp62
 70
     1
  0
ENDSEC
  0
EOF
