  0
SECTION
  2
HEADER
  9
$ACADVER
  1
AC1015
  9
$ACADMAINTVER
 70
    20
  9
$DWGCODEPAGE
  3
ANSI_932
  9
$INSBASE
 10
0.0
 20
0.0
 30
0.0
  9
$EXTMIN
 10
-0.2563359212872456
 20
-0.3600909370470617
 30
-0.0000000349181948
  9
$EXTMAX
 10
4200.256375038029
 20
5900.360145886753
 30
0.0000000814935746
  9
$LIMMIN
 10
0.0
 20
0.0
  9
$LIMMAX
 10
297.0
 20
210.0
  9
$ORTHOMODE
 70
     1
  9
$REGENMODE
 70
     1
  9
$FILLMODE
 70
     0
  9
$QTEXTMODE
 70
     0
  9
$MIRRTEXT
 70
     1
  9
$LTSCALE
 40
100.0
  9
$ATTMODE
 70
     1
  9
$TEXTSIZE
 40
180.0
  9
$TRACEWID
 40
0.05
  9
$TEXTSTYLE
  7
STANDARD
  9
$CLAYER
  8
3
  9
$CELTYPE
  6
BYLAYER
  9
$CECOLOR
 62
   256
  9
$CELTSCALE
 40
1.0
  9
$DISPSILH
 70
     0
  9
$DIMSCALE
 40
20.0
  9
$DIMASZ
 40
2.0
  9
$DIMEXO
 40
0.5
  9
$DIMDLI
 40
10.0
  9
$DIMRND
 40
0.0
  9
$DIMDLE
 40
0.0
  9
$DIMEXE
 40
1.0
  9
$DIMTP
 40
1.0
  9
$DIMTM
 40
1.0
  9
$DIMTXT
 40
3.0
  9
$DIMCEN
 40
0.0
  9
$DIMTSZ
 40
0.0
  9
$DIMTOL
 70
     0
  9
$DIMLIM
 70
     0
  9
$DIMTIH
 70
     0
  9
$DIMTOH
 70
     0
  9
$DIMSE1
 70
     0
  9
$DIMSE2
 70
     0
  9
$DIMTAD
 70
     1
  9
$DIMZIN
 70
     8
  9
$DIMBLK
  1

  9
$DIMASO
 70
     1
  9
$DIMSHO
 70
     1
  9
$DIMPOST
  1

  9
$DIMAPOST
  1

  9
$DIMALT
 70
     0
  9
$DIMALTD
 70
     2
  9
$DIMALTF
 40
0.039
  9
$DIMLFAC
 40
1.0
  9
$DIMTOFL
 70
     1
  9
$DIMTVP
 40
0.0
  9
$DIMTIX
 70
     0
  9
$DIMSOXD
 70
     0
  9
$DIMSAH
 70
     1
  9
$DIMBLK1
  1
OPEN
  9
$DIMBLK2
  1
OPEN
  9
$DIMSTYLE
  2
IGA
  9
$DIMCLRD
 70
     0
  9
$DIMCLRE
 70
     0
  9
$DIMCLRT
 70
     0
  9
$DIMTFAC
 40
10.0
  9
$DIMGAP
 40
1.0
  9
$DIMJUST
 70
     0
  9
$DIMSD1
 70
     0
  9
$DIMSD2
 70
     0
  9
$DIMTOLJ
 70
     1
  9
$DIMTZIN
 70
     8
  9
$DIMALTZ
 70
     0
  9
$DIMALTTZ
 70
     0
  9
$DIMUPT
 70
     0
  9
$DIMDEC
 70
     0
  9
$DIMTDEC
 70
     0
  9
$DIMALTU
 70
     2
  9
$DIMALTTD
 70
     2
  9
$DIMTXSTY
  7
STANDARD
  9
$DIMAUNIT
 70
     0
  9
$DIMADEC
 70
     0
  9
$DIMALTRND
 40
0.0
  9
$DIMAZIN
 70
     0
  9
$DIMDSEP
 70
    46
  9
$DIMATFIT
 70
     3
  9
$DIMFRAC
 70
     0
  9
$DIMLDRBLK
  1
OPEN
  9
$DIMLUNIT
 70
     2
  9
$DIMLWD
 70
    -2
  9
$DIMLWE
 70
    -2
  9
$DIMTMOVE
 70
     2
  9
$LUNITS
 70
     2
  9
$LUPREC
 70
     3
  9
$SKETCHINC
 40
0.1
  9
$FILLETRAD
 40
50.0
  9
$AUNITS
 70
     0
  9
$AUPREC
 70
     0
  9
$MENU
  1
acad
  9
$ELEVATION
 40
0.0
  9
$PELEVATION
 40
0.0
  9
$THICKNESS
 40
0.0
  9
$LIMCHECK
 70
     0
  9
$CHAMFERA
 40
0.5
  9
$CHAMFERB
 40
0.5
  9
$CHAMFERC
 40
20.0
  9
$CHAMFERD
 40
0.0
  9
$SKPOLY
 70
     0
  9
$TDCREATE
 40
2451373.650430903
  9
$TDUCREATE
 40
2451373.275430903
  9
$TDUPDATE
 40
2460262.581452222
  9
$TDUUPDATE
 40
2460262.206452222
  9
$TDINDWG
 40
0.0314165856
  9
$TDUSRTIMER
 40
0.0314165856
  9
$USRTIMER
 70
     1
  9
$ANGBASE
 50
0.0
  9
$ANGDIR
 70
     0
  9
$PDMODE
 70
     0
  9
$PDSIZE
 40
0.0
  9
$PLINEWID
 40
0.0
  9
$SPLFRAME
 70
     0
  9
$SPLINETYPE
 70
     6
  9
$SPLINESEGS
 70
     8
  9
$HANDSEED
  5
8345
  9
$SURFTAB1
 70
     6
  9
$SURFTAB2
 70
     6
  9
$SURFTYPE
 70
     6
  9
$SURFU
 70
     6
  9
$SURFV
 70
     6
  9
$UCSBASE
  2

  9
$UCSNAME
  2

  9
$UCSORG
 10
0.0
 20
0.0
 30
0.0
  9
$UCSXDIR
 10
1.0
 20
0.0
 30
0.0
  9
$UCSYDIR
 10
0.0
 20
1.0
 30
0.0
  9
$UCSORTHOREF
  2

  9
$UCSORTHOVIEW
 70
     0
  9
$UCSORGTOP
 10
0.0
 20
0.0
 30
0.0
  9
$UCSORGBOTTOM
 10
0.0
 20
0.0
 30
0.0
  9
$UCSORGLEFT
 10
0.0
 20
0.0
 30
0.0
  9
$UCSORGRIGHT
 10
0.0
 20
0.0
 30
0.0
  9
$UCSORGFRONT
 10
0.0
 20
0.0
 30
0.0
  9
$UCSORGBACK
 10
0.0
 20
0.0
 30
0.0
  9
$PUCSBASE
  2

  9
$PUCSNAME
  2

  9
$PUCSORG
 10
0.0
 20
0.0
 30
0.0
  9
$PUCSXDIR
 10
1.0
 20
0.0
 30
0.0
  9
$PUCSYDIR
 10
0.0
 20
1.0
 30
0.0
  9
$PUCSORTHOREF
  2

  9
$PUCSORTHOVIEW
 70
     0
  9
$PUCSORGTOP
 10
0.0
 20
0.0
 30
0.0
  9
$PUCSORGBOTTOM
 10
0.0
 20
0.0
 30
0.0
  9
$PUCSORGLEFT
 10
0.0
 20
0.0
 30
0.0
  9
$PUCSORGRIGHT
 10
0.0
 20
0.0
 30
0.0
  9
$PUCSORGFRONT
 10
0.0
 20
0.0
 30
0.0
  9
$PUCSORGBACK
 10
0.0
 20
0.0
 30
0.0
  9
$USERI1
 70
     0
  9
$USERI2
 70
     0
  9
$USERI3
 70
     0
  9
$USERI4
 70
     0
  9
$USERI5
 70
     0
  9
$USERR1
 40
0.0
  9
$USERR2
 40
0.0
  9
$USERR3
 40
0.0
  9
$USERR4
 40
0.0
  9
$USERR5
 40
0.0
  9
$WORLDVIEW
 70
     1
  9
$SHADEDGE
 70
     3
  9
$SHADEDIF
 70
    70
  9
$TILEMODE
 70
     1
  9
$MAXACTVP
 70
    16
  9
$PINSBASE
 10
0.0
 20
0.0
 30
0.0
  9
$PLIMCHECK
 70
     0
  9
$PEXTMIN
 10
1.000000000000000E+20
 20
1.000000000000000E+20
 30
1.000000000000000E+20
  9
$PEXTMAX
 10
-1.000000000000000E+20
 20
-1.000000000000000E+20
 30
-1.000000000000000E+20
  9
$PLIMMIN
 10
0.0
 20
0.0
  9
$PLIMMAX
 10
12.0
 20
9.0
  9
$UNITMODE
 70
     0
  9
$VISRETAIN
 70
     0
  9
$PLINEGEN
 70
     0
  9
$PSLTSCALE
 70
     1
  9
$TREEDEPTH
 70
  3020
  9
$CMLSTYLE
  2
STANDARD
  9
$CMLJUST
 70
     0
  9
$CMLSCALE
 40
20.0
  9
$PROXYGRAPHICS
 70
     1
  9
$MEASUREMENT
 70
     1
  9
$CELWEIGHT
370
    -1
  9
$ENDCAPS
280
     0
  9
$JOINSTYLE
280
     0
  9
$LWDISPLAY
290
     0
  9
$INSUNITS
 70
     0
  9
$HYPERLINKBASE
  1

  9
$STYLESHEET
  1

  9
$XEDIT
290
     1
  9
$CEPSNTYPE
380
     0
  9
$PSTYLEMODE
290
     1
  9
$FINGERPRINTGUID
  2
{94A319D2-30B6-4046-8F88-32BC9D5F1403}
  9
$VERSIONGUID
  2
{9173C507-596C-4CD5-B841-89066DE6492D}
  9
$EXTNAMES
290
     1
  9
$PSVPSCALE
 40
0.0
  9
$OLESTARTUP
290
     0
  0
ENDSEC
  0
SECTION
  2
CLASSES
  0
CLASS
  1
ACDBDICTIONARYWDFLT
  2
AcDbDictionaryWithDefault
  3
ObjectDBX Classes
 90
        0
280
     0
281
     0
  0
CLASS
  1
ACDBPLACEHOLDER
  2
AcDbPlaceHolder
  3
ObjectDBX Classes
 90
        0
280
     0
281
     0
  0
CLASS
  1
LAYOUT
  2
AcDbLayout
  3
ObjectDBX Classes
 90
        0
280
     0
281
     0
  0
CLASS
  1
MATERIAL
  2
AcDbMaterial
  3
ObjectDBX Classes
 90
     1153
280
     0
281
     0
  0
CLASS
  1
VISUALSTYLE
  2
AcDbVisualStyle
  3
ObjectDBX Classes
 90
     4095
280
     0
281
     0
  0
CLASS
  1
TABLESTYLE
  2
AcDbTableStyle
  3
ObjectDBX Classes
 90
     4095
280
     0
281
     0
  0
CLASS
  1
SCALE
  2
AcDbScale
  3
ObjectDBX Classes
 90
     1153
280
     0
281
     0
  0
CLASS
  1
MLEADERSTYLE
  2
AcDbMLeaderStyle
  3
ACDB_MLEADERSTYLE_CLASS
 90
     4095
280
     0
281
     0
  0
CLASS
  1
ACDBSECTIONVIEWSTYLE
  2
AcDbSectionViewStyle
  3
ObjectDBX Classes
 90
     1025
280
     0
281
     0
  0
CLASS
  1
ACDBDETAILVIEWSTYLE
  2
AcDbDetailViewStyle
  3
ObjectDBX Classes
 90
     1025
280
     0
281
     0
  0
CLASS
  1
DICTIONARYVAR
  2
AcDbDictionaryVar
  3
ObjectDBX Classes
 90
        0
280
     0
281
     0
  0
CLASS
  1
CELLSTYLEMAP
  2
AcDbCellStyleMap
  3
ObjectDBX Classes
 90
     1152
280
     0
281
     0
  0
ENDSEC
  0
SECTION
  2
TABLES
  0
TABLE
  2
VPORT
  5
8
330
0
100
AcDbSymbolTable
 70
     1
  0
VPORT
  5
8220
330
8
100
AcDbSymbolTableRecord
100
AcDbViewportTableRecord
  2
*Active
 70
     0
 10
0.0
 20
0.0
 11
1.0
 21
1.0
 12
2087.310907461079
 22
2956.344590630983
 13
0.0
 23
0.0
 14
10.0
 24
10.0
 15
10.0
 25
10.0
 16
0.0
 26
0.0
 36
1.0
 17
0.0
 27
0.0
 37
0.0
 40
5938.505003742478
 41
2.050213675213675
 42
50.0
 43
0.0
 44
0.0
 50
0.0
 51
0.0
 71
     0
 72
   100
 73
     1
 74
     0
 75
     0
 76
     0
 77
     0
 78
     0
281
     0
 65
     1
110
0.0
120
0.0
130
0.0
111
1.0
121
0.0
131
0.0
112
0.0
122
1.0
132
0.0
 79
     0
146
0.0
1001
ACAD_NAV_VCDISPLAY
1070
     3
  0
ENDTAB
  0
TABLE
  2
LTYPE
  5
5
330
0
100
AcDbSymbolTable
 70
     3
  0
LTYPE
  5
13
330
5
100
AcDbSymbolTableRecord
100
AcDbLinetypeTableRecord
  2
BYBLOCK
 70
     0
  3

 72
    65
 73
     0
 40
0.0
  0
LTYPE
  5
14
330
5
100
AcDbSymbolTableRecord
100
AcDbLinetypeTableRecord
  2
BYLAYER
 70
     0
  3

 72
    65
 73
     0
 40
0.0
  0
LTYPE
  5
15
330
5
100
AcDbSymbolTableRecord
100
AcDbLinetypeTableRecord
  2
CONTINUOUS
 70
     0
  3
Solid line
 72
    65
 73
     0
 40
0.0
  0
LTYPE
  5
1F
330
5
100
AcDbSymbolTableRecord
100
AcDbLinetypeTableRecord
  2
CENTER
 70
     0
  3
____ _ ____ _ ____ _ ____ _ ____ _ ____ _ ____ 
 72
    65
 73
     4
 40
2.0
 49
1.25
 74
     0
 49
-0.25
 74
     0
 49
0.25
 74
     0
 49
-0.25
 74
     0
  0
ENDTAB
  0
TABLE
  2
LAYER
  5
2
102
{ACAD_XDICTIONARY
360
82B5
102
}
330
0
100
AcDbSymbolTable
 70
     6
  0
LAYER
  5
F
102
{ACAD_XDICTIONARY
360
82A8
102
}
330
2
100
AcDbSymbolTableRecord
100
AcDbLayerTableRecord
  2
0
 70
     0
 62
     7
  6
CONTINUOUS
370
    -3
390
81B0
  0
LAYER
  5
31
102
{ACAD_XDICTIONARY
360
82AA
102
}
330
2
100
AcDbSymbolTableRecord
100
AcDbLayerTableRecord
  2
3
 70
     0
 62
     2
  6
CONTINUOUS
370
    -3
390
81B0
  0
LAYER
  5
76D0
102
{ACAD_XDICTIONARY
360
82AC
102
}
330
2
100
AcDbSymbolTableRecord
100
AcDbLayerTableRecord
  2
2
 70
     0
 62
     3
  6
CENTER
370
    -3
390
81B0
  0
LAYER
  5
76D1
102
{ACAD_XDICTIONARY
360
82AE
102
}
330
2
100
AcDbSymbolTableRecord
100
AcDbLayerTableRecord
  2
1
 70
     0
 62
     4
  6
CONTINUOUS
370
    -3
390
81B0
  0
LAYER
  5
76D2
102
{ACAD_XDICTIONARY
360
82B0
102
}
330
2
100
AcDbSymbolTableRecord
100
AcDbLayerTableRecord
  2
4
 70
     0
 62
     7
  6
CONTINUOUS
370
    -3
390
81B0
  0
LAYER
  5
7B3A
330
2
100
AcDbSymbolTableRecord
100
AcDbLayerTableRecord
  2
DEFPOINTS
 70
     0
 62
     7
  6
CONTINUOUS
290
     0
370
    -3
390
81B0
  0
ENDTAB
  0
TABLE
  2
STYLE
  5
3
330
0
100
AcDbSymbolTable
 70
     1
  0
STYLE
  5
10
330
3
100
AcDbSymbolTableRecord
100
AcDbTextStyleTableRecord
  2
STANDARD
 70
     0
 40
0.0
 41
1.0
 50
0.0
 71
     0
 42
180.0
  3
simplex.shx
  4
extfont.shx
  0
ENDTAB
  0
TABLE
  2
VIEW
  5
6
330
0
100
AcDbSymbolTable
 70
     1
  0
ENDTAB
  0
TABLE
  2
UCS
  5
7
330
0
100
AcDbSymbolTable
 70
     0
  0
ENDTAB
  0
TABLE
  2
APPID
  5
9
330
0
100
AcDbSymbolTable
 70
     5
  0
APPID
  5
11
330
9
100
AcDbSymbolTableRecord
100
AcDbRegAppTableRecord
  2
ACAD
 70
     0
  0
APPID
  5
8272
330
9
100
AcDbSymbolTableRecord
100
AcDbRegAppTableRecord
  2
AcadAnnoMonitorAlertIconDisabled
 70
     0
  0
APPID
  5
8273
330
9
100
AcDbSymbolTableRecord
100
AcDbRegAppTableRecord
  2
ACAD_EXEMPT_FROM_CAD_STANDARDS
 70
     0
  0
APPID
  5
82BB
330
9
100
AcDbSymbolTableRecord
100
AcDbRegAppTableRecord
  2
ACAD_NAV_VCDISPLAY
 70
     0
  0
APPID
  5
8340
330
9
100
AcDbSymbolTableRecord
100
AcDbRegAppTableRecord
  2
ACAD_MLEADERVER
 70
     0
  0
ENDTAB
  0
TABLE
  2
DIMSTYLE
  5
A
330
0
100
AcDbSymbolTable
 70
     2
100
AcDbDimStyleTable
 71
     1
340
1D
  0
DIMSTYLE
105
1D
102
{ACAD_REACTORS
330
7CEE
330
813D
330
8170
330
817D
330
818A
330
8197
330
81A4
102
}
330
A
100
AcDbSymbolTableRecord
100
AcDbDimStyleTableRecord
  2
IGA
 70
     0
 40
2.0
 41
2.0
 42
0.5
 43
10.0
 44
1.0
 47
1.0
 48
1.0
 73
     0
 74
     0
 77
     1
 78
     8
140
3.0
141
0.0
143
0.03937
146
10.0
147
1.0
173
     1
271
     1
272
     0
279
     2
284
     8
340
10
341
79FC
343
79FC
344
79FC
  0
DIMSTYLE
105
7B3B
102
{ACAD_REACTORS
330
7C26
330
7C35
330
7C36
330
7C4B
330
7C4F
330
7C50
330
7C59
330
7CB8
330
7CB9
330
7CC3
330
7CCF
330
7CDE
330
7CEB
330
7CF7
102
}
330
A
100
AcDbSymbolTableRecord
100
AcDbDimStyleTableRecord
  2
MATSU
 70
     0
 41
2.0
 42
1.0
 43
10.0
 44
1.0
 73
     0
 74
     0
 77
     1
 78
     8
140
3.0
141
0.0
143
0.03937
147
0.5
172
     1
173
     1
176
   256
177
   256
178
   256
284
     8
289
     0
340
10
341
79FC
343
79FC
344
79FC
  0
ENDTAB
  0
TABLE
  2
BLOCK_RECORD
  5
1
330
0
100
AcDbSymbolTable
 70
    24
  0
BLOCK_RECORD
  5
19
102
{ACAD_XDICTIONARY
360
81DE
102
}
330
1
100
AcDbSymbolTableRecord
100
AcDbBlockTableRecord
  2
*MODEL_SPACE
340
81B3
  0
BLOCK_RECORD
  5
16
102
{ACAD_XDICTIONARY
360
81DC
102
}
330
1
100
AcDbSymbolTableRecord
100
AcDbBlockTableRecord
  2
*PAPER_SPACE
340
81B4
  0
BLOCK_RECORD
  5
79FC
330
1
100
AcDbSymbolTableRecord
100
AcDbBlockTableRecord
  2
_OPEN
340
0
102
{BLKREFS
331
7E5E
331
7E5F
331
7E93
331
7E94
331
7E9E
331
7E9F
331
7ECD
331
7ECE
331
7ED8
331
7ED9
331
7EE3
331
7EE4
331
7EEE
331
7EEF
331
7EF9
331
7EFA
331
7F2E
331
7F2F
331
8136
331
8137
331
8169
331
816A
331
8176
331
8177
331
8183
331
8184
331
8190
331
8191
331
819D
331
819E
331
81F0
331
81F1
331
81FF
331
8200
331
8207
331
8208
331
8210
331
8211
331
829A
331
829B
331
82E8
331
82E9
102
}
  0
BLOCK_RECORD
  5
7CFC
330
1
100
AcDbSymbolTableRecord
100
AcDbBlockTableRecord
  2
*D1
340
0
  0
BLOCK_RECORD
  5
7D2B
330
1
100
AcDbSymbolTableRecord
100
AcDbBlockTableRecord
  2
*D2
340
0
  0
BLOCK_RECORD
  5
7D36
330
1
100
AcDbSymbolTableRecord
100
AcDbBlockTableRecord
  2
*D3
340
0
  0
BLOCK_RECORD
  5
7D65
330
1
100
AcDbSymbolTableRecord
100
AcDbBlockTableRecord
  2
*D4
340
0
  0
BLOCK_RECORD
  5
7D70
330
1
100
AcDbSymbolTableRecord
100
AcDbBlockTableRecord
  2
*D5
340
0
  0
BLOCK_RECORD
  5
7D7C
330
1
100
AcDbSymbolTableRecord
100
AcDbBlockTableRecord
  2
*D6
340
0
  0
BLOCK_RECORD
  5
7DAF
330
1
100
AcDbSymbolTableRecord
100
AcDbBlockTableRecord
  2
*D7
340
0
  0
BLOCK_RECORD
  5
7DBB
330
1
100
AcDbSymbolTableRecord
100
AcDbBlockTableRecord
  2
*D8
340
0
  0
BLOCK_RECORD
  5
7DC7
330
1
100
AcDbSymbolTableRecord
100
AcDbBlockTableRecord
  2
*D9
340
0
  0
BLOCK_RECORD
  5
7DD3
330
1
100
AcDbSymbolTableRecord
100
AcDbBlockTableRecord
  2
*D10
340
0
  0
BLOCK_RECORD
  5
7DDF
330
1
100
AcDbSymbolTableRecord
100
AcDbBlockTableRecord
  2
*D11
340
0
  0
BLOCK_RECORD
  5
7DEB
330
1
100
AcDbSymbolTableRecord
100
AcDbBlockTableRecord
  2
*D12
340
0
  0
BLOCK_RECORD
  5
7E01
330
1
100
AcDbSymbolTableRecord
100
AcDbBlockTableRecord
  2
*D13
340
0
  0
BLOCK_RECORD
  5
7E0D
330
1
100
AcDbSymbolTableRecord
100
AcDbBlockTableRecord
  2
*D14
340
0
  0
BLOCK_RECORD
  5
7E19
330
1
100
AcDbSymbolTableRecord
100
AcDbBlockTableRecord
  2
*D15
340
0
  0
BLOCK_RECORD
  5
807F
330
1
100
AcDbSymbolTableRecord
100
AcDbBlockTableRecord
  2
_DOT
340
0
  0
BLOCK_RECORD
  5
8121
330
1
100
AcDbSymbolTableRecord
100
AcDbBlockTableRecord
  2
_NONE
340
0
  0
BLOCK_RECORD
  5
8131
330
1
100
AcDbSymbolTableRecord
100
AcDbBlockTableRecord
  2
*D18
340
0
  0
BLOCK_RECORD
  5
8164
330
1
100
AcDbSymbolTableRecord
100
AcDbBlockTableRecord
  2
*D19
340
0
  0
BLOCK_RECORD
  5
8171
330
1
100
AcDbSymbolTableRecord
100
AcDbBlockTableRecord
  2
*D20
340
0
  0
BLOCK_RECORD
  5
817E
330
1
100
AcDbSymbolTableRecord
100
AcDbBlockTableRecord
  2
*D21
340
0
  0
BLOCK_RECORD
  5
818B
330
1
100
AcDbSymbolTableRecord
100
AcDbBlockTableRecord
  2
*D22
340
0
  0
BLOCK_RECORD
  5
8198
330
1
100
AcDbSymbolTableRecord
100
AcDbBlockTableRecord
  2
*D23
340
0
  0
ENDTAB
  0
ENDSEC
  0
SECTION
  2
BLOCKS
  0
BLOCK
  5
1A
330
19
100
AcDbEntity
  8
0
100
AcDbBlockBegin
  2
*MODEL_SPACE
 70
     0
 10
0.0
 20
0.0
 30
0.0
  3
*MODEL_SPACE
  1

  0
ENDBLK
  5
1B
330
19
100
AcDbEntity
  8
0
100
AcDbBlockEnd
  0
BLOCK
  5
17
330
16
100
AcDbEntity
 67
     1
  8
0
100
AcDbBlockBegin
  2
*PAPER_SPACE
 70
     0
 10
0.0
 20
0.0
 30
0.0
  3
*PAPER_SPACE
  1

  0
ENDBLK
  5
18
330
16
100
AcDbEntity
 67
     1
  8
0
100
AcDbBlockEnd
  0
BLOCK
  5
7A00
330
79FC
100
AcDbEntity
  8
0
100
AcDbBlockBegin
  2
_OPEN
 70
     0
 10
0.0
 20
0.0
 30
0.0
  3
_OPEN
  1

  0
LINE
  5
79FD
330
79FC
100
AcDbEntity
  8
0
  6
ByBlock
 62
     0
100
AcDbLine
 10
-1.0
 20
0.1666666666666666
 30
0.0
 11
0.0
 21
0.0
 31
0.0
  0
LINE
  5
79FE
330
79FC
100
AcDbEntity
  8
0
  6
ByBlock
 62
     0
100
AcDbLine
 10
0.0
 20
0.0
 30
0.0
 11
-1.0
 21
-0.1666666666666666
 31
0.0
  0
LINE
  5
79FF
330
79FC
100
AcDbEntity
  8
0
  6
ByBlock
 62
     0
100
AcDbLine
 10
0.0
 20
0.0
 30
0.0
 11
-1.0
 21
0.0
 31
0.0
  0
ENDBLK
  5
7A01
330
79FC
100
AcDbEntity
  8
0
100
AcDbBlockEnd
  0
BLOCK
  5
80DB
330
7CFC
100
AcDbEntity
  8
0
100
AcDbBlockBegin
  2
*D1
 70
     1
 10
0.0
 20
0.0
 30
0.0
  3
*D1
  1

  0
LINE
  5
82E6
330
7CFC
100
AcDbEntity
  8
3
370
    -2
100
AcDbLine
 10
2625.671436037815
 20
2395.677178549359
 30
0.0
 11
2625.671436037815
 21
2808.030114272274
 31
0.0
  0
LINE
  5
82E7
330
7CFC
100
AcDbEntity
  8
3
370
    -2
100
AcDbLine
 10
3295.671436037816
 20
2788.030114272274
 30
0.0
 11
2665.671436037815
 21
2788.030114272274
 31
0.0
  0
INSERT
  5
82E8
330
7CFC
100
AcDbEntity
  8
3
370
    -2
100
AcDbBlockReference
  2
_OPEN
 10
3335.671436037816
 20
2788.030114272274
 30
0.0
 41
40.0
 42
40.0
 43
40.0
  0
INSERT
  5
82E9
330
7CFC
100
AcDbEntity
  8
3
370
    -2
100
AcDbBlockReference
  2
_OPEN
 10
2625.671436037815
 20
2788.030114272274
 30
0.0
 41
40.0
 42
40.0
 43
40.0
 50
180.0
  0
MTEXT
  5
82EA
330
7CFC
100
AcDbEntity
  8
3
100
AcDbMText
 10
2980.671436037816
 20
2843.74439998656
 30
0.0
 40
60.0
 41
0.0
 71
     5
 72
     1
  1
\A1;(710)
 73
     1
 44
1.0
1001
ACAD
1000
MTEXTBEGIN
1070
    73
1070
     1
1070
    44
1040
1.0
1070
    74
1070
     0
1000
MTEXTEND
  0
POINT
  5
82EB
330
7CFC
100
AcDbEntity
  8
DEFPOINTS
 62
     0
100
AcDbPoint
 10
3335.671436037816
 20
2711.429930810286
 30
0.0
  0
POINT
  5
82EC
330
7CFC
100
AcDbEntity
  8
DEFPOINTS
 62
     0
100
AcDbPoint
 10
2625.671436037815
 20
2375.677178549359
 30
0.0
  0
POINT
  5
82ED
330
7CFC
100
AcDbEntity
  8
DEFPOINTS
 62
     0
100
AcDbPoint
 10
2625.671436037815
 20
2788.030114272274
 30
0.0
  0
ENDBLK
  5
80E4
330
7CFC
100
AcDbEntity
  8
0
100
AcDbBlockEnd
  0
BLOCK
  5
7E50
330
7D2B
100
AcDbEntity
  8
0
100
AcDbBlockBegin
  2
*D2
 70
     1
 10
0.0
 20
0.0
 30
0.0
  3
*D2
  1

  0
LINE
  5
81EE
330
7D2B
100
AcDbEntity
  8
3
100
AcDbLine
 10
1894.249502435887
 20
2133.677178549359
 30
0.0
 11
1894.249502435887
 21
2723.356561150759
 31
0.0
  0
LINE
  5
81EF
330
7D2B
100
AcDbEntity
  8
3
100
AcDbLine
 10
1448.57536056422
 20
2703.356561150759
 30
0.0
 11
1854.249502435887
 21
2703.356561150759
 31
0.0
  0
INSERT
  5
81F0
330
7D2B
100
AcDbEntity
  8
3
100
AcDbBlockReference
  2
_OPEN
 10
1408.57536056422
 20
2703.356561150759
 30
0.0
 41
40.0
 42
40.0
 43
40.0
 50
180.0
  0
INSERT
  5
81F1
330
7D2B
100
AcDbEntity
  8
3
100
AcDbBlockReference
  2
_OPEN
 10
1894.249502435887
 20
2703.356561150759
 30
0.0
 41
40.0
 42
40.0
 43
40.0
  0
MTEXT
  5
81F2
330
7D2B
100
AcDbEntity
  8
3
100
AcDbMText
 10
1651.412431500054
 20
2743.356561150759
 30
0.0
 40
60.0
 41
0.0
 71
     5
 72
     5
  1
\A1;484
 73
     1
 44
1.0
1001
ACAD
1000
MTEXTBEGIN
1070
    73
1070
     1
1070
    44
1040
1.0
1070
    74
1070
     0
1000
MTEXTEND
  0
POINT
  5
81F3
330
7D2B
100
AcDbEntity
  8
DEFPOINTS
 62
     0
100
AcDbPoint
 10
1408.57536056422
 20
2599.890124322759
 30
0.0
  0
POINT
  5
81F4
330
7D2B
100
AcDbEntity
  8
DEFPOINTS
 62
     0
100
AcDbPoint
 10
1894.249502435887
 20
2113.677178549359
 30
0.0
  0
POINT
  5
81F5
330
7D2B
100
AcDbEntity
  8
DEFPOINTS
 62
     0
100
AcDbPoint
 10
1894.249502435887
 20
2703.356561150759
 30
0.0
  0
ENDBLK
  5
7E59
330
7D2B
100
AcDbEntity
  8
0
100
AcDbBlockEnd
  0
BLOCK
  5
7E5A
330
7D36
100
AcDbEntity
  8
0
100
AcDbBlockBegin
  2
*D3
 70
     1
 10
0.0
 20
0.0
 30
0.0
  3
*D3
  1

  0
LINE
  5
7E5B
330
7D36
100
AcDbEntity
  8
0
  6
ByBlock
100
AcDbLine
 10
627.8230131067246
 20
1174.439260741248
 30
0.0
 11
627.8230131067246
 21
1848.07389244665
 31
0.0
  0
LINE
  5
7E5C
330
7D36
100
AcDbEntity
  8
0
  6
ByBlock
100
AcDbLine
 10
2012.823013106725
 20
517.4392607412484
 30
0.0
 11
2012.823013106725
 21
1848.07389244665
 31
0.0
  0
LINE
  5
7E5D
330
7D36
100
AcDbEntity
  8
0
  6
ByBlock
100
AcDbLine
 10
667.8230131067246
 20
1828.073892446649
 30
0.0
 11
1972.823013106725
 21
1828.073892446649
 31
0.0
  0
INSERT
  5
7E5E
330
7D36
100
AcDbEntity
  8
0
  6
ByBlock
100
AcDbBlockReference
  2
_OPEN
 10
627.8230131067246
 20
1828.073892446649
 30
0.0
 41
40.0
 42
40.0
 43
40.0
 50
180.0
  0
INSERT
  5
7E5F
330
7D36
100
AcDbEntity
  8
0
  6
ByBlock
100
AcDbBlockReference
  2
_OPEN
 10
2012.823013106725
 20
1828.073892446649
 30
0.0
 41
40.0
 42
40.0
 43
40.0
  0
MTEXT
  5
7E60
330
7D36
100
AcDbEntity
  8
0
  6
ByBlock
100
AcDbMText
 10
1320.323013106725
 20
1868.07389244665
 30
0.0
 40
60.0
 41
0.0
 71
     5
 72
     5
  1
\A1;1385
 73
     1
 44
1.0
1001
ACAD
1000
MTEXTBEGIN
1070
    73
1070
     1
1070
    44
1040
1.0
1070
    74
1070
     0
1000
MTEXTEND
  0
POINT
  5
7E61
330
7D36
100
AcDbEntity
  8
DEFPOINTS
  6
ByBlock
 62
     0
100
AcDbPoint
 10
627.8230131067246
 20
1154.439260741248
 30
0.0
  0
POINT
  5
7E62
330
7D36
100
AcDbEntity
  8
DEFPOINTS
  6
ByBlock
 62
     0
100
AcDbPoint
 10
2012.823013106725
 20
497.4392607412485
 30
0.0
  0
POINT
  5
7E63
330
7D36
100
AcDbEntity
  8
DEFPOINTS
  6
ByBlock
 62
     0
100
AcDbPoint
 10
2012.823013106725
 20
1828.073892446649
 30
0.0
  0
ENDBLK
  5
7E64
330
7D36
100
AcDbEntity
  8
0
100
AcDbBlockEnd
  0
BLOCK
  5
7E85
330
7D65
100
AcDbEntity
  8
0
100
AcDbBlockBegin
  2
*D4
 70
     1
 10
0.0
 20
0.0
 30
0.0
  3
*D4
  1

  0
LINE
  5
81FD
330
7D65
100
AcDbEntity
  8
3
100
AcDbLine
 10
1033.57536056422
 20
1435.677178549359
 30
0.0
 11
643.326082307627
 21
1435.677178549359
 31
0.0
  0
LINE
  5
81FE
330
7D65
100
AcDbEntity
  8
3
100
AcDbLine
 10
663.3260823076271
 20
2115.677178549359
 30
0.0
 11
663.3260823076271
 21
1475.677178549359
 31
0.0
  0
INSERT
  5
81FF
330
7D65
100
AcDbEntity
  8
3
100
AcDbBlockReference
  2
_OPEN
 10
663.3260823076271
 20
2155.677178549359
 30
0.0
 41
40.0
 42
40.0
 43
40.0
 50
90.0
  0
INSERT
  5
8200
330
7D65
100
AcDbEntity
  8
3
100
AcDbBlockReference
  2
_OPEN
 10
663.3260823076271
 20
1435.677178549359
 30
0.0
 41
40.0
 42
40.0
 43
40.0
 50
270.0
  0
MTEXT
  5
8201
330
7D65
100
AcDbEntity
  8
3
100
AcDbMText
 10
623.3260823076268
 20
1795.677178549359
 30
0.0
 40
60.0
 41
0.0
 71
     5
 72
     5
  1
\A1;720
 11
0.0000000000000001
 21
1.0
 31
0.0
 73
     1
 44
1.0
1001
ACAD
1000
MTEXTBEGIN
1070
    73
1070
     1
1070
    44
1040
1.0
1070
    74
1070
     0
1000
MTEXTEND
  0
POINT
  5
8202
330
7D65
100
AcDbEntity
  8
DEFPOINTS
 62
     0
100
AcDbPoint
 10
974.9757359989626
 20
2155.677178549359
 30
0.0
  0
POINT
  5
8203
330
7D65
100
AcDbEntity
  8
DEFPOINTS
 62
     0
100
AcDbPoint
 10
1053.57536056422
 20
1435.677178549359
 30
0.0
  0
POINT
  5
8204
330
7D65
100
AcDbEntity
  8
DEFPOINTS
 62
     0
100
AcDbPoint
 10
663.3260823076271
 20
1435.677178549359
 30
0.0
  0
ENDBLK
  5
7E8E
330
7D65
100
AcDbEntity
  8
0
100
AcDbBlockEnd
  0
BLOCK
  5
7E8F
330
7D70
100
AcDbEntity
  8
0
100
AcDbBlockBegin
  2
*D5
 70
     1
 10
0.0
 20
0.0
 30
0.0
  3
*D5
  1

  0
LINE
  5
7E90
330
7D70
100
AcDbEntity
  8
0
  6
ByBlock
100
AcDbLine
 10
595.8230131067247
 20
542.439260741249
 30
0.0
 11
377.6704453299942
 21
542.439260741249
 31
0.0
  0
LINE
  5
7E91
330
7D70
100
AcDbEntity
  8
0
  6
ByBlock
100
AcDbLine
 10
564.2233885414668
 20
1142.439260741249
 30
0.0
 11
377.6704453299942
 21
1142.439260741249
 31
0.0
  0
LINE
  5
7E92
330
7D70
100
AcDbEntity
  8
0
  6
ByBlock
100
AcDbLine
 10
397.6704453299942
 20
582.4392607412489
 30
0.0
 11
397.6704453299942
 21
1102.439260741249
 31
0.0
  0
INSERT
  5
7E93
330
7D70
100
AcDbEntity
  8
0
  6
ByBlock
100
AcDbBlockReference
  2
_OPEN
 10
397.6704453299942
 20
542.439260741249
 30
0.0
 41
40.0
 42
40.0
 43
40.0
 50
270.0
  0
INSERT
  5
7E94
330
7D70
100
AcDbEntity
  8
0
  6
ByBlock
100
AcDbBlockReference
  2
_OPEN
 10
397.6704453299942
 20
1142.439260741249
 30
0.0
 41
40.0
 42
40.0
 43
40.0
 50
90.0
  0
MTEXT
  5
7E95
330
7D70
100
AcDbEntity
  8
0
  6
ByBlock
100
AcDbMText
 10
357.6704453299942
 20
842.4392607412489
 30
0.0
 40
60.0
 41
0.0
 71
     5
 72
     5
  1
\A1;600
 11
0.0
 21
1.0
 31
0.0
 73
     1
 44
1.0
1001
ACAD
1000
MTEXTBEGIN
1070
    73
1070
     1
1070
    44
1040
1.0
1070
    74
1070
     0
1000
MTEXTEND
  0
POINT
  5
7E96
330
7D70
100
AcDbEntity
  8
DEFPOINTS
  6
ByBlock
 62
     0
100
AcDbPoint
 10
615.8230131067247
 20
542.439260741249
 30
0.0
  0
POINT
  5
7E97
330
7D70
100
AcDbEntity
  8
DEFPOINTS
  6
ByBlock
 62
     0
100
AcDbPoint
 10
584.2233885414668
 20
1142.439260741249
 30
0.0
  0
POINT
  5
7E98
330
7D70
100
AcDbEntity
  8
DEFPOINTS
  6
ByBlock
 62
     0
100
AcDbPoint
 10
397.6704453299942
 20
1142.439260741249
 30
0.0
  0
ENDBLK
  5
7E99
330
7D70
100
AcDbEntity
  8
0
100
AcDbBlockEnd
  0
BLOCK
  5
7E9A
330
7D7C
100
AcDbEntity
  8
0
100
AcDbBlockBegin
  2
*D6
 70
     1
 10
0.0
 20
0.0
 30
0.0
  3
*D6
  1

  0
LINE
  5
7E9B
330
7D7C
100
AcDbEntity
  8
0
  6
ByBlock
100
AcDbLine
 10
607.8230131067247
 20
542.439260741249
 30
0.0
 11
504.0902987400492
 21
542.439260741249
 31
0.0
  0
LINE
  5
7E9C
330
7D7C
100
AcDbEntity
  8
0
  6
ByBlock
100
AcDbLine
 10
607.8230131067246
 20
1122.439260741249
 30
0.0
 11
504.0902987400492
 21
1122.439260741249
 31
0.0
  0
LINE
  5
7E9D
330
7D7C
100
AcDbEntity
  8
0
  6
ByBlock
100
AcDbLine
 10
524.0902987400493
 20
582.4392607412489
 30
0.0
 11
524.0902987400493
 21
1082.439260741249
 31
0.0
  0
INSERT
  5
7E9E
330
7D7C
100
AcDbEntity
  8
0
  6
ByBlock
100
AcDbBlockReference
  2
_OPEN
 10
524.0902987400493
 20
542.439260741249
 30
0.0
 41
40.0
 42
40.0
 43
40.0
 50
270.0
  0
INSERT
  5
7E9F
330
7D7C
100
AcDbEntity
  8
0
  6
ByBlock
100
AcDbBlockReference
  2
_OPEN
 10
524.0902987400493
 20
1122.439260741249
 30
0.0
 41
40.0
 42
40.0
 43
40.0
 50
90.0
  0
MTEXT
  5
7EA0
330
7D7C
100
AcDbEntity
  8
0
  6
ByBlock
100
AcDbMText
 10
484.0902987400493
 20
832.4392607412489
 30
0.0
 40
60.0
 41
0.0
 71
     5
 72
     5
  1
\A1;580
 11
0.0
 21
1.0
 31
0.0
 73
     1
 44
1.0
1001
ACAD
1000
MTEXTBEGIN
1070
    73
1070
     1
1070
    44
1040
1.0
1070
    74
1070
     0
1000
MTEXTEND
  0
POINT
  5
7EA1
330
7D7C
100
AcDbEntity
  8
DEFPOINTS
  6
ByBlock
 62
     0
100
AcDbPoint
 10
627.8230131067247
 20
542.439260741249
 30
0.0
  0
POINT
  5
7EA2
330
7D7C
100
AcDbEntity
  8
DEFPOINTS
  6
ByBlock
 62
     0
100
AcDbPoint
 10
627.8230131067246
 20
1122.439260741249
 30
0.0
  0
POINT
  5
7EA3
330
7D7C
100
AcDbEntity
  8
DEFPOINTS
  6
ByBlock
 62
     0
100
AcDbPoint
 10
524.0902987400493
 20
1122.439260741249
 30
0.0
  0
ENDBLK
  5
7EA4
330
7D7C
100
AcDbEntity
  8
0
100
AcDbBlockEnd
  0
BLOCK
  5
7EC9
330
7DAF
100
AcDbEntity
  8
0
100
AcDbBlockBegin
  2
*D7
 70
     1
 10
0.0
 20
0.0
 30
0.0
  3
*D7
  1

  0
LINE
  5
7ECA
330
7DAF
100
AcDbEntity
  8
0
  6
ByBlock
100
AcDbLine
 10
627.8230131067246
 20
1174.439260741248
 30
0.0
 11
627.8230131067246
 21
1710.118643342648
 31
0.0
  0
LINE
  5
7ECB
330
7DAF
100
AcDbEntity
  8
0
  6
ByBlock
100
AcDbLine
 10
1017.823013106725
 20
1606.652206514649
 30
0.0
 11
1017.823013106725
 21
1710.118643342648
 31
0.0
  0
LINE
  5
7ECC
330
7DAF
100
AcDbEntity
  8
0
  6
ByBlock
100
AcDbLine
 10
667.8230131067246
 20
1690.118643342648
 30
0.0
 11
977.8230131067251
 21
1690.118643342648
 31
0.0
  0
INSERT
  5
7ECD
330
7DAF
100
AcDbEntity
  8
0
  6
ByBlock
100
AcDbBlockReference
  2
_OPEN
 10
627.8230131067246
 20
1690.118643342648
 30
0.0
 41
40.0
 42
40.0
 43
40.0
 50
180.0
  0
INSERT
  5
7ECE
330
7DAF
100
AcDbEntity
  8
0
  6
ByBlock
100
AcDbBlockReference
  2
_OPEN
 10
1017.823013106725
 20
1690.118643342648
 30
0.0
 41
40.0
 42
40.0
 43
40.0
  0
MTEXT
  5
7ECF
330
7DAF
100
AcDbEntity
  8
0
  6
ByBlock
100
AcDbMText
 10
822.8230131067247
 20
1730.118643342648
 30
0.0
 40
60.0
 41
0.0
 71
     5
 72
     5
  1
\A1;390
 73
     1
 44
1.0
1001
ACAD
1000
MTEXTBEGIN
1070
    73
1070
     1
1070
    44
1040
1.0
1070
    74
1070
     0
1000
MTEXTEND
  0
POINT
  5
7ED0
330
7DAF
100
AcDbEntity
  8
DEFPOINTS
  6
ByBlock
 62
     0
100
AcDbPoint
 10
627.8230131067246
 20
1154.439260741248
 30
0.0
  0
POINT
  5
7ED1
330
7DAF
100
AcDbEntity
  8
DEFPOINTS
  6
ByBlock
 62
     0
100
AcDbPoint
 10
1017.823013106725
 20
1586.652206514649
 30
0.0
  0
POINT
  5
7ED2
330
7DAF
100
AcDbEntity
  8
DEFPOINTS
  6
ByBlock
 62
     0
100
AcDbPoint
 10
1017.823013106725
 20
1690.118643342648
 30
0.0
  0
ENDBLK
  5
7ED3
330
7DAF
100
AcDbEntity
  8
0
100
AcDbBlockEnd
  0
BLOCK
  5
7ED4
330
7DBB
100
AcDbEntity
  8
0
100
AcDbBlockBegin
  2
*D8
 70
     1
 10
0.0
 20
0.0
 30
0.0
  3
*D8
  1

  0
LINE
  5
7ED5
330
7DBB
100
AcDbEntity
  8
0
  6
ByBlock
100
AcDbLine
 10
2012.823013106725
 20
2711.780162568318
 30
0.0
 11
2012.823013106725
 21
2276.751708768896
 31
0.0
  0
LINE
  5
7ED6
330
7DBB
100
AcDbEntity
  8
0
  6
ByBlock
100
AcDbLine
 10
662.823013106725
 20
2711.780162568319
 30
0.0
 11
662.823013106725
 21
2276.751708768896
 31
0.0
  0
LINE
  5
7ED7
330
7DBB
100
AcDbEntity
  8
0
  6
ByBlock
100
AcDbLine
 10
1972.823013106725
 20
2296.751708768897
 30
0.0
 11
702.8230131067251
 21
2296.751708768897
 31
0.0
  0
INSERT
  5
7ED8
330
7DBB
100
AcDbEntity
  8
0
  6
ByBlock
100
AcDbBlockReference
  2
_OPEN
 10
2012.823013106725
 20
2296.751708768897
 30
0.0
 41
40.0
 42
40.0
 43
40.0
  0
INSERT
  5
7ED9
330
7DBB
100
AcDbEntity
  8
0
  6
ByBlock
100
AcDbBlockReference
  2
_OPEN
 10
662.823013106725
 20
2296.751708768897
 30
0.0
 41
40.0
 42
40.0
 43
40.0
 50
180.0
  0
MTEXT
  5
7EDA
330
7DBB
100
AcDbEntity
  8
0
  6
ByBlock
100
AcDbMText
 10
1337.823013106725
 20
2336.751708768897
 30
0.0
 40
60.0
 41
0.0
 71
     5
 72
     5
  1
\A1;1350
 73
     1
 44
1.0
1001
ACAD
1000
MTEXTBEGIN
1070
    73
1070
     1
1070
    44
1040
1.0
1070
    74
1070
     0
1000
MTEXTEND
  0
POINT
  5
7EDB
330
7DBB
100
AcDbEntity
  8
DEFPOINTS
  6
ByBlock
 62
     0
100
AcDbPoint
 10
2012.823013106725
 20
2731.780162568318
 30
0.0
  0
POINT
  5
7EDC
330
7DBB
100
AcDbEntity
  8
DEFPOINTS
  6
ByBlock
 62
     0
100
AcDbPoint
 10
662.823013106725
 20
2731.780162568319
 30
0.0
  0
POINT
  5
7EDD
330
7DBB
100
AcDbEntity
  8
DEFPOINTS
  6
ByBlock
 62
     0
100
AcDbPoint
 10
662.823013106725
 20
2296.751708768897
 30
0.0
  0
ENDBLK
  5
7EDE
330
7DBB
100
AcDbEntity
  8
0
100
AcDbBlockEnd
  0
BLOCK
  5
7EDF
330
7DC7
100
AcDbEntity
  8
0
100
AcDbBlockBegin
  2
*D9
 70
     1
 10
0.0
 20
0.0
 30
0.0
  3
*D9
  1

  0
LINE
  5
7EE0
330
7DC7
100
AcDbEntity
  8
0
  6
ByBlock
100
AcDbLine
 10
662.8230131067253
 20
3676.780162568318
 30
0.0
 11
662.8230131067253
 21
3832.134114332644
 31
0.0
  0
LINE
  5
7EE1
330
7DC7
100
AcDbEntity
  8
0
  6
ByBlock
100
AcDbLine
 10
1372.823013106725
 20
3676.780162568319
 30
0.0
 11
1372.823013106725
 21
3832.134114332644
 31
0.0
  0
LINE
  5
7EE2
330
7DC7
100
AcDbEntity
  8
0
  6
ByBlock
100
AcDbLine
 10
702.8230131067252
 20
3812.134114332644
 30
0.0
 11
1332.823013106725
 21
3812.134114332644
 31
0.0
  0
INSERT
  5
7EE3
330
7DC7
100
AcDbEntity
  8
0
  6
ByBlock
100
AcDbBlockReference
  2
_OPEN
 10
662.8230131067253
 20
3812.134114332644
 30
0.0
 41
40.0
 42
40.0
 43
40.0
 50
180.0
  0
INSERT
  5
7EE4
330
7DC7
100
AcDbEntity
  8
0
  6
ByBlock
100
AcDbBlockReference
  2
_OPEN
 10
1372.823013106725
 20
3812.134114332644
 30
0.0
 41
40.0
 42
40.0
 43
40.0
  0
MTEXT
  5
7EE5
330
7DC7
100
AcDbEntity
  8
0
  6
ByBlock
100
AcDbMText
 10
1017.823013106725
 20
3852.134114332644
 30
0.0
 40
60.0
 41
0.0
 71
     5
 72
     5
  1
\A1;710
 73
     1
 44
1.0
1001
ACAD
1000
MTEXTBEGIN
1070
    73
1070
     1
1070
    44
1040
1.0
1070
    74
1070
     0
1000
MTEXTEND
  0
POINT
  5
7EE6
330
7DC7
100
AcDbEntity
  8
DEFPOINTS
  6
ByBlock
 62
     0
100
AcDbPoint
 10
662.8230131067253
 20
3656.780162568318
 30
0.0
  0
POINT
  5
7EE7
330
7DC7
100
AcDbEntity
  8
DEFPOINTS
  6
ByBlock
 62
     0
100
AcDbPoint
 10
1372.823013106725
 20
3656.780162568319
 30
0.0
  0
POINT
  5
7EE8
330
7DC7
100
AcDbEntity
  8
DEFPOINTS
  6
ByBlock
 62
     0
100
AcDbPoint
 10
1372.823013106725
 20
3812.134114332644
 30
0.0
  0
ENDBLK
  5
7EE9
330
7DC7
100
AcDbEntity
  8
0
100
AcDbBlockEnd
  0
BLOCK
  5
7EEA
330
7DD3
100
AcDbEntity
  8
0
100
AcDbBlockBegin
  2
*D10
 70
     1
 10
0.0
 20
0.0
 30
0.0
  3
*D10
  1

  0
LINE
  5
7EEB
330
7DD3
100
AcDbEntity
  8
0
  6
ByBlock
100
AcDbLine
 10
642.8230131067253
 20
3656.780162568318
 30
0.0
 11
446.2294150550108
 21
3656.780162568318
 31
0.0
  0
LINE
  5
7EEC
330
7DD3
100
AcDbEntity
  8
0
  6
ByBlock
100
AcDbLine
 10
642.823013106725
 20
2731.780162568319
 30
0.0
 11
446.2294150550108
 21
2731.780162568319
 31
0.0
  0
LINE
  5
7EED
330
7DD3
100
AcDbEntity
  8
0
  6
ByBlock
100
AcDbLine
 10
466.2294150550108
 20
3616.780162568318
 30
0.0
 11
466.2294150550108
 21
2771.780162568319
 31
0.0
  0
INSERT
  5
7EEE
330
7DD3
100
AcDbEntity
  8
0
  6
ByBlock
100
AcDbBlockReference
  2
_OPEN
 10
466.2294150550108
 20
3656.780162568318
 30
0.0
 41
40.0
 42
40.0
 43
40.0
 50
90.0
  0
INSERT
  5
7EEF
330
7DD3
100
AcDbEntity
  8
0
  6
ByBlock
100
AcDbBlockReference
  2
_OPEN
 10
466.2294150550108
 20
2731.780162568319
 30
0.0
 41
40.0
 42
40.0
 43
40.0
 50
270.0
  0
MTEXT
  5
7EF0
330
7DD3
100
AcDbEntity
  8
0
  6
ByBlock
100
AcDbMText
 10
426.2294150550108
 20
3194.280162568319
 30
0.0
 40
60.0
 41
0.0
 71
     5
 72
     5
  1
\A1;925
 11
0.0
 21
1.0
 31
0.0
 73
     1
 44
1.0
1001
ACAD
1000
MTEXTBEGIN
1070
    73
1070
     1
1070
    44
1040
1.0
1070
    74
1070
     0
1000
MTEXTEND
  0
POINT
  5
7EF1
330
7DD3
100
AcDbEntity
  8
DEFPOINTS
  6
ByBlock
 62
     0
100
AcDbPoint
 10
662.8230131067253
 20
3656.780162568318
 30
0.0
  0
POINT
  5
7EF2
330
7DD3
100
AcDbEntity
  8
DEFPOINTS
  6
ByBlock
 62
     0
100
AcDbPoint
 10
662.823013106725
 20
2731.780162568319
 30
0.0
  0
POINT
  5
7EF3
330
7DD3
100
AcDbEntity
  8
DEFPOINTS
  6
ByBlock
 62
     0
100
AcDbPoint
 10
466.2294150550108
 20
2731.780162568319
 30
0.0
  0
ENDBLK
  5
7EF4
330
7DD3
100
AcDbEntity
  8
0
100
AcDbBlockEnd
  0
BLOCK
  5
7EF5
330
7DDF
100
AcDbEntity
  8
0
100
AcDbBlockBegin
  2
*D11
 70
     1
 10
0.0
 20
0.0
 30
0.0
  3
*D11
  1

  0
LINE
  5
7EF6
330
7DDF
100
AcDbEntity
  8
0
  6
ByBlock
100
AcDbLine
 10
2032.823013106725
 20
3331.780162568318
 30
0.0
 11
2231.597744795928
 21
3331.780162568318
 31
0.0
  0
LINE
  5
7EF7
330
7DDF
100
AcDbEntity
  8
0
  6
ByBlock
100
AcDbLine
 10
2032.823013106725
 20
2731.780162568318
 30
0.0
 11
2231.597744795928
 21
2731.780162568318
 31
0.0
  0
LINE
  5
7EF8
330
7DDF
100
AcDbEntity
  8
0
  6
ByBlock
100
AcDbLine
 10
2211.597744795928
 20
3291.780162568318
 30
0.0
 11
2211.597744795928
 21
2771.780162568318
 31
0.0
  0
INSERT
  5
7EF9
330
7DDF
100
AcDbEntity
  8
0
  6
ByBlock
100
AcDbBlockReference
  2
_OPEN
 10
2211.597744795928
 20
3331.780162568318
 30
0.0
 41
40.0
 42
40.0
 43
40.0
 50
90.0
  0
INSERT
  5
7EFA
330
7DDF
100
AcDbEntity
  8
0
  6
ByBlock
100
AcDbBlockReference
  2
_OPEN
 10
2211.597744795928
 20
2731.780162568318
 30
0.0
 41
40.0
 42
40.0
 43
40.0
 50
270.0
  0
MTEXT
  5
7EFB
330
7DDF
100
AcDbEntity
  8
0
  6
ByBlock
100
AcDbMText
 10
2171.597744795928
 20
3031.780162568318
 30
0.0
 40
60.0
 41
0.0
 71
     5
 72
     5
  1
\A1;600
 11
0.0
 21
1.0
 31
0.0
 73
     1
 44
1.0
1001
ACAD
1000
MTEXTBEGIN
1070
    73
1070
     1
1070
    44
1040
1.0
1070
    74
1070
     0
1000
MTEXTEND
  0
POINT
  5
7EFC
330
7DDF
100
AcDbEntity
  8
DEFPOINTS
  6
ByBlock
 62
     0
100
AcDbPoint
 10
2012.823013106725
 20
3331.780162568318
 30
0.0
  0
POINT
  5
7EFD
330
7DDF
100
AcDbEntity
  8
DEFPOINTS
  6
ByBlock
 62
     0
100
AcDbPoint
 10
2012.823013106725
 20
2731.780162568318
 30
0.0
  0
POINT
  5
7EFE
330
7DDF
100
AcDbEntity
  8
DEFPOINTS
  6
ByBlock
 62
     0
100
AcDbPoint
 10
2211.597744795928
 20
2731.780162568318
 30
0.0
  0
ENDBLK
  5
7EFF
330
7DDF
100
AcDbEntity
  8
0
100
AcDbBlockEnd
  0
BLOCK
  5
7F00
330
7DEB
100
AcDbEntity
  8
0
100
AcDbBlockBegin
  2
*D12
 70
     1
 10
0.0
 20
0.0
 30
0.0
  3
*D12
  1

  0
LINE
  5
8205
330
7DEB
100
AcDbEntity
  8
3
100
AcDbLine
 10
2403.57536056422
 20
4101.154031839684
 30
0.0
 11
2403.57536056422
 21
4581.50798360401
 31
0.0
  0
LINE
  5
8206
330
7DEB
100
AcDbEntity
  8
3
100
AcDbLine
 10
1803.57536056422
 20
4561.50798360401
 30
0.0
 11
2363.575360564221
 21
4561.50798360401
 31
0.0
  0
INSERT
  5
8207
330
7DEB
100
AcDbEntity
  8
3
100
AcDbBlockReference
  2
_OPEN
 10
1763.57536056422
 20
4561.50798360401
 30
0.0
 41
40.0
 42
40.0
 43
40.0
 50
180.0
  0
INSERT
  5
8208
330
7DEB
100
AcDbEntity
  8
3
100
AcDbBlockReference
  2
_OPEN
 10
2403.57536056422
 20
4561.50798360401
 30
0.0
 41
40.0
 42
40.0
 43
40.0
  0
MTEXT
  5
8209
330
7DEB
100
AcDbEntity
  8
3
100
AcDbMText
 10
2083.57536056422
 20
4601.507983604011
 30
0.0
 40
60.0
 41
0.0
 71
     5
 72
     5
  1
\A1;640
 73
     1
 44
1.0
1001
ACAD
1000
MTEXTBEGIN
1070
    73
1070
     1
1070
    44
1040
1.0
1070
    74
1070
     0
1000
MTEXTEND
  0
POINT
  5
820A
330
7DEB
100
AcDbEntity
  8
DEFPOINTS
 62
     0
100
AcDbPoint
 10
1763.57536056422
 20
4406.154031839686
 30
0.0
  0
POINT
  5
820B
330
7DEB
100
AcDbEntity
  8
DEFPOINTS
 62
     0
100
AcDbPoint
 10
2403.57536056422
 20
4081.154031839684
 30
0.0
  0
POINT
  5
820C
330
7DEB
100
AcDbEntity
  8
DEFPOINTS
 62
     0
100
AcDbPoint
 10
2403.57536056422
 20
4561.50798360401
 30
0.0
  0
ENDBLK
  5
7F09
330
7DEB
100
AcDbEntity
  8
0
100
AcDbBlockEnd
  0
BLOCK
  5
7F14
330
7E01
100
AcDbEntity
  8
0
100
AcDbBlockBegin
  2
*D13
 70
     1
 10
0.0
 20
0.0
 30
0.0
  3
*D13
  1

  0
LINE
  5
8297
330
7E01
100
AcDbEntity
  8
3
370
    -2
100
AcDbLine
 10
3805.671436037816
 20
2122.77717854936
 30
0.0
 11
3805.671436037816
 21
2808.030114272274
 31
0.0
  0
LINE
  5
8298
330
7E01
100
AcDbEntity
  8
3
370
    -2
100
AcDbLine
 10
3335.671436037816
 20
2731.429930810286
 30
0.0
 11
3335.671436037816
 21
2808.030114272274
 31
0.0
  0
LINE
  5
8299
330
7E01
100
AcDbEntity
  8
3
370
    -2
100
AcDbLine
 10
3765.671436037815
 20
2788.030114272274
 30
0.0
 11
3375.671436037816
 21
2788.030114272274
 31
0.0
  0
INSERT
  5
829A
330
7E01
100
AcDbEntity
  8
3
370
    -2
100
AcDbBlockReference
  2
_OPEN
 10
3805.671436037816
 20
2788.030114272274
 30
0.0
 41
40.0
 42
40.0
 43
40.0
  0
INSERT
  5
829B
330
7E01
100
AcDbEntity
  8
3
370
    -2
100
AcDbBlockReference
  2
_OPEN
 10
3335.671436037816
 20
2788.030114272274
 30
0.0
 41
40.0
 42
40.0
 43
40.0
 50
180.0
  0
MTEXT
  5
829C
330
7E01
100
AcDbEntity
  8
3
100
AcDbMText
 10
3570.671436037816
 20
2843.74439998656
 30
0.0
 40
60.0
 41
0.0
 71
     5
 72
     1
  1
\A1;(470)
 73
     1
 44
1.0
1001
ACAD
1000
MTEXTBEGIN
1070
    73
1070
     1
1070
    44
1040
1.0
1070
    74
1070
     0
1000
MTEXTEND
  0
POINT
  5
829D
330
7E01
100
AcDbEntity
  8
DEFPOINTS
 62
     0
100
AcDbPoint
 10
3805.671436037816
 20
2102.777178549359
 30
0.0
  0
POINT
  5
829E
330
7E01
100
AcDbEntity
  8
DEFPOINTS
 62
     0
100
AcDbPoint
 10
3335.671436037816
 20
2711.429930810286
 30
0.0
  0
POINT
  5
829F
330
7E01
100
AcDbEntity
  8
DEFPOINTS
 62
     0
100
AcDbPoint
 10
3335.671436037816
 20
2788.030114272274
 30
0.0
  0
ENDBLK
  5
7F1E
330
7E01
100
AcDbEntity
  8
0
100
AcDbBlockEnd
  0
BLOCK
  5
80C1
330
7E0D
100
AcDbEntity
  8
0
100
AcDbBlockBegin
  2
*D14
 70
     1
 10
0.0
 20
0.0
 30
0.0
  3
*D14
  1

  0
LINE
  5
820D
330
7E0D
100
AcDbEntity
  8
3
 62
     0
100
AcDbLine
 10
3722.671436037814
 20
2435.677178549359
 30
0.0
 11
3933.084751702367
 21
2435.677178549359
 31
0.0
  0
LINE
  5
820E
330
7E0D
100
AcDbEntity
  8
3
 62
     0
100
AcDbLine
 10
3722.671436037814
 20
1875.677178549359
 30
0.0
 11
3933.084751702367
 21
1875.677178549359
 31
0.0
  0
LINE
  5
820F
330
7E0D
100
AcDbEntity
  8
3
 62
     0
100
AcDbLine
 10
3913.084751702367
 20
2395.677178549359
 30
0.0
 11
3913.084751702367
 21
1915.677178549359
 31
0.0
  0
INSERT
  5
8210
330
7E0D
100
AcDbEntity
  8
3
 62
     0
100
AcDbBlockReference
  2
_OPEN
 10
3913.084751702367
 20
2435.677178549359
 30
0.0
 41
40.0
 42
40.0
 43
40.0
 50
90.0
  0
INSERT
  5
8211
330
7E0D
100
AcDbEntity
  8
3
 62
     0
100
AcDbBlockReference
  2
_OPEN
 10
3913.084751702367
 20
1875.677178549359
 30
0.0
 41
40.0
 42
40.0
 43
40.0
 50
270.0
  0
MTEXT
  5
8212
330
7E0D
100
AcDbEntity
  8
3
 62
     0
100
AcDbMText
 10
3863.084751702366
 20
2155.67717854936
 30
0.0
 40
60.0
 41
0.0
 71
     5
 72
     5
  1
\A1;\U+03C6 560
 11
0.0000000000000001
 21
1.0
 31
0.0
 73
     1
 44
1.0
1001
ACAD
1000
MTEXTBEGIN
1070
    73
1070
     1
1070
    44
1040
1.0
1070
    74
1070
     0
1000
MTEXTEND
  0
POINT
  5
8213
330
7E0D
100
AcDbEntity
  8
DEFPOINTS
 62
     0
100
AcDbPoint
 10
3712.671436037814
 20
2435.677178549359
 30
0.0
  0
POINT
  5
8214
330
7E0D
100
AcDbEntity
  8
DEFPOINTS
 62
     0
100
AcDbPoint
 10
3712.671436037814
 20
1875.677178549359
 30
0.0
  0
POINT
  5
8215
330
7E0D
100
AcDbEntity
  8
DEFPOINTS
 62
     0
100
AcDbPoint
 10
3913.084751702367
 20
1875.677178549359
 30
0.0
  0
ENDBLK
  5
80CB
330
7E0D
100
AcDbEntity
  8
0
100
AcDbBlockEnd
  0
BLOCK
  5
7F2A
330
7E19
100
AcDbEntity
  8
0
100
AcDbBlockBegin
  2
*D15
 70
     1
 10
0.0
 20
0.0
 30
0.0
  3
*D15
  1

  0
LINE
  5
7F2B
330
7E19
100
AcDbEntity
  8
0
  6
ByBlock
100
AcDbLine
 10
2812.819191441164
 20
1562.439260741249
 30
0.0
 11
2812.819191441164
 21
1652.391055793153
 31
0.0
  0
LINE
  5
7F2C
330
7E19
100
AcDbEntity
  8
0
  6
ByBlock
100
AcDbLine
 10
3562.819191441164
 20
1562.439260741249
 30
0.0
 11
3562.819191441164
 21
1652.391055793153
 31
0.0
  0
LINE
  5
7F2D
330
7E19
100
AcDbEntity
  8
0
  6
ByBlock
100
AcDbLine
 10
2852.819191441163
 20
1632.391055793153
 30
0.0
 11
3522.819191441164
 21
1632.391055793153
 31
0.0
  0
INSERT
  5
7F2E
330
7E19
100
AcDbEntity
  8
0
  6
ByBlock
100
AcDbBlockReference
  2
_OPEN
 10
2812.819191441164
 20
1632.391055793153
 30
0.0
 41
40.0
 42
40.0
 43
40.0
 50
180.0
  0
INSERT
  5
7F2F
330
7E19
100
AcDbEntity
  8
0
  6
ByBlock
100
AcDbBlockReference
  2
_OPEN
 10
3562.819191441164
 20
1632.391055793153
 30
0.0
 41
40.0
 42
40.0
 43
40.0
  0
MTEXT
  5
7F30
330
7E19
100
AcDbEntity
  8
0
  6
ByBlock
100
AcDbMText
 10
3187.819191441164
 20
1672.391055793153
 30
0.0
 40
60.0
 41
0.0
 71
     5
 72
     5
  1
\A1;750
 73
     1
 44
1.0
1001
ACAD
1000
MTEXTBEGIN
1070
    73
1070
     1
1070
    44
1040
1.0
1070
    74
1070
     0
1000
MTEXTEND
  0
POINT
  5
7F31
330
7E19
100
AcDbEntity
  8
DEFPOINTS
  6
ByBlock
 62
     0
100
AcDbPoint
 10
2812.819191441164
 20
1542.439260741249
 30
0.0
  0
POINT
  5
7F32
330
7E19
100
AcDbEntity
  8
DEFPOINTS
  6
ByBlock
 62
     0
100
AcDbPoint
 10
3562.819191441164
 20
1542.439260741249
 30
0.0
  0
POINT
  5
7F33
330
7E19
100
AcDbEntity
  8
DEFPOINTS
  6
ByBlock
 62
     0
100
AcDbPoint
 10
3562.819191441164
 20
1632.391055793153
 30
0.0
  0
ENDBLK
  5
7F34
330
7E19
100
AcDbEntity
  8
0
100
AcDbBlockEnd
  0
BLOCK
  5
8085
330
807F
100
AcDbEntity
  8
0
100
AcDbBlockBegin
  2
_DOT
 70
     0
 10
0.0
 20
0.0
 30
0.0
  3
_DOT
  1

  0
LWPOLYLINE
  5
8080
330
807F
100
AcDbEntity
  8
0
  6
ByBlock
 62
     0
100
AcDbPolyline
 90
        2
 70
     1
 43
0.25
 10
-0.125
 20
0.0
 42
1.0
 10
0.125
 20
0.0
 42
1.0
  0
LINE
  5
8084
330
807F
100
AcDbEntity
  8
0
  6
ByBlock
 62
     0
100
AcDbLine
 10
-0.25
 20
0.0
 30
0.0
 11
-1.0
 21
0.0
 31
0.0
  0
ENDBLK
  5
8086
330
807F
100
AcDbEntity
  8
0
100
AcDbBlockEnd
  0
BLOCK
  5
8122
330
8121
100
AcDbEntity
  8
0
100
AcDbBlockBegin
  2
_NONE
 70
     0
 10
0.0
 20
0.0
 30
0.0
  3
_NONE
  1

  0
CIRCLE
  5
8123
330
8121
100
AcDbEntity
  8
0
  6
ByBlock
 62
     0
100
AcDbCircle
 10
0.0
 20
0.0
 30
0.0
 40
0.25
  0
ENDBLK
  5
8124
330
8121
100
AcDbEntity
  8
0
100
AcDbBlockEnd
  0
BLOCK
  5
8132
330
8131
100
AcDbEntity
  8
0
100
AcDbBlockBegin
  2
*D18
 70
     1
 10
0.0
 20
0.0
 30
0.0
  3
*D18
  1

  0
LINE
  5
8133
330
8131
100
AcDbEntity
  8
0
  6
ByBlock
 62
     0
100
AcDbLine
 10
944.9757359989623
 20
2155.677178549359
 30
0.0
 11
644.0018246842192
 21
2155.677178549359
 31
0.0
  0
LINE
  5
8134
330
8131
100
AcDbEntity
  8
0
  6
ByBlock
 62
     0
100
AcDbLine
 10
1479.081777763948
 20
2555.677178549359
 30
0.0
 11
644.0018246842192
 21
2555.677178549359
 31
0.0
  0
LINE
  5
8135
330
8131
100
AcDbEntity
  8
0
  6
ByBlock
 62
     0
100
AcDbLine
 10
664.0018246842191
 20
2195.67717854936
 30
0.0
 11
664.0018246842191
 21
2515.677178549359
 31
0.0
  0
INSERT
  5
8136
330
8131
100
AcDbEntity
  8
0
  6
ByBlock
 62
     0
100
AcDbBlockReference
  2
_OPEN
 10
664.0018246842191
 20
2155.677178549359
 30
0.0
 41
40.0
 42
40.0
 43
40.0
 50
270.0
  0
INSERT
  5
8137
330
8131
100
AcDbEntity
  8
0
  6
ByBlock
 62
     0
100
AcDbBlockReference
  2
_OPEN
 10
664.0018246842191
 20
2555.677178549359
 30
0.0
 41
40.0
 42
40.0
 43
40.0
 50
90.0
  0
MTEXT
  5
8138
330
8131
100
AcDbEntity
  8
0
  6
ByBlock
 62
     0
100
AcDbMText
 10
614.0018246842191
 20
2355.677178549359
 30
0.0
 40
60.0
 41
0.0
 71
     5
 72
     5
  1
\A1;400
 11
0.0
 21
1.0
 31
0.0
 73
     1
 44
1.0
1001
ACAD
1000
MTEXTBEGIN
1070
    73
1070
     1
1070
    44
1040
1.0
1070
    74
1070
     0
1000
MTEXTEND
  0
POINT
  5
8139
330
8131
100
AcDbEntity
  8
DEFPOINTS
  6
ByBlock
 62
     0
100
AcDbPoint
 10
954.9757359989623
 20
2155.677178549359
 30
0.0
  0
POINT
  5
813A
330
8131
100
AcDbEntity
  8
DEFPOINTS
  6
ByBlock
 62
     0
100
AcDbPoint
 10
1489.081777763948
 20
2555.677178549359
 30
0.0
  0
POINT
  5
813B
330
8131
100
AcDbEntity
  8
DEFPOINTS
  6
ByBlock
 62
     0
100
AcDbPoint
 10
664.0018246842191
 20
2555.677178549359
 30
0.0
  0
ENDBLK
  5
813C
330
8131
100
AcDbEntity
  8
0
100
AcDbBlockEnd
  0
BLOCK
  5
8165
330
8164
100
AcDbEntity
  8
0
100
AcDbBlockBegin
  2
*D19
 70
     1
 10
0.0
 20
0.0
 30
0.0
  3
*D19
  1

  0
LINE
  5
8166
330
8164
100
AcDbEntity
  8
0
  6
ByBlock
 62
     0
100
AcDbLine
 10
1053.57536056422
 20
1425.677178549359
 30
0.0
 11
1053.57536056422
 21
1293.531468891095
 31
0.0
  0
LINE
  5
8167
330
8164
100
AcDbEntity
  8
0
  6
ByBlock
 62
     0
100
AcDbLine
 10
1408.57536056422
 20
1425.677178549359
 30
0.0
 11
1408.57536056422
 21
1293.531468891095
 31
0.0
  0
LINE
  5
8168
330
8164
100
AcDbEntity
  8
0
  6
ByBlock
 62
     0
100
AcDbLine
 10
1093.57536056422
 20
1313.531468891095
 30
0.0
 11
1368.57536056422
 21
1313.531468891095
 31
0.0
  0
INSERT
  5
8169
330
8164
100
AcDbEntity
  8
0
  6
ByBlock
 62
     0
100
AcDbBlockReference
  2
_OPEN
 10
1053.57536056422
 20
1313.531468891095
 30
0.0
 41
40.0
 42
40.0
 43
40.0
 50
180.0
  0
INSERT
  5
816A
330
8164
100
AcDbEntity
  8
0
  6
ByBlock
 62
     0
100
AcDbBlockReference
  2
_OPEN
 10
1408.57536056422
 20
1313.531468891095
 30
0.0
 41
40.0
 42
40.0
 43
40.0
  0
MTEXT
  5
816B
330
8164
100
AcDbEntity
  8
0
  6
ByBlock
 62
     0
100
AcDbMText
 10
1231.07536056422
 20
1363.531468891095
 30
0.0
 40
60.0
 41
0.0
 71
     5
 72
     5
  1
\A1;355
 73
     1
 44
1.0
1001
ACAD
1000
MTEXTBEGIN
1070
    73
1070
     1
1070
    44
1040
1.0
1070
    74
1070
     0
1000
MTEXTEND
  0
POINT
  5
816C
330
8164
100
AcDbEntity
  8
DEFPOINTS
  6
ByBlock
 62
     0
100
AcDbPoint
 10
1053.57536056422
 20
1435.677178549359
 30
0.0
  0
POINT
  5
816D
330
8164
100
AcDbEntity
  8
DEFPOINTS
  6
ByBlock
 62
     0
100
AcDbPoint
 10
1408.57536056422
 20
1435.677178549359
 30
0.0
  0
POINT
  5
816E
330
8164
100
AcDbEntity
  8
DEFPOINTS
  6
ByBlock
 62
     0
100
AcDbPoint
 10
1408.57536056422
 20
1313.531468891095
 30
0.0
  0
ENDBLK
  5
816F
330
8164
100
AcDbEntity
  8
0
100
AcDbBlockEnd
  0
BLOCK
  5
8172
330
8171
100
AcDbEntity
  8
0
100
AcDbBlockBegin
  2
*D20
 70
     1
 10
0.0
 20
0.0
 30
0.0
  3
*D20
  1

  0
LINE
  5
8173
330
8171
100
AcDbEntity
  8
0
  6
ByBlock
 62
     0
100
AcDbLine
 10
1408.57536056422
 20
1425.677178549359
 30
0.0
 11
1408.57536056422
 21
1293.531468891095
 31
0.0
  0
LINE
  5
8174
330
8171
100
AcDbEntity
  8
0
  6
ByBlock
 62
     0
100
AcDbLine
 10
2403.57536056422
 20
1425.677178549358
 30
0.0
 11
2403.57536056422
 21
1293.531468891095
 31
0.0
  0
LINE
  5
8175
330
8171
100
AcDbEntity
  8
0
  6
ByBlock
 62
     0
100
AcDbLine
 10
1448.57536056422
 20
1313.531468891095
 30
0.0
 11
2363.575360564221
 21
1313.531468891095
 31
0.0
  0
INSERT
  5
8176
330
8171
100
AcDbEntity
  8
0
  6
ByBlock
 62
     0
100
AcDbBlockReference
  2
_OPEN
 10
1408.57536056422
 20
1313.531468891095
 30
0.0
 41
40.0
 42
40.0
 43
40.0
 50
180.0
  0
INSERT
  5
8177
330
8171
100
AcDbEntity
  8
0
  6
ByBlock
 62
     0
100
AcDbBlockReference
  2
_OPEN
 10
2403.57536056422
 20
1313.531468891095
 30
0.0
 41
40.0
 42
40.0
 43
40.0
  0
MTEXT
  5
8178
330
8171
100
AcDbEntity
  8
0
  6
ByBlock
 62
     0
100
AcDbMText
 10
1906.07536056422
 20
1363.531468891095
 30
0.0
 40
60.0
 41
0.0
 71
     5
 72
     5
  1
\A1;995
 73
     1
 44
1.0
1001
ACAD
1000
MTEXTBEGIN
1070
    73
1070
     1
1070
    44
1040
1.0
1070
    74
1070
     0
1000
MTEXTEND
  0
POINT
  5
8179
330
8171
100
AcDbEntity
  8
DEFPOINTS
  6
ByBlock
 62
     0
100
AcDbPoint
 10
1408.57536056422
 20
1435.677178549359
 30
0.0
  0
POINT
  5
817A
330
8171
100
AcDbEntity
  8
DEFPOINTS
  6
ByBlock
 62
     0
100
AcDbPoint
 10
2403.57536056422
 20
1435.677178549358
 30
0.0
  0
POINT
  5
817B
330
8171
100
AcDbEntity
  8
DEFPOINTS
  6
ByBlock
 62
     0
100
AcDbPoint
 10
2403.57536056422
 20
1313.531468891095
 30
0.0
  0
ENDBLK
  5
817C
330
8171
100
AcDbEntity
  8
0
100
AcDbBlockEnd
  0
BLOCK
  5
817F
330
817E
100
AcDbEntity
  8
0
100
AcDbBlockBegin
  2
*D21
 70
     1
 10
0.0
 20
0.0
 30
0.0
  3
*D21
  1

  0
LINE
  5
8180
330
817E
100
AcDbEntity
  8
0
  6
ByBlock
 62
     0
100
AcDbLine
 10
2828.671436037815
 20
1425.677178549359
 30
0.0
 11
2828.671436037815
 21
1293.531468891095
 31
0.0
  0
LINE
  5
8181
330
817E
100
AcDbEntity
  8
0
  6
ByBlock
 62
     0
100
AcDbLine
 10
3335.671436037816
 20
1425.677178549359
 30
0.0
 11
3335.671436037816
 21
1293.531468891095
 31
0.0
  0
LINE
  5
8182
330
817E
100
AcDbEntity
  8
0
  6
ByBlock
 62
     0
100
AcDbLine
 10
2868.671436037816
 20
1313.531468891095
 30
0.0
 11
3295.671436037816
 21
1313.531468891095
 31
0.0
  0
INSERT
  5
8183
330
817E
100
AcDbEntity
  8
0
  6
ByBlock
 62
     0
100
AcDbBlockReference
  2
_OPEN
 10
2828.671436037815
 20
1313.531468891095
 30
0.0
 41
40.0
 42
40.0
 43
40.0
 50
180.0
  0
INSERT
  5
8184
330
817E
100
AcDbEntity
  8
0
  6
ByBlock
 62
     0
100
AcDbBlockReference
  2
_OPEN
 10
3335.671436037816
 20
1313.531468891095
 30
0.0
 41
40.0
 42
40.0
 43
40.0
  0
MTEXT
  5
8185
330
817E
100
AcDbEntity
  8
0
  6
ByBlock
 62
     0
100
AcDbMText
 10
3082.171436037816
 20
1363.531468891095
 30
0.0
 40
60.0
 41
0.0
 71
     5
 72
     5
  1
\A1;507
 73
     1
 44
1.0
1001
ACAD
1000
MTEXTBEGIN
1070
    73
1070
     1
1070
    44
1040
1.0
1070
    74
1070
     0
1000
MTEXTEND
  0
POINT
  5
8186
330
817E
100
AcDbEntity
  8
DEFPOINTS
  6
ByBlock
 62
     0
100
AcDbPoint
 10
2828.671436037815
 20
1435.677178549359
 30
0.0
  0
POINT
  5
8187
330
817E
100
AcDbEntity
  8
DEFPOINTS
  6
ByBlock
 62
     0
100
AcDbPoint
 10
3335.671436037816
 20
1435.677178549359
 30
0.0
  0
POINT
  5
8188
330
817E
100
AcDbEntity
  8
DEFPOINTS
  6
ByBlock
 62
     0
100
AcDbPoint
 10
3335.671436037816
 20
1313.531468891095
 30
0.0
  0
ENDBLK
  5
8189
330
817E
100
AcDbEntity
  8
0
100
AcDbBlockEnd
  0
BLOCK
  5
818C
330
818B
100
AcDbEntity
  8
0
100
AcDbBlockBegin
  2
*D22
 70
     1
 10
0.0
 20
0.0
 30
0.0
  3
*D22
  1

  0
LINE
  5
818D
330
818B
100
AcDbEntity
  8
0
  6
ByBlock
 62
     0
100
AcDbLine
 10
3335.671436037816
 20
1425.677178549359
 30
0.0
 11
3335.671436037816
 21
1293.531468891095
 31
0.0
  0
LINE
  5
818E
330
818B
100
AcDbEntity
  8
0
  6
ByBlock
 62
     0
100
AcDbLine
 10
3753.671436037816
 20
1425.677178549359
 30
0.0
 11
3753.671436037816
 21
1293.531468891095
 31
0.0
  0
LINE
  5
818F
330
818B
100
AcDbEntity
  8
0
  6
ByBlock
 62
     0
100
AcDbLine
 10
3375.671436037816
 20
1313.531468891095
 30
0.0
 11
3713.671436037816
 21
1313.531468891095
 31
0.0
  0
INSERT
  5
8190
330
818B
100
AcDbEntity
  8
0
  6
ByBlock
 62
     0
100
AcDbBlockReference
  2
_OPEN
 10
3335.671436037816
 20
1313.531468891095
 30
0.0
 41
40.0
 42
40.0
 43
40.0
 50
180.0
  0
INSERT
  5
8191
330
818B
100
AcDbEntity
  8
0
  6
ByBlock
 62
     0
100
AcDbBlockReference
  2
_OPEN
 10
3753.671436037816
 20
1313.531468891095
 30
0.0
 41
40.0
 42
40.0
 43
40.0
  0
MTEXT
  5
8192
330
818B
100
AcDbEntity
  8
0
  6
ByBlock
 62
     0
100
AcDbMText
 10
3544.671436037816
 20
1363.531468891095
 30
0.0
 40
60.0
 41
0.0
 71
     5
 72
     5
  1
\A1;418
 73
     1
 44
1.0
1001
ACAD
1000
MTEXTBEGIN
1070
    73
1070
     1
1070
    44
1040
1.0
1070
    74
1070
     0
1000
MTEXTEND
  0
POINT
  5
8193
330
818B
100
AcDbEntity
  8
DEFPOINTS
  6
ByBlock
 62
     0
100
AcDbPoint
 10
3335.671436037816
 20
1435.677178549359
 30
0.0
  0
POINT
  5
8194
330
818B
100
AcDbEntity
  8
DEFPOINTS
  6
ByBlock
 62
     0
100
AcDbPoint
 10
3753.671436037816
 20
1435.677178549359
 30
0.0
  0
POINT
  5
8195
330
818B
100
AcDbEntity
  8
DEFPOINTS
  6
ByBlock
 62
     0
100
AcDbPoint
 10
3753.671436037816
 20
1313.531468891095
 30
0.0
  0
ENDBLK
  5
8196
330
818B
100
AcDbEntity
  8
0
100
AcDbBlockEnd
  0
BLOCK
  5
8199
330
8198
100
AcDbEntity
  8
0
100
AcDbBlockBegin
  2
*D23
 70
     1
 10
0.0
 20
0.0
 30
0.0
  3
*D23
  1

  0
LINE
  5
819A
330
8198
100
AcDbEntity
  8
0
  6
ByBlock
 62
     0
100
AcDbLine
 10
1469.081777763948
 20
2555.677178549359
 30
0.0
 11
516.274159529381
 21
2555.677178549359
 31
0.0
  0
LINE
  5
819B
330
8198
100
AcDbEntity
  8
0
  6
ByBlock
 62
     0
100
AcDbLine
 10
1043.57536056422
 20
1435.677178549359
 30
0.0
 11
516.274159529381
 21
1435.677178549359
 31
0.0
  0
LINE
  5
819C
330
8198
100
AcDbEntity
  8
0
  6
ByBlock
 62
     0
100
AcDbLine
 10
536.274159529381
 20
2515.677178549359
 30
0.0
 11
536.274159529381
 21
1475.677178549359
 31
0.0
  0
INSERT
  5
819D
330
8198
100
AcDbEntity
  8
0
  6
ByBlock
 62
     0
100
AcDbBlockReference
  2
_OPEN
 10
536.274159529381
 20
2555.677178549359
 30
0.0
 41
40.0
 42
40.0
 43
40.0
 50
90.0
  0
INSERT
  5
819E
330
8198
100
AcDbEntity
  8
0
  6
ByBlock
 62
     0
100
AcDbBlockReference
  2
_OPEN
 10
536.274159529381
 20
1435.677178549359
 30
0.0
 41
40.0
 42
40.0
 43
40.0
 50
270.0
  0
MTEXT
  5
819F
330
8198
100
AcDbEntity
  8
0
  6
ByBlock
 62
     0
100
AcDbMText
 10
486.274159529381
 20
1995.677178549359
 30
0.0
 40
60.0
 41
0.0
 71
     5
 72
     5
  1
\A1;1120
 11
0.0
 21
1.0
 31
0.0
 73
     1
 44
1.0
1001
ACAD
1000
MTEXTBEGIN
1070
    73
1070
     1
1070
    44
1040
1.0
1070
    74
1070
     0
1000
MTEXTEND
  0
POINT
  5
81A0
330
8198
100
AcDbEntity
  8
DEFPOINTS
  6
ByBlock
 62
     0
100
AcDbPoint
 10
1479.081777763948
 20
2555.677178549359
 30
0.0
  0
POINT
  5
81A1
330
8198
100
AcDbEntity
  8
DEFPOINTS
  6
ByBlock
 62
     0
100
AcDbPoint
 10
1053.57536056422
 20
1435.677178549359
 30
0.0
  0
POINT
  5
81A2
330
8198
100
AcDbEntity
  8
DEFPOINTS
  6
ByBlock
 62
     0
100
AcDbPoint
 10
536.274159529381
 20
1435.677178549359
 30
0.0
  0
ENDBLK
  5
81A3
330
8198
100
AcDbEntity
  8
0
100
AcDbBlockEnd
  0
ENDSEC
  0
SECTION
  2
ENTITIES
  0
LINE
  5
7C1E
330
19
100
AcDbEntity
  8
1
100
AcDbLine
 10
2808.171436037816
 20
1930.677178549359
 30
0.0
 11
3369.171436037816
 21
1930.677178549359
 31
0.0
  0
LINE
  5
7C25
330
19
100
AcDbEntity
  8
1
100
AcDbLine
 10
3369.171436037816
 20
1563.177178549359
 30
0.0
 11
2808.171436037816
 21
1563.177178549359
 31
0.0
  0
DIMENSION
  5
7C26
330
19
100
AcDbEntity
  8
3
100
AcDbDimension
  2
*D1
 10
2625.671436037815
 20
2788.030114272274
 30
0.0
 11
2980.671436037816
 21
2843.74439998656
 31
0.0
 70
    32
  1
(<>)
 71
     5
 42
710.0000000000004
  3
MATSU
100
AcDbAlignedDimension
 13
3335.671436037816
 23
2711.429930810286
 33
0.0
 14
2625.671436037815
 24
2375.677178549359
 34
0.0
100
AcDbRotatedDimension
1001
ACAD
1000
DSTYLE
1002
{
1070
   287
1070
     4
1070
    40
1040
20.0
1070
    75
1070
     1
1070
   279
1070
     1
1070
   289
1070
     3
1002
}
  0
LINE
  5
7C27
330
19
100
AcDbEntity
  8
1
100
AcDbLine
 10
2778.171436037816
 20
2133.17717854936
 30
0.0
 11
2960.671436037816
 21
2133.17717854936
 31
0.0
  0
LINE
  5
7C28
330
19
100
AcDbEntity
  8
1
100
AcDbLine
 10
2778.171436037816
 20
2178.177178549359
 30
0.0
 11
2960.671436037816
 21
2178.177178549359
 31
0.0
  0
LINE
  5
7C29
330
19
100
AcDbEntity
  8
1
100
AcDbLine
 10
2890.671436037816
 20
2001.677178549359
 30
0.0
 11
2950.671436037815
 21
2001.677178549359
 31
0.0
  0
LINE
  5
7C2A
330
19
100
AcDbEntity
  8
1
100
AcDbLine
 10
2890.671436037816
 20
2101.677178549359
 30
0.0
 11
2950.671436037815
 21
2101.677178549359
 31
0.0
  0
LINE
  5
7C2F
330
19
100
AcDbEntity
  8
1
100
AcDbLine
 10
2828.671436037815
 20
1510.677178549359
 30
0.0
 11
3753.671436037816
 21
1510.677178549359
 31
0.0
  0
LINE
  5
7C30
330
19
100
AcDbEntity
  8
1
100
AcDbLine
 10
2828.671436037815
 20
1435.677178549359
 30
0.0
 11
3753.671436037816
 21
1435.677178549359
 31
0.0
  0
LINE
  5
7C31
330
19
100
AcDbEntity
  8
2
100
AcDbLine
 10
2563.225035247562
 20
2155.677178549359
 30
0.0
 11
3814.199391667515
 21
2155.677178549359
 31
0.0
  0
LINE
  5
7C32
330
19
100
AcDbEntity
  8
1
100
AcDbLine
 10
1349.566185432108
 20
2062.844440518922
 30
0.0
 11
2033.740997555768
 21
1627.948388047123
 31
0.0
  0
LINE
  5
7C33
330
19
100
AcDbEntity
  8
1
100
AcDbLine
 10
1297.386676032714
 20
1965.842839105324
 30
0.0
 11
1997.386676032714
 21
1555.842839105323
 31
0.0
  0
DIMENSION
  5
7C35
330
19
100
AcDbEntity
  8
3
100
AcDbDimension
  2
*D2
 10
1894.249502435887
 20
2703.356561150759
 30
0.0
 11
1651.412431500054
 21
2743.356561150759
 31
0.0
 70
    32
  1
484
 71
     5
 42
-1.0
  3
MATSU
100
AcDbAlignedDimension
 13
1408.57536056422
 23
2599.890124322759
 33
0.0
 14
1894.249502435887
 24
2113.677178549359
 34
0.0
100
AcDbRotatedDimension
1001
ACAD
1000
DSTYLE
1002
{
1070
   287
1070
     4
1070
    40
1040
20.0
1070
    75
1070
     1
1070
   279
1070
     1
1070
   289
1070
     3
1002
}
  0
DIMENSION
  5
7C36
330
19
100
AcDbEntity
  8
3
100
AcDbDimension
  2
*D3
 10
2403.57536056422
 20
2841.31181025476
 30
0.0
 11
1711.07536056422
 21
2881.31181025476
 31
0.0
 12
390.7523474574955
 22
1013.23791780811
 32
0.0
 70
    32
 71
     5
 42
-1.0
  3
MATSU
100
AcDbAlignedDimension
 13
1018.57536056422
 23
2167.677178549359
 33
0.0
 14
2403.57536056422
 24
1510.677178549358
 34
0.0
100
AcDbRotatedDimension
1001
ACAD
1000
DSTYLE
1002
{
1070
    40
1040
20.0
1002
}
  0
ARC
  5
7C38
330
19
100
AcDbEntity
  8
1
100
AcDbCircle
 10
1408.57536056422
 20
2155.677178549359
 30
0.0
 40
220.0
100
AcDbArc
 50
57.3798944112277
 51
239.6418845412334
  0
CIRCLE
  5
7C39
330
19
100
AcDbEntity
  8
1
100
AcDbCircle
 10
1408.57536056422
 20
2155.677178549359
 30
0.0
 40
110.0
  0
CIRCLE
  5
7C3A
330
19
100
AcDbEntity
  8
1
100
AcDbCircle
 10
1408.57536056422
 20
2155.677178549359
 30
0.0
 40
310.0
  0
CIRCLE
  5
7C3B
330
19
100
AcDbEntity
  8
1
100
AcDbCircle
 10
1408.57536056422
 20
2155.677178549359
 30
0.0
 40
280.0
  0
LINE
  5
7C40
330
19
100
AcDbEntity
  8
1
100
AcDbLine
 10
1053.57536056422
 20
1510.677178549359
 30
0.0
 11
2403.57536056422
 21
1510.677178549358
 31
0.0
  0
LINE
  5
7C41
330
19
100
AcDbEntity
  8
1
100
AcDbLine
 10
1053.57536056422
 20
1435.677178549359
 30
0.0
 11
2403.57536056422
 21
1435.677178549358
 31
0.0
  0
LWPOLYLINE
  5
7C42
330
19
100
AcDbEntity
  8
1
100
AcDbPolyline
 90
        6
 70
     0
 43
0.0
 10
1018.57536056422
 20
1555.677178549359
 10
1408.57536056422
 20
1587.677178549359
 42
0.3910641092142224
 10
1894.249502435887
 20
2113.677178549359
 42
0.4496421683644475
 10
1397.713707048227
 20
2554.190957849298
 42
0.3796508156605925
 10
1073.439288564638
 20
2188.677178549359
 42
0.0441110721615306
 10
1078.124178009273
 20
2135.677178549359
 42
0.3936265759256327
  0
LINE
  5
7C4A
330
19
100
AcDbEntity
  8
2
100
AcDbLine
 10
942.8857527044865
 20
2155.677178549359
 30
0.0
 11
1924.187144988887
 21
2155.677178549359
 31
0.0
  0
DIMENSION
  5
7C4B
330
19
100
AcDbEntity
  8
3
100
AcDbDimension
  2
*D4
 10
663.3260823076271
 20
1435.677178549359
 30
0.0
 11
623.3260823076268
 21
1795.677178549359
 31
0.0
 70
    32
 71
     5
 42
-1.0
  3
MATSU
100
AcDbAlignedDimension
 13
974.9757359989626
 23
2155.677178549359
 33
0.0
 14
1053.57536056422
 24
1435.677178549359
 34
0.0
 50
270.0
100
AcDbRotatedDimension
1001
ACAD
1000
DSTYLE
1002
{
1070
   287
1070
     4
1070
    40
1040
20.0
1070
    75
1070
     1
1070
   279
1070
     1
1070
   289
1070
     3
1002
}
  0
LINE
  5
7C4C
330
19
100
AcDbEntity
  8
1
100
AcDbLine
 10
1018.57536056422
 20
2167.677178549359
 30
0.0
 11
1018.57536056422
 21
1523.677178549359
 31
0.0
  0
LINE
  5
7C4D
330
19
100
AcDbEntity
  8
1
100
AcDbLine
 10
1048.57536056422
 20
1558.138717010897
 30
0.0
 11
1048.57536056422
 21
2135.677178549359
 31
0.0
  0
LINE
  5
7C4E
330
19
100
AcDbEntity
  8
2
100
AcDbLine
 10
1408.57536056422
 20
2599.890124322759
 30
0.0
 11
1408.57536056422
 21
1435.677178549359
 31
0.0
  0
DIMENSION
  5
7C4F
330
19
100
AcDbEntity
  8
3
100
AcDbDimension
  2
*D5
 10
788.4227927874899
 20
2155.677178549359
 30
0.0
 11
748.4227927874899
 21
1855.677178549359
 31
0.0
 12
390.7523474574955
 22
1013.23791780811
 32
0.0
 70
    32
 71
     5
 42
-1.0
  3
MATSU
100
AcDbAlignedDimension
 13
1006.57536056422
 23
1555.677178549359
 33
0.0
 14
974.9757359989626
 24
2155.677178549359
 34
0.0
 50
270.0
100
AcDbRotatedDimension
1001
ACAD
1000
DSTYLE
1002
{
1070
    40
1040
20.0
1002
}
  0
DIMENSION
  5
7C50
330
19
100
AcDbEntity
  8
3
100
AcDbDimension
  2
*D6
 10
914.842646197545
 20
2135.677178549359
 30
0.0
 11
874.842646197545
 21
1845.677178549359
 31
0.0
 12
390.7523474574955
 22
1013.23791780811
 32
0.0
 70
    32
 71
     5
 42
-1.0
  3
MATSU
100
AcDbAlignedDimension
 13
1018.57536056422
 23
1555.677178549359
 33
0.0
 14
1018.57536056422
 24
2135.677178549359
 34
0.0
 50
270.0
100
AcDbRotatedDimension
1001
ACAD
1000
DSTYLE
1002
{
1070
    40
1040
20.0
1002
}
  0
LINE
  5
7C51
330
19
100
AcDbEntity
  8
1
100
AcDbLine
 10
1018.57536056422
 20
2137.677178549359
 30
0.0
 11
1018.57536056422
 21
1553.677178549359
 31
0.0
  0
LINE
  5
7C52
330
19
100
AcDbEntity
  8
1
100
AcDbLine
 10
1021.57536056422
 20
2167.677178549359
 30
0.0
 11
1021.57536056422
 21
1523.677178549359
 31
0.0
  0
LINE
  5
7C55
330
19
100
AcDbEntity
  8
1
100
AcDbLine
 10
1053.57536056422
 20
1510.677178549359
 30
0.0
 11
1053.57536056422
 21
1435.677178549359
 31
0.0
  0
LINE
  5
7C58
330
19
100
AcDbEntity
  8
1
100
AcDbLine
 10
1018.57536056422
 20
1523.677178549359
 30
0.0
 11
1021.57536056422
 21
1523.677178549359
 31
0.0
  0
DIMENSION
  5
7C59
330
19
100
AcDbEntity
  8
3
100
AcDbDimension
  2
*D7
 10
1408.57536056422
 20
2703.356561150759
 30
0.0
 11
1213.57536056422
 21
2743.356561150759
 31
0.0
 12
390.7523474574955
 22
1013.23791780811
 32
0.0
 70
    32
 71
     5
 42
-1.0
  3
MATSU
100
AcDbAlignedDimension
 13
1018.57536056422
 23
2167.677178549359
 33
0.0
 14
1408.57536056422
 24
2599.890124322759
 34
0.0
100
AcDbRotatedDimension
1001
ACAD
1000
DSTYLE
1002
{
1070
    40
1040
20.0
1002
}
  0
LINE
  5
7C5A
330
19
100
AcDbEntity
  8
1
100
AcDbLine
 10
1078.124178009273
 20
2135.677178549359
 30
0.0
 11
1018.57536056422
 21
2135.677178549359
 31
0.0
  0
LINE
  5
7C5B
330
19
100
AcDbEntity
  8
1
100
AcDbLine
 10
1021.57536056422
 20
2167.677178549359
 30
0.0
 11
1018.57536056422
 21
2167.677178549359
 31
0.0
  0
LINE
  5
7C5C
330
19
100
AcDbEntity
  8
1
100
AcDbLine
 10
1004.20785117449
 20
2154.677178549358
 30
0.0
 11
1035.878704889374
 21
2154.677178549358
 31
0.0
  0
ARC
  5
7C5D
330
19
100
AcDbEntity
  8
1
100
AcDbCircle
 10
2108.57536056422
 20
1745.677178549358
 30
0.0
 40
220.0
100
AcDbArc
 50
239.6418845412333
 51
59.64188454123334
  0
CIRCLE
  5
7C5E
330
19
100
AcDbEntity
  8
1
100
AcDbCircle
 10
2108.57536056422
 20
1745.677178549358
 30
0.0
 40
139.5
  0
LINE
  5
7C5F
330
19
100
AcDbEntity
  8
1
100
AcDbLine
 10
2808.171436037816
 20
1930.677178549359
 30
0.0
 11
2808.171436037815
 21
1563.177178549359
 31
0.0
  0
LINE
  5
7C60
330
19
100
AcDbEntity
  8
1
100
AcDbLine
 10
2693.171436037815
 20
2265.677178549359
 30
0.0
 11
2693.171436037815
 21
1597.177178549359
 31
0.0
  0
LINE
  5
7C61
330
19
100
AcDbEntity
  8
1
100
AcDbLine
 10
2778.171436037816
 20
2265.677178549359
 30
0.0
 11
2778.171436037815
 21
1597.177178549359
 31
0.0
  0
LINE
  5
7C62
330
19
100
AcDbEntity
  8
2
100
AcDbLine
 10
2108.57536056422
 20
2013.394573993272
 30
0.0
 11
2108.57536056422
 21
1435.677178549358
 31
0.0
  0
ARC
  5
7C63
330
19
100
AcDbEntity
  8
1
100
AcDbCircle
 10
2108.57536056422
 20
1745.677178549358
 30
0.0
 40
185.0
100
AcDbArc
 50
287.9452509999999
 51
252.054749
  0
LINE
  5
7C65
330
19
100
AcDbEntity
  8
1
100
AcDbLine
 10
2625.671436037815
 20
2375.677178549359
 30
0.0
 11
2625.671436037815
 21
1525.677178549359
 31
0.0
  0
LINE
  5
7C66
330
19
100
AcDbEntity
  8
1
100
AcDbLine
 10
2178.57536056422
 20
1565.677178549358
 30
0.0
 11
2323.57536056422
 21
1565.677178549358
 31
0.0
  0
LINE
  5
7C67
330
19
100
AcDbEntity
  8
2
100
AcDbLine
 10
2387.871332950808
 20
1745.677178549358
 30
0.0
 11
1877.793518575225
 21
1745.677178549359
 31
0.0
  0
LINE
  5
7C68
330
19
100
AcDbEntity
  8
1
100
AcDbLine
 10
2038.57536056422
 20
1555.677178549358
 30
0.0
 11
2178.57536056422
 21
1555.677178549358
 31
0.0
  0
LINE
  5
7C6A
330
19
100
AcDbEntity
  8
1
100
AcDbLine
 10
2051.57536056422
 20
1569.677178549358
 30
0.0
 11
2165.57536056422
 21
1569.677178549358
 31
0.0
  0
LINE
  5
7C6C
330
19
100
AcDbEntity
  8
1
100
AcDbLine
 10
1946.57536056422
 20
1640.936211549358
 30
0.0
 11
1946.57536056422
 21
1565.677178549359
 31
0.0
  0
LINE
  5
7C6D
330
19
100
AcDbEntity
  8
1
100
AcDbLine
 10
1893.57536056422
 20
1565.677178549359
 30
0.0
 11
2038.57536056422
 21
1565.677178549358
 31
0.0
  0
LINE
  5
7C6E
330
19
100
AcDbEntity
  8
1
100
AcDbLine
 10
2003.075360564221
 20
1585.677178549358
 30
0.0
 11
1949.57536056422
 21
1585.677178549359
 31
0.0
  0
LINE
  5
7C6F
330
19
100
AcDbEntity
  8
1
100
AcDbLine
 10
2006.075360564221
 20
1565.677178549358
 30
0.0
 11
1946.57536056422
 21
1565.677178549359
 31
0.0
  0
LINE
  5
7C70
330
19
100
AcDbEntity
  8
1
100
AcDbLine
 10
1893.57536056422
 20
1565.677178549359
 30
0.0
 11
1883.57536056422
 21
1510.677178549359
 31
0.0
  0
ARC
  5
7C71
330
19
100
AcDbEntity
  8
1
100
AcDbCircle
 10
1949.57536056422
 20
1582.677178549359
 30
0.0
 40
3.0
100
AcDbArc
 50
89.99999999999998
 51
180.0
  0
ARC
  5
7C74
330
19
100
AcDbEntity
  8
1
100
AcDbCircle
 10
2003.075360564221
 20
1582.677178549358
 30
0.0
 40
3.0
100
AcDbArc
 50
0.0
 51
89.99999999999998
  0
LINE
  5
7C76
330
19
100
AcDbEntity
  8
1
100
AcDbLine
 10
1997.75144756422
 20
1585.677178549358
 30
0.0
 11
2002.931195564221
 21
1593.807793549358
 31
0.0
  0
LINE
  5
7C77
330
19
100
AcDbEntity
  8
1
100
AcDbLine
 10
2006.075360564221
 20
1582.677178549358
 30
0.0
 11
2006.075360564221
 21
1565.677178549358
 31
0.0
  0
LINE
  5
7C79
330
19
100
AcDbEntity
  8
1
100
AcDbLine
 10
2006.075360564221
 20
1570.825737549358
 30
0.0
 11
2015.582074564221
 21
1585.748345549358
 31
0.0
  0
LINE
  5
7C7B
330
19
100
AcDbEntity
  8
1
100
AcDbLine
 10
2038.57536056422
 20
1565.677178549358
 30
0.0
 11
2038.57536056422
 21
1555.677178549358
 31
0.0
  0
LINE
  5
7C81
330
19
100
AcDbEntity
  8
1
100
AcDbLine
 10
1946.57536056422
 20
1640.936211549358
 30
0.0
 11
1952.95933256422
 21
1645.633965549359
 31
0.0
  0
LINE
  5
7C88
330
19
100
AcDbEntity
  8
1
100
AcDbLine
 10
2270.575360564221
 20
1640.936211549358
 30
0.0
 11
2270.575360564221
 21
1565.677178549358
 31
0.0
  0
LINE
  5
7C8A
330
19
100
AcDbEntity
  8
1
100
AcDbLine
 10
2178.57536056422
 20
1565.677178549358
 30
0.0
 11
2178.57536056422
 21
1555.677178549358
 31
0.0
  0
LINE
  5
7C8B
330
19
100
AcDbEntity
  8
1
100
AcDbLine
 10
2214.07536056422
 20
1585.677178549358
 30
0.0
 11
2267.575360564221
 21
1585.677178549358
 31
0.0
  0
LINE
  5
7C8C
330
19
100
AcDbEntity
  8
1
100
AcDbLine
 10
2211.07536056422
 20
1565.677178549358
 30
0.0
 11
2270.575360564221
 21
1565.677178549358
 31
0.0
  0
ARC
  5
7C8D
330
19
100
AcDbEntity
  8
1
100
AcDbCircle
 10
2214.07536056422
 20
1582.677178549358
 30
0.0
 40
3.0
100
AcDbArc
 50
89.99999999999998
 51
180.0
  0
LINE
  5
7C8E
330
19
100
AcDbEntity
  8
1
100
AcDbLine
 10
2219.399274564221
 20
1585.677178549358
 30
0.0
 11
2214.21952556422
 21
1593.807793549358
 31
0.0
  0
LINE
  5
7C90
330
19
100
AcDbEntity
  8
1
100
AcDbLine
 10
2211.07536056422
 20
1582.677178549358
 30
0.0
 11
2211.07536056422
 21
1565.677178549358
 31
0.0
  0
LINE
  5
7C91
330
19
100
AcDbEntity
  8
1
100
AcDbLine
 10
2211.07536056422
 20
1570.825737549358
 30
0.0
 11
2201.56864656422
 21
1585.748345549358
 31
0.0
  0
ARC
  5
7C92
330
19
100
AcDbEntity
  8
1
100
AcDbCircle
 10
2267.575360564221
 20
1582.677178549358
 30
0.0
 40
3.0
100
AcDbArc
 50
0.0
 51
89.99999999999998
  0
LINE
  5
7C96
330
19
100
AcDbEntity
  8
1
100
AcDbLine
 10
2270.575360564221
 20
1640.936211549358
 30
0.0
 11
2264.19144956422
 21
1645.633965549358
 31
0.0
  0
LINE
  5
7CA1
330
19
100
AcDbEntity
  8
1
100
AcDbLine
 10
2403.57536056422
 20
1510.677178549358
 30
0.0
 11
2403.57536056422
 21
1435.677178549358
 31
0.0
  0
LINE
  5
7CA3
330
19
100
AcDbEntity
  8
1
100
AcDbLine
 10
2323.57536056422
 20
1565.677178549358
 30
0.0
 11
2333.57536056422
 21
1510.677178549358
 31
0.0
  0
LINE
  5
7CA4
330
19
100
AcDbEntity
  8
1
100
AcDbLine
 10
2828.671436037815
 20
1510.677178549359
 30
0.0
 11
2828.671436037815
 21
1435.677178549359
 31
0.0
  0
LINE
  5
7CA6
330
19
100
AcDbEntity
  8
1
100
AcDbLine
 10
2693.171436037815
 20
1597.177178549359
 30
0.0
 11
2778.171436037815
 21
1597.177178549359
 31
0.0
  0
LINE
  5
7CA7
330
19
100
AcDbEntity
  8
1
100
AcDbLine
 10
2625.671436037815
 20
1525.677178549359
 30
0.0
 11
2815.671436037816
 21
1525.677178549359
 31
0.0
  0
LINE
  5
7CA8
330
19
100
AcDbEntity
  8
2
100
AcDbLine
 10
2567.720990451846
 20
1745.677178549359
 30
0.0
 11
3369.171436037815
 21
1745.67717854936
 31
0.0
  0
LINE
  5
7CA9
330
19
100
AcDbEntity
  8
1
100
AcDbLine
 10
2815.671436037816
 20
1612.531989261092
 30
0.0
 11
2815.671436037816
 21
1525.677178549359
 31
0.0
  0
LINE
  5
7CAA
330
19
100
AcDbEntity
  8
1
100
AcDbLine
 10
2915.794354750551
 20
1563.177178549359
 30
0.0
 11
2915.794354750551
 21
1510.677178549359
 31
0.0
  0
LINE
  5
7CAB
330
19
100
AcDbEntity
  8
1
100
AcDbLine
 10
2808.171436037815
 20
1721.677178549359
 30
0.0
 11
2778.171436037815
 21
1721.677178549359
 31
0.0
  0
LINE
  5
7CAC
330
19
100
AcDbEntity
  8
1
100
AcDbLine
 10
1460.681329496668
 20
2252.553223068171
 30
0.0
 11
2174.655202983097
 21
1868.533616825488
 31
0.0
  0
LINE
  5
7CAD
330
19
100
AcDbEntity
  8
1
100
AcDbLine
 10
1519.764045095727
 20
2345.511517993394
 30
0.0
 11
2219.764045095727
 21
1935.511517993393
 31
0.0
  0
LINE
  5
7CAE
330
19
100
AcDbEntity
  8
1
100
AcDbLine
 10
2815.671436037816
 20
2375.677178549359
 30
0.0
 11
2815.671436037816
 21
2300.898341029623
 31
0.0
  0
LINE
  5
7CAF
330
19
100
AcDbEntity
  8
1
100
AcDbLine
 10
2880.671436037816
 20
2091.677178549359
 30
0.0
 11
2880.671436037816
 21
2011.677178549359
 31
0.0
  0
LINE
  5
7CB0
330
19
100
AcDbEntity
  8
1
100
AcDbLine
 10
2693.171436037815
 20
1894.177178549359
 30
0.0
 11
2778.171436037815
 21
1894.177178549359
 31
0.0
  0
LINE
  5
7CB1
330
19
100
AcDbEntity
  8
1
100
AcDbLine
 10
2693.171436037815
 20
2045.677178549359
 30
0.0
 11
2778.171436037815
 21
2045.677178549359
 31
0.0
  0
LINE
  5
7CB2
330
19
100
AcDbEntity
  8
1
100
AcDbLine
 10
2808.171436037815
 20
1769.677178549359
 30
0.0
 11
2778.171436037815
 21
1769.677178549359
 31
0.0
  0
LINE
  5
7CB4
330
19
100
AcDbEntity
  8
1
100
AcDbLine
 10
2880.671436037816
 20
2011.677178549359
 30
0.0
 11
2890.671436037816
 21
2001.677178549359
 31
0.0
  0
LINE
  5
7CB5
330
19
100
AcDbEntity
  8
1
100
AcDbLine
 10
2693.171436037815
 20
2265.677178549359
 30
0.0
 11
2778.171436037816
 21
2265.677178549359
 31
0.0
  0
LINE
  5
7CB6
330
19
100
AcDbEntity
  8
1
100
AcDbLine
 10
2890.671436037816
 20
2101.677178549359
 30
0.0
 11
2880.671436037816
 21
2091.677178549359
 31
0.0
  0
LINE
  5
7CB7
330
19
100
AcDbEntity
  8
1
100
AcDbLine
 10
2625.671436037815
 20
2375.677178549359
 30
0.0
 11
2815.671436037816
 21
2375.677178549359
 31
0.0
  0
DIMENSION
  5
7CB8
330
19
100
AcDbEntity
  8
3
100
AcDbDimension
  2
*D8
 10
1053.57536056422
 20
3046.125578040264
 30
0.0
 11
1728.57536056422
 21
3086.125578040264
 31
0.0
 12
390.7523474574955
 22
749.3738692713669
 32
0.0
 70
    32
 71
     5
 42
-1.0
  3
MATSU
100
AcDbAlignedDimension
 13
2403.57536056422
 23
3481.154031839685
 33
0.0
 14
1053.57536056422
 24
3481.154031839686
 34
0.0
100
AcDbRotatedDimension
1001
ACAD
1000
DSTYLE
1002
{
1070
    40
1040
20.0
1002
}
  0
DIMENSION
  5
7CB9
330
19
100
AcDbEntity
  8
3
100
AcDbDimension
  2
*D9
 10
1763.57536056422
 20
4561.50798360401
 30
0.0
 11
1408.57536056422
 21
4601.507983604011
 31
0.0
 12
390.7523474574955
 22
749.3738692713669
 32
0.0
 70
    32
 71
     5
 42
-1.0
  3
MATSU
100
AcDbAlignedDimension
 13
1053.57536056422
 23
4406.154031839684
 33
0.0
 14
1763.57536056422
 24
4406.154031839686
 34
0.0
100
AcDbRotatedDimension
1001
ACAD
1000
DSTYLE
1002
{
1070
    40
1040
20.0
1002
}
  0
LINE
  5
7CBA
330
19
100
AcDbEntity
  8
1
100
AcDbLine
 10
1298.57536056422
 20
3345.654031839686
 30
0.0
 11
1518.57536056422
 21
3345.654031839686
 31
0.0
  0
LINE
  5
7CBB
330
19
100
AcDbEntity
  8
1
100
AcDbLine
 10
1298.57536056422
 20
3430.654031839686
 30
0.0
 11
1518.57536056422
 21
3430.654031839686
 31
0.0
  0
LINE
  5
7CBC
330
19
100
AcDbEntity
  8
1
100
AcDbLine
 10
1188.57536056422
 20
3468.154031839686
 30
0.0
 11
2328.57536056422
 21
3468.154031839686
 31
0.0
  0
LINE
  5
7CBD
330
19
100
AcDbEntity
  8
1
100
AcDbLine
 10
1188.57536056422
 20
3278.154031839686
 30
0.0
 11
2328.57536056422
 21
3278.154031839685
 31
0.0
  0
LINE
  5
7CBE
330
19
100
AcDbEntity
  8
1
100
AcDbLine
 10
1018.57536056422
 20
4363.154031839686
 30
0.0
 11
1882.57536056422
 21
4363.154031839684
 31
0.0
  0
LINE
  5
7CBF
330
19
100
AcDbEntity
  8
1
100
AcDbLine
 10
1018.57536056422
 20
3613.154031839686
 30
0.0
 11
1882.57536056422
 21
3613.154031839684
 31
0.0
  0
LINE
  5
7CC0
330
19
100
AcDbEntity
  8
1
100
AcDbLine
 10
1053.57536056422
 20
3481.154031839686
 30
0.0
 11
2403.57536056422
 21
3481.154031839685
 31
0.0
  0
LINE
  5
7CC1
330
19
100
AcDbEntity
  8
1
100
AcDbLine
 10
1053.57536056422
 20
4406.154031839684
 30
0.0
 11
1763.57536056422
 21
4406.154031839686
 31
0.0
  0
LINE
  5
7CC2
330
19
100
AcDbEntity
  8
2
100
AcDbLine
 10
957.8304847231175
 20
3988.154031839686
 30
0.0
 11
1882.57536056422
 21
3988.154031839685
 31
0.0
  0
DIMENSION
  5
7CC3
330
19
100
AcDbEntity
  8
3
100
AcDbDimension
  2
*D10
 10
856.9817625125061
 20
3481.154031839686
 30
0.0
 11
816.9817625125061
 21
3943.654031839686
 31
0.0
 12
390.7523474574955
 22
749.3738692713669
 32
0.0
 70
    32
 71
     5
 42
-1.0
  3
MATSU
100
AcDbAlignedDimension
 13
1053.57536056422
 23
4406.154031839684
 33
0.0
 14
1053.57536056422
 24
3481.154031839686
 34
0.0
 50
270.0
100
AcDbRotatedDimension
1001
ACAD
1000
DSTYLE
1002
{
1070
    40
1040
20.0
1002
}
  0
LINE
  5
7CC4
330
19
100
AcDbEntity
  8
1
100
AcDbLine
 10
1021.57536056422
 20
3583.154031839685
 30
0.0
 11
1021.57536056422
 21
4393.154031839684
 31
0.0
  0
LINE
  5
7CC5
330
19
100
AcDbEntity
  8
1
100
AcDbLine
 10
1018.57536056422
 20
3583.154031839685
 30
0.0
 11
1018.57536056422
 21
4393.154031839684
 31
0.0
  0
LINE
  5
7CC6
330
19
100
AcDbEntity
  8
2
100
AcDbLine
 10
1408.57536056422
 20
3217.741689403701
 30
0.0
 11
1408.57536056422
 21
4433.921627214073
 31
0.0
  0
LINE
  5
7CC7
330
19
100
AcDbEntity
  8
1
100
AcDbLine
 10
1188.57536056422
 20
3278.154031839686
 30
0.0
 11
1188.57536056422
 21
3468.154031839686
 31
0.0
  0
LINE
  5
7CC8
330
19
100
AcDbEntity
  8
1
100
AcDbLine
 10
1431.07536056422
 20
3430.654031839686
 30
0.0
 11
1431.07536056422
 21
3613.154031839686
 31
0.0
  0
LINE
  5
7CC9
330
19
100
AcDbEntity
  8
1
100
AcDbLine
 10
1386.07536056422
 20
3430.654031839686
 30
0.0
 11
1386.07536056422
 21
3613.154031839686
 31
0.0
  0
LINE
  5
7CCA
330
19
100
AcDbEntity
  8
1
100
AcDbLine
 10
1053.57536056422
 20
3481.154031839686
 30
0.0
 11
1053.57536056422
 21
3613.154031839684
 31
0.0
  0
LINE
  5
7CCB
330
19
100
AcDbEntity
  8
1
100
AcDbLine
 10
1018.57536056422
 20
3583.154031839685
 30
0.0
 11
1021.57536056422
 21
3583.154031839687
 31
0.0
  0
LINE
  5
7CCC
330
19
100
AcDbEntity
  8
1
100
AcDbLine
 10
1298.57536056422
 20
3345.654031839686
 30
0.0
 11
1298.57536056422
 21
3430.654031839686
 31
0.0
  0
LINE
  5
7CCD
330
19
100
AcDbEntity
  8
1
100
AcDbLine
 10
1053.57536056422
 20
4363.154031839684
 30
0.0
 11
1053.57536056422
 21
4406.154031839684
 31
0.0
  0
LINE
  5
7CCE
330
19
100
AcDbEntity
  8
1
100
AcDbLine
 10
1018.57536056422
 20
4393.154031839685
 30
0.0
 11
1021.57536056422
 21
4393.154031839685
 31
0.0
  0
DIMENSION
  5
7CCF
330
19
100
AcDbEntity
  8
3
100
AcDbDimension
  2
*D11
 10
2602.350092253423
 20
3481.154031839685
 30
0.0
 11
2562.350092253423
 21
3781.154031839685
 31
0.0
 12
390.7523474574955
 22
749.3738692713669
 32
0.0
 70
    32
 71
     5
 42
-1.0
  3
MATSU
100
AcDbAlignedDimension
 13
2403.57536056422
 23
4081.154031839684
 33
0.0
 14
2403.57536056422
 24
3481.154031839685
 34
0.0
 50
270.0
100
AcDbRotatedDimension
1001
ACAD
1000
DSTYLE
1002
{
1070
    40
1040
20.0
1002
}
  0
LINE
  5
7CD0
330
19
100
AcDbEntity
  8
1
100
AcDbLine
 10
1926.075360564222
 20
4022.154031839685
 30
0.0
 11
1926.07536056422
 21
3460.654031839685
 31
0.0
  0
LINE
  5
7CD1
330
19
100
AcDbEntity
  8
1
100
AcDbLine
 10
2291.075360564222
 20
4022.154031839685
 30
0.0
 11
2291.075360564221
 21
3460.654031839685
 31
0.0
  0
LINE
  5
7CD2
330
19
100
AcDbEntity
  8
1
100
AcDbLine
 10
1882.57536056422
 20
3613.154031839684
 30
0.0
 11
1882.57536056422
 21
4363.154031839686
 31
0.0
  0
LINE
  5
7CD3
330
19
100
AcDbEntity
  8
2
100
AcDbLine
 10
2108.57536056422
 20
4073.063089839684
 30
0.0
 11
2108.57536056422
 21
3253.271729268018
 31
0.0
  0
LINE
  5
7CD4
330
19
100
AcDbEntity
  8
1
100
AcDbLine
 10
2403.57536056422
 20
3481.154031839685
 30
0.0
 11
2403.575360564222
 21
4081.154031839684
 31
0.0
  0
LINE
  5
7CD5
330
19
100
AcDbEntity
  8
1
100
AcDbLine
 10
2291.075360564221
 20
3460.654031839685
 30
0.0
 11
1926.07536056422
 21
3460.654031839685
 31
0.0
  0
LINE
  5
7CD6
330
19
100
AcDbEntity
  8
1
100
AcDbLine
 10
1518.57536056422
 20
3345.654031839686
 30
0.0
 11
1518.57536056422
 21
3430.654031839686
 31
0.0
  0
LINE
  5
7CD7
330
19
100
AcDbEntity
  8
1
100
AcDbLine
 10
1969.07536056422
 20
3345.654031839685
 30
0.0
 11
2248.07536056422
 21
3345.654031839685
 31
0.0
  0
LINE
  5
7CD8
330
19
100
AcDbEntity
  8
1
100
AcDbLine
 10
1969.07536056422
 20
3430.654031839685
 30
0.0
 11
2248.07536056422
 21
3430.654031839685
 31
0.0
  0
LINE
  5
7CD9
330
19
100
AcDbEntity
  8
1
100
AcDbLine
 10
1969.07536056422
 20
3345.654031839685
 30
0.0
 11
1969.07536056422
 21
3430.654031839685
 31
0.0
  0
LINE
  5
7CDA
330
19
100
AcDbEntity
  8
1
100
AcDbLine
 10
2084.575360564221
 20
3460.654031839685
 30
0.0
 11
2084.575360564221
 21
3430.654031839686
 31
0.0
  0
LINE
  5
7CDB
330
19
100
AcDbEntity
  8
1
100
AcDbLine
 10
2132.57536056422
 20
3460.654031839685
 30
0.0
 11
2132.57536056422
 21
3430.654031839686
 31
0.0
  0
LINE
  5
7CDC
330
19
100
AcDbEntity
  8
1
100
AcDbLine
 10
2248.07536056422
 20
3345.654031839685
 30
0.0
 11
2248.07536056422
 21
3430.654031839685
 31
0.0
  0
LINE
  5
7CDD
330
19
100
AcDbEntity
  8
1
100
AcDbLine
 10
2328.57536056422
 20
3278.154031839685
 30
0.0
 11
2328.57536056422
 21
3468.154031839686
 31
0.0
  0
DIMENSION
  5
7CDE
330
19
100
AcDbEntity
  8
3
100
AcDbDimension
  2
*D12
 10
2403.57536056422
 20
4561.50798360401
 30
0.0
 11
2083.57536056422
 21
4601.507983604011
 31
0.0
 70
    32
 71
     5
 42
-1.0
  3
MATSU
100
AcDbAlignedDimension
 13
1763.57536056422
 23
4406.154031839686
 33
0.0
 14
2403.57536056422
 24
4081.154031839684
 34
0.0
100
AcDbRotatedDimension
1001
ACAD
1000
DSTYLE
1002
{
1070
   287
1070
     4
1070
    40
1040
20.0
1070
    75
1070
     1
1070
   279
1070
     1
1070
   289
1070
     3
1002
}
  0
LINE
  5
7CDF
330
19
100
AcDbEntity
  8
1
100
AcDbLine
 10
2291.07536056422
 20
4022.154031839685
 30
0.0
 11
1926.075360564222
 21
4022.154031839685
 31
0.0
  0
LINE
  5
7CE0
330
19
100
AcDbEntity
  8
1
100
AcDbLine
 10
1882.57536056422
 20
4081.154031839684
 30
0.0
 11
2403.57536056422
 21
4081.154031839684
 31
0.0
  0
LINE
  5
7CE1
330
19
100
AcDbEntity
  8
1
100
AcDbLine
 10
1763.57536056422
 20
4363.154031839686
 30
0.0
 11
1763.57536056422
 21
4406.154031839684
 31
0.0
  0
LINE
  5
7CE3
330
19
100
AcDbEntity
  8
1
100
AcDbLine
 10
3369.171436037816
 20
1930.677178549358
 30
0.0
 11
3369.171436037815
 21
1563.177178549358
 31
0.0
  0
LINE
  5
7CE4
330
19
100
AcDbEntity
  8
2
100
AcDbLine
 10
3335.671436037816
 20
2634.985787418635
 30
0.0
 11
3335.671436037816
 21
1435.677178549359
 31
0.0
  0
LINE
  5
7CE5
330
19
100
AcDbEntity
  8
1
100
AcDbLine
 10
3710.671436037816
 20
2555.677178549359
 30
0.0
 11
3710.671436037816
 21
1555.677178549359
 31
0.0
  0
LINE
  5
7CE6
330
19
100
AcDbEntity
  8
1
100
AcDbLine
 10
3321.419414624774
 20
1555.677178549359
 30
0.0
 11
3710.671436037816
 21
1555.677178549359
 31
0.0
  0
LINE
  5
7CE7
330
19
100
AcDbEntity
  8
1
100
AcDbLine
 10
3321.419414624774
 20
1563.177178549359
 30
0.0
 11
3321.419414624773
 21
1510.677178549359
 31
0.0
  0
LINE
  5
7CE8
330
19
100
AcDbEntity
  8
1
100
AcDbLine
 10
3753.671436037818
 20
1510.67717854936
 30
0.0
 11
3753.671436037816
 21
1435.677178549359
 31
0.0
  0
DIMENSION
  5
7CEB
330
19
100
AcDbEntity
  8
3
100
AcDbDimension
  2
*D13
 10
3335.671436037816
 20
2788.030114272274
 30
0.0
 11
3570.671436037816
 21
2843.74439998656
 31
0.0
 70
    32
  1
(<>)
 71
     5
 42
470.0
  3
MATSU
100
AcDbAlignedDimension
 13
3805.671436037816
 23
2102.777178549359
 33
0.0
 14
3335.671436037816
 24
2711.429930810286
 34
0.0
100
AcDbRotatedDimension
1001
ACAD
1000
DSTYLE
1002
{
1070
    40
1040
20.0
1002
}
  0
LINE
  5
7CEC
330
19
100
AcDbEntity
  8
1
100
AcDbLine
 10
3735.671436037816
 20
2012.77717854936
 30
0.0
 11
3795.671436037816
 21
2012.77717854936
 31
0.0
  0
LINE
  5
7CED
330
19
100
AcDbEntity
  8
1
100
AcDbLine
 10
3735.671436037816
 20
2112.77717854936
 30
0.0
 11
3795.671436037816
 21
2112.77717854936
 31
0.0
  0
DIMENSION
  5
7CEE
330
19
100
AcDbEntity
  8
3
100
AcDbDimension
  2
*D14
 10
3913.084751702367
 20
1875.677178549359
 30
0.0
 11
3863.084751702366
 21
2155.67717854936
 31
0.0
 70
    32
  1
\U+03C6 <>
 71
     5
 42
-1.0
  3
IGA
100
AcDbAlignedDimension
 13
3712.671436037814
 23
2435.677178549359
 33
0.0
 14
3712.671436037814
 24
1875.677178549359
 34
0.0
 50
90.0
100
AcDbRotatedDimension
1001
ACAD
1000
DSTYLE
1002
{
1070
   287
1070
     3
1070
    40
1040
20.0
1070
   143
1040
0.039
1070
   172
1070
     1
1070
   271
1070
     0
1070
   279
1070
     0
1070
   288
1070
     1
1002
}
  0
LINE
  5
7CEF
330
19
100
AcDbEntity
  8
1
100
AcDbLine
 10
2960.671436037816
 20
2555.677178549359
 30
0.0
 11
2960.671436037816
 21
1930.677178549359
 31
0.0
  0
LINE
  5
7CF3
330
19
100
AcDbEntity
  8
1
100
AcDbLine
 10
2950.671436037815
 20
2101.677178549359
 30
0.0
 11
2950.671436037815
 21
2001.677178549359
 31
0.0
  0
LINE
  5
7CF4
330
19
100
AcDbEntity
  8
1
100
AcDbLine
 10
2960.671436037814
 20
2173.677178549359
 30
0.0
 11
2960.671436037814
 21
2143.67717854936
 31
0.0
  0
LINE
  5
7CF5
330
19
100
AcDbEntity
  8
1
100
AcDbLine
 10
3735.671436037816
 20
2112.777178549359
 30
0.0
 11
3735.671436037816
 21
2012.77717854936
 31
0.0
  0
LINE
  5
7CF6
330
19
100
AcDbEntity
  8
1
100
AcDbLine
 10
3714.971436037815
 20
1845.677178549359
 30
0.0
 11
3712.671436037814
 21
1845.677178549359
 31
0.0
  0
DIMENSION
  5
7CF7
330
19
100
AcDbEntity
  8
3
100
AcDbDimension
  2
*D15
 10
3710.671436037816
 20
2645.628973601263
 30
0.0
 11
3335.671436037816
 21
2685.628973601263
 31
0.0
 12
147.8522445966518
 22
1013.23791780811
 32
0.0
 70
    32
 71
     5
 42
-1.0
  3
MATSU
100
AcDbAlignedDimension
 13
2960.671436037816
 23
2555.677178549359
 33
0.0
 14
3710.671436037816
 24
2555.677178549359
 34
0.0
100
AcDbRotatedDimension
1001
ACAD
1000
DSTYLE
1002
{
1070
    40
1040
20.0
1002
}
  0
LINE
  5
7CF8
330
19
100
AcDbEntity
  8
1
100
AcDbLine
 10
2960.671436037816
 20
2555.677178549359
 30
0.0
 11
3710.671436037816
 21
2555.677178549359
 31
0.0
  0
LINE
  5
7CF9
330
19
100
AcDbEntity
  8
1
100
AcDbLine
 10
3805.671436037816
 20
2102.777178549359
 30
0.0
 11
3805.671436037816
 21
2022.77717854936
 31
0.0
  0
LINE
  5
7CFA
330
19
100
AcDbEntity
  8
1
100
AcDbLine
 10
3805.671436037816
 20
2022.77717854936
 30
0.0
 11
3795.671436037816
 21
2012.77717854936
 31
0.0
  0
LINE
  5
7CFB
330
19
100
AcDbEntity
  8
1
100
AcDbLine
 10
3795.671436037816
 20
2112.77717854936
 30
0.0
 11
3805.671436037816
 21
2102.777178549359
 31
0.0
  0
LINE
  5
7F35
330
19
100
AcDbEntity
  8
4
100
AcDbLine
 10
3700.0
 20
863.5838179509919
 30
0.0
 11
3700.0
 21
463.5838179509919
 31
0.0
  0
LINE
  5
7F36
330
19
100
AcDbEntity
  8
4
100
AcDbLine
 10
2300.0
 20
863.5838179509919
 30
0.0
 11
2300.0
 21
463.5838179509919
 31
0.0
  0
LINE
  5
7F37
330
19
100
AcDbEntity
  8
4
100
AcDbLine
 10
1300.0
 20
863.5838179509919
 30
0.0
 11
1300.0
 21
463.5838179509919
 31
0.0
  0
LINE
  5
7F3A
330
19
100
AcDbEntity
  8
4
100
AcDbLine
 10
1300.0
 20
463.5838179509919
 30
0.0
 11
3700.0
 21
463.5838179509919
 31
0.0
  0
LINE
  5
7F3B
330
19
100
AcDbEntity
  8
4
100
AcDbLine
 10
1300.0
 20
663.5838179509919
 30
0.0
 11
3700.0
 21
663.5838179509919
 31
0.0
  0
TEXT
  5
7F3C
330
19
100
AcDbEntity
  8
4
100
AcDbText
 10
1377.004161693803
 20
726.6698696842176
 30
0.0
 40
100.0
  1
機器名称
100
AcDbText
  0
TEXT
  5
7F3D
330
19
100
AcDbEntity
  8
4
100
AcDbText
 10
1372.516212049595
 20
506.8741314150138
 30
0.0
 40
100.0
  1
機器型番
100
AcDbText
  0
TEXT
  5
7F3E
330
19
100
AcDbEntity
  8
4
100
AcDbText
 10
2356.357070020983
 20
711.7380023793033
 30
0.0
 40
80.0
  1
ミツヤ多翼送風機
100
AcDbText
  0
TEXT
  5
7F3F
330
19
100
AcDbEntity
  8
4
100
AcDbText
 10
2373.308991170961
 20
497.9029865108786
 30
0.0
 40
100.0
  1
MF#3 1/2-5
100
AcDbText
  0
TEXT
  5
7F41
330
19
100
AcDbEntity
  8
4
100
AcDbText
 10
1630.036666913958
 20
4766.857682665031
 30
0.0
 40
108.0
  1
床置ベット
100
AcDbText
  0
TEXT
  5
7F42
330
19
100
AcDbEntity
  8
4
100
AcDbText
 10
632.3351866588928
 20
5067.761952398596
 30
0.0
 40
144.0
  1
遠心式両吸込両持多翼ファン
100
AcDbText
  0
LINE
  5
7F43
330
19
100
AcDbEntity
  8
4
100
AcDbLine
 10
500.0
 20
4938.817508529609
 30
0.0
 11
3700.0
 21
4938.817508529609
 31
0.0
  0
LINE
  5
7F44
330
19
100
AcDbEntity
  8
4
100
AcDbLine
 10
500.0
 20
5338.81750852961
 30
0.0
 11
3700.0
 21
5338.81750852961
 31
0.0
  0
LINE
  5
7F45
330
19
100
AcDbEntity
  8
4
100
AcDbLine
 10
1300.0
 20
863.5838179509919
 30
0.0
 11
3700.0
 21
863.5838179509919
 31
0.0
  0
LINE
  5
7F46
330
19
100
AcDbEntity
  8
4
100
AcDbLine
 10
500.0
 20
5338.81750852961
 30
0.0
 11
500.0
 21
4938.817508529609
 31
0.0
  0
TEXT
  5
7F47
330
19
100
AcDbEntity
  8
4
100
AcDbText
 10
758.319002428554
 20
4764.638955092687
 30
0.0
 40
108.0
  1
右回転左横向
100
AcDbText
  0
TEXT
  5
7F48
330
19
100
AcDbEntity
  8
4
100
AcDbText
 10
2937.93911849858
 20
5412.122162990618
 30
0.0
 40
112.0
  1
No.
100
AcDbText
  0
TEXT
  5
7F49
330
19
100
AcDbEntity
  8
4
100
AcDbText
 10
2622.592125200026
 20
4766.857682665031
 30
0.0
 40
108.0
  1
縮尺：1/20
100
AcDbText
  0
LINE
  5
7F4A
330
19
100
AcDbEntity
  8
4
100
AcDbLine
 10
3700.0
 20
5338.81750852961
 30
0.0
 11
3700.0
 21
4938.817508529609
 31
0.0
  0
LINE
  5
7F4B
330
19
100
AcDbEntity
  8
4
100
AcDbLine
 10
4200.0
 20
5900.0
 30
0.0
 11
4200.0
 21
5900.0
 31
0.0
  0
LINE
  5
7F4C
330
19
100
AcDbEntity
  8
4
100
AcDbLine
 10
2881.234844719729
 20
5362.527166250802
 30
0.0
 11
2881.234844719729
 21
5573.304523099505
 31
0.0
  0
LINE
  5
7F4D
330
19
100
AcDbEntity
  8
4
100
AcDbLine
 10
2881.234844719729
 20
5573.304523099505
 30
0.0
 11
3700.0
 21
5573.304523099505
 31
0.0
  0
LINE
  5
7F4E
330
19
100
AcDbEntity
  8
4
100
AcDbLine
 10
3700.0
 20
5573.304523099505
 30
0.0
 11
3700.0
 21
5362.527166250802
 31
0.0
  0
LINE
  5
7F4F
330
19
100
AcDbEntity
  8
4
100
AcDbLine
 10
3700.0
 20
5362.527166250802
 30
0.0
 11
2881.234844719729
 21
5362.527166250802
 31
0.0
  0
LINE
  5
7F50
330
19
100
AcDbEntity
  8
4
100
AcDbLine
 10
0.0
 20
0.0
 30
0.0
 11
0.0
 21
5900.0
 31
0.0
  0
LINE
  5
7F51
330
19
100
AcDbEntity
  8
4
100
AcDbLine
 10
0.0
 20
5900.0
 30
0.0
 11
4200.0
 21
5900.0
 31
0.0
  0
LINE
  5
7F52
330
19
100
AcDbEntity
  8
4
100
AcDbLine
 10
4200.0
 20
5900.0
 30
0.0
 11
4200.0
 21
0.0
 31
0.0
  0
LINE
  5
7F53
330
19
100
AcDbEntity
  8
4
100
AcDbLine
 10
4200.0
 20
0.0
 30
0.0
 11
0.0
 21
0.0
 31
0.0
  0
DIMENSION
  5
813D
330
19
100
AcDbEntity
  8
3
100
AcDbDimension
  2
*D18
 10
664.0018246842191
 20
2555.677178549359
 30
0.0
 11
614.0018246842191
 21
2355.677178549359
 31
0.0
 70
    32
 71
     5
 42
-1.0
  3
IGA
100
AcDbAlignedDimension
 13
954.9757359989623
 23
2155.677178549359
 33
0.0
 14
1489.081777763948
 24
2555.677178549359
 34
0.0
 50
90.0
100
AcDbRotatedDimension
1001
ACAD
1000
DSTYLE
1002
{
1070
   172
1070
     1
1070
    40
1040
20.0
1070
   271
1070
     0
1070
   143
1040
0.039
1002
}
  0
DIMENSION
  5
8170
330
19
100
AcDbEntity
  8
3
100
AcDbDimension
  2
*D19
 10
1408.57536056422
 20
1313.531468891095
 30
0.0
 11
1231.07536056422
 21
1363.531468891095
 31
0.0
 70
    32
 71
     5
 42
-1.0
  3
IGA
100
AcDbAlignedDimension
 13
1053.57536056422
 23
1435.677178549359
 33
0.0
 14
1408.57536056422
 24
1435.677178549359
 34
0.0
100
AcDbRotatedDimension
1001
ACAD
1000
DSTYLE
1002
{
1070
   172
1070
     1
1070
    40
1040
20.0
1070
   271
1070
     0
1070
   143
1040
0.039
1002
}
  0
DIMENSION
  5
817D
330
19
100
AcDbEntity
  8
3
100
AcDbDimension
  2
*D20
 10
2403.57536056422
 20
1313.531468891095
 30
0.0
 11
1906.07536056422
 21
1363.531468891095
 31
0.0
 70
    32
 71
     5
 42
-1.0
  3
IGA
100
AcDbAlignedDimension
 13
1408.57536056422
 23
1435.677178549359
 33
0.0
 14
2403.57536056422
 24
1435.677178549358
 34
0.0
100
AcDbRotatedDimension
1001
ACAD
1000
DSTYLE
1002
{
1070
   172
1070
     1
1070
    40
1040
20.0
1070
   271
1070
     0
1070
   143
1040
0.039
1002
}
  0
DIMENSION
  5
818A
330
19
100
AcDbEntity
  8
3
100
AcDbDimension
  2
*D21
 10
3335.671436037816
 20
1313.531468891095
 30
0.0
 11
3082.171436037816
 21
1363.531468891095
 31
0.0
 70
    32
 71
     5
 42
-1.0
  3
IGA
100
AcDbAlignedDimension
 13
2828.671436037815
 23
1435.677178549359
 33
0.0
 14
3335.671436037816
 24
1435.677178549359
 34
0.0
100
AcDbRotatedDimension
1001
ACAD
1000
DSTYLE
1002
{
1070
   172
1070
     1
1070
    40
1040
20.0
1070
   271
1070
     0
1070
   143
1040
0.039
1002
}
  0
DIMENSION
  5
8197
330
19
100
AcDbEntity
  8
3
100
AcDbDimension
  2
*D22
 10
3753.671436037816
 20
1313.531468891095
 30
0.0
 11
3544.671436037816
 21
1363.531468891095
 31
0.0
 70
    32
 71
     5
 42
-1.0
  3
IGA
100
AcDbAlignedDimension
 13
3335.671436037816
 23
1435.677178549359
 33
0.0
 14
3753.671436037816
 24
1435.677178549359
 34
0.0
100
AcDbRotatedDimension
1001
ACAD
1000
DSTYLE
1002
{
1070
   172
1070
     1
1070
    40
1040
20.0
1070
   271
1070
     0
1070
   143
1040
0.039
1002
}
  0
DIMENSION
  5
81A4
330
19
100
AcDbEntity
  8
3
100
AcDbDimension
  2
*D23
 10
536.274159529381
 20
1435.677178549359
 30
0.0
 11
486.274159529381
 21
1995.677178549359
 31
0.0
 70
    32
 71
     5
 42
-1.0
  3
IGA
100
AcDbAlignedDimension
 13
1479.081777763948
 23
2555.677178549359
 33
0.0
 14
1053.57536056422
 24
1435.677178549359
 34
0.0
 50
90.0
100
AcDbRotatedDimension
1001
ACAD
1000
DSTYLE
1002
{
1070
   172
1070
     1
1070
    40
1040
20.0
1070
   271
1070
     0
1070
   143
1040
0.039
1002
}
  0
ENDSEC
  0
SECTION
  2
OBJECTS
  0
DICTIONARY
  5
C
330
0
100
AcDbDictionary
281
     1
  3
ACAD_CIP_PREVIOUS_PRODUCT_INFO
350
8271
  3
ACAD_COLOR
350
8254
  3
ACAD_DETAILVIEWSTYLE
350
826D
  3
ACAD_GROUP
350
D
  3
ACAD_LAYOUT
350
81B1
  3
ACAD_MATERIAL
350
8222
  3
ACAD_MLEADERSTYLE
350
8269
  3
ACAD_MLINESTYLE
350
E
  3
ACAD_PLOTSETTINGS
350
81B2
  3
ACAD_PLOTSTYLENAME
350
81AF
  3
ACAD_SCALELIST
350
8257
  3
ACAD_SECTIONVIEWSTYLE
350
826B
  3
ACAD_TABLESTYLE
350
8255
  3
ACAD_VISUALSTYLE
350
823B
  3
ACDB_RECOMPOSE_DATA
350
82FE
  3
AcDbVariableDictionary
350
82D7
  3
AcDsDecomposeData
350
8305
  3
DWGPROPS
350
82FF
  0
DICTIONARY
  5
82B5
330
2
100
AcDbDictionary
280
     1
281
     1
  3
ACAD_LAYERSTATES
360
82B6
  0
DICTIONARY
  5
82A8
330
F
100
AcDbDictionary
280
     1
281
     1
  3
ADSK_XREC_LAYER_RECONCILED
360
82A9
  0
DICTIONARY
  5
82AA
330
31
100
AcDbDictionary
280
     1
281
     1
  3
ADSK_XREC_LAYER_RECONCILED
360
82AB
  0
DICTIONARY
  5
82AC
330
76D0
100
AcDbDictionary
280
     1
281
     1
  3
ADSK_XREC_LAYER_RECONCILED
360
82AD
  0
DICTIONARY
  5
82AE
330
76D1
100
AcDbDictionary
280
     1
281
     1
  3
ADSK_XREC_LAYER_RECONCILED
360
82AF
  0
DICTIONARY
  5
82B0
330
76D2
100
AcDbDictionary
280
     1
281
     1
  3
ADSK_XREC_LAYER_RECONCILED
360
82B1
  0
DICTIONARY
  5
81DE
330
19
100
AcDbDictionary
280
     1
281
     1
  3
ACAD_LAYOUTSELFREF
360
81DF
  0
DICTIONARY
  5
81DC
330
16
100
AcDbDictionary
280
     1
281
     1
  3
ACAD_LAYOUTSELFREF
360
81DD
  0
XRECORD
  5
8271
102
{ACAD_REACTORS
330
C
102
}
330
C
100
AcDbXrecord
280
     1
300
ACDLT
300
2015
300
INVLTS_F_S
  0
DICTIONARY
  5
8254
102
{ACAD_REACTORS
330
C
102
}
330
C
100
AcDbDictionary
281
     1
  0
DICTIONARY
  5
826D
102
{ACAD_REACTORS
330
C
102
}
330
C
100
AcDbDictionary
281
     1
  3
Metric50
350
826E
  0
DICTIONARY
  5
D
102
{ACAD_REACTORS
330
C
102
}
330
C
100
AcDbDictionary
281
     1
  0
DICTIONARY
  5
81B1
102
{ACAD_REACTORS
330
C
102
}
330
C
100
AcDbDictionary
281
     1
  3
Model
350
81B3
  3
ﾚｲｱｳﾄ1
350
81B4
  0
DICTIONARY
  5
8222
102
{ACAD_REACTORS
330
C
102
}
330
C
100
AcDbDictionary
281
     1
  3
ByBlock
350
822B
  3
ByLayer
350
8223
  3
Global
350
8233
  0
DICTIONARY
  5
8269
102
{ACAD_REACTORS
330
C
102
}
330
C
100
AcDbDictionary
281
     1
  3
Standard
350
826A
  0
DICTIONARY
  5
E
102
{ACAD_REACTORS
330
C
102
}
330
C
100
AcDbDictionary
281
     1
  3
STANDARD
350
1C
  0
DICTIONARY
  5
81B2
102
{ACAD_REACTORS
330
C
102
}
330
C
100
AcDbDictionary
281
     1
  0
ACDBDICTIONARYWDFLT
  5
81AF
102
{ACAD_REACTORS
330
C
102
}
330
C
100
AcDbDictionary
281
     1
  3
Normal
350
81B0
100
AcDbDictionaryWithDefault
340
81B0
  0
DICTIONARY
  5
8257
102
{ACAD_REACTORS
330
C
102
}
330
C
100
AcDbDictionary
281
     1
  3
A0
350
8258
  3
A1
350
8259
  3
A2
350
825A
  3
A3
350
825B
  3
A4
350
825C
  3
A5
350
825D
  3
A6
350
825E
  3
A7
350
825F
  3
A8
350
8260
  3
A9
350
8261
  3
B0
350
8262
  3
B1
350
8263
  3
B2
350
8264
  3
B3
350
8265
  3
B4
350
8266
  3
B5
350
8267
  3
B6
350
8268
  0
DICTIONARY
  5
826B
102
{ACAD_REACTORS
330
C
102
}
330
C
100
AcDbDictionary
281
     1
  3
Metric50
350
826C
  0
DICTIONARY
  5
8255
102
{ACAD_REACTORS
330
C
102
}
330
C
100
AcDbDictionary
281
     1
  3
Standard
350
8256
  0
DICTIONARY
  5
823B
102
{ACAD_REACTORS
330
C
102
}
330
C
100
AcDbDictionary
281
     1
  3
2dWireframe
350
8241
  3
Basic
350
8240
  3
Brighten
350
8247
  3
ColorChange
350
824B
  3
Conceptual
350
8244
  3
Dim
350
8246
  3
EdgeColorOff
350
8253
  3
Facepattern
350
824A
  3
Flat
350
823C
  3
FlatWithEdges
350
823D
  3
Gouraud
350
823E
  3
GouraudWithEdges
350
823F
  3
Hidden
350
8243
  3
JitterOff
350
8251
  3
Linepattern
350
8249
  3
OverhangOff
350
8252
  3
Realistic
350
8245
  3
Shaded
350
8250
  3
Shaded with edges
350
824F
  3
Shades of Gray
350
824C
  3
Sketchy
350
824D
  3
Thicken
350
8248
  3
Wireframe
350
8242
  3
X-Ray
350
824E
  0
XRECORD
  5
82FE
102
{ACAD_REACTORS
330
C
102
}
330
C
100
AcDbXrecord
280
     1
 90
        1
330
7C26
330
7C35
330
7C4B
330
7CDE
330
8256
  0
DICTIONARY
  5
82D7
102
{ACAD_REACTORS
330
C
102
}
330
C
100
AcDbDictionary
281
     1
  3
CANNOSCALE
350
82DD
  3
CMLEADERSTYLE
350
82D9
  3
CTABLESTYLE
350
82D8
  3
CVIEWDETAILSTYLE
350
82DA
  3
CVIEWSECTIONSTYLE
350
82DB
  3
DIMASSOC
350
82FA
  3
INDEXCTL
350
82F9
  3
LAYEREVAL
350
82DF
  3
LAYERNOTIFY
350
82E0
  3
LIGHTINGUNITS
350
82DE
  3
MSLTSCALE
350
82DC
  3
SORTENTS
350
82F8
  3
XCLIPFRAME
350
82FB
  0
DICTIONARY
  5
8305
102
{ACAD_REACTORS
330
C
102
}
330
C
100
AcDbDictionary
281
     1
  3
AcDsRecords
350
8307
  3
AcDsSchemas
350
8306
1001
ACAD
1070
     2
  0
XRECORD
  5
82FF
102
{ACAD_REACTORS
330
C
102
}
330
C
100
AcDbXrecord
280
     1
  1
DWGPROPS COOKIE
  2

  3

  4

  6

  7

  8
yasukiyo.ogawa
  9

300
=
301
=
302
=
303
=
304
=
305
=
306
=
307
=
308
=
309
=
 40
0.0314157407407408
 41
2451373.650430903
 42
2460262.581452222
  1

 90
        0
  0
DICTIONARY
  5
82B6
102
{ACAD_REACTORS
330
82B5
102
}
330
82B5
100
AcDbDictionary
281
     1
  0
XRECORD
  5
82A9
102
{ACAD_REACTORS
330
82A8
102
}
330
82A8
100
AcDbXrecord
280
     1
290
     1
  0
XRECORD
  5
82AB
102
{ACAD_REACTORS
330
82AA
102
}
330
82AA
100
AcDbXrecord
280
     1
290
     1
  0
XRECORD
  5
82AD
102
{ACAD_REACTORS
330
82AC
102
}
330
82AC
100
AcDbXrecord
280
     1
290
     1
  0
XRECORD
  5
82AF
102
{ACAD_REACTORS
330
82AE
102
}
330
82AE
100
AcDbXrecord
280
     1
290
     1
  0
XRECORD
  5
82B1
102
{ACAD_REACTORS
330
82B0
102
}
330
82B0
100
AcDbXrecord
280
     1
290
     1
  0
XRECORD
  5
81DF
102
{ACAD_REACTORS
330
81DE
102
}
330
81DE
100
AcDbXrecord
280
     1
340
19
  0
XRECORD
  5
81DD
102
{ACAD_REACTORS
330
81DC
102
}
330
81DC
100
AcDbXrecord
280
     1
340
16
  0
ACDBDETAILVIEWSTYLE
  5
826E
102
{ACAD_XDICTIONARY
360
82D4
102
}
102
{ACAD_REACTORS
330
826D
102
}
330
826D
100
AcDbModelDocViewStyle
 70
     0
  3
Metric50
290
     0
100
AcDbDetailViewStyle
 70
     0
 71
     0
 90
        3
 71
     1
340
10
 40
5.0
340
0
 40
5.0
300

 40
0.0
280
     1
 71
     2
340
15
 90
       25
 71
     3
340
10
 40
5.0
 90
        0
 40
15.0
 90
        1
300
%<\AcVar ViewDetailId>% (%<\AcVar ViewScale \f "%sn">%)
 71
     4
340
15
 90
       25
340
15
 90
       25
280
     0
  0
LAYOUT
  5
81B3
102
{ACAD_XDICTIONARY
360
8308
102
}
102
{ACAD_REACTORS
330
81B1
102
}
330
81B1
100
AcDbPlotSettings
  1

  2
EPSON LP-9300
  4

  6

 40
0.0
 41
0.0
 42
0.0
 43
0.0
 44
0.0
 45
0.0
 46
0.0
 47
0.0
 48
0.0
 49
0.0
140
0.0
141
0.0
142
1.0
143
1.0
 70
  1712
 72
     0
 73
     0
 74
     0
  7

 75
     0
147
1.0
148
0.0
149
0.0
100
AcDbLayout
  1
Model
 70
     1
 71
     0
 10
0.0
 20
0.0
 11
12.0
 21
9.0
 12
0.0
 22
0.0
 32
0.0
 14
0.0
 24
0.0
 34
0.0
 15
0.0
 25
0.0
 35
0.0
146
0.0
 13
0.0
 23
0.0
 33
0.0
 16
1.0
 26
0.0
 36
0.0
 17
0.0
 27
1.0
 37
0.0
 76
     0
330
19
331
8220
  0
LAYOUT
  5
81B4
102
{ACAD_XDICTIONARY
360
830A
102
}
102
{ACAD_REACTORS
330
81B1
102
}
330
81B1
100
AcDbPlotSettings
  1

  2
EPSON LP-9300
  4

  6

 40
0.0
 41
0.0
 42
0.0
 43
0.0
 44
0.0
 45
0.0
 46
0.0
 47
0.0
 48
0.0
 49
0.0
140
0.0
141
0.0
142
1.0
143
1.0
 70
   688
 72
     0
 73
     0
 74
     5
  7

 75
    16
147
1.0
148
0.0
149
0.0
100
AcDbLayout
  1
ﾚｲｱｳﾄ1
 70
     1
 71
     1
 10
0.0
 20
0.0
 11
12.0
 21
9.0
 12
0.0
 22
0.0
 32
0.0
 14
1.000000000000000E+20
 24
1.000000000000000E+20
 34
1.000000000000000E+20
 15
-1.000000000000000E+20
 25
-1.000000000000000E+20
 35
-1.000000000000000E+20
146
0.0
 13
0.0
 23
0.0
 33
0.0
 16
1.0
 26
0.0
 36
0.0
 17
0.0
 27
1.0
 37
0.0
 76
     0
330
16
  0
MATERIAL
  5
822B
102
{ACAD_XDICTIONARY
360
822C
102
}
102
{ACAD_REACTORS
330
8222
102
}
330
8222
100
AcDbMaterial
  1
ByBlock
 72
     0
 43
0.0208333333333333
 43
0.0
 43
0.0
 43
0.0
 43
0.0
 43
0.0208333333333333
 43
0.0
 43
0.0
 43
0.0
 43
0.0
 43
1.0
 43
0.0
 43
0.0
 43
0.0
 43
0.0
 43
1.0
 77
     0
 47
0.0208333333333333
 47
0.0
 47
0.0
 47
0.0
 47
0.0
 47
0.0208333333333333
 47
0.0
 47
0.0
 47
0.0
 47
0.0
 47
1.0
 47
0.0
 47
0.0
 47
0.0
 47
0.0
 47
1.0
171
     0
 49
0.0208333333333333
 49
0.0
 49
0.0
 49
0.0
 49
0.0
 49
0.0208333333333333
 49
0.0
 49
0.0
 49
0.0
 49
0.0
 49
1.0
 49
0.0
 49
0.0
 49
0.0
 49
0.0
 49
1.0
175
     0
142
0.0208333333333333
142
0.0
142
0.0
142
0.0
142
0.0
142
0.0208333333333333
142
0.0
142
0.0
142
0.0
142
0.0
142
1.0
142
0.0
142
0.0
142
0.0
142
0.0
142
1.0
179
     0
144
0.0208333333333333
144
0.0
144
0.0
144
0.0
144
0.0
144
0.0208333333333333
144
0.0
144
0.0
144
0.0
144
0.0
144
1.0
144
0.0
144
0.0
144
0.0
144
0.0
144
1.0
147
0.0208333333333333
147
0.0
147
0.0
147
0.0
147
0.0
147
0.0208333333333333
147
0.0
147
0.0
147
0.0
147
0.0
147
1.0
147
0.0
147
0.0
147
0.0
147
0.0
147
1.0
  0
MATERIAL
  5
8223
102
{ACAD_XDICTIONARY
360
8224
102
}
102
{ACAD_REACTORS
330
8222
102
}
330
8222
100
AcDbMaterial
  1
ByLayer
 72
     0
 43
0.0208333333333333
 43
0.0
 43
0.0
 43
0.0
 43
0.0
 43
0.0208333333333333
 43
0.0
 43
0.0
 43
0.0
 43
0.0
 43
1.0
 43
0.0
 43
0.0
 43
0.0
 43
0.0
 43
1.0
 77
     0
 47
0.0208333333333333
 47
0.0
 47
0.0
 47
0.0
 47
0.0
 47
0.0208333333333333
 47
0.0
 47
0.0
 47
0.0
 47
0.0
 47
1.0
 47
0.0
 47
0.0
 47
0.0
 47
0.0
 47
1.0
171
     0
 49
0.0208333333333333
 49
0.0
 49
0.0
 49
0.0
 49
0.0
 49
0.0208333333333333
 49
0.0
 49
0.0
 49
0.0
 49
0.0
 49
1.0
 49
0.0
 49
0.0
 49
0.0
 49
0.0
 49
1.0
175
     0
142
0.0208333333333333
142
0.0
142
0.0
142
0.0
142
0.0
142
0.0208333333333333
142
0.0
142
0.0
142
0.0
142
0.0
142
1.0
142
0.0
142
0.0
142
0.0
142
0.0
142
1.0
179
     0
144
0.0208333333333333
144
0.0
144
0.0
144
0.0
144
0.0
144
0.0208333333333333
144
0.0
144
0.0
144
0.0
144
0.0
144
1.0
144
0.0
144
0.0
144
0.0
144
0.0
144
1.0
147
0.0208333333333333
147
0.0
147
0.0
147
0.0
147
0.0
147
0.0208333333333333
147
0.0
147
0.0
147
0.0
147
0.0
147
1.0
147
0.0
147
0.0
147
0.0
147
0.0
147
1.0
  0
MATERIAL
  5
8233
102
{ACAD_XDICTIONARY
360
8234
102
}
102
{ACAD_REACTORS
330
8222
102
}
330
8222
100
AcDbMaterial
  1
Global
 72
     0
 43
0.0208333333333333
 43
0.0
 43
0.0
 43
0.0
 43
0.0
 43
0.0208333333333333
 43
0.0
 43
0.0
 43
0.0
 43
0.0
 43
1.0
 43
0.0
 43
0.0
 43
0.0
 43
0.0
 43
1.0
 77
     0
 47
0.0208333333333333
 47
0.0
 47
0.0
 47
0.0
 47
0.0
 47
0.0208333333333333
 47
0.0
 47
0.0
 47
0.0
 47
0.0
 47
1.0
 47
0.0
 47
0.0
 47
0.0
 47
0.0
 47
1.0
171
     0
 49
0.0208333333333333
 49
0.0
 49
0.0
 49
0.0
 49
0.0
 49
0.0208333333333333
 49
0.0
 49
0.0
 49
0.0
 49
0.0
 49
1.0
 49
0.0
 49
0.0
 49
0.0
 49
0.0
 49
1.0
175
     0
142
0.0208333333333333
142
0.0
142
0.0
142
0.0
142
0.0
142
0.0208333333333333
142
0.0
142
0.0
142
0.0
142
0.0
142
1.0
142
0.0
142
0.0
142
0.0
142
0.0
142
1.0
179
     0
144
0.0208333333333333
144
0.0
144
0.0
144
0.0
144
0.0
144
0.0208333333333333
144
0.0
144
0.0
144
0.0
144
0.0
144
1.0
144
0.0
144
0.0
144
0.0
144
0.0
144
1.0
147
0.0208333333333333
147
0.0
147
0.0
147
0.0
147
0.0
147
0.0208333333333333
147
0.0
147
0.0
147
0.0
147
0.0
147
1.0
147
0.0
147
0.0
147
0.0
147
0.0
147
1.0
  0
MLEADERSTYLE
  5
826A
102
{ACAD_XDICTIONARY
360
8341
102
}
102
{ACAD_REACTORS
330
8269
102
}
330
8269
100
AcDbMLeaderStyle
170
     2
171
     1
172
     0
 90
        2
 40
0.0
 41
0.0
173
     1
 91
-1056964608
340
13
 92
       -2
290
     1
 42
2.0
291
     1
 43
0.36
  3
Standard
 44
4.0
300

342
10
174
     1
178
     6
175
     1
176
     0
 93
-1056964608
 45
4.0
292
     0
297
     0
 46
4.0
 94
-1056964608
 47
1.0
 49
1.0
140
1.0
293
     1
141
0.0
294
     1
177
     0
142
1.0
295
     0
296
     0
143
0.125
1001
ACAD_MLEADERVER
1070
     2
  0
MLINESTYLE
  5
1C
102
{ACAD_REACTORS
330
E
102
}
330
E
100
AcDbMlineStyle
  2
STANDARD
 70
     0
  3

 62
     0
 51
90.0
 52
90.0
 71
     2
 49
0.5
 62
   256
  6
BYLAYER
 49
-0.5
 62
   256
  6
BYLAYER
  0
ACDBPLACEHOLDER
  5
81B0
102
{ACAD_REACTORS
330
81AF
102
}
330
81AF
  0
SCALE
  5
8258
102
{ACAD_REACTORS
330
8257
102
}
330
8257
100
AcDbScale
 70
     0
300
1:1
140
1.0
141
1.0
290
     1
  0
SCALE
  5
8259
102
{ACAD_REACTORS
330
8257
102
}
330
8257
100
AcDbScale
 70
     0
300
1:2
140
1.0
141
2.0
290
     0
  0
SCALE
  5
825A
102
{ACAD_REACTORS
330
8257
102
}
330
8257
100
AcDbScale
 70
     0
300
1:4
140
1.0
141
4.0
290
     0
  0
SCALE
  5
825B
102
{ACAD_REACTORS
330
8257
102
}
330
8257
100
AcDbScale
 70
     0
300
1:5
140
1.0
141
5.0
290
     0
  0
SCALE
  5
825C
102
{ACAD_REACTORS
330
8257
102
}
330
8257
100
AcDbScale
 70
     0
300
1:8
140
1.0
141
8.0
290
     0
  0
SCALE
  5
825D
102
{ACAD_REACTORS
330
8257
102
}
330
8257
100
AcDbScale
 70
     0
300
1:10
140
1.0
141
10.0
290
     0
  0
SCALE
  5
825E
102
{ACAD_REACTORS
330
8257
102
}
330
8257
100
AcDbScale
 70
     0
300
1:16
140
1.0
141
16.0
290
     0
  0
SCALE
  5
825F
102
{ACAD_REACTORS
330
8257
102
}
330
8257
100
AcDbScale
 70
     0
300
1:20
140
1.0
141
20.0
290
     0
  0
SCALE
  5
8260
102
{ACAD_REACTORS
330
8257
102
}
330
8257
100
AcDbScale
 70
     0
300
1:30
140
1.0
141
30.0
290
     0
  0
SCALE
  5
8261
102
{ACAD_REACTORS
330
8257
102
}
330
8257
100
AcDbScale
 70
     0
300
1:40
140
1.0
141
40.0
290
     0
  0
SCALE
  5
8262
102
{ACAD_REACTORS
330
8257
102
}
330
8257
100
AcDbScale
 70
     0
300
1:50
140
1.0
141
50.0
290
     0
  0
SCALE
  5
8263
102
{ACAD_REACTORS
330
8257
102
}
330
8257
100
AcDbScale
 70
     0
300
1:100
140
1.0
141
100.0
290
     0
  0
SCALE
  5
8264
102
{ACAD_REACTORS
330
8257
102
}
330
8257
100
AcDbScale
 70
     0
300
2:1
140
2.0
141
1.0
290
     0
  0
SCALE
  5
8265
102
{ACAD_REACTORS
330
8257
102
}
330
8257
100
AcDbScale
 70
     0
300
4:1
140
4.0
141
1.0
290
     0
  0
SCALE
  5
8266
102
{ACAD_REACTORS
330
8257
102
}
330
8257
100
AcDbScale
 70
     0
300
8:1
140
8.0
141
1.0
290
     0
  0
SCALE
  5
8267
102
{ACAD_REACTORS
330
8257
102
}
330
8257
100
AcDbScale
 70
     0
300
10:1
140
10.0
141
1.0
290
     0
  0
SCALE
  5
8268
102
{ACAD_REACTORS
330
8257
102
}
330
8257
100
AcDbScale
 70
     0
300
100:1
140
100.0
141
1.0
290
     0
  0
ACDBSECTIONVIEWSTYLE
  5
826C
102
{ACAD_XDICTIONARY
360
82D2
102
}
102
{ACAD_REACTORS
330
826B
102
}
330
826B
100
AcDbModelDocViewStyle
 70
     0
  3
Metric50
290
     0
100
AcDbSectionViewStyle
 70
     0
 71
     0
 90
      102
 71
     1
340
10
 40
5.0
340
0
340
0
 40
5.0
300
I, O, Q, S, X, Z
 40
10.0
 90
        0
 40
2.5
 90
        0
 71
     2
340
15
 90
       25
340
15
 90
       50
 40
5.0
 40
2.5
 40
5.0
 71
     3
340
10
 40
5.0
 90
        0
 40
15.0
 90
        1
300
%<\AcVar ViewSectionStartId>%-%<\AcVar ViewSectionEndId>% (%<\AcVar ViewScale \f "%sn">%)
 71
     4
300
ANSI31
 40
1.0
 90
        0
290
     0
290
     0
 90
        6
 40
0.0
 40
1.570796326794896
 40
0.2617993877991494
 40
1.308996938995747
 40
-0.2617993877991494
 40
1.832595714594046
  0
TABLESTYLE
  5
8256
102
{ACAD_XDICTIONARY
360
82FC
102
}
102
{ACAD_REACTORS
330
8255
102
}
330
8255
100
AcDbTableStyle
  3
Standard
 70
     0
 71
     0
 40
1.5
 41
1.5
280
     0
281
     0
  7
STANDARD
140
4.5
170
     2
 62
     0
 63
     7
283
     0
274
    -2
284
     1
 64
     0
275
    -2
285
     1
 65
     0
276
    -2
286
     1
 66
     0
277
    -2
287
     1
 67
     0
278
    -2
288
     1
 68
     0
279
    -2
289
     1
 69
     0
  7
STANDARD
140
6.0
170
     5
 62
     0
 63
     7
283
     0
274
    -2
284
     1
 64
     0
275
    -2
285
     1
 65
     0
276
    -2
286
     1
 66
     0
277
    -2
287
     1
 67
     0
278
    -2
288
     1
 68
     0
279
    -2
289
     1
 69
     0
  7
STANDARD
140
4.5
170
     5
 62
     0
 63
     7
283
     0
274
    -2
284
     1
 64
     0
275
    -2
285
     1
 65
     0
276
    -2
286
     1
 66
     0
277
    -2
287
     1
 67
     0
278
    -2
288
     1
 68
     0
279
    -2
289
     1
 69
     0
  0
VISUALSTYLE
  5
8241
102
{ACAD_XDICTIONARY
360
8319
102
}
102
{ACAD_REACTORS
330
823B
102
}
330
823B
100
AcDbVisualStyle
  2
2dWireframe
 70
     4
 71
     0
 72
     2
 73
     0
 90
        0
 40
-0.6
 41
-30.0
 62
     5
 63
     7
 74
     1
 91
        4
 64
     7
 65
   257
 75
     1
175
     1
 42
1.0
 92
        0
 66
   257
 43
1.0
 76
     1
 77
     6
 78
     2
 67
     7
 79
     5
170
     0
171
     0
290
     0
174
     0
 93
        1
 44
0.0
173
     0
291
     0
 45
0.0
1001
ACAD
1000
AcDbSavedByObjectVersion
1070
     0
  0
VISUALSTYLE
  5
8240
102
{ACAD_XDICTIONARY
360
8317
102
}
102
{ACAD_REACTORS
330
823B
102
}
330
823B
100
AcDbVisualStyle
  2
Basic
 70
     7
 71
     1
 72
     0
 73
     1
 90
        0
 40
-0.6
 41
-30.0
 62
     5
 63
     7
 74
     0
 91
        4
 64
     7
 65
   257
 75
     1
175
     1
 42
1.0
 92
        8
 66
     7
 43
1.0
 76
     1
 77
     6
 78
     2
 67
     7
 79
     5
170
     0
171
     0
290
     0
174
     0
 93
        1
 44
0.0
173
     0
291
     1
 45
0.0
1001
ACAD
1000
AcDbSavedByObjectVersion
1070
     0
  0
VISUALSTYLE
  5
8247
102
{ACAD_XDICTIONARY
360
8325
102
}
102
{ACAD_REACTORS
330
823B
102
}
330
823B
100
AcDbVisualStyle
  2
Brighten
 70
    12
 71
     2
 72
     2
 73
     0
 90
        0
 40
-0.6
 41
-30.0
 62
     5
 63
     7
 74
     1
 91
        4
 64
     7
 65
   257
 75
     1
175
     1
 42
1.0
 92
        8
 66
     7
 43
1.0
 76
     1
 77
     6
 78
     2
 67
     7
 79
     5
170
     0
171
     0
290
     0
174
     0
 93
        1
 44
50.0
173
     0
291
     1
 45
0.0
1001
ACAD
1000
AcDbSavedByObjectVersion
1070
     0
  0
VISUALSTYLE
  5
824B
102
{ACAD_XDICTIONARY
360
832D
102
}
102
{ACAD_REACTORS
330
823B
102
}
330
823B
100
AcDbVisualStyle
  2
ColorChange
 70
    16
 71
     2
 72
     2
 73
     3
 90
        0
 40
-0.6
 41
-30.0
 62
     5
 63
     8
 74
     1
 91
        4
 64
     7
 65
   257
 75
     1
175
     1
 42
1.0
 92
        8
 66
     8
 43
1.0
 76
     1
 77
     6
 78
     2
 67
     7
 79
     5
170
     0
171
     0
290
     0
174
     0
 93
        1
 44
0.0
173
     0
291
     1
 45
0.0
1001
ACAD
1000
AcDbSavedByObjectVersion
1070
     0
  0
VISUALSTYLE
  5
8244
102
{ACAD_XDICTIONARY
360
831F
102
}
102
{ACAD_REACTORS
330
823B
102
}
330
823B
100
AcDbVisualStyle
  2
Conceptual
 70
     9
 71
     3
 72
     2
 73
     0
 90
        0
 40
-0.6
 41
-30.0
 62
     5
 63
     7
 74
     2
 91
        2
 64
     7
 65
   257
 75
     1
175
     1
 42
179.0
 92
        8
 66
     7
 43
1.0
 76
     1
 77
     6
 78
     2
 67
     7
 79
     3
170
     0
171
     0
290
     0
174
     0
 93
        1
 44
0.0
173
     0
291
     0
 45
0.0
1001
ACAD
1000
AcDbSavedByObjectVersion
1070
     0
  0
VISUALSTYLE
  5
8246
102
{ACAD_XDICTIONARY
360
8323
102
}
102
{ACAD_REACTORS
330
823B
102
}
330
823B
100
AcDbVisualStyle
  2
Dim
 70
    11
 71
     2
 72
     2
 73
     0
 90
        0
 40
-0.6
 41
-30.0
 62
     5
 63
     7
 74
     1
 91
        4
 64
     7
 65
   257
 75
     1
175
     1
 42
1.0
 92
        8
 66
     7
 43
1.0
 76
     1
 77
     6
 78
     2
 67
     7
 79
     5
170
     0
171
     0
290
     0
174
     0
 93
        1
 44
-50.0
173
     0
291
     1
 45
0.0
1001
ACAD
1000
AcDbSavedByObjectVersion
1070
     0
  0
VISUALSTYLE
  5
8253
102
{ACAD_XDICTIONARY
360
833D
102
}
102
{ACAD_REACTORS
330
823B
102
}
330
823B
100
AcDbVisualStyle
  2
EdgeColorOff
 70
    22
 71
     2
 72
     2
 73
     0
 90
        0
 40
-0.6
 41
-30.0
 62
     5
 63
     7
 74
     1
 91
        4
 64
     7
 65
   257
 75
     1
175
     1
 42
1.0
 92
        8
 66
     7
 43
1.0
 76
     1
 77
     6
 78
     2
 67
     7
 79
     5
170
     0
171
     0
290
     0
174
     0
 93
        1
 44
0.0
173
     0
291
     1
 45
0.0
1001
ACAD
1000
AcDbSavedByObjectVersion
1070
     0
  0
VISUALSTYLE
  5
824A
102
{ACAD_XDICTIONARY
360
832B
102
}
102
{ACAD_REACTORS
330
823B
102
}
330
823B
100
AcDbVisualStyle
  2
Facepattern
 70
    15
 71
     2
 72
     2
 73
     0
 90
        0
 40
-0.6
 41
-30.0
 62
     5
 63
     7
 74
     1
 91
        4
 64
     7
 65
   257
 75
     1
175
     1
 42
1.0
 92
        8
 66
     7
 43
1.0
 76
     1
 77
     6
 78
     2
 67
     7
 79
     5
170
     0
171
     0
290
     0
174
     0
 93
        1
 44
0.0
173
     0
291
     1
 45
0.0
1001
ACAD
1000
AcDbSavedByObjectVersion
1070
     0
  0
VISUALSTYLE
  5
823C
102
{ACAD_XDICTIONARY
360
830F
102
}
102
{ACAD_REACTORS
330
823B
102
}
330
823B
100
AcDbVisualStyle
  2
Flat
 70
     0
 71
     2
 72
     1
 73
     1
 90
        2
 40
-0.6
 41
30.0
 62
     5
 63
     7
 74
     0
 91
        0
 64
     7
 65
   257
 75
     1
175
     1
 42
1.0
 92
        8
 66
     7
 43
1.0
 76
     1
 77
     6
 78
     2
 67
     7
 79
     5
170
     0
171
     0
290
     0
174
     0
 93
       13
 44
0.0
173
     0
291
     1
 45
0.0
1001
ACAD
1000
AcDbSavedByObjectVersion
1070
     0
  0
VISUALSTYLE
  5
823D
102
{ACAD_XDICTIONARY
360
8311
102
}
102
{ACAD_REACTORS
330
823B
102
}
330
823B
100
AcDbVisualStyle
  2
FlatWithEdges
 70
     1
 71
     2
 72
     1
 73
     1
 90
        2
 40
-0.6
 41
30.0
 62
     5
 63
     7
 74
     1
 91
        0
 64
     7
 65
   257
 75
     1
175
     1
 42
1.0
 92
        0
 66
   257
 43
1.0
 76
     1
 77
     6
 78
     2
 67
     7
 79
     5
170
     0
171
     0
290
     0
174
     0
 93
       13
 44
0.0
173
     0
291
     1
 45
0.0
1001
ACAD
1000
AcDbSavedByObjectVersion
1070
     0
  0
VISUALSTYLE
  5
823E
102
{ACAD_XDICTIONARY
360
8313
102
}
102
{ACAD_REACTORS
330
823B
102
}
330
823B
100
AcDbVisualStyle
  2
Gouraud
 70
     2
 71
     2
 72
     2
 73
     1
 90
        2
 40
-0.6
 41
30.0
 62
     5
 63
     7
 74
     0
 91
        0
 64
     7
 65
   257
 75
     1
175
     1
 42
1.0
 92
        0
 66
     7
 43
1.0
 76
     1
 77
     6
 78
     2
 67
     7
 79
     5
170
     0
171
     0
290
     0
174
     0
 93
       13
 44
0.0
173
     0
291
     1
 45
0.0
1001
ACAD
1000
AcDbSavedByObjectVersion
1070
     0
  0
VISUALSTYLE
  5
823F
102
{ACAD_XDICTIONARY
360
8315
102
}
102
{ACAD_REACTORS
330
823B
102
}
330
823B
100
AcDbVisualStyle
  2
GouraudWithEdges
 70
     3
 71
     2
 72
     2
 73
     1
 90
        2
 40
-0.6
 41
30.0
 62
     5
 63
     7
 74
     1
 91
        0
 64
     7
 65
   257
 75
     1
175
     1
 42
1.0
 92
        0
 66
   257
 43
1.0
 76
     1
 77
     6
 78
     2
 67
     7
 79
     5
170
     0
171
     0
290
     0
174
     0
 93
       13
 44
0.0
173
     0
291
     1
 45
0.0
1001
ACAD
1000
AcDbSavedByObjectVersion
1070
     0
  0
VISUALSTYLE
  5
8243
102
{ACAD_XDICTIONARY
360
831D
102
}
102
{ACAD_REACTORS
330
823B
102
}
330
823B
100
AcDbVisualStyle
  2
Hidden
 70
     6
 71
     1
 72
     2
 73
     2
 90
        0
 40
-0.6
 41
-30.0
 62
     5
 63
     7
 74
     2
 91
        2
 64
     7
 65
   257
 75
     2
175
     1
 42
40.0
 92
        0
 66
   257
 43
1.0
 76
     1
 77
     6
 78
     2
 67
     7
 79
     3
170
     0
171
     0
290
     0
174
     0
 93
        1
 44
0.0
173
     0
291
     0
 45
0.0
1001
ACAD
1000
AcDbSavedByObjectVersion
1070
     0
  0
VISUALSTYLE
  5
8251
102
{ACAD_XDICTIONARY
360
8339
102
}
102
{ACAD_REACTORS
330
823B
102
}
330
823B
100
AcDbVisualStyle
  2
JitterOff
 70
    20
 71
     2
 72
     2
 73
     0
 90
        0
 40
-0.6
 41
-30.0
 62
     5
 63
     7
 74
     1
 91
        4
 64
     7
 65
   257
 75
     1
175
     1
 42
1.0
 92
       10
 66
     7
 43
1.0
 76
     1
 77
     6
 78
     2
 67
     7
 79
     5
170
     0
171
     0
290
     0
174
     0
 93
        1
 44
0.0
173
     0
291
     1
 45
0.0
1001
ACAD
1000
AcDbSavedByObjectVersion
1070
     0
  0
VISUALSTYLE
  5
8249
102
{ACAD_XDICTIONARY
360
8329
102
}
102
{ACAD_REACTORS
330
823B
102
}
330
823B
100
AcDbVisualStyle
  2
Linepattern
 70
    14
 71
     2
 72
     2
 73
     0
 90
        0
 40
-0.6
 41
-30.0
 62
     5
 63
     7
 74
     1
 91
        4
 64
     7
 65
   257
 75
     7
175
     7
 42
1.0
 92
        8
 66
     7
 43
1.0
 76
     1
 77
     6
 78
     2
 67
     7
 79
     5
170
     0
171
     0
290
     0
174
     0
 93
        1
 44
0.0
173
     0
291
     1
 45
0.0
1001
ACAD
1000
AcDbSavedByObjectVersion
1070
     0
  0
VISUALSTYLE
  5
8252
102
{ACAD_XDICTIONARY
360
833B
102
}
102
{ACAD_REACTORS
330
823B
102
}
330
823B
100
AcDbVisualStyle
  2
OverhangOff
 70
    21
 71
     2
 72
     2
 73
     0
 90
        0
 40
-0.6
 41
-30.0
 62
     5
 63
     7
 74
     1
 91
        4
 64
     7
 65
   257
 75
     1
175
     1
 42
1.0
 92
        9
 66
     7
 43
1.0
 76
     1
 77
     6
 78
     2
 67
     7
 79
     5
170
     0
171
     0
290
     0
174
     0
 93
        1
 44
0.0
173
     0
291
     1
 45
0.0
1001
ACAD
1000
AcDbSavedByObjectVersion
1070
     0
  0
VISUALSTYLE
  5
8245
102
{ACAD_XDICTIONARY
360
8321
102
}
102
{ACAD_REACTORS
330
823B
102
}
330
823B
100
AcDbVisualStyle
  2
Realistic
 70
     8
 71
     2
 72
     3
 73
     0
 90
        2
 40
-0.6
 41
30.0
 62
     5
 63
     7
 74
     0
 91
        0
 64
     7
 65
   257
 75
     1
175
     1
 42
1.0
 92
        8
 66
   257
 43
1.0
 76
     1
 77
     6
 78
     2
 67
     7
 79
     3
170
     0
171
     0
290
     0
174
     0
 93
       13
 44
0.0
173
     0
291
     0
 45
0.0
1001
ACAD
1000
AcDbSavedByObjectVersion
1070
     0
  0
VISUALSTYLE
  5
8250
102
{ACAD_XDICTIONARY
360
8337
102
}
102
{ACAD_REACTORS
330
823B
102
}
330
823B
100
AcDbVisualStyle
  2
Shaded
 70
    27
 71
     2
 72
     2
 73
     1
 90
        2
 40
-0.6
 41
30.0
 62
     5
 63
     7
 74
     0
 91
        4
 64
     7
 65
   257
 75
     1
175
     1
 42
1.0
 92
        8
 66
   257
 43
1.0
 76
     1
 77
     6
 78
     2
 67
     8
 79
     3
170
     0
171
     0
290
     0
174
     0
 93
        5
 44
0.0
173
     0
291
     0
 45
0.0
1001
ACAD
1000
AcDbSavedByObjectVersion
1070
     0
  0
VISUALSTYLE
  5
824F
102
{ACAD_XDICTIONARY
360
8335
102
}
102
{ACAD_REACTORS
330
823B
102
}
330
823B
100
AcDbVisualStyle
  2
Shaded with edges
 70
    26
 71
     2
 72
     2
 73
     1
 90
        2
 40
-0.6
 41
30.0
 62
     5
 63
     7
 74
     1
 91
       10
 64
     7
 65
   257
 75
     2
175
     1
 42
1.0
 92
        8
 66
   257
 43
1.0
 76
     1
 77
     6
 78
     2
 67
     7
 79
     3
170
     0
171
     0
290
     0
174
     0
 93
        5
 44
0.0
173
     0
291
     0
 45
0.0
1001
ACAD
1000
AcDbSavedByObjectVersion
1070
     0
  0
VISUALSTYLE
  5
824C
102
{ACAD_XDICTIONARY
360
832F
102
}
102
{ACAD_REACTORS
330
823B
102
}
330
823B
100
AcDbVisualStyle
  2
Shades of Gray
 70
    23
 71
     2
 72
     2
 73
     3
 90
        0
 40
-0.6
 41
-30.0
 62
     5
 63
     7
 74
     2
 91
        2
 64
     7
 65
     7
 75
     1
175
     1
 42
40.0
 92
        8
 66
     7
 43
1.0
 76
     1
 77
     6
 78
     2
 67
     7
 79
     3
170
     0
171
     0
290
     0
174
     0
 93
        1
 44
0.0
173
     0
291
     0
 45
0.0
1001
ACAD
1000
AcDbSavedByObjectVersion
1070
     0
  0
VISUALSTYLE
  5
824D
102
{ACAD_XDICTIONARY
360
8331
102
}
102
{ACAD_REACTORS
330
823B
102
}
330
823B
100
AcDbVisualStyle
  2
Sketchy
 70
    24
 71
     1
 72
     2
 73
     2
 90
        0
 40
-0.6
 41
-30.0
 62
     5
 63
     7
 74
     2
 91
        2
 64
     7
 65
     7
 75
     1
175
     1
 42
40.0
 92
       11
 66
     7
 43
1.0
 76
     1
 77
     6
 78
     2
 67
     7
 79
     6
170
     0
171
     0
290
     0
174
     0
 93
        1
 44
0.0
173
     0
291
     0
 45
0.0
1001
ACAD
1000
AcDbSavedByObjectVersion
1070
     0
  0
VISUALSTYLE
  5
8248
102
{ACAD_XDICTIONARY
360
8327
102
}
102
{ACAD_REACTORS
330
823B
102
}
330
823B
100
AcDbVisualStyle
  2
Thicken
 70
    13
 71
     2
 72
     2
 73
     0
 90
        0
 40
-0.6
 41
-30.0
 62
     5
 63
     7
 74
     1
 91
        4
 64
     7
 65
   257
 75
     1
175
     1
 42
1.0
 92
       12
 66
     7
 43
1.0
 76
     1
 77
     6
 78
     2
 67
     7
 79
     5
170
     0
171
     0
290
     0
174
     0
 93
        1
 44
0.0
173
     0
291
     1
 45
0.0
1001
ACAD
1000
AcDbSavedByObjectVersion
1070
     0
  0
VISUALSTYLE
  5
8242
102
{ACAD_XDICTIONARY
360
831B
102
}
102
{ACAD_REACTORS
330
823B
102
}
330
823B
100
AcDbVisualStyle
  2
Wireframe
 70
     5
 71
     0
 72
     2
 73
     0
 90
        0
 40
-0.6
 41
-30.0
 62
     5
 63
     7
 74
     1
 91
        4
 64
     7
 65
   257
 75
     1
175
     1
 42
1.0
 92
        0
 66
   257
 43
1.0
 76
     1
 77
     6
 78
     2
 67
     7
 79
     3
170
     0
171
     0
290
     0
174
     0
 93
        1
 44
0.0
173
     0
291
     0
 45
0.0
1001
ACAD
1000
AcDbSavedByObjectVersion
1070
     0
  0
VISUALSTYLE
  5
824E
102
{ACAD_XDICTIONARY
360
8333
102
}
102
{ACAD_REACTORS
330
823B
102
}
330
823B
100
AcDbVisualStyle
  2
X-Ray
 70
    25
 71
     2
 72
     2
 73
     1
 90
        1
 40
0.5
 41
-30.0
 62
     5
 63
     7
 74
     1
 91
        0
 64
     7
 65
   257
 75
     1
175
     1
 42
1.0
 92
        8
 66
     7
 43
1.0
 76
     1
 77
     6
 78
     2
 67
     7
 79
     3
170
     0
171
     0
290
     0
174
     0
 93
       13
 44
0.0
173
     0
291
     0
 45
0.0
1001
ACAD
1000
AcDbSavedByObjectVersion
1070
     0
  0
DICTIONARYVAR
  5
82DD
102
{ACAD_REACTORS
330
82D7
102
}
330
82D7
100
DictionaryVariables
280
     0
  1
1:1
  0
DICTIONARYVAR
  5
82D9
102
{ACAD_REACTORS
330
82D7
102
}
330
82D7
100
DictionaryVariables
280
     0
  1
STANDARD
  0
DICTIONARYVAR
  5
82D8
102
{ACAD_REACTORS
330
82D7
102
}
330
82D7
100
DictionaryVariables
280
     0
  1
STANDARD
  0
DICTIONARYVAR
  5
82DA
102
{ACAD_REACTORS
330
82D7
102
}
330
82D7
100
DictionaryVariables
280
     0
  1
Metric50
  0
DICTIONARYVAR
  5
82DB
102
{ACAD_REACTORS
330
82D7
102
}
330
82D7
100
DictionaryVariables
280
     0
  1
Metric50
  0
DICTIONARYVAR
  5
82FA
102
{ACAD_REACTORS
330
82D7
102
}
330
82D7
100
DictionaryVariables
280
     0
  1
1
  0
DICTIONARYVAR
  5
82F9
102
{ACAD_REACTORS
330
82D7
102
}
330
82D7
100
DictionaryVariables
280
     0
  1
0
  0
DICTIONARYVAR
  5
82DF
102
{ACAD_REACTORS
330
82D7
102
}
330
82D7
100
DictionaryVariables
280
     0
  1
1
  0
DICTIONARYVAR
  5
82E0
102
{ACAD_REACTORS
330
82D7
102
}
330
82D7
100
DictionaryVariables
280
     0
  1
15
  0
DICTIONARYVAR
  5
82DE
102
{ACAD_REACTORS
330
82D7
102
}
330
82D7
100
DictionaryVariables
280
     0
  1
0
  0
DICTIONARYVAR
  5
82DC
102
{ACAD_REACTORS
330
82D7
102
}
330
82D7
100
DictionaryVariables
280
     0
  1
0
  0
DICTIONARYVAR
  5
82F8
102
{ACAD_REACTORS
330
82D7
102
}
330
82D7
100
DictionaryVariables
280
     0
  1
127
  0
DICTIONARYVAR
  5
82FB
102
{ACAD_REACTORS
330
82D7
102
}
330
82D7
100
DictionaryVariables
280
     0
  1
2
  0
DICTIONARY
  5
8307
102
{ACAD_REACTORS
330
8305
102
}
330
8305
100
AcDbDictionary
281
     1
  0
DICTIONARY
  5
8306
102
{ACAD_REACTORS
330
8305
102
}
330
8305
100
AcDbDictionary
281
     1
  3
140688320854784
350
8300
  3
140688320854800
350
8301
  3
140688320854816
350
8302
  3
140688320854832
350
8303
  3
140688320854848
350
8304
  0
DICTIONARY
  5
82D4
330
826E
100
AcDbDictionary
280
     1
281
     1
  3
ACAD_XREC_ROUNDTRIP
360
8344
  0
DICTIONARY
  5
8308
330
81B3
100
AcDbDictionary
280
     1
281
     1
  3
ACAD_XREC_ROUNDTRIP
360
8309
  0
DICTIONARY
  5
830A
330
81B4
100
AcDbDictionary
280
     1
281
     1
  3
ACAD_XREC_ROUNDTRIP
360
830B
  0
DICTIONARY
  5
822C
330
822B
100
AcDbDictionary
280
     1
281
     1
  3
ACAD_XREC_ROUNDTRIP
360
830D
  3
BUMPTILE
360
822E
  3
DIFFUSETILE
360
822D
  3
OPACITYTILE
360
8231
  3
REFLECTIONTILE
360
8230
  3
REFRACTIONTILE
360
8232
  3
SPECULARTILE
360
822F
  0
DICTIONARY
  5
8224
330
8223
100
AcDbDictionary
280
     1
281
     1
  3
ACAD_XREC_ROUNDTRIP
360
830C
  3
BUMPTILE
360
8226
  3
DIFFUSETILE
360
8225
  3
OPACITYTILE
360
8229
  3
REFLECTIONTILE
360
8228
  3
REFRACTIONTILE
360
822A
  3
SPECULARTILE
360
8227
  0
DICTIONARY
  5
8234
330
8233
100
AcDbDictionary
280
     1
281
     1
  3
ACAD_XREC_ROUNDTRIP
360
830E
  3
BUMPTILE
360
8236
  3
DIFFUSETILE
360
8235
  3
OPACITYTILE
360
8239
  3
REFLECTIONTILE
360
8238
  3
REFRACTIONTILE
360
823A
  3
SPECULARTILE
360
8237
  0
DICTIONARY
  5
8341
330
826A
100
AcDbDictionary
280
     1
281
     1
  3
ACAD_XREC_ROUNDTRIP
360
8342
  0
DICTIONARY
  5
82D2
330
826C
100
AcDbDictionary
280
     1
281
     1
  3
ACAD_XREC_ROUNDTRIP
360
8343
  0
DICTIONARY
  5
82FC
330
8256
100
AcDbDictionary
280
     1
281
     1
  3
ACAD_ROUNDTRIP_2008_TABLESTYLE_CELLSTYLEMAP
360
82FD
  3
ACAD_XREC_ROUNDTRIP
360
833F
  0
DICTIONARY
  5
8319
330
8241
100
AcDbDictionary
280
     1
281
     1
  3
ACAD_XREC_ROUNDTRIP
360
831A
  0
DICTIONARY
  5
8317
330
8240
100
AcDbDictionary
280
     1
281
     1
  3
ACAD_XREC_ROUNDTRIP
360
8318
  0
DICTIONARY
  5
8325
330
8247
100
AcDbDictionary
280
     1
281
     1
  3
ACAD_XREC_ROUNDTRIP
360
8326
  0
DICTIONARY
  5
832D
330
824B
100
AcDbDictionary
280
     1
281
     1
  3
ACAD_XREC_ROUNDTRIP
360
832E
  0
DICTIONARY
  5
831F
330
8244
100
AcDbDictionary
280
     1
281
     1
  3
ACAD_XREC_ROUNDTRIP
360
8320
  0
DICTIONARY
  5
8323
330
8246
100
AcDbDictionary
280
     1
281
     1
  3
ACAD_XREC_ROUNDTRIP
360
8324
  0
DICTIONARY
  5
833D
330
8253
100
AcDbDictionary
280
     1
281
     1
  3
ACAD_XREC_ROUNDTRIP
360
833E
  0
DICTIONARY
  5
832B
330
824A
100
AcDbDictionary
280
     1
281
     1
  3
ACAD_XREC_ROUNDTRIP
360
832C
  0
DICTIONARY
  5
830F
330
823C
100
AcDbDictionary
280
     1
281
     1
  3
ACAD_XREC_ROUNDTRIP
360
8310
  0
DICTIONARY
  5
8311
330
823D
100
AcDbDictionary
280
     1
281
     1
  3
ACAD_XREC_ROUNDTRIP
360
8312
  0
DICTIONARY
  5
8313
330
823E
100
AcDbDictionary
280
     1
281
     1
  3
ACAD_XREC_ROUNDTRIP
360
8314
  0
DICTIONARY
  5
8315
330
823F
100
AcDbDictionary
280
     1
281
     1
  3
ACAD_XREC_ROUNDTRIP
360
8316
  0
DICTIONARY
  5
831D
330
8243
100
AcDbDictionary
280
     1
281
     1
  3
ACAD_XREC_ROUNDTRIP
360
831E
  0
DICTIONARY
  5
8339
330
8251
100
AcDbDictionary
280
     1
281
     1
  3
ACAD_XREC_ROUNDTRIP
360
833A
  0
DICTIONARY
  5
8329
330
8249
100
AcDbDictionary
280
     1
281
     1
  3
ACAD_XREC_ROUNDTRIP
360
832A
  0
DICTIONARY
  5
833B
330
8252
100
AcDbDictionary
280
     1
281
     1
  3
ACAD_XREC_ROUNDTRIP
360
833C
  0
DICTIONARY
  5
8321
330
8245
100
AcDbDictionary
280
     1
281
     1
  3
ACAD_XREC_ROUNDTRIP
360
8322
  0
DICTIONARY
  5
8337
330
8250
100
AcDbDictionary
280
     1
281
     1
  3
ACAD_XREC_ROUNDTRIP
360
8338
  0
DICTIONARY
  5
8335
330
824F
100
AcDbDictionary
280
     1
281
     1
  3
ACAD_XREC_ROUNDTRIP
360
8336
  0
DICTIONARY
  5
832F
330
824C
100
AcDbDictionary
280
     1
281
     1
  3
ACAD_XREC_ROUNDTRIP
360
8330
  0
DICTIONARY
  5
8331
330
824D
100
AcDbDictionary
280
     1
281
     1
  3
ACAD_XREC_ROUNDTRIP
360
8332
  0
DICTIONARY
  5
8327
330
8248
100
AcDbDictionary
280
     1
281
     1
  3
ACAD_XREC_ROUNDTRIP
360
8328
  0
DICTIONARY
  5
831B
330
8242
100
AcDbDictionary
280
     1
281
     1
  3
ACAD_XREC_ROUNDTRIP
360
831C
  0
DICTIONARY
  5
8333
330
824E
100
AcDbDictionary
280
     1
281
     1
  3
ACAD_XREC_ROUNDTRIP
360
8334
  0
XRECORD
  5
8300
102
{ACAD_REACTORS
330
8306
102
}
330
8306
100
AcDbXrecord
280
     1
  1
AcDb_Thumbnail_Schema
102
{ATTRRECORD
341
8301
  2
AcDbDs::TreatedAsObjectData
280
     1
291
     1
102
ATTRRECORD}
102
{ATTRRECORD
341
8302
  2
AcDbDs::Legacy
280
     1
291
     1
102
ATTRRECORD}
  2
AcDbDs::ID
280
    10
 91
        8
102
{ATTRRECORD
341
8303
  2
AcDs:Indexable
280
     1
291
     1
102
ATTRRECORD}
102
{ATTRRECORD
341
8304
  2
AcDbDs::HandleAttribute
280
     7
282
     1
102
ATTRRECORD}
  2
Thumbnail_Data
280
    15
 91
        0
  0
XRECORD
  5
8301
102
{ACAD_REACTORS
330
8306
102
}
330
8306
100
AcDbXrecord
280
     1
  1
AcDbDs::TreatedAsObjectDataSchema
  2
AcDbDs::TreatedAsObjectData
280
     1
 91
        0
  0
XRECORD
  5
8302
102
{ACAD_REACTORS
330
8306
102
}
330
8306
100
AcDbXrecord
280
     1
  1
AcDbDs::LegacySchema
  2
AcDbDs::Legacy
280
     1
 91
        0
  0
XRECORD
  5
8303
102
{ACAD_REACTORS
330
8306
102
}
330
8306
100
AcDbXrecord
280
     1
  1
AcDbDs::IndexedPropertySchema
  2
AcDs:Indexable
280
     1
 91
        0
  0
XRECORD
  5
8304
102
{ACAD_REACTORS
330
8306
102
}
330
8306
100
AcDbXrecord
280
     1
  1
AcDbDs::HandleAttributeSchema
  2
AcDbDs::HandleAttribute
280
     7
 91
        1
284
     1
  0
XRECORD
  5
8344
102
{ACAD_REACTORS
330
82D4
102
}
330
82D4
100
AcDbXrecord
280
     1
102
DISPLAYNAME
  1
Metric50
102
FLAGS
 90
        0
  0
XRECORD
  5
8309
102
{ACAD_REACTORS
330
8308
102
}
330
8308
100
AcDbXrecord
280
     1
102
SHADEPLOT
 70
     0
102
SHADEPLOTRESLEVEL
 70
     2
102
SHADEPLOTCUSTOMDPI
 70
   300
  0
XRECORD
  5
830B
102
{ACAD_REACTORS
330
830A
102
}
330
830A
100
AcDbXrecord
280
     1
102
SHADEPLOT
 70
     0
102
SHADEPLOTRESLEVEL
 70
     2
102
SHADEPLOTCUSTOMDPI
 70
   300
  0
XRECORD
  5
830D
102
{ACAD_REACTORS
330
822C
102
}
330
822C
100
AcDbXrecord
280
     1
102
MATERIAL
148
0.0
149
0.0
149
0.0
 93
        0
 94
      127
282
     0
 72
     0
 77
     0
171
     0
175
     0
179
     0
273
     0
  0
XRECORD
  5
822E
102
{ACAD_REACTORS
330
822C
102
}
330
822C
100
AcDbXrecord
280
     1
270
     1
271
     1
  0
XRECORD
  5
822D
102
{ACAD_REACTORS
330
822C
102
}
330
822C
100
AcDbXrecord
280
     1
270
     1
271
     1
  0
XRECORD
  5
8231
102
{ACAD_REACTORS
330
822C
102
}
330
822C
100
AcDbXrecord
280
     1
270
     1
271
     1
  0
XRECORD
  5
8230
102
{ACAD_REACTORS
330
822C
102
}
330
822C
100
AcDbXrecord
280
     1
270
     1
271
     1
  0
XRECORD
  5
8232
102
{ACAD_REACTORS
330
822C
102
}
330
822C
100
AcDbXrecord
280
     1
270
     1
271
     1
  0
XRECORD
  5
822F
102
{ACAD_REACTORS
330
822C
102
}
330
822C
100
AcDbXrecord
280
     1
270
     1
271
     1
  0
XRECORD
  5
830C
102
{ACAD_REACTORS
330
8224
102
}
330
8224
100
AcDbXrecord
280
     1
102
MATERIAL
148
0.0
149
0.0
149
0.0
 93
        0
 94
      127
282
     0
 72
     0
 77
     0
171
     0
175
     0
179
     0
273
     0
  0
XRECORD
  5
8226
102
{ACAD_REACTORS
330
8224
102
}
330
8224
100
AcDbXrecord
280
     1
270
     1
271
     1
  0
XRECORD
  5
8225
102
{ACAD_REACTORS
330
8224
102
}
330
8224
100
AcDbXrecord
280
     1
270
     1
271
     1
  0
XRECORD
  5
8229
102
{ACAD_REACTORS
330
8224
102
}
330
8224
100
AcDbXrecord
280
     1
270
     1
271
     1
  0
XRECORD
  5
8228
102
{ACAD_REACTORS
330
8224
102
}
330
8224
100
AcDbXrecord
280
     1
270
     1
271
     1
  0
XRECORD
  5
822A
102
{ACAD_REACTORS
330
8224
102
}
330
8224
100
AcDbXrecord
280
     1
270
     1
271
     1
  0
XRECORD
  5
8227
102
{ACAD_REACTORS
330
8224
102
}
330
8224
100
AcDbXrecord
280
     1
270
     1
271
     1
  0
XRECORD
  5
830E
102
{ACAD_REACTORS
330
8234
102
}
330
8234
100
AcDbXrecord
280
     1
102
MATERIAL
148
0.0
149
0.0
149
0.0
 93
        0
 94
      127
282
     0
 72
     0
 77
     0
171
     0
175
     0
179
     0
273
     0
  0
XRECORD
  5
8236
102
{ACAD_REACTORS
330
8234
102
}
330
8234
100
AcDbXrecord
280
     1
270
     1
271
     1
  0
XRECORD
  5
8235
102
{ACAD_REACTORS
330
8234
102
}
330
8234
100
AcDbXrecord
280
     1
270
     1
271
     1
  0
XRECORD
  5
8239
102
{ACAD_REACTORS
330
8234
102
}
330
8234
100
AcDbXrecord
280
     1
270
     1
271
     1
  0
XRECORD
  5
8238
102
{ACAD_REACTORS
330
8234
102
}
330
8234
100
AcDbXrecord
280
     1
270
     1
271
     1
  0
XRECORD
  5
823A
102
{ACAD_REACTORS
330
8234
102
}
330
8234
100
AcDbXrecord
280
     1
270
     1
271
     1
  0
XRECORD
  5
8237
102
{ACAD_REACTORS
330
8234
102
}
330
8234
100
AcDbXrecord
280
     1
270
     1
271
     1
  0
XRECORD
  5
8342
102
{ACAD_REACTORS
330
8341
102
}
330
8341
100
AcDbXrecord
280
     1
102
ACAD_ROUNDTRIP_2012_MLEADER_STYLE
298
     1
  0
XRECORD
  5
8343
102
{ACAD_REACTORS
330
82D2
102
}
330
82D2
100
AcDbXrecord
280
     1
102
DISPLAYNAME
  1
Metric50
102
FLAGS
 90
        0
  0
CELLSTYLEMAP
  5
82FD
102
{ACAD_REACTORS
330
82FC
102
}
330
82FC
100
AcDbCellStyleMap
 90
        3
300
CELLSTYLE
  1
TABLEFORMAT_BEGIN
 90
        5
170
     1
 91
        0
 92
    32768
 62
   257
 93
        1
300
CONTENTFORMAT
  1
CONTENTFORMAT_BEGIN
 90
        0
 91
        0
 92
      512
 93
        0
300

 40
0.0
140
1.0
 94
        5
 62
     0
340
10
144
6.0
309
CONTENTFORMAT_END
171
     1
301
MARGIN
  1
CELLMARGIN_BEGIN
 40
1.5
 40
1.5
 40
1.5
 40
1.5
 40
4.5
 40
4.5
309
CELLMARGIN_END
 94
        6
 95
        1
302
GRIDFORMAT
  1
GRIDFORMAT_BEGIN
 90
        0
 91
        1
 62
     0
 92
       -2
340
0
 93
        0
 40
1.125
309
GRIDFORMAT_END
 95
        2
302
GRIDFORMAT
  1
GRIDFORMAT_BEGIN
 90
        0
 91
        1
 62
     0
 92
       -2
340
0
 93
        0
 40
1.125
309
GRIDFORMAT_END
 95
        4
302
GRIDFORMAT
  1
GRIDFORMAT_BEGIN
 90
        0
 91
        1
 62
     0
 92
       -2
340
0
 93
        0
 40
1.125
309
GRIDFORMAT_END
 95
        8
302
GRIDFORMAT
  1
GRIDFORMAT_BEGIN
 90
        0
 91
        1
 62
     0
 92
       -2
340
0
 93
        0
 40
1.125
309
GRIDFORMAT_END
 95
       16
302
GRIDFORMAT
  1
GRIDFORMAT_BEGIN
 90
        0
 91
        1
 62
     0
 92
       -2
340
0
 93
        0
 40
1.125
309
GRIDFORMAT_END
 95
       32
302
GRIDFORMAT
  1
GRIDFORMAT_BEGIN
 90
        0
 91
        1
 62
     0
 92
       -2
340
0
 93
        0
 40
1.125
309
GRIDFORMAT_END
309
TABLEFORMAT_END
  1
CELLSTYLE_BEGIN
 90
        1
 91
        1
300
_TITLE
309
CELLSTYLE_END
300
CELLSTYLE
  1
TABLEFORMAT_BEGIN
 90
        5
170
     1
 91
        0
 92
        0
 62
   257
 93
        1
300
CONTENTFORMAT
  1
CONTENTFORMAT_BEGIN
 90
        0
 91
        0
 92
      512
 93
        0
300

 40
0.0
140
1.0
 94
        5
 62
     0
340
10
144
4.5
309
CONTENTFORMAT_END
171
     1
301
MARGIN
  1
CELLMARGIN_BEGIN
 40
1.5
 40
1.5
 40
1.5
 40
1.5
 40
4.5
 40
4.5
309
CELLMARGIN_END
 94
        6
 95
        1
302
GRIDFORMAT
  1
GRIDFORMAT_BEGIN
 90
        0
 91
        1
 62
     0
 92
       -2
340
0
 93
        0
 40
1.125
309
GRIDFORMAT_END
 95
        2
302
GRIDFORMAT
  1
GRIDFORMAT_BEGIN
 90
        0
 91
        1
 62
     0
 92
       -2
340
0
 93
        0
 40
1.125
309
GRIDFORMAT_END
 95
        4
302
GRIDFORMAT
  1
GRIDFORMAT_BEGIN
 90
        0
 91
        1
 62
     0
 92
       -2
340
0
 93
        0
 40
1.125
309
GRIDFORMAT_END
 95
        8
302
GRIDFORMAT
  1
GRIDFORMAT_BEGIN
 90
        0
 91
        1
 62
     0
 92
       -2
340
0
 93
        0
 40
1.125
309
GRIDFORMAT_END
 95
       16
302
GRIDFORMAT
  1
GRIDFORMAT_BEGIN
 90
        0
 91
        1
 62
     0
 92
       -2
340
0
 93
        0
 40
1.125
309
GRIDFORMAT_END
 95
       32
302
GRIDFORMAT
  1
GRIDFORMAT_BEGIN
 90
        0
 91
        1
 62
     0
 92
       -2
340
0
 93
        0
 40
1.125
309
GRIDFORMAT_END
309
TABLEFORMAT_END
  1
CELLSTYLE_BEGIN
 90
        2
 91
        1
300
_HEADER
309
CELLSTYLE_END
300
CELLSTYLE
  1
TABLEFORMAT_BEGIN
 90
        5
170
     1
 91
        0
 92
        0
 62
   257
 93
        1
300
CONTENTFORMAT
  1
CONTENTFORMAT_BEGIN
 90
        0
 91
        0
 92
      512
 93
        0
300

 40
0.0
140
1.0
 94
        2
 62
     0
340
10
144
4.5
309
CONTENTFORMAT_END
171
     1
301
MARGIN
  1
CELLMARGIN_BEGIN
 40
1.5
 40
1.5
 40
1.5
 40
1.5
 40
4.5
 40
4.5
309
CELLMARGIN_END
 94
        6
 95
        1
302
GRIDFORMAT
  1
GRIDFORMAT_BEGIN
 90
        0
 91
        1
 62
     0
 92
       -2
340
0
 93
        0
 40
1.125
309
GRIDFORMAT_END
 95
        2
302
GRIDFORMAT
  1
GRIDFORMAT_BEGIN
 90
        0
 91
        1
 62
     0
 92
       -2
340
0
 93
        0
 40
1.125
309
GRIDFORMAT_END
 95
        4
302
GRIDFORMAT
  1
GRIDFORMAT_BEGIN
 90
        0
 91
        1
 62
     0
 92
       -2
340
0
 93
        0
 40
1.125
309
GRIDFORMAT_END
 95
        8
302
GRIDFORMAT
  1
GRIDFORMAT_BEGIN
 90
        0
 91
        1
 62
     0
 92
       -2
340
0
 93
        0
 40
1.125
309
GRIDFORMAT_END
 95
       16
302
GRIDFORMAT
  1
GRIDFORMAT_BEGIN
 90
        0
 91
        1
 62
     0
 92
       -2
340
0
 93
        0
 40
1.125
309
GRIDFORMAT_END
 95
       32
302
GRIDFORMAT
  1
GRIDFORMAT_BEGIN
 90
        0
 91
        1
 62
     0
 92
       -2
340
0
 93
        0
 40
1.125
309
GRIDFORMAT_END
309
TABLEFORMAT_END
  1
CELLSTYLE_BEGIN
 90
        3
 91
        2
300
_DATA
309
CELLSTYLE_END
  0
XRECORD
  5
833F
102
{ACAD_REACTORS
330
82FC
102
}
330
82FC
100
AcDbXrecord
280
     1
102
ACAD_ROUNDTRIP_PRE2007_TABLESTYLE
 90
      512
 91
        0
  1

 92
      512
 93
        0
  2

 94
      512
 95
        0
  3

  0
XRECORD
  5
831A
102
{ACAD_REACTORS
330
8319
102
}
330
8319
100
AcDbXrecord
280
     1
102
RTVSPost2010Prop28
280
     1
102
RTVSPost2010PropOp28
 70
     1
102
RTVSPost2010Prop29
280
     1
102
RTVSPost2010PropOp29
 70
     1
102
RTVSPost2010Prop30
280
     0
102
RTVSPost2010PropOp30
 70
     1
102
RTVSPost2010Prop31
280
     0
102
RTVSPost2010PropOp31
 70
     1
102
RTVSPost2010Prop32
280
     0
102
RTVSPost2010PropOp32
 70
     1
102
RTVSPost2010Prop33
280
     0
102
RTVSPost2010PropOp33
 70
     1
102
RTVSPost2010Prop34
280
     0
102
RTVSPost2010PropOp34
 70
     1
102
RTVSPost2010Prop35
280
     0
102
RTVSPost2010PropOp35
 70
     1
102
RTVSPost2010Prop36
280
     0
102
RTVSPost2010PropOp36
 70
     1
102
RTVSPost2010Prop37
 90
       50
102
RTVSPost2010PropOp37
 70
     1
102
RTVSPost2010Prop38
140
0.0
102
RTVSPost2010PropOp38
 70
     1
102
RTVSPost2010Prop39
140
1.0
102
RTVSPost2010PropOp39
 70
     1
102
RTVSPost2010Prop40
 90
        0
102
RTVSPost2010PropOp40
 70
     1
102
RTVSPost2010Prop41ColorIndex
 90
       18
102
RTVSPost2010Prop41ColorRGB
 90
        0
102
RTVSPost2010PropOp41
 70
     1
102
RTVSPost2010Prop42
 90
       50
102
RTVSPost2010PropOp42
 70
     1
102
RTVSPost2010Prop43
 90
        3
102
RTVSPost2010PropOp43
 70
     1
102
RTVSPost2010Prop44ColorIndex
 90
        5
102
RTVSPost2010Prop44ColorRGB
 90
      255
102
RTVSPost2010PropOp44
 70
     1
102
RTVSPost2010Prop45
280
     0
102
RTVSPost2010PropOp45
 70
     1
102
RTVSPost2010Prop46
 90
       50
102
RTVSPost2010PropOp46
 70
     1
102
RTVSPost2010Prop47
 90
       50
102
RTVSPost2010PropOp47
 70
     1
102
RTVSPost2010Prop48
 90
       50
102
RTVSPost2010PropOp48
 70
     1
102
RTVSPost2010Prop49
280
     0
102
RTVSPost2010PropOp49
 70
     1
102
RTVSPost2010Prop50
 90
       50
102
RTVSPost2010PropOp50
 70
     1
102
RTVSPost2010Prop51ColorIndex
 90
      256
102
RTVSPost2010Prop51ColorRGB
 90
-16777216
102
RTVSPost2010PropOp51
 70
     0
102
RTVSPost2010Prop52
140
1.0
102
RTVSPost2010PropOp52
 70
     0
102
RTVSPost2010Prop53
 90
        2
102
RTVSPost2010PropOp53
 70
     1
102
RTVSPost2010Prop54
  1
strokes_ogs.tif
102
RTVSPost2010PropOp54
 70
     1
102
RTVSPost2010Prop55
280
     0
102
RTVSPost2010PropOp55
 70
     1
102
RTVSPost2010Prop56
140
1.0
102
RTVSPost2010PropOp56
 70
     1
102
RTVSPost2010Prop57
140
1.0
102
RTVSPost2010PropOp57
 70
     1
102
RTVSPropertyOp0
 70
     1
102
RTVSPropertyOp1
 70
     1
102
RTVSPropertyOp2
 70
     1
102
RTVSPropertyOp3
 70
     1
102
RTVSPropertyOp4
 70
     1
102
RTVSPropertyOp5
 70
     1
102
RTVSPropertyOp6
 70
     1
102
RTVSPropertyOp7
 70
     1
102
RTVSPropertyOp8
 70
     1
102
RTVSPropertyOp9
 70
     1
102
RTVSPropertyOp10
 70
     1
102
RTVSPropertyOp11
 70
     1
102
RTVSPropertyOp12
 70
     1
102
RTVSPropertyOp13
 70
     1
102
RTVSPropertyOp14
 70
     1
102
RTVSPropertyOp15
 70
     1
102
RTVSPropertyOp16
 70
     1
102
RTVSPropertyOp17
 70
     1
102
RTVSPropertyOp18
 70
     1
102
RTVSPropertyOp19
 70
     1
102
RTVSPropertyOp20
 70
     1
102
RTVSPropertyOp21
 70
     1
102
RTVSPropertyOp22
 70
     1
102
RTVSPropertyOp23
 70
     1
102
RTVSPropertyOp24
 70
     1
102
RTVSPropertyOp25
 70
     1
102
RTVSPropertyOp26
 70
     1
102
RTVSPropertyOp27
 70
     1
102
RTVSPropertyOp28
 70
     1
102
RTVSPropertyOp29
 70
     1
102
RTVSPropertyOp30
 70
     1
102
RTVSPropertyOp31
 70
     1
102
RTVSPropertyOp32
 70
     1
102
RTVSPropertyOp33
 70
     1
102
RTVSPropertyOp34
 70
     1
102
RTVSPropertyOp35
 70
     1
102
RTVSPropertyOp36
 70
     1
102
RTVSPropertyOp37
 70
     1
102
RTVSPropertyOp38
 70
     1
102
RTVSPropertyOp39
 70
     1
102
RTVSPropertyOp40
 70
     1
102
RTVSPropertyOp41
 70
     1
102
RTVSPropertyOp42
 70
     1
102
RTVSPropertyOp43
 70
     1
102
RTVSPropertyOp44
 70
     1
102
RTVSPropertyOp45
 70
     1
102
RTVSPropertyOp46
 70
     1
102
RTVSPropertyOp47
 70
     1
102
RTVSPropertyOp48
 70
     1
102
RTVSPropertyOp49
 70
     1
102
RTVSPropertyOp50
 70
     1
102
RTVSPropertyOp51
 70
     0
102
RTVSPropertyOp52
 70
     0
102
RTVSPropertyOp53
 70
     1
102
RTVSPropertyOp54
 70
     1
102
RTVSPropertyOp55
 70
     1
102
RTVSPropertyOp56
 70
     1
102
RTVSPropertyOp57
 70
     1
102
RTVSPropertyOp58
 70
     1
102
RTVSPropertyOp59
 70
     1
102
RTVSPropertyOp60
 70
     1
102
RTVSPropertyOp61
 70
     1
102
RTVSPropertyOp62
 70
     1
  0
XRECORD
  5
8318
102
{ACAD_REACTORS
330
8317
102
}
330
8317
100
AcDbXrecord
280
     1
102
RTVSPost2010Prop28
280
     0
102
RTVSPost2010PropOp28
 70
     1
102
RTVSPost2010Prop29
280
     1
102
RTVSPost2010PropOp29
 70
     1
102
RTVSPost2010Prop30
280
     1
102
RTVSPost2010PropOp30
 70
     1
102
RTVSPost2010Prop31
280
     0
102
RTVSPost2010PropOp31
 70
     1
102
RTVSPost2010Prop32
280
     0
102
RTVSPost2010PropOp32
 70
     1
102
RTVSPost2010Prop33
280
     0
102
RTVSPost2010PropOp33
 70
     1
102
RTVSPost2010Prop34
280
     0
102
RTVSPost2010PropOp34
 70
     1
102
RTVSPost2010Prop35
280
     0
102
RTVSPost2010PropOp35
 70
     1
102
RTVSPost2010Prop36
280
     0
102
RTVSPost2010PropOp36
 70
     1
102
RTVSPost2010Prop37
 90
       50
102
RTVSPost2010PropOp37
 70
     1
102
RTVSPost2010Prop38
140
0.0
102
RTVSPost2010PropOp38
 70
     1
102
RTVSPost2010Prop39
140
1.0
102
RTVSPost2010PropOp39
 70
     1
102
RTVSPost2010Prop40
 90
        0
102
RTVSPost2010PropOp40
 70
     1
102
RTVSPost2010Prop41ColorIndex
 90
       18
102
RTVSPost2010Prop41ColorRGB
 90
        0
102
RTVSPost2010PropOp41
 70
     1
102
RTVSPost2010Prop42
 90
       50
102
RTVSPost2010PropOp42
 70
     1
102
RTVSPost2010Prop43
 90
        3
102
RTVSPost2010PropOp43
 70
     1
102
RTVSPost2010Prop44ColorIndex
 90
        5
102
RTVSPost2010Prop44ColorRGB
 90
      255
102
RTVSPost2010PropOp44
 70
     1
102
RTVSPost2010Prop45
280
     0
102
RTVSPost2010PropOp45
 70
     1
102
RTVSPost2010Prop46
 90
       50
102
RTVSPost2010PropOp46
 70
     1
102
RTVSPost2010Prop47
 90
       50
102
RTVSPost2010PropOp47
 70
     1
102
RTVSPost2010Prop48
 90
       50
102
RTVSPost2010PropOp48
 70
     1
102
RTVSPost2010Prop49
280
     0
102
RTVSPost2010PropOp49
 70
     1
102
RTVSPost2010Prop50
 90
       50
102
RTVSPost2010PropOp50
 70
     1
102
RTVSPost2010Prop51ColorIndex
 90
      256
102
RTVSPost2010Prop51ColorRGB
 90
-16777216
102
RTVSPost2010PropOp51
 70
     0
102
RTVSPost2010Prop52
140
1.0
102
RTVSPost2010PropOp52
 70
     0
102
RTVSPost2010Prop53
 90
        2
102
RTVSPost2010PropOp53
 70
     1
102
RTVSPost2010Prop54
  1
strokes_ogs.tif
102
RTVSPost2010PropOp54
 70
     1
102
RTVSPost2010Prop55
280
     0
102
RTVSPost2010PropOp55
 70
     1
102
RTVSPost2010Prop56
140
1.0
102
RTVSPost2010PropOp56
 70
     1
102
RTVSPost2010Prop57
140
1.0
102
RTVSPost2010PropOp57
 70
     1
102
RTVSPropertyOp0
 70
     1
102
RTVSPropertyOp1
 70
     1
102
RTVSPropertyOp2
 70
     1
102
RTVSPropertyOp3
 70
     1
102
RTVSPropertyOp4
 70
     1
102
RTVSPropertyOp5
 70
     1
102
RTVSPropertyOp6
 70
     1
102
RTVSPropertyOp7
 70
     1
102
RTVSPropertyOp8
 70
     1
102
RTVSPropertyOp9
 70
     1
102
RTVSPropertyOp10
 70
     1
102
RTVSPropertyOp11
 70
     1
102
RTVSPropertyOp12
 70
     1
102
RTVSPropertyOp13
 70
     1
102
RTVSPropertyOp14
 70
     1
102
RTVSPropertyOp15
 70
     1
102
RTVSPropertyOp16
 70
     1
102
RTVSPropertyOp17
 70
     1
102
RTVSPropertyOp18
 70
     1
102
RTVSPropertyOp19
 70
     1
102
RTVSPropertyOp20
 70
     1
102
RTVSPropertyOp21
 70
     1
102
RTVSPropertyOp22
 70
     1
102
RTVSPropertyOp23
 70
     1
102
RTVSPropertyOp24
 70
     1
102
RTVSPropertyOp25
 70
     1
102
RTVSPropertyOp26
 70
     1
102
RTVSPropertyOp27
 70
     1
102
RTVSPropertyOp28
 70
     1
102
RTVSPropertyOp29
 70
     1
102
RTVSPropertyOp30
 70
     1
102
RTVSPropertyOp31
 70
     1
102
RTVSPropertyOp32
 70
     1
102
RTVSPropertyOp33
 70
     1
102
RTVSPropertyOp34
 70
     1
102
RTVSPropertyOp35
 70
     1
102
RTVSPropertyOp36
 70
     1
102
RTVSPropertyOp37
 70
     1
102
RTVSPropertyOp38
 70
     1
102
RTVSPropertyOp39
 70
     1
102
RTVSPropertyOp40
 70
     1
102
RTVSPropertyOp41
 70
     1
102
RTVSPropertyOp42
 70
     1
102
RTVSPropertyOp43
 70
     1
102
RTVSPropertyOp44
 70
     1
102
RTVSPropertyOp45
 70
     1
102
RTVSPropertyOp46
 70
     1
102
RTVSPropertyOp47
 70
     1
102
RTVSPropertyOp48
 70
     1
102
RTVSPropertyOp49
 70
     1
102
RTVSPropertyOp50
 70
     1
102
RTVSPropertyOp51
 70
     0
102
RTVSPropertyOp52
 70
     0
102
RTVSPropertyOp53
 70
     1
102
RTVSPropertyOp54
 70
     1
102
RTVSPropertyOp55
 70
     1
102
RTVSPropertyOp56
 70
     1
102
RTVSPropertyOp57
 70
     1
102
RTVSPropertyOp58
 70
     1
102
RTVSPropertyOp59
 70
     1
102
RTVSPropertyOp60
 70
     1
102
RTVSPropertyOp61
 70
     1
102
RTVSPropertyOp62
 70
     1
  0
XRECORD
  5
8326
102
{ACAD_REACTORS
330
8325
102
}
330
8325
100
AcDbXrecord
280
     1
102
RTVSPost2010Prop28
280
     0
102
RTVSPost2010PropOp28
 70
     1
102
RTVSPost2010Prop29
280
     1
102
RTVSPost2010PropOp29
 70
     1
102
RTVSPost2010Prop30
280
     1
102
RTVSPost2010PropOp30
 70
     1
102
RTVSPost2010Prop31
280
     0
102
RTVSPost2010PropOp31
 70
     1
102
RTVSPost2010Prop32
280
     0
102
RTVSPost2010PropOp32
 70
     1
102
RTVSPost2010Prop33
280
     0
102
RTVSPost2010PropOp33
 70
     1
102
RTVSPost2010Prop34
280
     0
102
RTVSPost2010PropOp34
 70
     1
102
RTVSPost2010Prop35
280
     0
102
RTVSPost2010PropOp35
 70
     1
102
RTVSPost2010Prop36
280
     0
102
RTVSPost2010PropOp36
 70
     1
102
RTVSPost2010Prop37
 90
       50
102
RTVSPost2010PropOp37
 70
     1
102
RTVSPost2010Prop38
140
0.0
102
RTVSPost2010PropOp38
 70
     1
102
RTVSPost2010Prop39
140
1.0
102
RTVSPost2010PropOp39
 70
     1
102
RTVSPost2010Prop40
 90
        0
102
RTVSPost2010PropOp40
 70
     1
102
RTVSPost2010Prop41ColorIndex
 90
       18
102
RTVSPost2010Prop41ColorRGB
 90
        0
102
RTVSPost2010PropOp41
 70
     1
102
RTVSPost2010Prop42
 90
       50
102
RTVSPost2010PropOp42
 70
     1
102
RTVSPost2010Prop43
 90
        3
102
RTVSPost2010PropOp43
 70
     1
102
RTVSPost2010Prop44ColorIndex
 90
        5
102
RTVSPost2010Prop44ColorRGB
 90
      255
102
RTVSPost2010PropOp44
 70
     1
102
RTVSPost2010Prop45
280
     0
102
RTVSPost2010PropOp45
 70
     1
102
RTVSPost2010Prop46
 90
       50
102
RTVSPost2010PropOp46
 70
     1
102
RTVSPost2010Prop47
 90
       50
102
RTVSPost2010PropOp47
 70
     1
102
RTVSPost2010Prop48
 90
       50
102
RTVSPost2010PropOp48
 70
     1
102
RTVSPost2010Prop49
280
     0
102
RTVSPost2010PropOp49
 70
     1
102
RTVSPost2010Prop50
 90
       50
102
RTVSPost2010PropOp50
 70
     1
102
RTVSPost2010Prop51ColorIndex
 90
      256
102
RTVSPost2010Prop51ColorRGB
 90
-16777216
102
RTVSPost2010PropOp51
 70
     0
102
RTVSPost2010Prop52
140
1.0
102
RTVSPost2010PropOp52
 70
     0
102
RTVSPost2010Prop53
 90
        2
102
RTVSPost2010PropOp53
 70
     1
102
RTVSPost2010Prop54
  1
strokes_ogs.tif
102
RTVSPost2010PropOp54
 70
     1
102
RTVSPost2010Prop55
280
     0
102
RTVSPost2010PropOp55
 70
     1
102
RTVSPost2010Prop56
140
1.0
102
RTVSPost2010PropOp56
 70
     1
102
RTVSPost2010Prop57
140
1.0
102
RTVSPost2010PropOp57
 70
     1
102
RTVSPropertyOp0
 70
     1
102
RTVSPropertyOp1
 70
     1
102
RTVSPropertyOp2
 70
     1
102
RTVSPropertyOp3
 70
     1
102
RTVSPropertyOp4
 70
     1
102
RTVSPropertyOp5
 70
     1
102
RTVSPropertyOp6
 70
     1
102
RTVSPropertyOp7
 70
     1
102
RTVSPropertyOp8
 70
     1
102
RTVSPropertyOp9
 70
     1
102
RTVSPropertyOp10
 70
     1
102
RTVSPropertyOp11
 70
     1
102
RTVSPropertyOp12
 70
     1
102
RTVSPropertyOp13
 70
     1
102
RTVSPropertyOp14
 70
     1
102
RTVSPropertyOp15
 70
     1
102
RTVSPropertyOp16
 70
     1
102
RTVSPropertyOp17
 70
     1
102
RTVSPropertyOp18
 70
     1
102
RTVSPropertyOp19
 70
     1
102
RTVSPropertyOp20
 70
     1
102
RTVSPropertyOp21
 70
     1
102
RTVSPropertyOp22
 70
     1
102
RTVSPropertyOp23
 70
     1
102
RTVSPropertyOp24
 70
     1
102
RTVSPropertyOp25
 70
     1
102
RTVSPropertyOp26
 70
     1
102
RTVSPropertyOp27
 70
     1
102
RTVSPropertyOp28
 70
     1
102
RTVSPropertyOp29
 70
     1
102
RTVSPropertyOp30
 70
     1
102
RTVSPropertyOp31
 70
     1
102
RTVSPropertyOp32
 70
     1
102
RTVSPropertyOp33
 70
     1
102
RTVSPropertyOp34
 70
     1
102
RTVSPropertyOp35
 70
     1
102
RTVSPropertyOp36
 70
     1
102
RTVSPropertyOp37
 70
     1
102
RTVSPropertyOp38
 70
     1
102
RTVSPropertyOp39
 70
     1
102
RTVSPropertyOp40
 70
     1
102
RTVSPropertyOp41
 70
     1
102
RTVSPropertyOp42
 70
     1
102
RTVSPropertyOp43
 70
     1
102
RTVSPropertyOp44
 70
     1
102
RTVSPropertyOp45
 70
     1
102
RTVSPropertyOp46
 70
     1
102
RTVSPropertyOp47
 70
     1
102
RTVSPropertyOp48
 70
     1
102
RTVSPropertyOp49
 70
     1
102
RTVSPropertyOp50
 70
     1
102
RTVSPropertyOp51
 70
     0
102
RTVSPropertyOp52
 70
     0
102
RTVSPropertyOp53
 70
     1
102
RTVSPropertyOp54
 70
     1
102
RTVSPropertyOp55
 70
     1
102
RTVSPropertyOp56
 70
     1
102
RTVSPropertyOp57
 70
     1
102
RTVSPropertyOp58
 70
     1
102
RTVSPropertyOp59
 70
     1
102
RTVSPropertyOp60
 70
     1
102
RTVSPropertyOp61
 70
     1
102
RTVSPropertyOp62
 70
     1
  0
XRECORD
  5
832E
102
{ACAD_REACTORS
330
832D
102
}
330
832D
100
AcDbXrecord
280
     1
102
RTVSPost2010Prop28
280
     0
102
RTVSPost2010PropOp28
 70
     1
102
RTVSPost2010Prop29
280
     1
102
RTVSPost2010PropOp29
 70
     1
102
RTVSPost2010Prop30
280
     1
102
RTVSPost2010PropOp30
 70
     1
102
RTVSPost2010Prop31
280
     0
102
RTVSPost2010PropOp31
 70
     1
102
RTVSPost2010Prop32
280
     0
102
RTVSPost2010PropOp32
 70
     1
102
RTVSPost2010Prop33
280
     0
102
RTVSPost2010PropOp33
 70
     1
102
RTVSPost2010Prop34
280
     0
102
RTVSPost2010PropOp34
 70
     1
102
RTVSPost2010Prop35
280
     0
102
RTVSPost2010PropOp35
 70
     1
102
RTVSPost2010Prop36
280
     0
102
RTVSPost2010PropOp36
 70
     1
102
RTVSPost2010Prop37
 90
       50
102
RTVSPost2010PropOp37
 70
     1
102
RTVSPost2010Prop38
140
0.0
102
RTVSPost2010PropOp38
 70
     1
102
RTVSPost2010Prop39
140
1.0
102
RTVSPost2010PropOp39
 70
     1
102
RTVSPost2010Prop40
 90
        0
102
RTVSPost2010PropOp40
 70
     1
102
RTVSPost2010Prop41ColorIndex
 90
       18
102
RTVSPost2010Prop41ColorRGB
 90
        0
102
RTVSPost2010PropOp41
 70
     1
102
RTVSPost2010Prop42
 90
       50
102
RTVSPost2010PropOp42
 70
     1
102
RTVSPost2010Prop43
 90
        3
102
RTVSPost2010PropOp43
 70
     1
102
RTVSPost2010Prop44ColorIndex
 90
        5
102
RTVSPost2010Prop44ColorRGB
 90
      255
102
RTVSPost2010PropOp44
 70
     1
102
RTVSPost2010Prop45
280
     0
102
RTVSPost2010PropOp45
 70
     1
102
RTVSPost2010Prop46
 90
       50
102
RTVSPost2010PropOp46
 70
     1
102
RTVSPost2010Prop47
 90
       50
102
RTVSPost2010PropOp47
 70
     1
102
RTVSPost2010Prop48
 90
       50
102
RTVSPost2010PropOp48
 70
     1
102
RTVSPost2010Prop49
280
     0
102
RTVSPost2010PropOp49
 70
     1
102
RTVSPost2010Prop50
 90
       50
102
RTVSPost2010PropOp50
 70
     1
102
RTVSPost2010Prop51ColorIndex
 90
      256
102
RTVSPost2010Prop51ColorRGB
 90
-16777216
102
RTVSPost2010PropOp51
 70
     0
102
RTVSPost2010Prop52
140
1.0
102
RTVSPost2010PropOp52
 70
     0
102
RTVSPost2010Prop53
 90
        2
102
RTVSPost2010PropOp53
 70
     1
102
RTVSPost2010Prop54
  1
strokes_ogs.tif
102
RTVSPost2010PropOp54
 70
     1
102
RTVSPost2010Prop55
280
     0
102
RTVSPost2010PropOp55
 70
     1
102
RTVSPost2010Prop56
140
1.0
102
RTVSPost2010PropOp56
 70
     1
102
RTVSPost2010Prop57
140
1.0
102
RTVSPost2010PropOp57
 70
     1
102
RTVSPropertyOp0
 70
     1
102
RTVSPropertyOp1
 70
     1
102
RTVSPropertyOp2
 70
     1
102
RTVSPropertyOp3
 70
     1
102
RTVSPropertyOp4
 70
     1
102
RTVSPropertyOp5
 70
     1
102
RTVSPropertyOp6
 70
     1
102
RTVSPropertyOp7
 70
     1
102
RTVSPropertyOp8
 70
     1
102
RTVSPropertyOp9
 70
     1
102
RTVSPropertyOp10
 70
     1
102
RTVSPropertyOp11
 70
     1
102
RTVSPropertyOp12
 70
     1
102
RTVSPropertyOp13
 70
     1
102
RTVSPropertyOp14
 70
     1
102
RTVSPropertyOp15
 70
     1
102
RTVSPropertyOp16
 70
     1
102
RTVSPropertyOp17
 70
     1
102
RTVSPropertyOp18
 70
     1
102
RTVSPropertyOp19
 70
     1
102
RTVSPropertyOp20
 70
     1
102
RTVSPropertyOp21
 70
     1
102
RTVSPropertyOp22
 70
     1
102
RTVSPropertyOp23
 70
     1
102
RTVSPropertyOp24
 70
     1
102
RTVSPropertyOp25
 70
     1
102
RTVSPropertyOp26
 70
     1
102
RTVSPropertyOp27
 70
     1
102
RTVSPropertyOp28
 70
     1
102
RTVSPropertyOp29
 70
     1
102
RTVSPropertyOp30
 70
     1
102
RTVSPropertyOp31
 70
     1
102
RTVSPropertyOp32
 70
     1
102
RTVSPropertyOp33
 70
     1
102
RTVSPropertyOp34
 70
     1
102
RTVSPropertyOp35
 70
     1
102
RTVSPropertyOp36
 70
     1
102
RTVSPropertyOp37
 70
     1
102
RTVSPropertyOp38
 70
     1
102
RTVSPropertyOp39
 70
     1
102
RTVSPropertyOp40
 70
     1
102
RTVSPropertyOp41
 70
     1
102
RTVSPropertyOp42
 70
     1
102
RTVSPropertyOp43
 70
     1
102
RTVSPropertyOp44
 70
     1
102
RTVSPropertyOp45
 70
     1
102
RTVSPropertyOp46
 70
     1
102
RTVSPropertyOp47
 70
     1
102
RTVSPropertyOp48
 70
     1
102
RTVSPropertyOp49
 70
     1
102
RTVSPropertyOp50
 70
     1
102
RTVSPropertyOp51
 70
     0
102
RTVSPropertyOp52
 70
     0
102
RTVSPropertyOp53
 70
     1
102
RTVSPropertyOp54
 70
     1
102
RTVSPropertyOp55
 70
     1
102
RTVSPropertyOp56
 70
     1
102
RTVSPropertyOp57
 70
     1
102
RTVSPropertyOp58
 70
     1
102
RTVSPropertyOp59
 70
     1
102
RTVSPropertyOp60
 70
     1
102
RTVSPropertyOp61
 70
     1
102
RTVSPropertyOp62
 70
     1
  0
XRECORD
  5
8320
102
{ACAD_REACTORS
330
831F
102
}
330
831F
100
AcDbXrecord
280
     1
102
RTVSPost2010Prop28
280
     0
102
RTVSPost2010PropOp28
 70
     1
102
RTVSPost2010Prop29
280
     1
102
RTVSPost2010PropOp29
 70
     1
102
RTVSPost2010Prop30
280
     1
102
RTVSPost2010PropOp30
 70
     1
102
RTVSPost2010Prop31
280
     0
102
RTVSPost2010PropOp31
 70
     1
102
RTVSPost2010Prop32
280
     0
102
RTVSPost2010PropOp32
 70
     1
102
RTVSPost2010Prop33
280
     0
102
RTVSPost2010PropOp33
 70
     1
102
RTVSPost2010Prop34
280
     0
102
RTVSPost2010PropOp34
 70
     1
102
RTVSPost2010Prop35
280
     0
102
RTVSPost2010PropOp35
 70
     1
102
RTVSPost2010Prop36
280
     0
102
RTVSPost2010PropOp36
 70
     1
102
RTVSPost2010Prop37
 90
       50
102
RTVSPost2010PropOp37
 70
     1
102
RTVSPost2010Prop38
140
0.0
102
RTVSPost2010PropOp38
 70
     1
102
RTVSPost2010Prop39
140
1.0
102
RTVSPost2010PropOp39
 70
     1
102
RTVSPost2010Prop40
 90
        0
102
RTVSPost2010PropOp40
 70
     1
102
RTVSPost2010Prop41ColorIndex
 90
       18
102
RTVSPost2010Prop41ColorRGB
 90
        0
102
RTVSPost2010PropOp41
 70
     1
102
RTVSPost2010Prop42
 90
       50
102
RTVSPost2010PropOp42
 70
     1
102
RTVSPost2010Prop43
 90
        3
102
RTVSPost2010PropOp43
 70
     1
102
RTVSPost2010Prop44ColorIndex
 90
        5
102
RTVSPost2010Prop44ColorRGB
 90
      255
102
RTVSPost2010PropOp44
 70
     1
102
RTVSPost2010Prop45
280
     0
102
RTVSPost2010PropOp45
 70
     1
102
RTVSPost2010Prop46
 90
       50
102
RTVSPost2010PropOp46
 70
     1
102
RTVSPost2010Prop47
 90
       50
102
RTVSPost2010PropOp47
 70
     1
102
RTVSPost2010Prop48
 90
       50
102
RTVSPost2010PropOp48
 70
     1
102
RTVSPost2010Prop49
280
     0
102
RTVSPost2010PropOp49
 70
     1
102
RTVSPost2010Prop50
 90
       50
102
RTVSPost2010PropOp50
 70
     1
102
RTVSPost2010Prop51ColorIndex
 90
      256
102
RTVSPost2010Prop51ColorRGB
 90
-16777216
102
RTVSPost2010PropOp51
 70
     0
102
RTVSPost2010Prop52
140
1.0
102
RTVSPost2010PropOp52
 70
     0
102
RTVSPost2010Prop53
 90
        2
102
RTVSPost2010PropOp53
 70
     1
102
RTVSPost2010Prop54
  1
strokes_ogs.tif
102
RTVSPost2010PropOp54
 70
     1
102
RTVSPost2010Prop55
280
     0
102
RTVSPost2010PropOp55
 70
     1
102
RTVSPost2010Prop56
140
1.0
102
RTVSPost2010PropOp56
 70
     1
102
RTVSPost2010Prop57
140
1.0
102
RTVSPost2010PropOp57
 70
     1
102
RTVSPropertyOp0
 70
     1
102
RTVSPropertyOp1
 70
     1
102
RTVSPropertyOp2
 70
     1
102
RTVSPropertyOp3
 70
     1
102
RTVSPropertyOp4
 70
     1
102
RTVSPropertyOp5
 70
     1
102
RTVSPropertyOp6
 70
     1
102
RTVSPropertyOp7
 70
     1
102
RTVSPropertyOp8
 70
     1
102
RTVSPropertyOp9
 70
     1
102
RTVSPropertyOp10
 70
     1
102
RTVSPropertyOp11
 70
     1
102
RTVSPropertyOp12
 70
     1
102
RTVSPropertyOp13
 70
     1
102
RTVSPropertyOp14
 70
     1
102
RTVSPropertyOp15
 70
     1
102
RTVSPropertyOp16
 70
     1
102
RTVSPropertyOp17
 70
     1
102
RTVSPropertyOp18
 70
     1
102
RTVSPropertyOp19
 70
     1
102
RTVSPropertyOp20
 70
     1
102
RTVSPropertyOp21
 70
     1
102
RTVSPropertyOp22
 70
     1
102
RTVSPropertyOp23
 70
     1
102
RTVSPropertyOp24
 70
     1
102
RTVSPropertyOp25
 70
     1
102
RTVSPropertyOp26
 70
     1
102
RTVSPropertyOp27
 70
     1
102
RTVSPropertyOp28
 70
     1
102
RTVSPropertyOp29
 70
     1
102
RTVSPropertyOp30
 70
     1
102
RTVSPropertyOp31
 70
     1
102
RTVSPropertyOp32
 70
     1
102
RTVSPropertyOp33
 70
     1
102
RTVSPropertyOp34
 70
     1
102
RTVSPropertyOp35
 70
     1
102
RTVSPropertyOp36
 70
     1
102
RTVSPropertyOp37
 70
     1
102
RTVSPropertyOp38
 70
     1
102
RTVSPropertyOp39
 70
     1
102
RTVSPropertyOp40
 70
     1
102
RTVSPropertyOp41
 70
     1
102
RTVSPropertyOp42
 70
     1
102
RTVSPropertyOp43
 70
     1
102
RTVSPropertyOp44
 70
     1
102
RTVSPropertyOp45
 70
     1
102
RTVSPropertyOp46
 70
     1
102
RTVSPropertyOp47
 70
     1
102
RTVSPropertyOp48
 70
     1
102
RTVSPropertyOp49
 70
     1
102
RTVSPropertyOp50
 70
     1
102
RTVSPropertyOp51
 70
     0
102
RTVSPropertyOp52
 70
     0
102
RTVSPropertyOp53
 70
     1
102
RTVSPropertyOp54
 70
     1
102
RTVSPropertyOp55
 70
     1
102
RTVSPropertyOp56
 70
     1
102
RTVSPropertyOp57
 70
     1
102
RTVSPropertyOp58
 70
     1
102
RTVSPropertyOp59
 70
     1
102
RTVSPropertyOp60
 70
     1
102
RTVSPropertyOp61
 70
     1
102
RTVSPropertyOp62
 70
     1
  0
XRECORD
  5
8324
102
{ACAD_REACTORS
330
8323
102
}
330
8323
100
AcDbXrecord
280
     1
102
RTVSPost2010Prop28
280
     0
102
RTVSPost2010PropOp28
 70
     1
102
RTVSPost2010Prop29
280
     1
102
RTVSPost2010PropOp29
 70
     1
102
RTVSPost2010Prop30
280
     1
102
RTVSPost2010PropOp30
 70
     1
102
RTVSPost2010Prop31
280
     0
102
RTVSPost2010PropOp31
 70
     1
102
RTVSPost2010Prop32
280
     0
102
RTVSPost2010PropOp32
 70
     1
102
RTVSPost2010Prop33
280
     0
102
RTVSPost2010PropOp33
 70
     1
102
RTVSPost2010Prop34
280
     0
102
RTVSPost2010PropOp34
 70
     1
102
RTVSPost2010Prop35
280
     0
102
RTVSPost2010PropOp35
 70
     1
102
RTVSPost2010Prop36
280
     0
102
RTVSPost2010PropOp36
 70
     1
102
RTVSPost2010Prop37
 90
       50
102
RTVSPost2010PropOp37
 70
     1
102
RTVSPost2010Prop38
140
0.0
102
RTVSPost2010PropOp38
 70
     1
102
RTVSPost2010Prop39
140
1.0
102
RTVSPost2010PropOp39
 70
     1
102
RTVSPost2010Prop40
 90
        0
102
RTVSPost2010PropOp40
 70
     1
102
RTVSPost2010Prop41ColorIndex
 90
       18
102
RTVSPost2010Prop41ColorRGB
 90
        0
102
RTVSPost2010PropOp41
 70
     1
102
RTVSPost2010Prop42
 90
       50
102
RTVSPost2010PropOp42
 70
     1
102
RTVSPost2010Prop43
 90
        3
102
RTVSPost2010PropOp43
 70
     1
102
RTVSPost2010Prop44ColorIndex
 90
        5
102
RTVSPost2010Prop44ColorRGB
 90
      255
102
RTVSPost2010PropOp44
 70
     1
102
RTVSPost2010Prop45
280
     0
102
RTVSPost2010PropOp45
 70
     1
102
RTVSPost2010Prop46
 90
       50
102
RTVSPost2010PropOp46
 70
     1
102
RTVSPost2010Prop47
 90
       50
102
RTVSPost2010PropOp47
 70
     1
102
RTVSPost2010Prop48
 90
       50
102
RTVSPost2010PropOp48
 70
     1
102
RTVSPost2010Prop49
280
     0
102
RTVSPost2010PropOp49
 70
     1
102
RTVSPost2010Prop50
 90
       50
102
RTVSPost2010PropOp50
 70
     1
102
RTVSPost2010Prop51ColorIndex
 90
      256
102
RTVSPost2010Prop51ColorRGB
 90
-16777216
102
RTVSPost2010PropOp51
 70
     0
102
RTVSPost2010Prop52
140
1.0
102
RTVSPost2010PropOp52
 70
     0
102
RTVSPost2010Prop53
 90
        2
102
RTVSPost2010PropOp53
 70
     1
102
RTVSPost2010Prop54
  1
strokes_ogs.tif
102
RTVSPost2010PropOp54
 70
     1
102
RTVSPost2010Prop55
280
     0
102
RTVSPost2010PropOp55
 70
     1
102
RTVSPost2010Prop56
140
1.0
102
RTVSPost2010PropOp56
 70
     1
102
RTVSPost2010Prop57
140
1.0
102
RTVSPost2010PropOp57
 70
     1
102
RTVSPropertyOp0
 70
     1
102
RTVSPropertyOp1
 70
     1
102
RTVSPropertyOp2
 70
     1
102
RTVSPropertyOp3
 70
     1
102
RTVSPropertyOp4
 70
     1
102
RTVSPropertyOp5
 70
     1
102
RTVSPropertyOp6
 70
     1
102
RTVSPropertyOp7
 70
     1
102
RTVSPropertyOp8
 70
     1
102
RTVSPropertyOp9
 70
     1
102
RTVSPropertyOp10
 70
     1
102
RTVSPropertyOp11
 70
     1
102
RTVSPropertyOp12
 70
     1
102
RTVSPropertyOp13
 70
     1
102
RTVSPropertyOp14
 70
     1
102
RTVSPropertyOp15
 70
     1
102
RTVSPropertyOp16
 70
     1
102
RTVSPropertyOp17
 70
     1
102
RTVSPropertyOp18
 70
     1
102
RTVSPropertyOp19
 70
     1
102
RTVSPropertyOp20
 70
     1
102
RTVSPropertyOp21
 70
     1
102
RTVSPropertyOp22
 70
     1
102
RTVSPropertyOp23
 70
     1
102
RTVSPropertyOp24
 70
     1
102
RTVSPropertyOp25
 70
     1
102
RTVSPropertyOp26
 70
     1
102
RTVSPropertyOp27
 70
     1
102
RTVSPropertyOp28
 70
     1
102
RTVSPropertyOp29
 70
     1
102
RTVSPropertyOp30
 70
     1
102
RTVSPropertyOp31
 70
     1
102
RTVSPropertyOp32
 70
     1
102
RTVSPropertyOp33
 70
     1
102
RTVSPropertyOp34
 70
     1
102
RTVSPropertyOp35
 70
     1
102
RTVSPropertyOp36
 70
     1
102
RTVSPropertyOp37
 70
     1
102
RTVSPropertyOp38
 70
     1
102
RTVSPropertyOp39
 70
     1
102
RTVSPropertyOp40
 70
     1
102
RTVSPropertyOp41
 70
     1
102
RTVSPropertyOp42
 70
     1
102
RTVSPropertyOp43
 70
     1
102
RTVSPropertyOp44
 70
     1
102
RTVSPropertyOp45
 70
     1
102
RTVSPropertyOp46
 70
     1
102
RTVSPropertyOp47
 70
     1
102
RTVSPropertyOp48
 70
     1
102
RTVSPropertyOp49
 70
     1
102
RTVSPropertyOp50
 70
     1
102
RTVSPropertyOp51
 70
     0
102
RTVSPropertyOp52
 70
     0
102
RTVSPropertyOp53
 70
     1
102
RTVSPropertyOp54
 70
     1
102
RTVSPropertyOp55
 70
     1
102
RTVSPropertyOp56
 70
     1
102
RTVSPropertyOp57
 70
     1
102
RTVSPropertyOp58
 70
     1
102
RTVSPropertyOp59
 70
     1
102
RTVSPropertyOp60
 70
     1
102
RTVSPropertyOp61
 70
     1
102
RTVSPropertyOp62
 70
     1
  0
XRECORD
  5
833E
102
{ACAD_REACTORS
330
833D
102
}
330
833D
100
AcDbXrecord
280
     1
102
RTVSPost2010Prop28
280
     0
102
RTVSPost2010PropOp28
 70
     0
102
RTVSPost2010Prop29
280
     1
102
RTVSPost2010PropOp29
 70
     0
102
RTVSPost2010Prop30
280
     1
102
RTVSPost2010PropOp30
 70
     0
102
RTVSPost2010Prop31
280
     0
102
RTVSPost2010PropOp31
 70
     0
102
RTVSPost2010Prop32
280
     0
102
RTVSPost2010PropOp32
 70
     0
102
RTVSPost2010Prop33
280
     0
102
RTVSPost2010PropOp33
 70
     0
102
RTVSPost2010Prop34
280
     0
102
RTVSPost2010PropOp34
 70
     0
102
RTVSPost2010Prop35
280
     0
102
RTVSPost2010PropOp35
 70
     0
102
RTVSPost2010Prop36
280
     0
102
RTVSPost2010PropOp36
 70
     0
102
RTVSPost2010Prop37
 90
       50
102
RTVSPost2010PropOp37
 70
     0
102
RTVSPost2010Prop38
140
0.0
102
RTVSPost2010PropOp38
 70
     0
102
RTVSPost2010Prop39
140
1.0
102
RTVSPost2010PropOp39
 70
     0
102
RTVSPost2010Prop40
 90
        0
102
RTVSPost2010PropOp40
 70
     0
102
RTVSPost2010Prop41ColorIndex
 90
       18
102
RTVSPost2010Prop41ColorRGB
 90
        0
102
RTVSPost2010PropOp41
 70
     0
102
RTVSPost2010Prop42
 90
       50
102
RTVSPost2010PropOp42
 70
     0
102
RTVSPost2010Prop43
 90
        3
102
RTVSPost2010PropOp43
 70
     0
102
RTVSPost2010Prop44ColorIndex
 90
        5
102
RTVSPost2010Prop44ColorRGB
 90
      255
102
RTVSPost2010PropOp44
 70
     0
102
RTVSPost2010Prop45
280
     0
102
RTVSPost2010PropOp45
 70
     0
102
RTVSPost2010Prop46
 90
       50
102
RTVSPost2010PropOp46
 70
     0
102
RTVSPost2010Prop47
 90
       50
102
RTVSPost2010PropOp47
 70
     0
102
RTVSPost2010Prop48
 90
       50
102
RTVSPost2010PropOp48
 70
     0
102
RTVSPost2010Prop49
280
     0
102
RTVSPost2010PropOp49
 70
     0
102
RTVSPost2010Prop50
 90
       50
102
RTVSPost2010PropOp50
 70
     0
102
RTVSPost2010Prop51ColorIndex
 90
      256
102
RTVSPost2010Prop51ColorRGB
 90
-16777216
102
RTVSPost2010PropOp51
 70
     0
102
RTVSPost2010Prop52
140
1.0
102
RTVSPost2010PropOp52
 70
     0
102
RTVSPost2010Prop53
 90
        2
102
RTVSPost2010PropOp53
 70
     0
102
RTVSPost2010Prop54
  1
strokes_ogs.tif
102
RTVSPost2010PropOp54
 70
     0
102
RTVSPost2010Prop55
280
     0
102
RTVSPost2010PropOp55
 70
     0
102
RTVSPost2010Prop56
140
1.0
102
RTVSPost2010PropOp56
 70
     0
102
RTVSPost2010Prop57
140
1.0
102
RTVSPost2010PropOp57
 70
     0
102
RTVSPropertyOp0
 70
     0
102
RTVSPropertyOp1
 70
     0
102
RTVSPropertyOp2
 70
     0
102
RTVSPropertyOp3
 70
     0
102
RTVSPropertyOp4
 70
     0
102
RTVSPropertyOp5
 70
     0
102
RTVSPropertyOp6
 70
     0
102
RTVSPropertyOp7
 70
     0
102
RTVSPropertyOp8
 70
     0
102
RTVSPropertyOp9
 70
     0
102
RTVSPropertyOp10
 70
     0
102
RTVSPropertyOp11
 70
     0
102
RTVSPropertyOp12
 70
     0
102
RTVSPropertyOp13
 70
     0
102
RTVSPropertyOp14
 70
     2
102
RTVSPropertyOp15
 70
     0
102
RTVSPropertyOp16
 70
     0
102
RTVSPropertyOp17
 70
     0
102
RTVSPropertyOp18
 70
     0
102
RTVSPropertyOp19
 70
     0
102
RTVSPropertyOp20
 70
     0
102
RTVSPropertyOp21
 70
     0
102
RTVSPropertyOp22
 70
     0
102
RTVSPropertyOp23
 70
     0
102
RTVSPropertyOp24
 70
     0
102
RTVSPropertyOp25
 70
     0
102
RTVSPropertyOp26
 70
     0
102
RTVSPropertyOp27
 70
     0
102
RTVSPropertyOp28
 70
     0
102
RTVSPropertyOp29
 70
     0
102
RTVSPropertyOp30
 70
     0
102
RTVSPropertyOp31
 70
     0
102
RTVSPropertyOp32
 70
     0
102
RTVSPropertyOp33
 70
     0
102
RTVSPropertyOp34
 70
     0
102
RTVSPropertyOp35
 70
     0
102
RTVSPropertyOp36
 70
     0
102
RTVSPropertyOp37
 70
     0
102
RTVSPropertyOp38
 70
     0
102
RTVSPropertyOp39
 70
     0
102
RTVSPropertyOp40
 70
     0
102
RTVSPropertyOp41
 70
     0
102
RTVSPropertyOp42
 70
     0
102
RTVSPropertyOp43
 70
     0
102
RTVSPropertyOp44
 70
     0
102
RTVSPropertyOp45
 70
     0
102
RTVSPropertyOp46
 70
     0
102
RTVSPropertyOp47
 70
     0
102
RTVSPropertyOp48
 70
     0
102
RTVSPropertyOp49
 70
     0
102
RTVSPropertyOp50
 70
     0
102
RTVSPropertyOp51
 70
     0
102
RTVSPropertyOp52
 70
     0
102
RTVSPropertyOp53
 70
     0
102
RTVSPropertyOp54
 70
     0
102
RTVSPropertyOp55
 70
     0
102
RTVSPropertyOp56
 70
     0
102
RTVSPropertyOp57
 70
     0
102
RTVSPropertyOp58
 70
     1
102
RTVSPropertyOp59
 70
     1
102
RTVSPropertyOp60
 70
     1
102
RTVSPropertyOp61
 70
     1
102
RTVSPropertyOp62
 70
     1
  0
XRECORD
  5
832C
102
{ACAD_REACTORS
330
832B
102
}
330
832B
100
AcDbXrecord
280
     1
102
RTVSPost2010Prop28
280
     0
102
RTVSPost2010PropOp28
 70
     1
102
RTVSPost2010Prop29
280
     1
102
RTVSPost2010PropOp29
 70
     1
102
RTVSPost2010Prop30
280
     1
102
RTVSPost2010PropOp30
 70
     1
102
RTVSPost2010Prop31
280
     0
102
RTVSPost2010PropOp31
 70
     1
102
RTVSPost2010Prop32
280
     0
102
RTVSPost2010PropOp32
 70
     1
102
RTVSPost2010Prop33
280
     0
102
RTVSPost2010PropOp33
 70
     1
102
RTVSPost2010Prop34
280
     0
102
RTVSPost2010PropOp34
 70
     1
102
RTVSPost2010Prop35
280
     0
102
RTVSPost2010PropOp35
 70
     1
102
RTVSPost2010Prop36
280
     0
102
RTVSPost2010PropOp36
 70
     1
102
RTVSPost2010Prop37
 90
       50
102
RTVSPost2010PropOp37
 70
     1
102
RTVSPost2010Prop38
140
0.0
102
RTVSPost2010PropOp38
 70
     1
102
RTVSPost2010Prop39
140
1.0
102
RTVSPost2010PropOp39
 70
     1
102
RTVSPost2010Prop40
 90
        0
102
RTVSPost2010PropOp40
 70
     1
102
RTVSPost2010Prop41ColorIndex
 90
       18
102
RTVSPost2010Prop41ColorRGB
 90
        0
102
RTVSPost2010PropOp41
 70
     1
102
RTVSPost2010Prop42
 90
       50
102
RTVSPost2010PropOp42
 70
     1
102
RTVSPost2010Prop43
 90
        3
102
RTVSPost2010PropOp43
 70
     1
102
RTVSPost2010Prop44ColorIndex
 90
        5
102
RTVSPost2010Prop44ColorRGB
 90
      255
102
RTVSPost2010PropOp44
 70
     1
102
RTVSPost2010Prop45
280
     0
102
RTVSPost2010PropOp45
 70
     1
102
RTVSPost2010Prop46
 90
       50
102
RTVSPost2010PropOp46
 70
     1
102
RTVSPost2010Prop47
 90
       50
102
RTVSPost2010PropOp47
 70
     1
102
RTVSPost2010Prop48
 90
       50
102
RTVSPost2010PropOp48
 70
     1
102
RTVSPost2010Prop49
280
     0
102
RTVSPost2010PropOp49
 70
     1
102
RTVSPost2010Prop50
 90
       50
102
RTVSPost2010PropOp50
 70
     1
102
RTVSPost2010Prop51ColorIndex
 90
      256
102
RTVSPost2010Prop51ColorRGB
 90
-16777216
102
RTVSPost2010PropOp51
 70
     0
102
RTVSPost2010Prop52
140
1.0
102
RTVSPost2010PropOp52
 70
     0
102
RTVSPost2010Prop53
 90
        2
102
RTVSPost2010PropOp53
 70
     1
102
RTVSPost2010Prop54
  1
strokes_ogs.tif
102
RTVSPost2010PropOp54
 70
     1
102
RTVSPost2010Prop55
280
     0
102
RTVSPost2010PropOp55
 70
     1
102
RTVSPost2010Prop56
140
1.0
102
RTVSPost2010PropOp56
 70
     1
102
RTVSPost2010Prop57
140
1.0
102
RTVSPost2010PropOp57
 70
     1
102
RTVSPropertyOp0
 70
     1
102
RTVSPropertyOp1
 70
     1
102
RTVSPropertyOp2
 70
     1
102
RTVSPropertyOp3
 70
     1
102
RTVSPropertyOp4
 70
     1
102
RTVSPropertyOp5
 70
     1
102
RTVSPropertyOp6
 70
     1
102
RTVSPropertyOp7
 70
     1
102
RTVSPropertyOp8
 70
     1
102
RTVSPropertyOp9
 70
     1
102
RTVSPropertyOp10
 70
     1
102
RTVSPropertyOp11
 70
     1
102
RTVSPropertyOp12
 70
     1
102
RTVSPropertyOp13
 70
     1
102
RTVSPropertyOp14
 70
     1
102
RTVSPropertyOp15
 70
     1
102
RTVSPropertyOp16
 70
     1
102
RTVSPropertyOp17
 70
     1
102
RTVSPropertyOp18
 70
     1
102
RTVSPropertyOp19
 70
     1
102
RTVSPropertyOp20
 70
     1
102
RTVSPropertyOp21
 70
     1
102
RTVSPropertyOp22
 70
     1
102
RTVSPropertyOp23
 70
     1
102
RTVSPropertyOp24
 70
     1
102
RTVSPropertyOp25
 70
     1
102
RTVSPropertyOp26
 70
     1
102
RTVSPropertyOp27
 70
     1
102
RTVSPropertyOp28
 70
     1
102
RTVSPropertyOp29
 70
     1
102
RTVSPropertyOp30
 70
     1
102
RTVSPropertyOp31
 70
     1
102
RTVSPropertyOp32
 70
     1
102
RTVSPropertyOp33
 70
     1
102
RTVSPropertyOp34
 70
     1
102
RTVSPropertyOp35
 70
     1
102
RTVSPropertyOp36
 70
     1
102
RTVSPropertyOp37
 70
     1
102
RTVSPropertyOp38
 70
     1
102
RTVSPropertyOp39
 70
     1
102
RTVSPropertyOp40
 70
     1
102
RTVSPropertyOp41
 70
     1
102
RTVSPropertyOp42
 70
     1
102
RTVSPropertyOp43
 70
     1
102
RTVSPropertyOp44
 70
     1
102
RTVSPropertyOp45
 70
     1
102
RTVSPropertyOp46
 70
     1
102
RTVSPropertyOp47
 70
     1
102
RTVSPropertyOp48
 70
     1
102
RTVSPropertyOp49
 70
     1
102
RTVSPropertyOp50
 70
     1
102
RTVSPropertyOp51
 70
     0
102
RTVSPropertyOp52
 70
     0
102
RTVSPropertyOp53
 70
     1
102
RTVSPropertyOp54
 70
     1
102
RTVSPropertyOp55
 70
     1
102
RTVSPropertyOp56
 70
     1
102
RTVSPropertyOp57
 70
     1
102
RTVSPropertyOp58
 70
     1
102
RTVSPropertyOp59
 70
     1
102
RTVSPropertyOp60
 70
     1
102
RTVSPropertyOp61
 70
     1
102
RTVSPropertyOp62
 70
     1
  0
XRECORD
  5
8310
102
{ACAD_REACTORS
330
830F
102
}
330
830F
100
AcDbXrecord
280
     1
102
RTVSPost2010Prop28
280
     0
102
RTVSPost2010PropOp28
 70
     1
102
RTVSPost2010Prop29
280
     1
102
RTVSPost2010PropOp29
 70
     1
102
RTVSPost2010Prop30
280
     1
102
RTVSPost2010PropOp30
 70
     1
102
RTVSPost2010Prop31
280
     0
102
RTVSPost2010PropOp31
 70
     1
102
RTVSPost2010Prop32
280
     0
102
RTVSPost2010PropOp32
 70
     1
102
RTVSPost2010Prop33
280
     0
102
RTVSPost2010PropOp33
 70
     1
102
RTVSPost2010Prop34
280
     0
102
RTVSPost2010PropOp34
 70
     1
102
RTVSPost2010Prop35
280
     0
102
RTVSPost2010PropOp35
 70
     1
102
RTVSPost2010Prop36
280
     0
102
RTVSPost2010PropOp36
 70
     1
102
RTVSPost2010Prop37
 90
       50
102
RTVSPost2010PropOp37
 70
     1
102
RTVSPost2010Prop38
140
0.0
102
RTVSPost2010PropOp38
 70
     1
102
RTVSPost2010Prop39
140
1.0
102
RTVSPost2010PropOp39
 70
     1
102
RTVSPost2010Prop40
 90
        0
102
RTVSPost2010PropOp40
 70
     1
102
RTVSPost2010Prop41ColorIndex
 90
       18
102
RTVSPost2010Prop41ColorRGB
 90
        0
102
RTVSPost2010PropOp41
 70
     1
102
RTVSPost2010Prop42
 90
       50
102
RTVSPost2010PropOp42
 70
     1
102
RTVSPost2010Prop43
 90
        3
102
RTVSPost2010PropOp43
 70
     1
102
RTVSPost2010Prop44ColorIndex
 90
        5
102
RTVSPost2010Prop44ColorRGB
 90
      255
102
RTVSPost2010PropOp44
 70
     1
102
RTVSPost2010Prop45
280
     0
102
RTVSPost2010PropOp45
 70
     1
102
RTVSPost2010Prop46
 90
       50
102
RTVSPost2010PropOp46
 70
     1
102
RTVSPost2010Prop47
 90
       50
102
RTVSPost2010PropOp47
 70
     1
102
RTVSPost2010Prop48
 90
       50
102
RTVSPost2010PropOp48
 70
     1
102
RTVSPost2010Prop49
280
     0
102
RTVSPost2010PropOp49
 70
     1
102
RTVSPost2010Prop50
 90
       50
102
RTVSPost2010PropOp50
 70
     1
102
RTVSPost2010Prop51ColorIndex
 90
      256
102
RTVSPost2010Prop51ColorRGB
 90
-16777216
102
RTVSPost2010PropOp51
 70
     0
102
RTVSPost2010Prop52
140
1.0
102
RTVSPost2010PropOp52
 70
     0
102
RTVSPost2010Prop53
 90
        2
102
RTVSPost2010PropOp53
 70
     1
102
RTVSPost2010Prop54
  1
strokes_ogs.tif
102
RTVSPost2010PropOp54
 70
     1
102
RTVSPost2010Prop55
280
     0
102
RTVSPost2010PropOp55
 70
     1
102
RTVSPost2010Prop56
140
1.0
102
RTVSPost2010PropOp56
 70
     1
102
RTVSPost2010Prop57
140
1.0
102
RTVSPost2010PropOp57
 70
     1
102
RTVSPropertyOp0
 70
     1
102
RTVSPropertyOp1
 70
     1
102
RTVSPropertyOp2
 70
     1
102
RTVSPropertyOp3
 70
     1
102
RTVSPropertyOp4
 70
     1
102
RTVSPropertyOp5
 70
     1
102
RTVSPropertyOp6
 70
     1
102
RTVSPropertyOp7
 70
     1
102
RTVSPropertyOp8
 70
     1
102
RTVSPropertyOp9
 70
     1
102
RTVSPropertyOp10
 70
     1
102
RTVSPropertyOp11
 70
     1
102
RTVSPropertyOp12
 70
     1
102
RTVSPropertyOp13
 70
     1
102
RTVSPropertyOp14
 70
     1
102
RTVSPropertyOp15
 70
     1
102
RTVSPropertyOp16
 70
     1
102
RTVSPropertyOp17
 70
     1
102
RTVSPropertyOp18
 70
     1
102
RTVSPropertyOp19
 70
     1
102
RTVSPropertyOp20
 70
     1
102
RTVSPropertyOp21
 70
     1
102
RTVSPropertyOp22
 70
     1
102
RTVSPropertyOp23
 70
     1
102
RTVSPropertyOp24
 70
     1
102
RTVSPropertyOp25
 70
     1
102
RTVSPropertyOp26
 70
     1
102
RTVSPropertyOp27
 70
     1
102
RTVSPropertyOp28
 70
     1
102
RTVSPropertyOp29
 70
     1
102
RTVSPropertyOp30
 70
     1
102
RTVSPropertyOp31
 70
     1
102
RTVSPropertyOp32
 70
     1
102
RTVSPropertyOp33
 70
     1
102
RTVSPropertyOp34
 70
     1
102
RTVSPropertyOp35
 70
     1
102
RTVSPropertyOp36
 70
     1
102
RTVSPropertyOp37
 70
     1
102
RTVSPropertyOp38
 70
     1
102
RTVSPropertyOp39
 70
     1
102
RTVSPropertyOp40
 70
     1
102
RTVSPropertyOp41
 70
     1
102
RTVSPropertyOp42
 70
     1
102
RTVSPropertyOp43
 70
     1
102
RTVSPropertyOp44
 70
     1
102
RTVSPropertyOp45
 70
     1
102
RTVSPropertyOp46
 70
     1
102
RTVSPropertyOp47
 70
     1
102
RTVSPropertyOp48
 70
     1
102
RTVSPropertyOp49
 70
     1
102
RTVSPropertyOp50
 70
     1
102
RTVSPropertyOp51
 70
     0
102
RTVSPropertyOp52
 70
     0
102
RTVSPropertyOp53
 70
     1
102
RTVSPropertyOp54
 70
     1
102
RTVSPropertyOp55
 70
     1
102
RTVSPropertyOp56
 70
     1
102
RTVSPropertyOp57
 70
     1
102
RTVSPropertyOp58
 70
     1
102
RTVSPropertyOp59
 70
     1
102
RTVSPropertyOp60
 70
     1
102
RTVSPropertyOp61
 70
     1
102
RTVSPropertyOp62
 70
     1
  0
XRECORD
  5
8312
102
{ACAD_REACTORS
330
8311
102
}
330
8311
100
AcDbXrecord
280
     1
102
RTVSPost2010Prop28
280
     0
102
RTVSPost2010PropOp28
 70
     1
102
RTVSPost2010Prop29
280
     1
102
RTVSPost2010PropOp29
 70
     1
102
RTVSPost2010Prop30
280
     1
102
RTVSPost2010PropOp30
 70
     1
102
RTVSPost2010Prop31
280
     0
102
RTVSPost2010PropOp31
 70
     1
102
RTVSPost2010Prop32
280
     0
102
RTVSPost2010PropOp32
 70
     1
102
RTVSPost2010Prop33
280
     0
102
RTVSPost2010PropOp33
 70
     1
102
RTVSPost2010Prop34
280
     0
102
RTVSPost2010PropOp34
 70
     1
102
RTVSPost2010Prop35
280
     0
102
RTVSPost2010PropOp35
 70
     1
102
RTVSPost2010Prop36
280
     0
102
RTVSPost2010PropOp36
 70
     1
102
RTVSPost2010Prop37
 90
       50
102
RTVSPost2010PropOp37
 70
     1
102
RTVSPost2010Prop38
140
0.0
102
RTVSPost2010PropOp38
 70
     1
102
RTVSPost2010Prop39
140
1.0
102
RTVSPost2010PropOp39
 70
     1
102
RTVSPost2010Prop40
 90
        0
102
RTVSPost2010PropOp40
 70
     1
102
RTVSPost2010Prop41ColorIndex
 90
       18
102
RTVSPost2010Prop41ColorRGB
 90
        0
102
RTVSPost2010PropOp41
 70
     1
102
RTVSPost2010Prop42
 90
       50
102
RTVSPost2010PropOp42
 70
     1
102
RTVSPost2010Prop43
 90
        3
102
RTVSPost2010PropOp43
 70
     1
102
RTVSPost2010Prop44ColorIndex
 90
        5
102
RTVSPost2010Prop44ColorRGB
 90
      255
102
RTVSPost2010PropOp44
 70
     1
102
RTVSPost2010Prop45
280
     0
102
RTVSPost2010PropOp45
 70
     1
102
RTVSPost2010Prop46
 90
       50
102
RTVSPost2010PropOp46
 70
     1
102
RTVSPost2010Prop47
 90
       50
102
RTVSPost2010PropOp47
 70
     1
102
RTVSPost2010Prop48
 90
       50
102
RTVSPost2010PropOp48
 70
     1
102
RTVSPost2010Prop49
280
     0
102
RTVSPost2010PropOp49
 70
     1
102
RTVSPost2010Prop50
 90
       50
102
RTVSPost2010PropOp50
 70
     1
102
RTVSPost2010Prop51ColorIndex
 90
      256
102
RTVSPost2010Prop51ColorRGB
 90
-16777216
102
RTVSPost2010PropOp51
 70
     0
102
RTVSPost2010Prop52
140
1.0
102
RTVSPost2010PropOp52
 70
     0
102
RTVSPost2010Prop53
 90
        2
102
RTVSPost2010PropOp53
 70
     1
102
RTVSPost2010Prop54
  1
strokes_ogs.tif
102
RTVSPost2010PropOp54
 70
     1
102
RTVSPost2010Prop55
280
     0
102
RTVSPost2010PropOp55
 70
     1
102
RTVSPost2010Prop56
140
1.0
102
RTVSPost2010PropOp56
 70
     1
102
RTVSPost2010Prop57
140
1.0
102
RTVSPost2010PropOp57
 70
     1
102
RTVSPropertyOp0
 70
     1
102
RTVSPropertyOp1
 70
     1
102
RTVSPropertyOp2
 70
     1
102
RTVSPropertyOp3
 70
     1
102
RTVSPropertyOp4
 70
     1
102
RTVSPropertyOp5
 70
     1
102
RTVSPropertyOp6
 70
     1
102
RTVSPropertyOp7
 70
     1
102
RTVSPropertyOp8
 70
     1
102
RTVSPropertyOp9
 70
     1
102
RTVSPropertyOp10
 70
     1
102
RTVSPropertyOp11
 70
     1
102
RTVSPropertyOp12
 70
     1
102
RTVSPropertyOp13
 70
     1
102
RTVSPropertyOp14
 70
     1
102
RTVSPropertyOp15
 70
     1
102
RTVSPropertyOp16
 70
     1
102
RTVSPropertyOp17
 70
     1
102
RTVSPropertyOp18
 70
     1
102
RTVSPropertyOp19
 70
     1
102
RTVSPropertyOp20
 70
     1
102
RTVSPropertyOp21
 70
     1
102
RTVSPropertyOp22
 70
     1
102
RTVSPropertyOp23
 70
     1
102
RTVSPropertyOp24
 70
     1
102
RTVSPropertyOp25
 70
     1
102
RTVSPropertyOp26
 70
     1
102
RTVSPropertyOp27
 70
     1
102
RTVSPropertyOp28
 70
     1
102
RTVSPropertyOp29
 70
     1
102
RTVSPropertyOp30
 70
     1
102
RTVSPropertyOp31
 70
     1
102
RTVSPropertyOp32
 70
     1
102
RTVSPropertyOp33
 70
     1
102
RTVSPropertyOp34
 70
     1
102
RTVSPropertyOp35
 70
     1
102
RTVSPropertyOp36
 70
     1
102
RTVSPropertyOp37
 70
     1
102
RTVSPropertyOp38
 70
     1
102
RTVSPropertyOp39
 70
     1
102
RTVSPropertyOp40
 70
     1
102
RTVSPropertyOp41
 70
     1
102
RTVSPropertyOp42
 70
     1
102
RTVSPropertyOp43
 70
     1
102
RTVSPropertyOp44
 70
     1
102
RTVSPropertyOp45
 70
     1
102
RTVSPropertyOp46
 70
     1
102
RTVSPropertyOp47
 70
     1
102
RTVSPropertyOp48
 70
     1
102
RTVSPropertyOp49
 70
     1
102
RTVSPropertyOp50
 70
     1
102
RTVSPropertyOp51
 70
     0
102
RTVSPropertyOp52
 70
     0
102
RTVSPropertyOp53
 70
     1
102
RTVSPropertyOp54
 70
     1
102
RTVSPropertyOp55
 70
     1
102
RTVSPropertyOp56
 70
     1
102
RTVSPropertyOp57
 70
     1
102
RTVSPropertyOp58
 70
     1
102
RTVSPropertyOp59
 70
     1
102
RTVSPropertyOp60
 70
     1
102
RTVSPropertyOp61
 70
     1
102
RTVSPropertyOp62
 70
     1
  0
XRECORD
  5
8314
102
{ACAD_REACTORS
330
8313
102
}
330
8313
100
AcDbXrecord
280
     1
102
RTVSPost2010Prop28
280
     0
102
RTVSPost2010PropOp28
 70
     1
102
RTVSPost2010Prop29
280
     1
102
RTVSPost2010PropOp29
 70
     1
102
RTVSPost2010Prop30
280
     1
102
RTVSPost2010PropOp30
 70
     1
102
RTVSPost2010Prop31
280
     0
102
RTVSPost2010PropOp31
 70
     1
102
RTVSPost2010Prop32
280
     0
102
RTVSPost2010PropOp32
 70
     1
102
RTVSPost2010Prop33
280
     0
102
RTVSPost2010PropOp33
 70
     1
102
RTVSPost2010Prop34
280
     0
102
RTVSPost2010PropOp34
 70
     1
102
RTVSPost2010Prop35
280
     0
102
RTVSPost2010PropOp35
 70
     1
102
RTVSPost2010Prop36
280
     0
102
RTVSPost2010PropOp36
 70
     1
102
RTVSPost2010Prop37
 90
       50
102
RTVSPost2010PropOp37
 70
     1
102
RTVSPost2010Prop38
140
0.0
102
RTVSPost2010PropOp38
 70
     1
102
RTVSPost2010Prop39
140
1.0
102
RTVSPost2010PropOp39
 70
     1
102
RTVSPost2010Prop40
 90
        0
102
RTVSPost2010PropOp40
 70
     1
102
RTVSPost2010Prop41ColorIndex
 90
       18
102
RTVSPost2010Prop41ColorRGB
 90
        0
102
RTVSPost2010PropOp41
 70
     1
102
RTVSPost2010Prop42
 90
       50
102
RTVSPost2010PropOp42
 70
     1
102
RTVSPost2010Prop43
 90
        3
102
RTVSPost2010PropOp43
 70
     1
102
RTVSPost2010Prop44ColorIndex
 90
        5
102
RTVSPost2010Prop44ColorRGB
 90
      255
102
RTVSPost2010PropOp44
 70
     1
102
RTVSPost2010Prop45
280
     0
102
RTVSPost2010PropOp45
 70
     1
102
RTVSPost2010Prop46
 90
       50
102
RTVSPost2010PropOp46
 70
     1
102
RTVSPost2010Prop47
 90
       50
102
RTVSPost2010PropOp47
 70
     1
102
RTVSPost2010Prop48
 90
       50
102
RTVSPost2010PropOp48
 70
     1
102
RTVSPost2010Prop49
280
     0
102
RTVSPost2010PropOp49
 70
     1
102
RTVSPost2010Prop50
 90
       50
102
RTVSPost2010PropOp50
 70
     1
102
RTVSPost2010Prop51ColorIndex
 90
      256
102
RTVSPost2010Prop51ColorRGB
 90
-16777216
102
RTVSPost2010PropOp51
 70
     0
102
RTVSPost2010Prop52
140
1.0
102
RTVSPost2010PropOp52
 70
     0
102
RTVSPost2010Prop53
 90
        2
102
RTVSPost2010PropOp53
 70
     1
102
RTVSPost2010Prop54
  1
strokes_ogs.tif
102
RTVSPost2010PropOp54
 70
     1
102
RTVSPost2010Prop55
280
     0
102
RTVSPost2010PropOp55
 70
     1
102
RTVSPost2010Prop56
140
1.0
102
RTVSPost2010PropOp56
 70
     1
102
RTVSPost2010Prop57
140
1.0
102
RTVSPost2010PropOp57
 70
     1
102
RTVSPropertyOp0
 70
     1
102
RTVSPropertyOp1
 70
     1
102
RTVSPropertyOp2
 70
     1
102
RTVSPropertyOp3
 70
     1
102
RTVSPropertyOp4
 70
     1
102
RTVSPropertyOp5
 70
     1
102
RTVSPropertyOp6
 70
     1
102
RTVSPropertyOp7
 70
     1
102
RTVSPropertyOp8
 70
     1
102
RTVSPropertyOp9
 70
     1
102
RTVSPropertyOp10
 70
     1
102
RTVSPropertyOp11
 70
     1
102
RTVSPropertyOp12
 70
     1
102
RTVSPropertyOp13
 70
     1
102
RTVSPropertyOp14
 70
     1
102
RTVSPropertyOp15
 70
     1
102
RTVSPropertyOp16
 70
     1
102
RTVSPropertyOp17
 70
     1
102
RTVSPropertyOp18
 70
     1
102
RTVSPropertyOp19
 70
     1
102
RTVSPropertyOp20
 70
     1
102
RTVSPropertyOp21
 70
     1
102
RTVSPropertyOp22
 70
     1
102
RTVSPropertyOp23
 70
     1
102
RTVSPropertyOp24
 70
     1
102
RTVSPropertyOp25
 70
     1
102
RTVSPropertyOp26
 70
     1
102
RTVSPropertyOp27
 70
     1
102
RTVSPropertyOp28
 70
     1
102
RTVSPropertyOp29
 70
     1
102
RTVSPropertyOp30
 70
     1
102
RTVSPropertyOp31
 70
     1
102
RTVSPropertyOp32
 70
     1
102
RTVSPropertyOp33
 70
     1
102
RTVSPropertyOp34
 70
     1
102
RTVSPropertyOp35
 70
     1
102
RTVSPropertyOp36
 70
     1
102
RTVSPropertyOp37
 70
     1
102
RTVSPropertyOp38
 70
     1
102
RTVSPropertyOp39
 70
     1
102
RTVSPropertyOp40
 70
     1
102
RTVSPropertyOp41
 70
     1
102
RTVSPropertyOp42
 70
     1
102
RTVSPropertyOp43
 70
     1
102
RTVSPropertyOp44
 70
     1
102
RTVSPropertyOp45
 70
     1
102
RTVSPropertyOp46
 70
     1
102
RTVSPropertyOp47
 70
     1
102
RTVSPropertyOp48
 70
     1
102
RTVSPropertyOp49
 70
     1
102
RTVSPropertyOp50
 70
     1
102
RTVSPropertyOp51
 70
     0
102
RTVSPropertyOp52
 70
     0
102
RTVSPropertyOp53
 70
     1
102
RTVSPropertyOp54
 70
     1
102
RTVSPropertyOp55
 70
     1
102
RTVSPropertyOp56
 70
     1
102
RTVSPropertyOp57
 70
     1
102
RTVSPropertyOp58
 70
     1
102
RTVSPropertyOp59
 70
     1
102
RTVSPropertyOp60
 70
     1
102
RTVSPropertyOp61
 70
     1
102
RTVSPropertyOp62
 70
     1
  0
XRECORD
  5
8316
102
{ACAD_REACTORS
330
8315
102
}
330
8315
100
AcDbXrecord
280
     1
102
RTVSPost2010Prop28
280
     0
102
RTVSPost2010PropOp28
 70
     1
102
RTVSPost2010Prop29
280
     1
102
RTVSPost2010PropOp29
 70
     1
102
RTVSPost2010Prop30
280
     1
102
RTVSPost2010PropOp30
 70
     1
102
RTVSPost2010Prop31
280
     0
102
RTVSPost2010PropOp31
 70
     1
102
RTVSPost2010Prop32
280
     0
102
RTVSPost2010PropOp32
 70
     1
102
RTVSPost2010Prop33
280
     0
102
RTVSPost2010PropOp33
 70
     1
102
RTVSPost2010Prop34
280
     0
102
RTVSPost2010PropOp34
 70
     1
102
RTVSPost2010Prop35
280
     0
102
RTVSPost2010PropOp35
 70
     1
102
RTVSPost2010Prop36
280
     0
102
RTVSPost2010PropOp36
 70
     1
102
RTVSPost2010Prop37
 90
       50
102
RTVSPost2010PropOp37
 70
     1
102
RTVSPost2010Prop38
140
0.0
102
RTVSPost2010PropOp38
 70
     1
102
RTVSPost2010Prop39
140
1.0
102
RTVSPost2010PropOp39
 70
     1
102
RTVSPost2010Prop40
 90
        0
102
RTVSPost2010PropOp40
 70
     1
102
RTVSPost2010Prop41ColorIndex
 90
       18
102
RTVSPost2010Prop41ColorRGB
 90
        0
102
RTVSPost2010PropOp41
 70
     1
102
RTVSPost2010Prop42
 90
       50
102
RTVSPost2010PropOp42
 70
     1
102
RTVSPost2010Prop43
 90
        3
102
RTVSPost2010PropOp43
 70
     1
102
RTVSPost2010Prop44ColorIndex
 90
        5
102
RTVSPost2010Prop44ColorRGB
 90
      255
102
RTVSPost2010PropOp44
 70
     1
102
RTVSPost2010Prop45
280
     0
102
RTVSPost2010PropOp45
 70
     1
102
RTVSPost2010Prop46
 90
       50
102
RTVSPost2010PropOp46
 70
     1
102
RTVSPost2010Prop47
 90
       50
102
RTVSPost2010PropOp47
 70
     1
102
RTVSPost2010Prop48
 90
       50
102
RTVSPost2010PropOp48
 70
     1
102
RTVSPost2010Prop49
280
     0
102
RTVSPost2010PropOp49
 70
     1
102
RTVSPost2010Prop50
 90
       50
102
RTVSPost2010PropOp50
 70
     1
102
RTVSPost2010Prop51ColorIndex
 90
      256
102
RTVSPost2010Prop51ColorRGB
 90
-16777216
102
RTVSPost2010PropOp51
 70
     0
102
RTVSPost2010Prop52
140
1.0
102
RTVSPost2010PropOp52
 70
     0
102
RTVSPost2010Prop53
 90
        2
102
RTVSPost2010PropOp53
 70
     1
102
RTVSPost2010Prop54
  1
strokes_ogs.tif
102
RTVSPost2010PropOp54
 70
     1
102
RTVSPost2010Prop55
280
     0
102
RTVSPost2010PropOp55
 70
     1
102
RTVSPost2010Prop56
140
1.0
102
RTVSPost2010PropOp56
 70
     1
102
RTVSPost2010Prop57
140
1.0
102
RTVSPost2010PropOp57
 70
     1
102
RTVSPropertyOp0
 70
     1
102
RTVSPropertyOp1
 70
     1
102
RTVSPropertyOp2
 70
     1
102
RTVSPropertyOp3
 70
     1
102
RTVSPropertyOp4
 70
     1
102
RTVSPropertyOp5
 70
     1
102
RTVSPropertyOp6
 70
     1
102
RTVSPropertyOp7
 70
     1
102
RTVSPropertyOp8
 70
     1
102
RTVSPropertyOp9
 70
     1
102
RTVSPropertyOp10
 70
     1
102
RTVSPropertyOp11
 70
     1
102
RTVSPropertyOp12
 70
     1
102
RTVSPropertyOp13
 70
     1
102
RTVSPropertyOp14
 70
     1
102
RTVSPropertyOp15
 70
     1
102
RTVSPropertyOp16
 70
     1
102
RTVSPropertyOp17
 70
     1
102
RTVSPropertyOp18
 70
     1
102
RTVSPropertyOp19
 70
     1
102
RTVSPropertyOp20
 70
     1
102
RTVSPropertyOp21
 70
     1
102
RTVSPropertyOp22
 70
     1
102
RTVSPropertyOp23
 70
     1
102
RTVSPropertyOp24
 70
     1
102
RTVSPropertyOp25
 70
     1
102
RTVSPropertyOp26
 70
     1
102
RTVSPropertyOp27
 70
     1
102
RTVSPropertyOp28
 70
     1
102
RTVSPropertyOp29
 70
     1
102
RTVSPropertyOp30
 70
     1
102
RTVSPropertyOp31
 70
     1
102
RTVSPropertyOp32
 70
     1
102
RTVSPropertyOp33
 70
     1
102
RTVSPropertyOp34
 70
     1
102
RTVSPropertyOp35
 70
     1
102
RTVSPropertyOp36
 70
     1
102
RTVSPropertyOp37
 70
     1
102
RTVSPropertyOp38
 70
     1
102
RTVSPropertyOp39
 70
     1
102
RTVSPropertyOp40
 70
     1
102
RTVSPropertyOp41
 70
     1
102
RTVSPropertyOp42
 70
     1
102
RTVSPropertyOp43
 70
     1
102
RTVSPropertyOp44
 70
     1
102
RTVSPropertyOp45
 70
     1
102
RTVSPropertyOp46
 70
     1
102
RTVSPropertyOp47
 70
     1
102
RTVSPropertyOp48
 70
     1
102
RTVSPropertyOp49
 70
     1
102
RTVSPropertyOp50
 70
     1
102
RTVSPropertyOp51
 70
     0
102
RTVSPropertyOp52
 70
     0
102
RTVSPropertyOp53
 70
     1
102
RTVSPropertyOp54
 70
     1
102
RTVSPropertyOp55
 70
     1
102
RTVSPropertyOp56
 70
     1
102
RTVSPropertyOp57
 70
     1
102
RTVSPropertyOp58
 70
     1
102
RTVSPropertyOp59
 70
     1
102
RTVSPropertyOp60
 70
     1
102
RTVSPropertyOp61
 70
     1
102
RTVSPropertyOp62
 70
     1
  0
XRECORD
  5
831E
102
{ACAD_REACTORS
330
831D
102
}
330
831D
100
AcDbXrecord
280
     1
102
RTVSPost2010Prop28
280
     0
102
RTVSPost2010PropOp28
 70
     1
102
RTVSPost2010Prop29
280
     1
102
RTVSPost2010PropOp29
 70
     1
102
RTVSPost2010Prop30
280
     1
102
RTVSPost2010PropOp30
 70
     1
102
RTVSPost2010Prop31
280
     0
102
RTVSPost2010PropOp31
 70
     1
102
RTVSPost2010Prop32
280
     0
102
RTVSPost2010PropOp32
 70
     1
102
RTVSPost2010Prop33
280
     0
102
RTVSPost2010PropOp33
 70
     1
102
RTVSPost2010Prop34
280
     0
102
RTVSPost2010PropOp34
 70
     1
102
RTVSPost2010Prop35
280
     0
102
RTVSPost2010PropOp35
 70
     1
102
RTVSPost2010Prop36
280
     0
102
RTVSPost2010PropOp36
 70
     1
102
RTVSPost2010Prop37
 90
       50
102
RTVSPost2010PropOp37
 70
     1
102
RTVSPost2010Prop38
140
0.0
102
RTVSPost2010PropOp38
 70
     1
102
RTVSPost2010Prop39
140
1.0
102
RTVSPost2010PropOp39
 70
     1
102
RTVSPost2010Prop40
 90
        0
102
RTVSPost2010PropOp40
 70
     1
102
RTVSPost2010Prop41ColorIndex
 90
       18
102
RTVSPost2010Prop41ColorRGB
 90
        0
102
RTVSPost2010PropOp41
 70
     1
102
RTVSPost2010Prop42
 90
       50
102
RTVSPost2010PropOp42
 70
     1
102
RTVSPost2010Prop43
 90
        3
102
RTVSPost2010PropOp43
 70
     1
102
RTVSPost2010Prop44ColorIndex
 90
        5
102
RTVSPost2010Prop44ColorRGB
 90
      255
102
RTVSPost2010PropOp44
 70
     1
102
RTVSPost2010Prop45
280
     0
102
RTVSPost2010PropOp45
 70
     1
102
RTVSPost2010Prop46
 90
       50
102
RTVSPost2010PropOp46
 70
     1
102
RTVSPost2010Prop47
 90
       50
102
RTVSPost2010PropOp47
 70
     1
102
RTVSPost2010Prop48
 90
       50
102
RTVSPost2010PropOp48
 70
     1
102
RTVSPost2010Prop49
280
     0
102
RTVSPost2010PropOp49
 70
     1
102
RTVSPost2010Prop50
 90
       50
102
RTVSPost2010PropOp50
 70
     1
102
RTVSPost2010Prop51ColorIndex
 90
      256
102
RTVSPost2010Prop51ColorRGB
 90
-16777216
102
RTVSPost2010PropOp51
 70
     0
102
RTVSPost2010Prop52
140
1.0
102
RTVSPost2010PropOp52
 70
     0
102
RTVSPost2010Prop53
 90
        2
102
RTVSPost2010PropOp53
 70
     1
102
RTVSPost2010Prop54
  1
strokes_ogs.tif
102
RTVSPost2010PropOp54
 70
     1
102
RTVSPost2010Prop55
280
     0
102
RTVSPost2010PropOp55
 70
     1
102
RTVSPost2010Prop56
140
1.0
102
RTVSPost2010PropOp56
 70
     1
102
RTVSPost2010Prop57
140
1.0
102
RTVSPost2010PropOp57
 70
     1
102
RTVSPropertyOp0
 70
     1
102
RTVSPropertyOp1
 70
     1
102
RTVSPropertyOp2
 70
     1
102
RTVSPropertyOp3
 70
     1
102
RTVSPropertyOp4
 70
     1
102
RTVSPropertyOp5
 70
     1
102
RTVSPropertyOp6
 70
     1
102
RTVSPropertyOp7
 70
     1
102
RTVSPropertyOp8
 70
     1
102
RTVSPropertyOp9
 70
     1
102
RTVSPropertyOp10
 70
     1
102
RTVSPropertyOp11
 70
     1
102
RTVSPropertyOp12
 70
     1
102
RTVSPropertyOp13
 70
     1
102
RTVSPropertyOp14
 70
     1
102
RTVSPropertyOp15
 70
     1
102
RTVSPropertyOp16
 70
     1
102
RTVSPropertyOp17
 70
     1
102
RTVSPropertyOp18
 70
     1
102
RTVSPropertyOp19
 70
     1
102
RTVSPropertyOp20
 70
     1
102
RTVSPropertyOp21
 70
     1
102
RTVSPropertyOp22
 70
     1
102
RTVSPropertyOp23
 70
     1
102
RTVSPropertyOp24
 70
     1
102
RTVSPropertyOp25
 70
     1
102
RTVSPropertyOp26
 70
     1
102
RTVSPropertyOp27
 70
     1
102
RTVSPropertyOp28
 70
     1
102
RTVSPropertyOp29
 70
     1
102
RTVSPropertyOp30
 70
     1
102
RTVSPropertyOp31
 70
     1
102
RTVSPropertyOp32
 70
     1
102
RTVSPropertyOp33
 70
     1
102
RTVSPropertyOp34
 70
     1
102
RTVSPropertyOp35
 70
     1
102
RTVSPropertyOp36
 70
     1
102
RTVSPropertyOp37
 70
     1
102
RTVSPropertyOp38
 70
     1
102
RTVSPropertyOp39
 70
     1
102
RTVSPropertyOp40
 70
     1
102
RTVSPropertyOp41
 70
     1
102
RTVSPropertyOp42
 70
     1
102
RTVSPropertyOp43
 70
     1
102
RTVSPropertyOp44
 70
     1
102
RTVSPropertyOp45
 70
     1
102
RTVSPropertyOp46
 70
     1
102
RTVSPropertyOp47
 70
     1
102
RTVSPropertyOp48
 70
     1
102
RTVSPropertyOp49
 70
     1
102
RTVSPropertyOp50
 70
     1
102
RTVSPropertyOp51
 70
     0
102
RTVSPropertyOp52
 70
     0
102
RTVSPropertyOp53
 70
     1
102
RTVSPropertyOp54
 70
     1
102
RTVSPropertyOp55
 70
     1
102
RTVSPropertyOp56
 70
     1
102
RTVSPropertyOp57
 70
     1
102
RTVSPropertyOp58
 70
     1
102
RTVSPropertyOp59
 70
     1
102
RTVSPropertyOp60
 70
     1
102
RTVSPropertyOp61
 70
     1
102
RTVSPropertyOp62
 70
     1
  0
XRECORD
  5
833A
102
{ACAD_REACTORS
330
8339
102
}
330
8339
100
AcDbXrecord
280
     1
102
RTVSPost2010Prop28
280
     0
102
RTVSPost2010PropOp28
 70
     0
102
RTVSPost2010Prop29
280
     1
102
RTVSPost2010PropOp29
 70
     0
102
RTVSPost2010Prop30
280
     1
102
RTVSPost2010PropOp30
 70
     0
102
RTVSPost2010Prop31
280
     0
102
RTVSPost2010PropOp31
 70
     0
102
RTVSPost2010Prop32
280
     0
102
RTVSPost2010PropOp32
 70
     0
102
RTVSPost2010Prop33
280
     0
102
RTVSPost2010PropOp33
 70
     0
102
RTVSPost2010Prop34
280
     0
102
RTVSPost2010PropOp34
 70
     0
102
RTVSPost2010Prop35
280
     0
102
RTVSPost2010PropOp35
 70
     0
102
RTVSPost2010Prop36
280
     0
102
RTVSPost2010PropOp36
 70
     0
102
RTVSPost2010Prop37
 90
       50
102
RTVSPost2010PropOp37
 70
     0
102
RTVSPost2010Prop38
140
0.0
102
RTVSPost2010PropOp38
 70
     0
102
RTVSPost2010Prop39
140
1.0
102
RTVSPost2010PropOp39
 70
     0
102
RTVSPost2010Prop40
 90
        0
102
RTVSPost2010PropOp40
 70
     0
102
RTVSPost2010Prop41ColorIndex
 90
       18
102
RTVSPost2010Prop41ColorRGB
 90
        0
102
RTVSPost2010PropOp41
 70
     0
102
RTVSPost2010Prop42
 90
       50
102
RTVSPost2010PropOp42
 70
     0
102
RTVSPost2010Prop43
 90
        3
102
RTVSPost2010PropOp43
 70
     0
102
RTVSPost2010Prop44ColorIndex
 90
        5
102
RTVSPost2010Prop44ColorRGB
 90
      255
102
RTVSPost2010PropOp44
 70
     0
102
RTVSPost2010Prop45
280
     0
102
RTVSPost2010PropOp45
 70
     0
102
RTVSPost2010Prop46
 90
       50
102
RTVSPost2010PropOp46
 70
     0
102
RTVSPost2010Prop47
 90
       50
102
RTVSPost2010PropOp47
 70
     0
102
RTVSPost2010Prop48
 90
       50
102
RTVSPost2010PropOp48
 70
     0
102
RTVSPost2010Prop49
280
     0
102
RTVSPost2010PropOp49
 70
     0
102
RTVSPost2010Prop50
 90
       50
102
RTVSPost2010PropOp50
 70
     0
102
RTVSPost2010Prop51ColorIndex
 90
      256
102
RTVSPost2010Prop51ColorRGB
 90
-16777216
102
RTVSPost2010PropOp51
 70
     0
102
RTVSPost2010Prop52
140
1.0
102
RTVSPost2010PropOp52
 70
     0
102
RTVSPost2010Prop53
 90
        2
102
RTVSPost2010PropOp53
 70
     0
102
RTVSPost2010Prop54
  1
strokes_ogs.tif
102
RTVSPost2010PropOp54
 70
     0
102
RTVSPost2010Prop55
280
     0
102
RTVSPost2010PropOp55
 70
     0
102
RTVSPost2010Prop56
140
1.0
102
RTVSPost2010PropOp56
 70
     0
102
RTVSPost2010Prop57
140
1.0
102
RTVSPost2010PropOp57
 70
     0
102
RTVSPropertyOp0
 70
     0
102
RTVSPropertyOp1
 70
     0
102
RTVSPropertyOp2
 70
     0
102
RTVSPropertyOp3
 70
     0
102
RTVSPropertyOp4
 70
     0
102
RTVSPropertyOp5
 70
     0
102
RTVSPropertyOp6
 70
     0
102
RTVSPropertyOp7
 70
     0
102
RTVSPropertyOp8
 70
     0
102
RTVSPropertyOp9
 70
     0
102
RTVSPropertyOp10
 70
     0
102
RTVSPropertyOp11
 70
     0
102
RTVSPropertyOp12
 70
     0
102
RTVSPropertyOp13
 70
     0
102
RTVSPropertyOp14
 70
     2
102
RTVSPropertyOp15
 70
     0
102
RTVSPropertyOp16
 70
     0
102
RTVSPropertyOp17
 70
     0
102
RTVSPropertyOp18
 70
     0
102
RTVSPropertyOp19
 70
     0
102
RTVSPropertyOp20
 70
     0
102
RTVSPropertyOp21
 70
     0
102
RTVSPropertyOp22
 70
     0
102
RTVSPropertyOp23
 70
     0
102
RTVSPropertyOp24
 70
     0
102
RTVSPropertyOp25
 70
     0
102
RTVSPropertyOp26
 70
     0
102
RTVSPropertyOp27
 70
     0
102
RTVSPropertyOp28
 70
     0
102
RTVSPropertyOp29
 70
     0
102
RTVSPropertyOp30
 70
     0
102
RTVSPropertyOp31
 70
     0
102
RTVSPropertyOp32
 70
     0
102
RTVSPropertyOp33
 70
     0
102
RTVSPropertyOp34
 70
     0
102
RTVSPropertyOp35
 70
     0
102
RTVSPropertyOp36
 70
     0
102
RTVSPropertyOp37
 70
     0
102
RTVSPropertyOp38
 70
     0
102
RTVSPropertyOp39
 70
     0
102
RTVSPropertyOp40
 70
     0
102
RTVSPropertyOp41
 70
     0
102
RTVSPropertyOp42
 70
     0
102
RTVSPropertyOp43
 70
     0
102
RTVSPropertyOp44
 70
     0
102
RTVSPropertyOp45
 70
     0
102
RTVSPropertyOp46
 70
     0
102
RTVSPropertyOp47
 70
     0
102
RTVSPropertyOp48
 70
     0
102
RTVSPropertyOp49
 70
     0
102
RTVSPropertyOp50
 70
     0
102
RTVSPropertyOp51
 70
     0
102
RTVSPropertyOp52
 70
     0
102
RTVSPropertyOp53
 70
     0
102
RTVSPropertyOp54
 70
     0
102
RTVSPropertyOp55
 70
     0
102
RTVSPropertyOp56
 70
     0
102
RTVSPropertyOp57
 70
     0
102
RTVSPropertyOp58
 70
     1
102
RTVSPropertyOp59
 70
     1
102
RTVSPropertyOp60
 70
     1
102
RTVSPropertyOp61
 70
     1
102
RTVSPropertyOp62
 70
     1
  0
XRECORD
  5
832A
102
{ACAD_REACTORS
330
8329
102
}
330
8329
100
AcDbXrecord
280
     1
102
RTVSPost2010Prop28
280
     0
102
RTVSPost2010PropOp28
 70
     1
102
RTVSPost2010Prop29
280
     1
102
RTVSPost2010PropOp29
 70
     1
102
RTVSPost2010Prop30
280
     1
102
RTVSPost2010PropOp30
 70
     1
102
RTVSPost2010Prop31
280
     0
102
RTVSPost2010PropOp31
 70
     1
102
RTVSPost2010Prop32
280
     0
102
RTVSPost2010PropOp32
 70
     1
102
RTVSPost2010Prop33
280
     0
102
RTVSPost2010PropOp33
 70
     1
102
RTVSPost2010Prop34
280
     0
102
RTVSPost2010PropOp34
 70
     1
102
RTVSPost2010Prop35
280
     0
102
RTVSPost2010PropOp35
 70
     1
102
RTVSPost2010Prop36
280
     0
102
RTVSPost2010PropOp36
 70
     1
102
RTVSPost2010Prop37
 90
       50
102
RTVSPost2010PropOp37
 70
     1
102
RTVSPost2010Prop38
140
0.0
102
RTVSPost2010PropOp38
 70
     1
102
RTVSPost2010Prop39
140
1.0
102
RTVSPost2010PropOp39
 70
     1
102
RTVSPost2010Prop40
 90
        0
102
RTVSPost2010PropOp40
 70
     1
102
RTVSPost2010Prop41ColorIndex
 90
       18
102
RTVSPost2010Prop41ColorRGB
 90
        0
102
RTVSPost2010PropOp41
 70
     1
102
RTVSPost2010Prop42
 90
       50
102
RTVSPost2010PropOp42
 70
     1
102
RTVSPost2010Prop43
 90
        3
102
RTVSPost2010PropOp43
 70
     1
102
RTVSPost2010Prop44ColorIndex
 90
        5
102
RTVSPost2010Prop44ColorRGB
 90
      255
102
RTVSPost2010PropOp44
 70
     1
102
RTVSPost2010Prop45
280
     0
102
RTVSPost2010PropOp45
 70
     1
102
RTVSPost2010Prop46
 90
       50
102
RTVSPost2010PropOp46
 70
     1
102
RTVSPost2010Prop47
 90
       50
102
RTVSPost2010PropOp47
 70
     1
102
RTVSPost2010Prop48
 90
       50
102
RTVSPost2010PropOp48
 70
     1
102
RTVSPost2010Prop49
280
     0
102
RTVSPost2010PropOp49
 70
     1
102
RTVSPost2010Prop50
 90
       50
102
RTVSPost2010PropOp50
 70
     1
102
RTVSPost2010Prop51ColorIndex
 90
      256
102
RTVSPost2010Prop51ColorRGB
 90
-16777216
102
RTVSPost2010PropOp51
 70
     0
102
RTVSPost2010Prop52
140
1.0
102
RTVSPost2010PropOp52
 70
     0
102
RTVSPost2010Prop53
 90
        2
102
RTVSPost2010PropOp53
 70
     1
102
RTVSPost2010Prop54
  1
strokes_ogs.tif
102
RTVSPost2010PropOp54
 70
     1
102
RTVSPost2010Prop55
280
     0
102
RTVSPost2010PropOp55
 70
     1
102
RTVSPost2010Prop56
140
1.0
102
RTVSPost2010PropOp56
 70
     1
102
RTVSPost2010Prop57
140
1.0
102
RTVSPost2010PropOp57
 70
     1
102
RTVSPropertyOp0
 70
     1
102
RTVSPropertyOp1
 70
     1
102
RTVSPropertyOp2
 70
     1
102
RTVSPropertyOp3
 70
     1
102
RTVSPropertyOp4
 70
     1
102
RTVSPropertyOp5
 70
     1
102
RTVSPropertyOp6
 70
     1
102
RTVSPropertyOp7
 70
     1
102
RTVSPropertyOp8
 70
     1
102
RTVSPropertyOp9
 70
     1
102
RTVSPropertyOp10
 70
     1
102
RTVSPropertyOp11
 70
     1
102
RTVSPropertyOp12
 70
     1
102
RTVSPropertyOp13
 70
     1
102
RTVSPropertyOp14
 70
     1
102
RTVSPropertyOp15
 70
     1
102
RTVSPropertyOp16
 70
     1
102
RTVSPropertyOp17
 70
     1
102
RTVSPropertyOp18
 70
     1
102
RTVSPropertyOp19
 70
     1
102
RTVSPropertyOp20
 70
     1
102
RTVSPropertyOp21
 70
     1
102
RTVSPropertyOp22
 70
     1
102
RTVSPropertyOp23
 70
     1
102
RTVSPropertyOp24
 70
     1
102
RTVSPropertyOp25
 70
     1
102
RTVSPropertyOp26
 70
     1
102
RTVSPropertyOp27
 70
     1
102
RTVSPropertyOp28
 70
     1
102
RTVSPropertyOp29
 70
     1
102
RTVSPropertyOp30
 70
     1
102
RTVSPropertyOp31
 70
     1
102
RTVSPropertyOp32
 70
     1
102
RTVSPropertyOp33
 70
     1
102
RTVSPropertyOp34
 70
     1
102
RTVSPropertyOp35
 70
     1
102
RTVSPropertyOp36
 70
     1
102
RTVSPropertyOp37
 70
     1
102
RTVSPropertyOp38
 70
     1
102
RTVSPropertyOp39
 70
     1
102
RTVSPropertyOp40
 70
     1
102
RTVSPropertyOp41
 70
     1
102
RTVSPropertyOp42
 70
     1
102
RTVSPropertyOp43
 70
     1
102
RTVSPropertyOp44
 70
     1
102
RTVSPropertyOp45
 70
     1
102
RTVSPropertyOp46
 70
     1
102
RTVSPropertyOp47
 70
     1
102
RTVSPropertyOp48
 70
     1
102
RTVSPropertyOp49
 70
     1
102
RTVSPropertyOp50
 70
     1
102
RTVSPropertyOp51
 70
     0
102
RTVSPropertyOp52
 70
     0
102
RTVSPropertyOp53
 70
     1
102
RTVSPropertyOp54
 70
     1
102
RTVSPropertyOp55
 70
     1
102
RTVSPropertyOp56
 70
     1
102
RTVSPropertyOp57
 70
     1
102
RTVSPropertyOp58
 70
     1
102
RTVSPropertyOp59
 70
     1
102
RTVSPropertyOp60
 70
     1
102
RTVSPropertyOp61
 70
     1
102
RTVSPropertyOp62
 70
     1
  0
XRECORD
  5
833C
102
{ACAD_REACTORS
330
833B
102
}
330
833B
100
AcDbXrecord
280
     1
102
RTVSPost2010Prop28
280
     0
102
RTVSPost2010PropOp28
 70
     0
102
RTVSPost2010Prop29
280
     1
102
RTVSPost2010PropOp29
 70
     0
102
RTVSPost2010Prop30
280
     1
102
RTVSPost2010PropOp30
 70
     0
102
RTVSPost2010Prop31
280
     0
102
RTVSPost2010PropOp31
 70
     0
102
RTVSPost2010Prop32
280
     0
102
RTVSPost2010PropOp32
 70
     0
102
RTVSPost2010Prop33
280
     0
102
RTVSPost2010PropOp33
 70
     0
102
RTVSPost2010Prop34
280
     0
102
RTVSPost2010PropOp34
 70
     0
102
RTVSPost2010Prop35
280
     0
102
RTVSPost2010PropOp35
 70
     0
102
RTVSPost2010Prop36
280
     0
102
RTVSPost2010PropOp36
 70
     0
102
RTVSPost2010Prop37
 90
       50
102
RTVSPost2010PropOp37
 70
     0
102
RTVSPost2010Prop38
140
0.0
102
RTVSPost2010PropOp38
 70
     0
102
RTVSPost2010Prop39
140
1.0
102
RTVSPost2010PropOp39
 70
     0
102
RTVSPost2010Prop40
 90
        0
102
RTVSPost2010PropOp40
 70
     0
102
RTVSPost2010Prop41ColorIndex
 90
       18
102
RTVSPost2010Prop41ColorRGB
 90
        0
102
RTVSPost2010PropOp41
 70
     0
102
RTVSPost2010Prop42
 90
       50
102
RTVSPost2010PropOp42
 70
     0
102
RTVSPost2010Prop43
 90
        3
102
RTVSPost2010PropOp43
 70
     0
102
RTVSPost2010Prop44ColorIndex
 90
        5
102
RTVSPost2010Prop44ColorRGB
 90
      255
102
RTVSPost2010PropOp44
 70
     0
102
RTVSPost2010Prop45
280
     0
102
RTVSPost2010PropOp45
 70
     0
102
RTVSPost2010Prop46
 90
       50
102
RTVSPost2010PropOp46
 70
     0
102
RTVSPost2010Prop47
 90
       50
102
RTVSPost2010PropOp47
 70
     0
102
RTVSPost2010Prop48
 90
       50
102
RTVSPost2010PropOp48
 70
     0
102
RTVSPost2010Prop49
280
     0
102
RTVSPost2010PropOp49
 70
     0
102
RTVSPost2010Prop50
 90
       50
102
RTVSPost2010PropOp50
 70
     0
102
RTVSPost2010Prop51ColorIndex
 90
      256
102
RTVSPost2010Prop51ColorRGB
 90
-16777216
102
RTVSPost2010PropOp51
 70
     0
102
RTVSPost2010Prop52
140
1.0
102
RTVSPost2010PropOp52
 70
     0
102
RTVSPost2010Prop53
 90
        2
102
RTVSPost2010PropOp53
 70
     0
102
RTVSPost2010Prop54
  1
strokes_ogs.tif
102
RTVSPost2010PropOp54
 70
     0
102
RTVSPost2010Prop55
280
     0
102
RTVSPost2010PropOp55
 70
     0
102
RTVSPost2010Prop56
140
1.0
102
RTVSPost2010PropOp56
 70
     0
102
RTVSPost2010Prop57
140
1.0
102
RTVSPost2010PropOp57
 70
     0
102
RTVSPropertyOp0
 70
     0
102
RTVSPropertyOp1
 70
     0
102
RTVSPropertyOp2
 70
     0
102
RTVSPropertyOp3
 70
     0
102
RTVSPropertyOp4
 70
     0
102
RTVSPropertyOp5
 70
     0
102
RTVSPropertyOp6
 70
     0
102
RTVSPropertyOp7
 70
     0
102
RTVSPropertyOp8
 70
     0
102
RTVSPropertyOp9
 70
     0
102
RTVSPropertyOp10
 70
     0
102
RTVSPropertyOp11
 70
     0
102
RTVSPropertyOp12
 70
     0
102
RTVSPropertyOp13
 70
     0
102
RTVSPropertyOp14
 70
     2
102
RTVSPropertyOp15
 70
     0
102
RTVSPropertyOp16
 70
     0
102
RTVSPropertyOp17
 70
     0
102
RTVSPropertyOp18
 70
     0
102
RTVSPropertyOp19
 70
     0
102
RTVSPropertyOp20
 70
     0
102
RTVSPropertyOp21
 70
     0
102
RTVSPropertyOp22
 70
     0
102
RTVSPropertyOp23
 70
     0
102
RTVSPropertyOp24
 70
     0
102
RTVSPropertyOp25
 70
     0
102
RTVSPropertyOp26
 70
     0
102
RTVSPropertyOp27
 70
     0
102
RTVSPropertyOp28
 70
     0
102
RTVSPropertyOp29
 70
     0
102
RTVSPropertyOp30
 70
     0
102
RTVSPropertyOp31
 70
     0
102
RTVSPropertyOp32
 70
     0
102
RTVSPropertyOp33
 70
     0
102
RTVSPropertyOp34
 70
     0
102
RTVSPropertyOp35
 70
     0
102
RTVSPropertyOp36
 70
     0
102
RTVSPropertyOp37
 70
     0
102
RTVSPropertyOp38
 70
     0
102
RTVSPropertyOp39
 70
     0
102
RTVSPropertyOp40
 70
     0
102
RTVSPropertyOp41
 70
     0
102
RTVSPropertyOp42
 70
     0
102
RTVSPropertyOp43
 70
     0
102
RTVSPropertyOp44
 70
     0
102
RTVSPropertyOp45
 70
     0
102
RTVSPropertyOp46
 70
     0
102
RTVSPropertyOp47
 70
     0
102
RTVSPropertyOp48
 70
     0
102
RTVSPropertyOp49
 70
     0
102
RTVSPropertyOp50
 70
     0
102
RTVSPropertyOp51
 70
     0
102
RTVSPropertyOp52
 70
     0
102
RTVSPropertyOp53
 70
     0
102
RTVSPropertyOp54
 70
     0
102
RTVSPropertyOp55
 70
     0
102
RTVSPropertyOp56
 70
     0
102
RTVSPropertyOp57
 70
     0
102
RTVSPropertyOp58
 70
     1
102
RTVSPropertyOp59
 70
     1
102
RTVSPropertyOp60
 70
     1
102
RTVSPropertyOp61
 70
     1
102
RTVSPropertyOp62
 70
     1
  0
XRECORD
  5
8322
102
{ACAD_REACTORS
330
8321
102
}
330
8321
100
AcDbXrecord
280
     1
102
RTVSPost2010Prop28
280
     0
102
RTVSPost2010PropOp28
 70
     1
102
RTVSPost2010Prop29
280
     1
102
RTVSPost2010PropOp29
 70
     1
102
RTVSPost2010Prop30
280
     1
102
RTVSPost2010PropOp30
 70
     1
102
RTVSPost2010Prop31
280
     0
102
RTVSPost2010PropOp31
 70
     1
102
RTVSPost2010Prop32
280
     0
102
RTVSPost2010PropOp32
 70
     1
102
RTVSPost2010Prop33
280
     0
102
RTVSPost2010PropOp33
 70
     1
102
RTVSPost2010Prop34
280
     0
102
RTVSPost2010PropOp34
 70
     1
102
RTVSPost2010Prop35
280
     0
102
RTVSPost2010PropOp35
 70
     1
102
RTVSPost2010Prop36
280
     0
102
RTVSPost2010PropOp36
 70
     1
102
RTVSPost2010Prop37
 90
       50
102
RTVSPost2010PropOp37
 70
     1
102
RTVSPost2010Prop38
140
0.0
102
RTVSPost2010PropOp38
 70
     1
102
RTVSPost2010Prop39
140
1.0
102
RTVSPost2010PropOp39
 70
     1
102
RTVSPost2010Prop40
 90
        0
102
RTVSPost2010PropOp40
 70
     1
102
RTVSPost2010Prop41ColorIndex
 90
       18
102
RTVSPost2010Prop41ColorRGB
 90
        0
102
RTVSPost2010PropOp41
 70
     1
102
RTVSPost2010Prop42
 90
       50
102
RTVSPost2010PropOp42
 70
     1
102
RTVSPost2010Prop43
 90
        3
102
RTVSPost2010PropOp43
 70
     1
102
RTVSPost2010Prop44ColorIndex
 90
        5
102
RTVSPost2010Prop44ColorRGB
 90
      255
102
RTVSPost2010PropOp44
 70
     1
102
RTVSPost2010Prop45
280
     0
102
RTVSPost2010PropOp45
 70
     1
102
RTVSPost2010Prop46
 90
       50
102
RTVSPost2010PropOp46
 70
     1
102
RTVSPost2010Prop47
 90
       50
102
RTVSPost2010PropOp47
 70
     1
102
RTVSPost2010Prop48
 90
       50
102
RTVSPost2010PropOp48
 70
     1
102
RTVSPost2010Prop49
280
     0
102
RTVSPost2010PropOp49
 70
     1
102
RTVSPost2010Prop50
 90
       50
102
RTVSPost2010PropOp50
 70
     1
102
RTVSPost2010Prop51ColorIndex
 90
      256
102
RTVSPost2010Prop51ColorRGB
 90
-16777216
102
RTVSPost2010PropOp51
 70
     0
102
RTVSPost2010Prop52
140
1.0
102
RTVSPost2010PropOp52
 70
     0
102
RTVSPost2010Prop53
 90
        2
102
RTVSPost2010PropOp53
 70
     1
102
RTVSPost2010Prop54
  1
strokes_ogs.tif
102
RTVSPost2010PropOp54
 70
     1
102
RTVSPost2010Prop55
280
     0
102
RTVSPost2010PropOp55
 70
     1
102
RTVSPost2010Prop56
140
1.0
102
RTVSPost2010PropOp56
 70
     1
102
RTVSPost2010Prop57
140
1.0
102
RTVSPost2010PropOp57
 70
     1
102
RTVSPropertyOp0
 70
     1
102
RTVSPropertyOp1
 70
     1
102
RTVSPropertyOp2
 70
     1
102
RTVSPropertyOp3
 70
     1
102
RTVSPropertyOp4
 70
     1
102
RTVSPropertyOp5
 70
     1
102
RTVSPropertyOp6
 70
     1
102
RTVSPropertyOp7
 70
     1
102
RTVSPropertyOp8
 70
     1
102
RTVSPropertyOp9
 70
     1
102
RTVSPropertyOp10
 70
     1
102
RTVSPropertyOp11
 70
     1
102
RTVSPropertyOp12
 70
     1
102
RTVSPropertyOp13
 70
     1
102
RTVSPropertyOp14
 70
     1
102
RTVSPropertyOp15
 70
     1
102
RTVSPropertyOp16
 70
     1
102
RTVSPropertyOp17
 70
     1
102
RTVSPropertyOp18
 70
     1
102
RTVSPropertyOp19
 70
     1
102
RTVSPropertyOp20
 70
     1
102
RTVSPropertyOp21
 70
     1
102
RTVSPropertyOp22
 70
     1
102
RTVSPropertyOp23
 70
     1
102
RTVSPropertyOp24
 70
     1
102
RTVSPropertyOp25
 70
     1
102
RTVSPropertyOp26
 70
     1
102
RTVSPropertyOp27
 70
     1
102
RTVSPropertyOp28
 70
     1
102
RTVSPropertyOp29
 70
     1
102
RTVSPropertyOp30
 70
     1
102
RTVSPropertyOp31
 70
     1
102
RTVSPropertyOp32
 70
     1
102
RTVSPropertyOp33
 70
     1
102
RTVSPropertyOp34
 70
     1
102
RTVSPropertyOp35
 70
     1
102
RTVSPropertyOp36
 70
     1
102
RTVSPropertyOp37
 70
     1
102
RTVSPropertyOp38
 70
     1
102
RTVSPropertyOp39
 70
     1
102
RTVSPropertyOp40
 70
     1
102
RTVSPropertyOp41
 70
     1
102
RTVSPropertyOp42
 70
     1
102
RTVSPropertyOp43
 70
     1
102
RTVSPropertyOp44
 70
     1
102
RTVSPropertyOp45
 70
     1
102
RTVSPropertyOp46
 70
     1
102
RTVSPropertyOp47
 70
     1
102
RTVSPropertyOp48
 70
     1
102
RTVSPropertyOp49
 70
     1
102
RTVSPropertyOp50
 70
     1
102
RTVSPropertyOp51
 70
     0
102
RTVSPropertyOp52
 70
     0
102
RTVSPropertyOp53
 70
     1
102
RTVSPropertyOp54
 70
     1
102
RTVSPropertyOp55
 70
     1
102
RTVSPropertyOp56
 70
     1
102
RTVSPropertyOp57
 70
     1
102
RTVSPropertyOp58
 70
     1
102
RTVSPropertyOp59
 70
     1
102
RTVSPropertyOp60
 70
     1
102
RTVSPropertyOp61
 70
     1
102
RTVSPropertyOp62
 70
     1
  0
XRECORD
  5
8338
102
{ACAD_REACTORS
330
8337
102
}
330
8337
100
AcDbXrecord
280
     1
102
RTVSPost2010Prop28
280
     0
102
RTVSPost2010PropOp28
 70
     1
102
RTVSPost2010Prop29
280
     1
102
RTVSPost2010PropOp29
 70
     1
102
RTVSPost2010Prop30
280
     1
102
RTVSPost2010PropOp30
 70
     1
102
RTVSPost2010Prop31
280
     0
102
RTVSPost2010PropOp31
 70
     1
102
RTVSPost2010Prop32
280
     0
102
RTVSPost2010PropOp32
 70
     1
102
RTVSPost2010Prop33
280
     0
102
RTVSPost2010PropOp33
 70
     1
102
RTVSPost2010Prop34
280
     0
102
RTVSPost2010PropOp34
 70
     1
102
RTVSPost2010Prop35
280
     0
102
RTVSPost2010PropOp35
 70
     1
102
RTVSPost2010Prop36
280
     0
102
RTVSPost2010PropOp36
 70
     1
102
RTVSPost2010Prop37
 90
       50
102
RTVSPost2010PropOp37
 70
     1
102
RTVSPost2010Prop38
140
0.0
102
RTVSPost2010PropOp38
 70
     1
102
RTVSPost2010Prop39
140
1.0
102
RTVSPost2010PropOp39
 70
     1
102
RTVSPost2010Prop40
 90
        0
102
RTVSPost2010PropOp40
 70
     1
102
RTVSPost2010Prop41ColorIndex
 90
       18
102
RTVSPost2010Prop41ColorRGB
 90
        0
102
RTVSPost2010PropOp41
 70
     1
102
RTVSPost2010Prop42
 90
       50
102
RTVSPost2010PropOp42
 70
     1
102
RTVSPost2010Prop43
 90
        3
102
RTVSPost2010PropOp43
 70
     1
102
RTVSPost2010Prop44ColorIndex
 90
        5
102
RTVSPost2010Prop44ColorRGB
 90
      255
102
RTVSPost2010PropOp44
 70
     1
102
RTVSPost2010Prop45
280
     0
102
RTVSPost2010PropOp45
 70
     1
102
RTVSPost2010Prop46
 90
       50
102
RTVSPost2010PropOp46
 70
     1
102
RTVSPost2010Prop47
 90
       50
102
RTVSPost2010PropOp47
 70
     1
102
RTVSPost2010Prop48
 90
       50
102
RTVSPost2010PropOp48
 70
     1
102
RTVSPost2010Prop49
280
     0
102
RTVSPost2010PropOp49
 70
     1
102
RTVSPost2010Prop50
 90
       50
102
RTVSPost2010PropOp50
 70
     1
102
RTVSPost2010Prop51ColorIndex
 90
      256
102
RTVSPost2010Prop51ColorRGB
 90
-16777216
102
RTVSPost2010PropOp51
 70
     0
102
RTVSPost2010Prop52
140
1.0
102
RTVSPost2010PropOp52
 70
     0
102
RTVSPost2010Prop53
 90
        2
102
RTVSPost2010PropOp53
 70
     1
102
RTVSPost2010Prop54
  1
strokes_ogs.tif
102
RTVSPost2010PropOp54
 70
     1
102
RTVSPost2010Prop55
280
     0
102
RTVSPost2010PropOp55
 70
     1
102
RTVSPost2010Prop56
140
1.0
102
RTVSPost2010PropOp56
 70
     1
102
RTVSPost2010Prop57
140
1.0
102
RTVSPost2010PropOp57
 70
     1
102
RTVSPropertyOp0
 70
     1
102
RTVSPropertyOp1
 70
     1
102
RTVSPropertyOp2
 70
     1
102
RTVSPropertyOp3
 70
     1
102
RTVSPropertyOp4
 70
     1
102
RTVSPropertyOp5
 70
     1
102
RTVSPropertyOp6
 70
     1
102
RTVSPropertyOp7
 70
     1
102
RTVSPropertyOp8
 70
     1
102
RTVSPropertyOp9
 70
     1
102
RTVSPropertyOp10
 70
     1
102
RTVSPropertyOp11
 70
     1
102
RTVSPropertyOp12
 70
     1
102
RTVSPropertyOp13
 70
     1
102
RTVSPropertyOp14
 70
     1
102
RTVSPropertyOp15
 70
     1
102
RTVSPropertyOp16
 70
     1
102
RTVSPropertyOp17
 70
     1
102
RTVSPropertyOp18
 70
     1
102
RTVSPropertyOp19
 70
     1
102
RTVSPropertyOp20
 70
     1
102
RTVSPropertyOp21
 70
     1
102
RTVSPropertyOp22
 70
     1
102
RTVSPropertyOp23
 70
     1
102
RTVSPropertyOp24
 70
     1
102
RTVSPropertyOp25
 70
     1
102
RTVSPropertyOp26
 70
     1
102
RTVSPropertyOp27
 70
     1
102
RTVSPropertyOp28
 70
     1
102
RTVSPropertyOp29
 70
     1
102
RTVSPropertyOp30
 70
     1
102
RTVSPropertyOp31
 70
     1
102
RTVSPropertyOp32
 70
     1
102
RTVSPropertyOp33
 70
     1
102
RTVSPropertyOp34
 70
     1
102
RTVSPropertyOp35
 70
     1
102
RTVSPropertyOp36
 70
     1
102
RTVSPropertyOp37
 70
     1
102
RTVSPropertyOp38
 70
     1
102
RTVSPropertyOp39
 70
     1
102
RTVSPropertyOp40
 70
     1
102
RTVSPropertyOp41
 70
     1
102
RTVSPropertyOp42
 70
     1
102
RTVSPropertyOp43
 70
     1
102
RTVSPropertyOp44
 70
     1
102
RTVSPropertyOp45
 70
     1
102
RTVSPropertyOp46
 70
     1
102
RTVSPropertyOp47
 70
     1
102
RTVSPropertyOp48
 70
     1
102
RTVSPropertyOp49
 70
     1
102
RTVSPropertyOp50
 70
     1
102
RTVSPropertyOp51
 70
     0
102
RTVSPropertyOp52
 70
     0
102
RTVSPropertyOp53
 70
     1
102
RTVSPropertyOp54
 70
     1
102
RTVSPropertyOp55
 70
     1
102
RTVSPropertyOp56
 70
     1
102
RTVSPropertyOp57
 70
     1
102
RTVSPropertyOp58
 70
     1
102
RTVSPropertyOp59
 70
     1
102
RTVSPropertyOp60
 70
     1
102
RTVSPropertyOp61
 70
     1
102
RTVSPropertyOp62
 70
     1
  0
XRECORD
  5
8336
102
{ACAD_REACTORS
330
8335
102
}
330
8335
100
AcDbXrecord
280
     1
102
RTVSPost2010Prop28
280
     0
102
RTVSPost2010PropOp28
 70
     1
102
RTVSPost2010Prop29
280
     1
102
RTVSPost2010PropOp29
 70
     1
102
RTVSPost2010Prop30
280
     1
102
RTVSPost2010PropOp30
 70
     1
102
RTVSPost2010Prop31
280
     0
102
RTVSPost2010PropOp31
 70
     1
102
RTVSPost2010Prop32
280
     0
102
RTVSPost2010PropOp32
 70
     1
102
RTVSPost2010Prop33
280
     0
102
RTVSPost2010PropOp33
 70
     1
102
RTVSPost2010Prop34
280
     0
102
RTVSPost2010PropOp34
 70
     1
102
RTVSPost2010Prop35
280
     0
102
RTVSPost2010PropOp35
 70
     1
102
RTVSPost2010Prop36
280
     0
102
RTVSPost2010PropOp36
 70
     1
102
RTVSPost2010Prop37
 90
       50
102
RTVSPost2010PropOp37
 70
     1
102
RTVSPost2010Prop38
140
0.0
102
RTVSPost2010PropOp38
 70
     1
102
RTVSPost2010Prop39
140
1.0
102
RTVSPost2010PropOp39
 70
     1
102
RTVSPost2010Prop40
 90
        0
102
RTVSPost2010PropOp40
 70
     1
102
RTVSPost2010Prop41ColorIndex
 90
       18
102
RTVSPost2010Prop41ColorRGB
 90
        0
102
RTVSPost2010PropOp41
 70
     1
102
RTVSPost2010Prop42
 90
       50
102
RTVSPost2010PropOp42
 70
     1
102
RTVSPost2010Prop43
 90
        3
102
RTVSPost2010PropOp43
 70
     1
102
RTVSPost2010Prop44ColorIndex
 90
        5
102
RTVSPost2010Prop44ColorRGB
 90
      255
102
RTVSPost2010PropOp44
 70
     1
102
RTVSPost2010Prop45
280
     0
102
RTVSPost2010PropOp45
 70
     1
102
RTVSPost2010Prop46
 90
       50
102
RTVSPost2010PropOp46
 70
     1
102
RTVSPost2010Prop47
 90
       50
102
RTVSPost2010PropOp47
 70
     1
102
RTVSPost2010Prop48
 90
       50
102
RTVSPost2010PropOp48
 70
     1
102
RTVSPost2010Prop49
280
     0
102
RTVSPost2010PropOp49
 70
     1
102
RTVSPost2010Prop50
 90
       50
102
RTVSPost2010PropOp50
 70
     1
102
RTVSPost2010Prop51ColorIndex
 90
      256
102
RTVSPost2010Prop51ColorRGB
 90
-16777216
102
RTVSPost2010PropOp51
 70
     0
102
RTVSPost2010Prop52
140
1.0
102
RTVSPost2010PropOp52
 70
     0
102
RTVSPost2010Prop53
 90
        2
102
RTVSPost2010PropOp53
 70
     1
102
RTVSPost2010Prop54
  1
strokes_ogs.tif
102
RTVSPost2010PropOp54
 70
     1
102
RTVSPost2010Prop55
280
     0
102
RTVSPost2010PropOp55
 70
     1
102
RTVSPost2010Prop56
140
1.0
102
RTVSPost2010PropOp56
 70
     1
102
RTVSPost2010Prop57
140
1.0
102
RTVSPost2010PropOp57
 70
     1
102
RTVSPropertyOp0
 70
     1
102
RTVSPropertyOp1
 70
     1
102
RTVSPropertyOp2
 70
     1
102
RTVSPropertyOp3
 70
     1
102
RTVSPropertyOp4
 70
     1
102
RTVSPropertyOp5
 70
     1
102
RTVSPropertyOp6
 70
     1
102
RTVSPropertyOp7
 70
     1
102
RTVSPropertyOp8
 70
     1
102
RTVSPropertyOp9
 70
     1
102
RTVSPropertyOp10
 70
     1
102
RTVSPropertyOp11
 70
     1
102
RTVSPropertyOp12
 70
     1
102
RTVSPropertyOp13
 70
     1
102
RTVSPropertyOp14
 70
     1
102
RTVSPropertyOp15
 70
     1
102
RTVSPropertyOp16
 70
     1
102
RTVSPropertyOp17
 70
     1
102
RTVSPropertyOp18
 70
     1
102
RTVSPropertyOp19
 70
     1
102
RTVSPropertyOp20
 70
     1
102
RTVSPropertyOp21
 70
     1
102
RTVSPropertyOp22
 70
     1
102
RTVSPropertyOp23
 70
     1
102
RTVSPropertyOp24
 70
     1
102
RTVSPropertyOp25
 70
     1
102
RTVSPropertyOp26
 70
     1
102
RTVSPropertyOp27
 70
     1
102
RTVSPropertyOp28
 70
     1
102
RTVSPropertyOp29
 70
     1
102
RTVSPropertyOp30
 70
     1
102
RTVSPropertyOp31
 70
     1
102
RTVSPropertyOp32
 70
     1
102
RTVSPropertyOp33
 70
     1
102
RTVSPropertyOp34
 70
     1
102
RTVSPropertyOp35
 70
     1
102
RTVSPropertyOp36
 70
     1
102
RTVSPropertyOp37
 70
     1
102
RTVSPropertyOp38
 70
     1
102
RTVSPropertyOp39
 70
     1
102
RTVSPropertyOp40
 70
     1
102
RTVSPropertyOp41
 70
     1
102
RTVSPropertyOp42
 70
     1
102
RTVSPropertyOp43
 70
     1
102
RTVSPropertyOp44
 70
     1
102
RTVSPropertyOp45
 70
     1
102
RTVSPropertyOp46
 70
     1
102
RTVSPropertyOp47
 70
     1
102
RTVSPropertyOp48
 70
     1
102
RTVSPropertyOp49
 70
     1
102
RTVSPropertyOp50
 70
     1
102
RTVSPropertyOp51
 70
     0
102
RTVSPropertyOp52
 70
     0
102
RTVSPropertyOp53
 70
     1
102
RTVSPropertyOp54
 70
     1
102
RTVSPropertyOp55
 70
     1
102
RTVSPropertyOp56
 70
     1
102
RTVSPropertyOp57
 70
     1
102
RTVSPropertyOp58
 70
     1
102
RTVSPropertyOp59
 70
     1
102
RTVSPropertyOp60
 70
     1
102
RTVSPropertyOp61
 70
     1
102
RTVSPropertyOp62
 70
     1
  0
XRECORD
  5
8330
102
{ACAD_REACTORS
330
832F
102
}
330
832F
100
AcDbXrecord
280
     1
102
RTVSPost2010Prop28
280
     0
102
RTVSPost2010PropOp28
 70
     1
102
RTVSPost2010Prop29
280
     1
102
RTVSPost2010PropOp29
 70
     1
102
RTVSPost2010Prop30
280
     1
102
RTVSPost2010PropOp30
 70
     1
102
RTVSPost2010Prop31
280
     0
102
RTVSPost2010PropOp31
 70
     1
102
RTVSPost2010Prop32
280
     0
102
RTVSPost2010PropOp32
 70
     1
102
RTVSPost2010Prop33
280
     0
102
RTVSPost2010PropOp33
 70
     1
102
RTVSPost2010Prop34
280
     0
102
RTVSPost2010PropOp34
 70
     1
102
RTVSPost2010Prop35
280
     0
102
RTVSPost2010PropOp35
 70
     1
102
RTVSPost2010Prop36
280
     0
102
RTVSPost2010PropOp36
 70
     1
102
RTVSPost2010Prop37
 90
       50
102
RTVSPost2010PropOp37
 70
     1
102
RTVSPost2010Prop38
140
0.0
102
RTVSPost2010PropOp38
 70
     1
102
RTVSPost2010Prop39
140
1.0
102
RTVSPost2010PropOp39
 70
     1
102
RTVSPost2010Prop40
 90
        0
102
RTVSPost2010PropOp40
 70
     1
102
RTVSPost2010Prop41ColorIndex
 90
       18
102
RTVSPost2010Prop41ColorRGB
 90
        0
102
RTVSPost2010PropOp41
 70
     1
102
RTVSPost2010Prop42
 90
       50
102
RTVSPost2010PropOp42
 70
     1
102
RTVSPost2010Prop43
 90
        3
102
RTVSPost2010PropOp43
 70
     1
102
RTVSPost2010Prop44ColorIndex
 90
        5
102
RTVSPost2010Prop44ColorRGB
 90
      255
102
RTVSPost2010PropOp44
 70
     1
102
RTVSPost2010Prop45
280
     0
102
RTVSPost2010PropOp45
 70
     1
102
RTVSPost2010Prop46
 90
       50
102
RTVSPost2010PropOp46
 70
     1
102
RTVSPost2010Prop47
 90
       50
102
RTVSPost2010PropOp47
 70
     1
102
RTVSPost2010Prop48
 90
       50
102
RTVSPost2010PropOp48
 70
     1
102
RTVSPost2010Prop49
280
     0
102
RTVSPost2010PropOp49
 70
     1
102
RTVSPost2010Prop50
 90
       50
102
RTVSPost2010PropOp50
 70
     1
102
RTVSPost2010Prop51ColorIndex
 90
      256
102
RTVSPost2010Prop51ColorRGB
 90
-16777216
102
RTVSPost2010PropOp51
 70
     0
102
RTVSPost2010Prop52
140
1.0
102
RTVSPost2010PropOp52
 70
     0
102
RTVSPost2010Prop53
 90
        2
102
RTVSPost2010PropOp53
 70
     1
102
RTVSPost2010Prop54
  1
strokes_ogs.tif
102
RTVSPost2010PropOp54
 70
     1
102
RTVSPost2010Prop55
280
     0
102
RTVSPost2010PropOp55
 70
     1
102
RTVSPost2010Prop56
140
1.0
102
RTVSPost2010PropOp56
 70
     1
102
RTVSPost2010Prop57
140
1.0
102
RTVSPost2010PropOp57
 70
     1
102
RTVSPropertyOp0
 70
     1
102
RTVSPropertyOp1
 70
     1
102
RTVSPropertyOp2
 70
     1
102
RTVSPropertyOp3
 70
     1
102
RTVSPropertyOp4
 70
     1
102
RTVSPropertyOp5
 70
     1
102
RTVSPropertyOp6
 70
     1
102
RTVSPropertyOp7
 70
     1
102
RTVSPropertyOp8
 70
     1
102
RTVSPropertyOp9
 70
     1
102
RTVSPropertyOp10
 70
     1
102
RTVSPropertyOp11
 70
     1
102
RTVSPropertyOp12
 70
     1
102
RTVSPropertyOp13
 70
     1
102
RTVSPropertyOp14
 70
     1
102
RTVSPropertyOp15
 70
     1
102
RTVSPropertyOp16
 70
     1
102
RTVSPropertyOp17
 70
     1
102
RTVSPropertyOp18
 70
     1
102
RTVSPropertyOp19
 70
     1
102
RTVSPropertyOp20
 70
     1
102
RTVSPropertyOp21
 70
     1
102
RTVSPropertyOp22
 70
     1
102
RTVSPropertyOp23
 70
     1
102
RTVSPropertyOp24
 70
     1
102
RTVSPropertyOp25
 70
     1
102
RTVSPropertyOp26
 70
     1
102
RTVSPropertyOp27
 70
     1
102
RTVSPropertyOp28
 70
     1
102
RTVSPropertyOp29
 70
     1
102
RTVSPropertyOp30
 70
     1
102
RTVSPropertyOp31
 70
     1
102
RTVSPropertyOp32
 70
     1
102
RTVSPropertyOp33
 70
     1
102
RTVSPropertyOp34
 70
     1
102
RTVSPropertyOp35
 70
     1
102
RTVSPropertyOp36
 70
     1
102
RTVSPropertyOp37
 70
     1
102
RTVSPropertyOp38
 70
     1
102
RTVSPropertyOp39
 70
     1
102
RTVSPropertyOp40
 70
     1
102
RTVSPropertyOp41
 70
     1
102
RTVSPropertyOp42
 70
     1
102
RTVSPropertyOp43
 70
     1
102
RTVSPropertyOp44
 70
     1
102
RTVSPropertyOp45
 70
     1
102
RTVSPropertyOp46
 70
     1
102
RTVSPropertyOp47
 70
     1
102
RTVSPropertyOp48
 70
     1
102
RTVSPropertyOp49
 70
     1
102
RTVSPropertyOp50
 70
     1
102
RTVSPropertyOp51
 70
     0
102
RTVSPropertyOp52
 70
     0
102
RTVSPropertyOp53
 70
     1
102
RTVSPropertyOp54
 70
     1
102
RTVSPropertyOp55
 70
     1
102
RTVSPropertyOp56
 70
     1
102
RTVSPropertyOp57
 70
     1
102
RTVSPropertyOp58
 70
     1
102
RTVSPropertyOp59
 70
     1
102
RTVSPropertyOp60
 70
     1
102
RTVSPropertyOp61
 70
     1
102
RTVSPropertyOp62
 70
     1
  0
XRECORD
  5
8332
102
{ACAD_REACTORS
330
8331
102
}
330
8331
100
AcDbXrecord
280
     1
102
RTVSPost2010Prop28
280
     0
102
RTVSPost2010PropOp28
 70
     1
102
RTVSPost2010Prop29
280
     1
102
RTVSPost2010PropOp29
 70
     1
102
RTVSPost2010Prop30
280
     1
102
RTVSPost2010PropOp30
 70
     1
102
RTVSPost2010Prop31
280
     0
102
RTVSPost2010PropOp31
 70
     1
102
RTVSPost2010Prop32
280
     0
102
RTVSPost2010PropOp32
 70
     1
102
RTVSPost2010Prop33
280
     0
102
RTVSPost2010PropOp33
 70
     1
102
RTVSPost2010Prop34
280
     0
102
RTVSPost2010PropOp34
 70
     1
102
RTVSPost2010Prop35
280
     0
102
RTVSPost2010PropOp35
 70
     1
102
RTVSPost2010Prop36
280
     0
102
RTVSPost2010PropOp36
 70
     1
102
RTVSPost2010Prop37
 90
       50
102
RTVSPost2010PropOp37
 70
     1
102
RTVSPost2010Prop38
140
0.0
102
RTVSPost2010PropOp38
 70
     1
102
RTVSPost2010Prop39
140
1.0
102
RTVSPost2010PropOp39
 70
     1
102
RTVSPost2010Prop40
 90
        0
102
RTVSPost2010PropOp40
 70
     1
102
RTVSPost2010Prop41ColorIndex
 90
       18
102
RTVSPost2010Prop41ColorRGB
 90
        0
102
RTVSPost2010PropOp41
 70
     1
102
RTVSPost2010Prop42
 90
       50
102
RTVSPost2010PropOp42
 70
     1
102
RTVSPost2010Prop43
 90
        3
102
RTVSPost2010PropOp43
 70
     1
102
RTVSPost2010Prop44ColorIndex
 90
        5
102
RTVSPost2010Prop44ColorRGB
 90
      255
102
RTVSPost2010PropOp44
 70
     1
102
RTVSPost2010Prop45
280
     0
102
RTVSPost2010PropOp45
 70
     1
102
RTVSPost2010Prop46
 90
       50
102
RTVSPost2010PropOp46
 70
     1
102
RTVSPost2010Prop47
 90
       50
102
RTVSPost2010PropOp47
 70
     1
102
RTVSPost2010Prop48
 90
       50
102
RTVSPost2010PropOp48
 70
     1
102
RTVSPost2010Prop49
280
     0
102
RTVSPost2010PropOp49
 70
     1
102
RTVSPost2010Prop50
 90
       50
102
RTVSPost2010PropOp50
 70
     1
102
RTVSPost2010Prop51ColorIndex
 90
      256
102
RTVSPost2010Prop51ColorRGB
 90
-16777216
102
RTVSPost2010PropOp51
 70
     0
102
RTVSPost2010Prop52
140
1.0
102
RTVSPost2010PropOp52
 70
     0
102
RTVSPost2010Prop53
 90
        2
102
RTVSPost2010PropOp53
 70
     1
102
RTVSPost2010Prop54
  1
strokes_ogs.tif
102
RTVSPost2010PropOp54
 70
     1
102
RTVSPost2010Prop55
280
     0
102
RTVSPost2010PropOp55
 70
     1
102
RTVSPost2010Prop56
140
1.0
102
RTVSPost2010PropOp56
 70
     1
102
RTVSPost2010Prop57
140
1.0
102
RTVSPost2010PropOp57
 70
     1
102
RTVSPropertyOp0
 70
     1
102
RTVSPropertyOp1
 70
     1
102
RTVSPropertyOp2
 70
     1
102
RTVSPropertyOp3
 70
     1
102
RTVSPropertyOp4
 70
     1
102
RTVSPropertyOp5
 70
     1
102
RTVSPropertyOp6
 70
     1
102
RTVSPropertyOp7
 70
     1
102
RTVSPropertyOp8
 70
     1
102
RTVSPropertyOp9
 70
     1
102
RTVSPropertyOp10
 70
     1
102
RTVSPropertyOp11
 70
     1
102
RTVSPropertyOp12
 70
     1
102
RTVSPropertyOp13
 70
     1
102
RTVSPropertyOp14
 70
     1
102
RTVSPropertyOp15
 70
     1
102
RTVSPropertyOp16
 70
     1
102
RTVSPropertyOp17
 70
     1
102
RTVSPropertyOp18
 70
     1
102
RTVSPropertyOp19
 70
     1
102
RTVSPropertyOp20
 70
     1
102
RTVSPropertyOp21
 70
     1
102
RTVSPropertyOp22
 70
     1
102
RTVSPropertyOp23
 70
     1
102
RTVSPropertyOp24
 70
     1
102
RTVSPropertyOp25
 70
     1
102
RTVSPropertyOp26
 70
     1
102
RTVSPropertyOp27
 70
     1
102
RTVSPropertyOp28
 70
     1
102
RTVSPropertyOp29
 70
     1
102
RTVSPropertyOp30
 70
     1
102
RTVSPropertyOp31
 70
     1
102
RTVSPropertyOp32
 70
     1
102
RTVSPropertyOp33
 70
     1
102
RTVSPropertyOp34
 70
     1
102
RTVSPropertyOp35
 70
     1
102
RTVSPropertyOp36
 70
     1
102
RTVSPropertyOp37
 70
     1
102
RTVSPropertyOp38
 70
     1
102
RTVSPropertyOp39
 70
     1
102
RTVSPropertyOp40
 70
     1
102
RTVSPropertyOp41
 70
     1
102
RTVSPropertyOp42
 70
     1
102
RTVSPropertyOp43
 70
     1
102
RTVSPropertyOp44
 70
     1
102
RTVSPropertyOp45
 70
     1
102
RTVSPropertyOp46
 70
     1
102
RTVSPropertyOp47
 70
     1
102
RTVSPropertyOp48
 70
     1
102
RTVSPropertyOp49
 70
     1
102
RTVSPropertyOp50
 70
     1
102
RTVSPropertyOp51
 70
     0
102
RTVSPropertyOp52
 70
     0
102
RTVSPropertyOp53
 70
     1
102
RTVSPropertyOp54
 70
     1
102
RTVSPropertyOp55
 70
     1
102
RTVSPropertyOp56
 70
     1
102
RTVSPropertyOp57
 70
     1
102
RTVSPropertyOp58
 70
     1
102
RTVSPropertyOp59
 70
     1
102
RTVSPropertyOp60
 70
     1
102
RTVSPropertyOp61
 70
     1
102
RTVSPropertyOp62
 70
     1
  0
XRECORD
  5
8328
102
{ACAD_REACTORS
330
8327
102
}
330
8327
100
AcDbXrecord
280
     1
102
RTVSPost2010Prop28
280
     0
102
RTVSPost2010PropOp28
 70
     1
102
RTVSPost2010Prop29
280
     1
102
RTVSPost2010PropOp29
 70
     1
102
RTVSPost2010Prop30
280
     1
102
RTVSPost2010PropOp30
 70
     1
102
RTVSPost2010Prop31
280
     0
102
RTVSPost2010PropOp31
 70
     1
102
RTVSPost2010Prop32
280
     0
102
RTVSPost2010PropOp32
 70
     1
102
RTVSPost2010Prop33
280
     0
102
RTVSPost2010PropOp33
 70
     1
102
RTVSPost2010Prop34
280
     0
102
RTVSPost2010PropOp34
 70
     1
102
RTVSPost2010Prop35
280
     0
102
RTVSPost2010PropOp35
 70
     1
102
RTVSPost2010Prop36
280
     0
102
RTVSPost2010PropOp36
 70
     1
102
RTVSPost2010Prop37
 90
       50
102
RTVSPost2010PropOp37
 70
     1
102
RTVSPost2010Prop38
140
0.0
102
RTVSPost2010PropOp38
 70
     1
102
RTVSPost2010Prop39
140
1.0
102
RTVSPost2010PropOp39
 70
     1
102
RTVSPost2010Prop40
 90
        0
102
RTVSPost2010PropOp40
 70
     1
102
RTVSPost2010Prop41ColorIndex
 90
       18
102
RTVSPost2010Prop41ColorRGB
 90
        0
102
RTVSPost2010PropOp41
 70
     1
102
RTVSPost2010Prop42
 90
       50
102
RTVSPost2010PropOp42
 70
     1
102
RTVSPost2010Prop43
 90
        3
102
RTVSPost2010PropOp43
 70
     1
102
RTVSPost2010Prop44ColorIndex
 90
        5
102
RTVSPost2010Prop44ColorRGB
 90
      255
102
RTVSPost2010PropOp44
 70
     1
102
RTVSPost2010Prop45
280
     0
102
RTVSPost2010PropOp45
 70
     1
102
RTVSPost2010Prop46
 90
       50
102
RTVSPost2010PropOp46
 70
     1
102
RTVSPost2010Prop47
 90
       50
102
RTVSPost2010PropOp47
 70
     1
102
RTVSPost2010Prop48
 90
       50
102
RTVSPost2010PropOp48
 70
     1
102
RTVSPost2010Prop49
280
     0
102
RTVSPost2010PropOp49
 70
     1
102
RTVSPost2010Prop50
 90
       50
102
RTVSPost2010PropOp50
 70
     1
102
RTVSPost2010Prop51ColorIndex
 90
      256
102
RTVSPost2010Prop51ColorRGB
 90
-16777216
102
RTVSPost2010PropOp51
 70
     0
102
RTVSPost2010Prop52
140
1.0
102
RTVSPost2010PropOp52
 70
     0
102
RTVSPost2010Prop53
 90
        2
102
RTVSPost2010PropOp53
 70
     1
102
RTVSPost2010Prop54
  1
strokes_ogs.tif
102
RTVSPost2010PropOp54
 70
     1
102
RTVSPost2010Prop55
280
     0
102
RTVSPost2010PropOp55
 70
     1
102
RTVSPost2010Prop56
140
1.0
102
RTVSPost2010PropOp56
 70
     1
102
RTVSPost2010Prop57
140
1.0
102
RTVSPost2010PropOp57
 70
     1
102
RTVSPropertyOp0
 70
     1
102
RTVSPropertyOp1
 70
     1
102
RTVSPropertyOp2
 70
     1
102
RTVSPropertyOp3
 70
     1
102
RTVSPropertyOp4
 70
     1
102
RTVSPropertyOp5
 70
     1
102
RTVSPropertyOp6
 70
     1
102
RTVSPropertyOp7
 70
     1
102
RTVSPropertyOp8
 70
     1
102
RTVSPropertyOp9
 70
     1
102
RTVSPropertyOp10
 70
     1
102
RTVSPropertyOp11
 70
     1
102
RTVSPropertyOp12
 70
     1
102
RTVSPropertyOp13
 70
     1
102
RTVSPropertyOp14
 70
     1
102
RTVSPropertyOp15
 70
     1
102
RTVSPropertyOp16
 70
     1
102
RTVSPropertyOp17
 70
     1
102
RTVSPropertyOp18
 70
     1
102
RTVSPropertyOp19
 70
     1
102
RTVSPropertyOp20
 70
     1
102
RTVSPropertyOp21
 70
     1
102
RTVSPropertyOp22
 70
     1
102
RTVSPropertyOp23
 70
     1
102
RTVSPropertyOp24
 70
     1
102
RTVSPropertyOp25
 70
     1
102
RTVSPropertyOp26
 70
     1
102
RTVSPropertyOp27
 70
     1
102
RTVSPropertyOp28
 70
     1
102
RTVSPropertyOp29
 70
     1
102
RTVSPropertyOp30
 70
     1
102
RTVSPropertyOp31
 70
     1
102
RTVSPropertyOp32
 70
     1
102
RTVSPropertyOp33
 70
     1
102
RTVSPropertyOp34
 70
     1
102
RTVSPropertyOp35
 70
     1
102
RTVSPropertyOp36
 70
     1
102
RTVSPropertyOp37
 70
     1
102
RTVSPropertyOp38
 70
     1
102
RTVSPropertyOp39
 70
     1
102
RTVSPropertyOp40
 70
     1
102
RTVSPropertyOp41
 70
     1
102
RTVSPropertyOp42
 70
     1
102
RTVSPropertyOp43
 70
     1
102
RTVSPropertyOp44
 70
     1
102
RTVSPropertyOp45
 70
     1
102
RTVSPropertyOp46
 70
     1
102
RTVSPropertyOp47
 70
     1
102
RTVSPropertyOp48
 70
     1
102
RTVSPropertyOp49
 70
     1
102
RTVSPropertyOp50
 70
     1
102
RTVSPropertyOp51
 70
     0
102
RTVSPropertyOp52
 70
     0
102
RTVSPropertyOp53
 70
     1
102
RTVSPropertyOp54
 70
     1
102
RTVSPropertyOp55
 70
     1
102
RTVSPropertyOp56
 70
     1
102
RTVSPropertyOp57
 70
     1
102
RTVSPropertyOp58
 70
     1
102
RTVSPropertyOp59
 70
     1
102
RTVSPropertyOp60
 70
     1
102
RTVSPropertyOp61
 70
     1
102
RTVSPropertyOp62
 70
     1
  0
XRECORD
  5
831C
102
{ACAD_REACTORS
330
831B
102
}
330
831B
100
AcDbXrecord
280
     1
102
RTVSPost2010Prop28
280
     0
102
RTVSPost2010PropOp28
 70
     1
102
RTVSPost2010Prop29
280
     1
102
RTVSPost2010PropOp29
 70
     1
102
RTVSPost2010Prop30
280
     1
102
RTVSPost2010PropOp30
 70
     1
102
RTVSPost2010Prop31
280
     0
102
RTVSPost2010PropOp31
 70
     1
102
RTVSPost2010Prop32
280
     0
102
RTVSPost2010PropOp32
 70
     1
102
RTVSPost2010Prop33
280
     0
102
RTVSPost2010PropOp33
 70
     1
102
RTVSPost2010Prop34
280
     0
102
RTVSPost2010PropOp34
 70
     1
102
RTVSPost2010Prop35
280
     0
102
RTVSPost2010PropOp35
 70
     1
102
RTVSPost2010Prop36
280
     0
102
RTVSPost2010PropOp36
 70
     1
102
RTVSPost2010Prop37
 90
       50
102
RTVSPost2010PropOp37
 70
     1
102
RTVSPost2010Prop38
140
0.0
102
RTVSPost2010PropOp38
 70
     1
102
RTVSPost2010Prop39
140
1.0
102
RTVSPost2010PropOp39
 70
     1
102
RTVSPost2010Prop40
 90
        0
102
RTVSPost2010PropOp40
 70
     1
102
RTVSPost2010Prop41ColorIndex
 90
       18
102
RTVSPost2010Prop41ColorRGB
 90
        0
102
RTVSPost2010PropOp41
 70
     1
102
RTVSPost2010Prop42
 90
       50
102
RTVSPost2010PropOp42
 70
     1
102
RTVSPost2010Prop43
 90
        3
102
RTVSPost2010PropOp43
 70
     1
102
RTVSPost2010Prop44ColorIndex
 90
        5
102
RTVSPost2010Prop44ColorRGB
 90
      255
102
RTVSPost2010PropOp44
 70
     1
102
RTVSPost2010Prop45
280
     0
102
RTVSPost2010PropOp45
 70
     1
102
RTVSPost2010Prop46
 90
       50
102
RTVSPost2010PropOp46
 70
     1
102
RTVSPost2010Prop47
 90
       50
102
RTVSPost2010PropOp47
 70
     1
102
RTVSPost2010Prop48
 90
       50
102
RTVSPost2010PropOp48
 70
     1
102
RTVSPost2010Prop49
280
     0
102
RTVSPost2010PropOp49
 70
     1
102
RTVSPost2010Prop50
 90
       50
102
RTVSPost2010PropOp50
 70
     1
102
RTVSPost2010Prop51ColorIndex
 90
      256
102
RTVSPost2010Prop51ColorRGB
 90
-16777216
102
RTVSPost2010PropOp51
 70
     0
102
RTVSPost2010Prop52
140
1.0
102
RTVSPost2010PropOp52
 70
     0
102
RTVSPost2010Prop53
 90
        2
102
RTVSPost2010PropOp53
 70
     1
102
RTVSPost2010Prop54
  1
strokes_ogs.tif
102
RTVSPost2010PropOp54
 70
     1
102
RTVSPost2010Prop55
280
     0
102
RTVSPost2010PropOp55
 70
     1
102
RTVSPost2010Prop56
140
1.0
102
RTVSPost2010PropOp56
 70
     1
102
RTVSPost2010Prop57
140
1.0
102
RTVSPost2010PropOp57
 70
     1
102
RTVSPropertyOp0
 70
     1
102
RTVSPropertyOp1
 70
     1
102
RTVSPropertyOp2
 70
     1
102
RTVSPropertyOp3
 70
     1
102
RTVSPropertyOp4
 70
     1
102
RTVSPropertyOp5
 70
     1
102
RTVSPropertyOp6
 70
     1
102
RTVSPropertyOp7
 70
     1
102
RTVSPropertyOp8
 70
     1
102
RTVSPropertyOp9
 70
     1
102
RTVSPropertyOp10
 70
     1
102
RTVSPropertyOp11
 70
     1
102
RTVSPropertyOp12
 70
     1
102
RTVSPropertyOp13
 70
     1
102
RTVSPropertyOp14
 70
     1
102
RTVSPropertyOp15
 70
     1
102
RTVSPropertyOp16
 70
     1
102
RTVSPropertyOp17
 70
     1
102
RTVSPropertyOp18
 70
     1
102
RTVSPropertyOp19
 70
     1
102
RTVSPropertyOp20
 70
     1
102
RTVSPropertyOp21
 70
     1
102
RTVSPropertyOp22
 70
     1
102
RTVSPropertyOp23
 70
     1
102
RTVSPropertyOp24
 70
     1
102
RTVSPropertyOp25
 70
     1
102
RTVSPropertyOp26
 70
     1
102
RTVSPropertyOp27
 70
     1
102
RTVSPropertyOp28
 70
     1
102
RTVSPropertyOp29
 70
     1
102
RTVSPropertyOp30
 70
     1
102
RTVSPropertyOp31
 70
     1
102
RTVSPropertyOp32
 70
     1
102
RTVSPropertyOp33
 70
     1
102
RTVSPropertyOp34
 70
     1
102
RTVSPropertyOp35
 70
     1
102
RTVSPropertyOp36
 70
     1
102
RTVSPropertyOp37
 70
     1
102
RTVSPropertyOp38
 70
     1
102
RTVSPropertyOp39
 70
     1
102
RTVSPropertyOp40
 70
     1
102
RTVSPropertyOp41
 70
     1
102
RTVSPropertyOp42
 70
     1
102
RTVSPropertyOp43
 70
     1
102
RTVSPropertyOp44
 70
     1
102
RTVSPropertyOp45
 70
     1
102
RTVSPropertyOp46
 70
     1
102
RTVSPropertyOp47
 70
     1
102
RTVSPropertyOp48
 70
     1
102
RTVSPropertyOp49
 70
     1
102
RTVSPropertyOp50
 70
     1
102
RTVSPropertyOp51
 70
     0
102
RTVSPropertyOp52
 70
     0
102
RTVSPropertyOp53
 70
     1
102
RTVSPropertyOp54
 70
     1
102
RTVSPropertyOp55
 70
     1
102
RTVSPropertyOp56
 70
     1
102
RTVSPropertyOp57
 70
     1
102
RTVSPropertyOp58
 70
     1
102
RTVSPropertyOp59
 70
     1
102
RTVSPropertyOp60
 70
     1
102
RTVSPropertyOp61
 70
     1
102
RTVSPropertyOp62
 70
     1
  0
XRECORD
  5
8334
102
{ACAD_REACTORS
330
8333
102
}
330
8333
100
AcDbXrecord
280
     1
102
RTVSPost2010Prop28
280
     0
102
RTVSPost2010PropOp28
 70
     1
102
RTVSPost2010Prop29
280
     1
102
RTVSPost2010PropOp29
 70
     1
102
RTVSPost2010Prop30
280
     1
102
RTVSPost2010PropOp30
 70
     1
102
RTVSPost2010Prop31
280
     0
102
RTVSPost2010PropOp31
 70
     1
102
RTVSPost2010Prop32
280
     0
102
RTVSPost2010PropOp32
 70
     1
102
RTVSPost2010Prop33
280
     0
102
RTVSPost2010PropOp33
 70
     1
102
RTVSPost2010Prop34
280
     0
102
RTVSPost2010PropOp34
 70
     1
102
RTVSPost2010Prop35
280
     0
102
RTVSPost2010PropOp35
 70
     1
102
RTVSPost2010Prop36
280
     0
102
RTVSPost2010PropOp36
 70
     1
102
RTVSPost2010Prop37
 90
       50
102
RTVSPost2010PropOp37
 70
     1
102
RTVSPost2010Prop38
140
0.0
102
RTVSPost2010PropOp38
 70
     1
102
RTVSPost2010Prop39
140
1.0
102
RTVSPost2010PropOp39
 70
     1
102
RTVSPost2010Prop40
 90
        0
102
RTVSPost2010PropOp40
 70
     1
102
RTVSPost2010Prop41ColorIndex
 90
       18
102
RTVSPost2010Prop41ColorRGB
 90
        0
102
RTVSPost2010PropOp41
 70
     1
102
RTVSPost2010Prop42
 90
       50
102
RTVSPost2010PropOp42
 70
     1
102
RTVSPost2010Prop43
 90
        3
102
RTVSPost2010PropOp43
 70
     1
102
RTVSPost2010Prop44ColorIndex
 90
        5
102
RTVSPost2010Prop44ColorRGB
 90
      255
102
RTVSPost2010PropOp44
 70
     1
102
RTVSPost2010Prop45
280
     0
102
RTVSPost2010PropOp45
 70
     1
102
RTVSPost2010Prop46
 90
       50
102
RTVSPost2010PropOp46
 70
     1
102
RTVSPost2010Prop47
 90
       50
102
RTVSPost2010PropOp47
 70
     1
102
RTVSPost2010Prop48
 90
       50
102
RTVSPost2010PropOp48
 70
     1
102
RTVSPost2010Prop49
280
     0
102
RTVSPost2010PropOp49
 70
     1
102
RTVSPost2010Prop50
 90
       50
102
RTVSPost2010PropOp50
 70
     1
102
RTVSPost2010Prop51ColorIndex
 90
      256
102
RTVSPost2010Prop51ColorRGB
 90
-16777216
102
RTVSPost2010PropOp51
 70
     0
102
RTVSPost2010Prop52
140
1.0
102
RTVSPost2010PropOp52
 70
     0
102
RTVSPost2010Prop53
 90
        2
102
RTVSPost2010PropOp53
 70
     1
102
RTVSPost2010Prop54
  1
strokes_ogs.tif
102
RTVSPost2010PropOp54
 70
     1
102
RTVSPost2010Prop55
280
     0
102
RTVSPost2010PropOp55
 70
     1
102
RTVSPost2010Prop56
140
1.0
102
RTVSPost2010PropOp56
 70
     1
102
RTVSPost2010Prop57
140
1.0
102
RTVSPost2010PropOp57
 70
     1
102
RTVSPropertyOp0
 70
     1
102
RTVSPropertyOp1
 70
     1
102
RTVSPropertyOp2
 70
     1
102
RTVSPropertyOp3
 70
     1
102
RTVSPropertyOp4
 70
     1
102
RTVSPropertyOp5
 70
     1
102
RTVSPropertyOp6
 70
     1
102
RTVSPropertyOp7
 70
     1
102
RTVSPropertyOp8
 70
     1
102
RTVSPropertyOp9
 70
     1
102
RTVSPropertyOp10
 70
     1
102
RTVSPropertyOp11
 70
     1
102
RTVSPropertyOp12
 70
     1
102
RTVSPropertyOp13
 70
     1
102
RTVSPropertyOp14
 70
     1
102
RTVSPropertyOp15
 70
     1
102
RTVSPropertyOp16
 70
     1
102
RTVSPropertyOp17
 70
     1
102
RTVSPropertyOp18
 70
     1
102
RTVSPropertyOp19
 70
     1
102
RTVSPropertyOp20
 70
     1
102
RTVSPropertyOp21
 70
     1
102
RTVSPropertyOp22
 70
     1
102
RTVSPropertyOp23
 70
     1
102
RTVSPropertyOp24
 70
     1
102
RTVSPropertyOp25
 70
     1
102
RTVSPropertyOp26
 70
     1
102
RTVSPropertyOp27
 70
     1
102
RTVSPropertyOp28
 70
     1
102
RTVSPropertyOp29
 70
     1
102
RTVSPropertyOp30
 70
     1
102
RTVSPropertyOp31
 70
     1
102
RTVSPropertyOp32
 70
     1
102
RTVSPropertyOp33
 70
     1
102
RTVSPropertyOp34
 70
     1
102
RTVSPropertyOp35
 70
     1
102
RTVSPropertyOp36
 70
     1
102
RTVSPropertyOp37
 70
     1
102
RTVSPropertyOp38
 70
     1
102
RTVSPropertyOp39
 70
     1
102
RTVSPropertyOp40
 70
     1
102
RTVSPropertyOp41
 70
     1
102
RTVSPropertyOp42
 70
     1
102
RTVSPropertyOp43
 70
     1
102
RTVSPropertyOp44
 70
     1
102
RTVSPropertyOp45
 70
     1
102
RTVSPropertyOp46
 70
     1
102
RTVSPropertyOp47
 70
     1
102
RTVSPropertyOp48
 70
     1
102
RTVSPropertyOp49
 70
     1
102
RTVSPropertyOp50
 70
     1
102
RTVSPropertyOp51
 70
     0
102
RTVSPropertyOp52
 70
     0
102
RTVSPropertyOp53
 70
     1
102
RTVSPropertyOp54
 70
     1
102
RTVSPropertyOp55
 70
     1
102
RTVSPropertyOp56
 70
     1
102
RTVSPropertyOp57
 70
     1
102
RTVSPropertyOp58
 70
     1
102
RTVSPropertyOp59
 70
     1
102
RTVSPropertyOp60
 70
     1
102
RTVSPropertyOp61
 70
     1
102
RTVSPropertyOp62
 70
     1
  0
ENDSEC
  0
EOF
