  0
SECTION
  2
HEADER
  9
$ACADVER
  1
AC1009
  9
$INSBASE
 10
0.0
 20
0.0
 30
0.0
  9
$EXTMIN
 10
500.0
 20
600.0
 30
0.0
  9
$EXTMAX
 10
3700.0
 20
5573.3045229999998
 30
0.0
  9
$LIMMIN
 10
0.0
 20
0.0
  9
$LIMMAX
 10
297.0
 20
210.0
  9
$ORTHOMODE
 70
     0
  9
$REGENMODE
 70
     1
  9
$FILLMODE
 70
     0
  9
$QTEXTMODE
 70
     0
  9
$MIRRTEXT
 70
     1
  9
$DRAGMODE
 70
     2
  9
$LTSCALE
 40
100.0
  9
$OSMODE
 70
    37
  9
$ATTMODE
 70
     1
  9
$TEXTSIZE
 40
180.0
  9
$TRACEWID
 40
0.05
  9
$TEXTSTYLE
  7
STANDARD
  9
$CLAYER
  8
3
  9
$CELTYPE
  6
BYLAYER
  9
$CECOLOR
 62
   256
  9
$DIMSCALE
 40
20.0
  9
$DIMASZ
 40
2.0
  9
$DIMEXO
 40
0.5
  9
$DIMDLI
 40
10.0
  9
$DIMRND
 40
0.0
  9
$DIMDLE
 40
0.0
  9
$DIMEXE
 40
1.0
  9
$DIMTP
 40
1.0
  9
$DIMTM
 40
1.0
  9
$DIMTXT
 40
3.0
  9
$DIMCEN
 40
0.0
  9
$DIMTSZ
 40
0.0
  9
$DIMTOL
 70
     0
  9
$DIMLIM
 70
     0
  9
$DIMTIH
 70
     0
  9
$DIMTOH
 70
     0
  9
$DIMSE1
 70
     0
  9
$DIMSE2
 70
     0
  9
$DIMTAD
 70
     1
  9
$DIMZIN
 70
     8
  9
$DIMBLK
  1

  9
$DIMASO
 70
     1
  9
$DIMSHO
 70
     1
  9
$DIMPOST
  1

  9
$DIMAPOST
  1

  9
$DIMALT
 70
     0
  9
$DIMALTD
 70
     2
  9
$DIMALTF
 40
0.039
  9
$DIMLFAC
 40
1.0
  9
$DIMTOFL
 70
     1
  9
$DIMTVP
 40
0.0
  9
$DIMTIX
 70
     0
  9
$DIMSOXD
 70
     0
  9
$DIMSAH
 70
     1
  9
$DIMBLK1
  1
OPEN
  9
$DIMBLK2
  1
OPEN
  9
$DIMSTYLE
  2
IGA
  9
$DIMCLRD
 70
     0
  9
$DIMCLRE
 70
     0
  9
$DIMCLRT
 70
     0
  9
$DIMTFAC
 40
10.0
  9
$DIMGAP
 40
1.0
  9
$LUNITS
 70
     2
  9
$LUPREC
 70
     3
  9
$SKETCHINC
 40
0.1
  9
$FILLETRAD
 40
50.0
  9
$AUNITS
 70
     0
  9
$AUPREC
 70
     0
  9
$MENU
  1
acad
  9
$ELEVATION
 40
0.0
  9
$PELEVATION
 40
0.0
  9
$THICKNESS
 40
0.0
  9
$LIMCHECK
 70
     0
  9
$BLIPMODE
 70
     0
  9
$CHAMFERA
 40
0.5
  9
$CHAMFERB
 40
0.5
  9
$SKPOLY
 70
     0
  9
$TDCREATE
 40
2450737.3788746521
  9
$TDUPDATE
 40
2454953.7700099419
  9
$TDINDWG
 40
0.0057309606
  9
$TDUSRTIMER
 40
0.0057309606
  9
$USRTIMER
 70
     1
  9
$ANGBASE
 50
0.0
  9
$ANGDIR
 70
     0
  9
$PDMODE
 70
     0
  9
$PDSIZE
 40
0.0
  9
$PLINEWID
 40
0.0
  9
$COORDS
 70
     1
  9
$SPLFRAME
 70
     0
  9
$SPLINETYPE
 70
     6
  9
$SPLINESEGS
 70
     8
  9
$ATTDIA
 70
     0
  9
$ATTREQ
 70
     1
  9
$HANDLING
 70
 10241
  9
$HANDSEED
  5
7E98
  9
$SURFTAB1
 70
     6
  9
$SURFTAB2
 70
     6
  9
$SURFTYPE
 70
     6
  9
$SURFU
 70
     6
  9
$SURFV
 70
     6
  9
$UCSNAME
  2

  9
$UCSORG
 10
0.0
 20
0.0
 30
0.0
  9
$UCSXDIR
 10
1.0
 20
0.0
 30
0.0
  9
$UCSYDIR
 10
0.0
 20
1.0
 30
0.0
  9
$PUCSNAME
  2

  9
$PUCSORG
 10
0.0
 20
0.0
 30
0.0
  9
$PUCSXDIR
 10
1.0
 20
0.0
 30
0.0
  9
$PUCSYDIR
 10
0.0
 20
1.0
 30
0.0
  9
$USERI1
 70
     0
  9
$USERI2
 70
     0
  9
$USERI3
 70
     0
  9
$USERI4
 70
     0
  9
$USERI5
 70
     0
  9
$USERR1
 40
0.0
  9
$USERR2
 40
0.0
  9
$USERR3
 40
0.0
  9
$USERR4
 40
0.0
  9
$USERR5
 40
0.0
  9
$WORLDVIEW
 70
     1
  9
$SHADEDGE
 70
     3
  9
$SHADEDIF
 70
    70
  9
$TILEMODE
 70
     1
  9
$MAXACTVP
 70
    16
  9
$PLIMCHECK
 70
     0
  9
$PEXTMIN
 10
1.0000000000000000E+020
 20
1.0000000000000000E+020
 30
1.0000000000000000E+020
  9
$PEXTMAX
 10
-1.0000000000000000E+020
 20
-1.0000000000000000E+020
 30
-1.0000000000000000E+020
  9
$PLIMMIN
 10
0.0
 20
0.0
  9
$PLIMMAX
 10
12.0
 20
9.0
  9
$UNITMODE
 70
     0
  9
$VISRETAIN
 70
     0
  9
$PLINEGEN
 70
     0
  9
$PSLTSCALE
 70
     1
  0
ENDSEC
  0
SECTION
  2
TABLES
  0
TABLE
  2
VPORT
 70
     2
  0
VPORT
  2
*ACTIVE
 70
     0
 10
0.0
 20
0.0
 11
1.0
 21
1.0
 12
6292.1124769529506
 22
3086.6374998146398
 13
0.0
 23
0.0
 14
10.0
 24
10.0
 15
10.0
 25
10.0
 16
0.0
 26
0.0
 36
1.0
 17
0.0
 27
0.0
 37
0.0
 40
5011.4968576296578
 41
3.1666666666666661
 42
50.0
 43
0.0
 44
0.0
 50
0.0
 51
0.0
 71
     0
 72
   100
 73
     1
 74
     0
 75
     0
 76
     0
 77
     0
 78
     0
  0
ENDTAB
  0
TABLE
  2
LTYPE
 70
     2
  0
LTYPE
  2
CONTINUOUS
 70
     0
  3
Solid line
 72
    65
 73
     0
 40
0.0
  0
LTYPE
  2
CENTER
 70
     0
  3
____ _ ____ _ ____ _ ____ _ ____ _ ____ _ ____ 
 72
    65
 73
     4
 40
2.0
 49
1.25
 49
-0.25
 49
0.25
 49
-0.25
  0
ENDTAB
  0
TABLE
  2
LAYER
 70
     6
  0
LAYER
  2
0
 70
     0
 62
     7
  6
CONTINUOUS
  0
LAYER
  2
3
 70
     0
 62
     2
  6
CONTINUOUS
  0
LAYER
  2
2
 70
     0
 62
     3
  6
CENTER
  0
LAYER
  2
1
 70
     0
 62
     4
  6
CONTINUOUS
  0
LAYER
  2
4
 70
     0
 62
     7
  6
CONTINUOUS
  0
LAYER
  2
DEFPOINTS
 70
     0
 62
     7
  6
CONTINUOUS
  0
ENDTAB
  0
TABLE
  2
STYLE
 70
     1
  0
STYLE
  2
STANDARD
 70
     0
 40
0.0
 41
1.0
 50
0.0
 71
     0
 42
180.0
  3
simplex.shx
  4
extfont.shx
  0
ENDTAB
  0
TABLE
  2
VIEW
 70
     0
  0
ENDTAB
  0
TABLE
  2
UCS
 70
     0
  0
ENDTAB
  0
TABLE
  2
APPID
 70
     1
  0
APPID
  2
ACAD
 70
     0
  0
ENDTAB
  0
TABLE
  2
DIMSTYLE
 70
     1
  0
DIMSTYLE
  2
IGA
 70
     0
  3

  4

  5

  6
OPEN
  7
OPEN
 40
2.0
 41
2.0
 42
0.5
 43
10.0
 44
1.0
 45
0.0
 46
0.0
 47
1.0
 48
1.0
140
3.0
141
0.0
142
0.0
143
0.03937
144
1.0
145
0.0
146
10.0
147
1.0
 71
     0
 72
     0
 73
     0
 74
     0
 75
     0
 76
     0
 77
     1
 78
     8
170
     0
171
     2
172
     0
173
     1
174
     0
175
     0
176
     0
177
     0
178
     0
  0
ENDTAB
  0
ENDSEC
  0
SECTION
  2
BLOCKS
  0
BLOCK
  8
0
  2
$MODEL_SPACE
 70
     0
 10
0.0
 20
0.0
 30
0.0
  3
$MODEL_SPACE
  1

  0
ENDBLK
  5
1B
  8
0
  0
BLOCK
 67
     1
  8
0
  2
$PAPER_SPACE
 70
     0
 10
0.0
 20
0.0
 30
0.0
  3
$PAPER_SPACE
  1

  0
ENDBLK
  5
18
 67
     1
  8
0
  0
BLOCK
  8
0
  2
_OPEN
 70
     0
 10
0.0
 20
0.0
 30
0.0
  3
_OPEN
  1

  0
LINE
  5
7B9A
  8
0
  6
BYBLOCK
 62
     0
 10
-1.0
 20
0.166667
 30
0.0
 11
0.0
 21
0.0
 31
0.0
  0
LINE
  5
7B9B
  8
0
  6
BYBLOCK
 62
     0
 10
0.0
 20
0.0
 30
0.0
 11
-1.0
 21
-0.166667
 31
0.0
  0
LINE
  5
7B9C
  8
0
  6
BYBLOCK
 62
     0
 10
0.0
 20
0.0
 30
0.0
 11
-1.0
 21
0.0
 31
0.0
  0
ENDBLK
  5
7B9D
  8
0
  0
BLOCK
  8
0
  2
*D1
 70
     1
 10
0.0
 20
0.0
 30
0.0
  3
*D1
  1

  0
LINE
  5
7DF1
  8
3
  6
CONTINUOUS
 62
     0
 10
1159.704999999999
 20
2255.1422389999998
 30
0.0
 11
1051.236952
 21
2255.1422389999998
 31
0.0
  0
LINE
  5
7DF2
  8
3
  6
CONTINUOUS
 62
     0
 10
1159.704999999999
 20
1695.142239
 30
0.0
 11
1051.236952
 21
1695.142239
 31
0.0
  0
LINE
  5
7DF3
  8
3
  6
CONTINUOUS
 62
     0
 10
1071.236952
 20
2215.1422389999998
 30
0.0
 11
1071.236952
 21
1735.1422389999991
 31
0.0
  0
INSERT
  5
7DF4
  8
3
  6
CONTINUOUS
 62
     0
  2
_OPEN
 10
1071.236952
 20
2255.1422389999998
 30
0.0
 41
40.0
 42
40.0
 43
40.0
 50
90.0
  0
INSERT
  5
7DF5
  8
3
  6
CONTINUOUS
 62
     0
  2
_OPEN
 10
1071.236952
 20
1695.142239
 30
0.0
 41
40.0
 42
40.0
 43
40.0
 50
270.0
  0
TEXT
  8
3
  40
60
  5
7E86
  62
0
  72
0
  71
0
 10
901.237
 20
1863.83
 30
0.000000
  1
560
  0
POINT
  5
7DF7
  8
DEFPOINTS
  6
CONTINUOUS
 62
     0
 10
1169.704999999999
 20
2255.1422389999998
 30
0.0
  0
POINT
  5
7DF8
  8
DEFPOINTS
  6
CONTINUOUS
 62
     0
 10
1169.704999999999
 20
1695.142239
 30
0.0
  0
POINT
  5
7DF9
  8
DEFPOINTS
  6
CONTINUOUS
 62
     0
 10
1071.236952
 20
1695.142239
 30
0.0
  0
ENDBLK
  5
7BAA
  8
0
  0
BLOCK
  8
0
  2
*D2
 70
     1
 10
0.0
 20
0.0
 30
0.0
  3
*D2
  1

  0
LINE
  5
7DFA
  8
3
  6
CONTINUOUS
 62
     0
 10
1063.9522109999989
 20
2234.1422389999998
 30
0.0
 11
936.57367500000032
 21
2234.1422389999998
 31
0.0
  0
LINE
  5
7DFB
  8
3
  6
CONTINUOUS
 62
     0
 10
1159.704999999999
 20
1695.142239
 30
0.0
 11
936.57367500000009
 21
1695.142239
 31
0.0
  0
LINE
  5
7DFC
  8
3
  6
CONTINUOUS
 62
     0
 10
956.57367500000021
 20
2194.1422389999998
 30
0.0
 11
956.57367500000021
 21
1735.1422389999991
 31
0.0
  0
INSERT
  5
7DFD
  8
3
  6
CONTINUOUS
 62
     0
  2
_OPEN
 10
956.57367500000021
 20
2234.1422389999998
 30
0.0
 41
40.0
 42
40.0
 43
40.0
 50
90.0
  0
INSERT
  5
7DFE
  8
3
  6
CONTINUOUS
 62
     0
  2
_OPEN
 10
956.57367500000021
 20
1695.142239
 30
0.0
 41
40.0
 42
40.0
 43
40.0
 50
270.0
  0
TEXT
  8
3
  40
60
  5
7E87
  62
0
  72
0
  71
0
 10
786.574
 20
1868.07
 30
0.000000
  1
539
  0
POINT
  5
7E00
  8
DEFPOINTS
  6
CONTINUOUS
 62
     0
 10
1073.952211
 20
2234.1422389999998
 30
0.0
  0
POINT
  5
7E01
  8
DEFPOINTS
  6
CONTINUOUS
 62
     0
 10
1169.704999999999
 20
1695.142239
 30
0.0
  0
POINT
  5
7E02
  8
DEFPOINTS
  6
CONTINUOUS
 62
     0
 10
956.57367500000021
 20
1695.142239
 30
0.0
  0
ENDBLK
  5
7BB7
  8
0
  0
BLOCK
  8
0
  2
*D3
 70
     1
 10
0.0
 20
0.0
 30
0.0
  3
*D3
  1

  0
LINE
  5
7E03
  8
3
  6
CONTINUOUS
 62
     0
 10
1204.704999999999
 20
2644.1422389999998
 30
0.0
 11
787.93609600000036
 21
2644.1422389999998
 31
0.0
  0
LINE
  5
7E04
  8
3
  6
CONTINUOUS
 62
     0
 10
1063.9522109999989
 20
2234.1422389999998
 30
0.0
 11
787.93609600000036
 21
2234.1422389999998
 31
0.0
  0
LINE
  5
7E05
  8
3
  6
CONTINUOUS
 62
     0
 10
807.93609600000036
 20
2604.1422390000012
 30
0.0
 11
807.93609600000036
 21
2274.1422390000012
 31
0.0
  0
INSERT
  5
7E06
  8
3
  6
CONTINUOUS
 62
     0
  2
_OPEN
 10
807.93609600000036
 20
2644.1422389999998
 30
0.0
 41
40.0
 42
40.0
 43
40.0
 50
90.0
  0
INSERT
  5
7E07
  8
3
  6
CONTINUOUS
 62
     0
  2
_OPEN
 10
807.93609600000036
 20
2234.1422389999998
 30
0.0
 41
40.0
 42
40.0
 43
40.0
 50
270.0
  0
TEXT
  8
3
  40
60
  5
7E88
  62
0
  72
0
  71
0
 10
637.936
 20
2317.81
 30
0.000000
  1
410
  0
POINT
  5
7E09
  8
DEFPOINTS
  6
CONTINUOUS
 62
     0
 10
1214.7049999999999
 20
2644.1422389999998
 30
0.0
  0
POINT
  5
7E0A
  8
DEFPOINTS
  6
CONTINUOUS
 62
     0
 10
1073.952211
 20
2234.1422389999998
 30
0.0
  0
POINT
  5
7E0B
  8
DEFPOINTS
  6
CONTINUOUS
 62
     0
 10
807.93609600000036
 20
2234.1422389999998
 30
0.0
  0
ENDBLK
  5
7BC4
  8
0
  0
BLOCK
  8
0
  2
*D4
 70
     1
 10
0.0
 20
0.0
 30
0.0
  3
*D4
  1

  0
LINE
  5
7E0C
  8
3
  6
CONTINUOUS
 62
     0
 10
1219.7049999999999
 20
1564.142239
 30
0.0
 11
787.93609600000002
 21
1564.142239
 31
0.0
  0
LINE
  5
7E0D
  8
3
  6
CONTINUOUS
 62
     0
 10
807.93609600000002
 20
2194.1422389999998
 30
0.0
 11
807.93609600000002
 21
1604.142239
 31
0.0
  0
INSERT
  5
7E0E
  8
3
  6
CONTINUOUS
 62
     0
  2
_OPEN
 10
807.93609600000002
 20
2234.1422389999998
 30
0.0
 41
40.0
 42
40.0
 43
40.0
 50
90.0
  0
INSERT
  5
7E0F
  8
3
  6
CONTINUOUS
 62
     0
  2
_OPEN
 10
807.93609600000002
 20
1564.142239
 30
0.0
 41
40.0
 42
40.0
 43
40.0
 50
270.0
  0
TEXT
  8
3
  40
60
  5
7E89
  62
0
  72
0
  71
0
 10
637.936
 20
1792.94
 30
0.000000
  1
670
  0
POINT
  5
7E11
  8
DEFPOINTS
  6
CONTINUOUS
 62
     0
 10
1073.952211
 20
2234.1422389999998
 30
0.0
  0
POINT
  5
7E12
  8
DEFPOINTS
  6
CONTINUOUS
 62
     0
 10
1229.7049999999999
 20
1564.142239
 30
0.0
  0
POINT
  5
7E13
  8
DEFPOINTS
  6
CONTINUOUS
 62
     0
 10
807.93609600000002
 20
1564.142239
 30
0.0
  0
ENDBLK
  5
7BD0
  8
0
  0
BLOCK
  8
0
  2
*D5
 70
     1
 10
0.0
 20
0.0
 30
0.0
  3
*D5
  1

  0
LINE
  5
7E14
  8
3
  6
CONTINUOUS
 62
     0
 10
1219.7049999999999
 20
1477.1422389999991
 30
0.0
 11
787.93609600000002
 21
1477.1422389999991
 31
0.0
  0
LINE
  5
7E15
  8
3
  6
CONTINUOUS
 62
     0
 10
807.93609600000002
 20
1604.142239
 30
0.0
 11
807.93609600000002
 21
1644.1422389999991
 31
0.0
  0
LINE
  5
7E16
  8
3
  6
CONTINUOUS
 62
     0
 10
807.93609600000002
 20
1437.142239
 30
0.0
 11
807.93609600000002
 21
1397.142239
 31
0.0
  0
TEXT
  8
3
  40
60
  5
7E8A
  62
0
  72
0
  71
0
 10
639.259
 20
1291.87
 30
0.000000
  1
87
  0
LINE
  5
7E18
  8
3
  6
CONTINUOUS
 62
     0
 10
807.93609600000002
 20
1564.142239
 30
0.0
 11
807.93609600000002
 21
1477.1422389999991
 31
0.0
  0
INSERT
  5
7E19
  8
3
  6
CONTINUOUS
 62
     0
  2
_OPEN
 10
807.93609600000002
 20
1564.142239
 30
0.0
 41
40.0
 42
40.0
 43
40.0
 50
270.0
  0
INSERT
  5
7E1A
  8
3
  6
CONTINUOUS
 62
     0
  2
_OPEN
 10
807.93609600000002
 20
1477.1422389999991
 30
0.0
 41
40.0
 42
40.0
 43
40.0
 50
90.0
  0
POINT
  5
7E1B
  8
DEFPOINTS
  6
CONTINUOUS
 62
     0
 10
1229.7049999999999
 20
1564.142239
 30
0.0
  0
POINT
  5
7E1C
  8
DEFPOINTS
  6
CONTINUOUS
 62
     0
 10
1229.7049999999999
 20
1477.1422389999991
 30
0.0
  0
POINT
  5
7E1D
  8
DEFPOINTS
  6
CONTINUOUS
 62
     0
 10
807.93609600000002
 20
1477.1422389999991
 30
0.0
  0
ENDBLK
  5
7CC3
  8
0
  0
BLOCK
  8
0
  2
*D6
 70
     1
 10
0.0
 20
0.0
 30
0.0
  3
*D6
  1

  0
LINE
  5
7E1E
  8
3
  6
CONTINUOUS
 62
     0
 10
1204.704999999999
 20
2644.1422389999998
 30
0.0
 11
664.05547900000045
 21
2644.1422389999998
 31
0.0
  0
LINE
  5
7E1F
  8
3
  6
CONTINUOUS
 62
     0
 10
1219.7049999999999
 20
1477.1422389999991
 30
0.0
 11
664.05547900000022
 21
1477.1422389999991
 31
0.0
  0
LINE
  5
7E20
  8
3
  6
CONTINUOUS
 62
     0
 10
684.05547900000045
 20
2604.1422390000012
 30
0.0
 11
684.05547900000022
 21
1517.142239
 31
0.0
  0
INSERT
  5
7E21
  8
3
  6
CONTINUOUS
 62
     0
  2
_OPEN
 10
684.05547900000045
 20
2644.1422389999998
 30
0.0
 41
40.0
 42
40.0
 43
40.0
 50
90.0
  0
INSERT
  5
7E22
  8
3
  6
CONTINUOUS
 62
     0
  2
_OPEN
 10
684.05547900000022
 20
1477.1422389999991
 30
0.0
 41
40.0
 42
40.0
 43
40.0
 50
270.0
  0
TEXT
  8
3
  40
60
  5
7E8B
  62
0
  72
0
  71
0
 10
514.055
 20
1914.74
 30
0.000000
  1
1167
  0
POINT
  5
7E24
  8
DEFPOINTS
  6
CONTINUOUS
 62
     0
 10
1214.7049999999999
 20
2644.1422389999998
 30
0.0
  0
POINT
  5
7E25
  8
DEFPOINTS
  6
CONTINUOUS
 62
     0
 10
1229.7049999999999
 20
1477.1422389999991
 30
0.0
  0
POINT
  5
7E26
  8
DEFPOINTS
  6
CONTINUOUS
 62
     0
 10
684.05547900000022
 20
1477.1422389999991
 30
0.0
  0
ENDBLK
  5
7CCE
  8
0
  0
BLOCK
  8
0
  2
*D7
 70
     1
 10
0.0
 20
0.0
 30
0.0
  3
*D7
  1

  0
LINE
  5
7E27
  8
3
  6
CONTINUOUS
 62
     0
 10
1229.7049999999999
 20
1467.142239
 30
0.0
 11
1229.7049999999999
 21
1281.2305690000001
 31
0.0
  0
LINE
  5
7E28
  8
3
  6
CONTINUOUS
 62
     0
 10
1574.704999999999
 20
1391.7266541540801
 30
0.0
 11
1574.704999999999
 21
1281.2305690000001
 31
0.0
  0
LINE
  5
7E29
  8
3
  6
CONTINUOUS
 62
     0
 10
1269.7049999999999
 20
1301.2305690000001
 30
0.0
 11
1534.704999999999
 21
1301.2305690000001
 31
0.0
  0
INSERT
  5
7E2A
  8
3
  6
CONTINUOUS
 62
     0
  2
_OPEN
 10
1229.7049999999999
 20
1301.2305690000001
 30
0.0
 41
40.0
 42
40.0
 43
40.0
 50
180.0
  0
INSERT
  5
7E2B
  8
3
  6
CONTINUOUS
 62
     0
  2
_OPEN
 10
1574.704999999999
 20
1301.2305690000001
 30
0.0
 41
40.0
 42
40.0
 43
40.0
  0
TEXT
  8
3
  40
60
  5
7E8C
  62
0
  72
0
  71
0
 10
1286.73
 20
1245.03
 30
0.000000
  1
345
  0
POINT
  5
7E2D
  8
DEFPOINTS
  6
CONTINUOUS
 62
     0
 10
1229.7049999999999
 20
1477.1422389999991
 30
0.0
  0
POINT
  5
7E2E
  8
DEFPOINTS
  6
CONTINUOUS
 62
     0
 10
1574.704999999999
 20
1401.7266541540801
 30
0.0
  0
POINT
  5
7E2F
  8
DEFPOINTS
  6
CONTINUOUS
 62
     0
 10
1574.704999999999
 20
1301.2305690000001
 30
0.0
  0
ENDBLK
  5
7DAF
  8
0
  0
BLOCK
  8
0
  2
*D8
 70
     1
 10
0.0
 20
0.0
 30
0.0
  3
*D8
  1

  0
LINE
  5
7E30
  8
3
  6
CONTINUOUS
 62
     0
 10
2479.7049999999999
 20
1467.142239
 30
0.0
 11
2479.7049999999999
 21
1281.2305690000001
 31
0.0
  0
LINE
  5
7E31
  8
3
  6
CONTINUOUS
 62
     0
 10
1614.7049999999999
 20
1301.2305690000001
 30
0.0
 11
2439.7049999999999
 21
1301.2305690000001
 31
0.0
  0
INSERT
  5
7E32
  8
3
  6
CONTINUOUS
 62
     0
  2
_OPEN
 10
1574.704999999999
 20
1301.2305690000001
 30
0.0
 41
40.0
 42
40.0
 43
40.0
 50
180.0
  0
INSERT
  5
7E33
  8
3
  6
CONTINUOUS
 62
     0
  2
_OPEN
 10
2479.7049999999999
 20
1301.2305690000001
 30
0.0
 41
40.0
 42
40.0
 43
40.0
  0
TEXT
  8
3
  40
60
  5
7E8D
  62
0
  72
0
  71
0
 10
1907.20
 20
1245.03
 30
0.000000
  1
905
  0
POINT
  5
7E35
  8
DEFPOINTS
  6
CONTINUOUS
 62
     0
 10
1574.704999999999
 20
1401.7266541540801
 30
0.0
  0
POINT
  5
7E36
  8
DEFPOINTS
  6
CONTINUOUS
 62
     0
 10
2479.7049999999999
 20
1477.1422389999991
 30
0.0
  0
POINT
  5
7E37
  8
DEFPOINTS
  6
CONTINUOUS
 62
     0
 10
2479.7049999999999
 20
1301.2305690000001
 30
0.0
  0
ENDBLK
  5
7DA4
  8
0
  0
BLOCK
  8
0
  2
*D9
 70
     1
 10
0.0
 20
0.0
 30
0.0
  3
*D9
  1

  0
LINE
  5
7E38
  8
3
  6
CONTINUOUS
 62
     0
 10
1169.704999999999
 20
2292.1422389999998
 30
0.0
 11
1169.704999999999
 21
2779.1942300000001
 31
0.0
  0
LINE
  5
7E39
  8
3
  6
CONTINUOUS
 62
     0
 10
1574.704999999999
 20
2739.2123889999998
 30
0.0
 11
1574.704999999999
 21
2779.1942300000001
 31
0.0
  0
LINE
  5
7E3A
  8
3
  6
CONTINUOUS
 62
     0
 10
1209.7049999999999
 20
2759.1942300000001
 30
0.0
 11
1534.704999999999
 21
2759.1942300000001
 31
0.0
  0
INSERT
  5
7E3B
  8
3
  6
CONTINUOUS
 62
     0
  2
_OPEN
 10
1169.704999999999
 20
2759.1942300000001
 30
0.0
 41
40.0
 42
40.0
 43
40.0
 50
180.0
  0
INSERT
  5
7E3C
  8
3
  6
CONTINUOUS
 62
     0
  2
_OPEN
 10
1574.704999999999
 20
2759.1942300000001
 30
0.0
 41
40.0
 42
40.0
 43
40.0
  0
TEXT
  8
3
  40
60
  5
7E8E
  62
0
  72
0
  71
0
 10
1240.02
 20
2702.99
 30
0.000000
  1
405
  0
POINT
  5
7E3E
  8
DEFPOINTS
  6
CONTINUOUS
 62
     0
 10
1169.704999999999
 20
2282.1422389999998
 30
0.0
  0
POINT
  5
7E3F
  8
DEFPOINTS
  6
CONTINUOUS
 62
     0
 10
1574.704999999999
 20
2729.2123889999998
 30
0.0
  0
POINT
  5
7E40
  8
DEFPOINTS
  6
CONTINUOUS
 62
     0
 10
1574.704999999999
 20
2759.1942300000001
 30
0.0
  0
ENDBLK
  5
7C13
  8
0
  0
BLOCK
  8
0
  2
*D10
 70
     1
 10
0.0
 20
0.0
 30
0.0
  3
*D10
  1

  0
LINE
  5
7E41
  8
3
  6
CONTINUOUS
 62
     0
 10
2037.7049999999999
 20
2207.1422389999998
 30
0.0
 11
2037.7049999999999
 21
2779.1942300000001
 31
0.0
  0
LINE
  5
7E42
  8
3
  6
CONTINUOUS
 62
     0
 10
1614.7049999999999
 20
2759.1942300000001
 30
0.0
 11
1997.7049999999999
 21
2759.1942300000001
 31
0.0
  0
INSERT
  5
7E43
  8
3
  6
CONTINUOUS
 62
     0
  2
_OPEN
 10
1574.704999999999
 20
2759.1942300000001
 30
0.0
 41
40.0
 42
40.0
 43
40.0
 50
180.0
  0
INSERT
  5
7E44
  8
3
  6
CONTINUOUS
 62
     0
  2
_OPEN
 10
2037.7049999999999
 20
2759.1942300000001
 30
0.0
 41
40.0
 42
40.0
 43
40.0
  0
TEXT
  8
3
  40
60
  5
7E8F
  62
0
  72
0
  71
0
 10
1686.20
 20
2702.99
 30
0.000000
  1
463
  0
POINT
  5
7E46
  8
DEFPOINTS
  6
CONTINUOUS
 62
     0
 10
1574.704999999999
 20
2729.2123889999998
 30
0.0
  0
POINT
  5
7E47
  8
DEFPOINTS
  6
CONTINUOUS
 62
     0
 10
2037.7049999999999
 20
2197.1422389999998
 30
0.0
  0
POINT
  5
7E48
  8
DEFPOINTS
  6
CONTINUOUS
 62
     0
 10
2037.7049999999999
 20
2759.1942300000001
 30
0.0
  0
ENDBLK
  5
7D9A
  8
0
  0
BLOCK
  8
0
  2
*D11
 70
     1
 10
0.0
 20
0.0
 30
0.0
  3
*D11
  1

  0
LINE
  5
7E49
  8
3
  6
CONTINUOUS
 62
     0
 10
3472.2717389999998
 20
2529.1422389999998
 30
0.0
 11
3667.9150659999991
 21
2529.1422389999998
 31
0.0
  0
LINE
  5
7E4A
  8
3
  6
CONTINUOUS
 62
     0
 10
3472.2717389999998
 20
1939.1422389999991
 30
0.0
 11
3667.9150659999991
 21
1939.1422389999991
 31
0.0
  0
LINE
  5
7E4B
  8
3
  6
CONTINUOUS
 62
     0
 10
3647.915066
 20
2489.1422389999998
 30
0.0
 11
3647.915066
 21
1979.1422389999991
 31
0.0
  0
INSERT
  5
7E4C
  8
3
  6
CONTINUOUS
 62
     0
  2
_OPEN
 10
3647.915066
 20
2529.1422389999998
 30
0.0
 41
40.0
 42
40.0
 43
40.0
 50
90.0
  0
INSERT
  5
7E4D
  8
3
  6
CONTINUOUS
 62
     0
  2
_OPEN
 10
3647.915066
 20
1939.1422389999991
 30
0.0
 41
40.0
 42
40.0
 43
40.0
 50
270.0
  0
TEXT
  8
3
  40
60
  5
7E90
  62
0
  72
0
  71
0
 10
3477.92
 20
2131.13
 30
0.000000
  1
φ590
  0
POINT
  5
7E4F
  8
DEFPOINTS
  6
CONTINUOUS
 62
     0
 10
3462.2717389999998
 20
2529.1422389999998
 30
0.0
  0
POINT
  5
7E50
  8
DEFPOINTS
  6
CONTINUOUS
 62
     0
 10
3462.2717389999998
 20
1939.1422389999991
 30
0.0
  0
POINT
  5
7E51
  8
DEFPOINTS
  6
CONTINUOUS
 62
     0
 10
3647.915066
 20
1939.1422389999991
 30
0.0
  0
ENDBLK
  5
7D78
  8
0
  0
BLOCK
  8
0
  2
*D12
 70
     1
 10
0.0
 20
0.0
 30
0.0
  3
*D12
  1

  0
LINE
  5
7D64
  8
0
  6
BYBLOCK
 62
     0
 10
3464.2717389999998
 20
2564.1422389999998
 30
0.0
 11
3464.2717389999998
 21
2880.0940559999999
 31
0.0
  0
LINE
  5
7D65
  8
0
  6
BYBLOCK
 62
     0
 10
3252.2717389999998
 20
2819.2282329999998
 30
0.0
 11
3252.2717389999998
 21
2880.0940559999999
 31
0.0
  0
LINE
  5
7D66
  8
0
  6
BYBLOCK
 62
     0
 10
3424.2717389999998
 20
2860.094055999999
 30
0.0
 11
3292.2717389999998
 21
2860.094055999999
 31
0.0
  0
TEXT
  5
7D67
  8
3
 62
     0
 10
3286.8431675714291
 20
2883.269570454846
 30
0.0
 40
60.0
  1
212
  0
INSERT
  5
7D68
  8
0
  6
BYBLOCK
 62
     0
  2
_OPEN
 10
3464.2717389999998
 20
2860.094055999999
 30
0.0
 41
40.0
 42
40.0
 43
40.0
  0
INSERT
  5
7D69
  8
0
  6
BYBLOCK
 62
     0
  2
_OPEN
 10
3252.2717389999998
 20
2860.094055999999
 30
0.0
 41
40.0
 42
40.0
 43
40.0
 50
180.0
  0
POINT
  5
7D6A
  8
DEFPOINTS
  6
BYBLOCK
 62
     0
 10
3464.2717389999998
 20
2554.1422389999998
 30
0.0
  0
POINT
  5
7D6B
  8
DEFPOINTS
  6
BYBLOCK
 62
     0
 10
3252.2717389999998
 20
2809.2282329999998
 30
0.0
  0
POINT
  5
7D6C
  8
DEFPOINTS
  6
BYBLOCK
 62
     0
 10
3252.2717389999998
 20
2860.094055999999
 30
0.0
  0
ENDBLK
  5
7D6D
  8
0
  0
BLOCK
  8
0
  2
*D13
 70
     1
 10
0.0
 20
0.0
 30
0.0
  3
*D13
  1

  0
LINE
  5
7E52
  8
3
  6
CONTINUOUS
 62
     0
 10
2842.2717389999998
 20
2489.1422389999998
 30
0.0
 11
2842.2717389999998
 21
2880.0940559999999
 31
0.0
  0
LINE
  5
7E53
  8
3
  6
CONTINUOUS
 62
     0
 10
3212.2717389999998
 20
2860.094055999999
 30
0.0
 11
2882.2717389999998
 21
2860.094055999999
 31
0.0
  0
INSERT
  5
7E54
  8
3
  6
CONTINUOUS
 62
     0
  2
_OPEN
 10
3252.2717389999998
 20
2860.094055999999
 30
0.0
 41
40.0
 42
40.0
 43
40.0
  0
INSERT
  5
7E55
  8
3
  6
CONTINUOUS
 62
     0
  2
_OPEN
 10
2842.2717389999998
 20
2860.094055999999
 30
0.0
 41
40.0
 42
40.0
 43
40.0
 50
180.0
  0
TEXT
  8
3
  40
60
  5
7E91
  62
0
  72
0
  71
0
 10
2927.27
 20
2853.89
 30
0.000000
  1
MAX
  0
TEXT
  8
3
  40
60
  5
7E92
  62
0
  72
0
  71
0
 10
2927.27
 20
2775.89
 30
0.000000
  1
470
  0
POINT
  5
7E57
  8
DEFPOINTS
  6
CONTINUOUS
 62
     0
 10
3252.2717389999998
 20
2809.2282329999998
 30
0.0
  0
POINT
  5
7E58
  8
DEFPOINTS
  6
CONTINUOUS
 62
     0
 10
2842.2717389999998
 20
2479.1422389999998
 30
0.0
  0
POINT
  5
7E59
  8
DEFPOINTS
  6
CONTINUOUS
 62
     0
 10
2842.2717389999998
 20
2860.094055999999
 30
0.0
  0
ENDBLK
  5
7D82
  8
0
  0
BLOCK
  8
0
  2
*D14
 70
     1
 10
0.0
 20
0.0
 30
0.0
  3
*D14
  1

  0
LINE
  5
7DC5
  8
0
  6
BYBLOCK
 62
     0
 10
2997.2717389999998
 20
1467.142239
 30
0.0
 11
2997.2717389999998
 21
1298.4752410000001
 31
0.0
  0
LINE
  5
7DC6
  8
0
  6
BYBLOCK
 62
     0
 10
3252.2717389999998
 20
1339.1158898964891
 30
0.0
 11
3252.2717389999998
 21
1298.4752410000001
 31
0.0
  0
LINE
  5
7DC7
  8
0
  6
BYBLOCK
 62
     0
 10
3037.2717389999998
 20
1318.4752410000001
 30
0.0
 11
3212.2717389999998
 21
1318.4752410000001
 31
0.0
  0
TEXT
  5
7DC8
  8
3
 62
     0
 10
3047.6288818571429
 20
1335.6256383575289
 30
0.0
 40
60.0
  1
255
  0
INSERT
  5
7DC9
  8
0
  6
BYBLOCK
 62
     0
  2
_OPEN
 10
2997.2717389999998
 20
1318.4752410000001
 30
0.0
 41
40.0
 42
40.0
 43
40.0
 50
180.0
  0
INSERT
  5
7DCA
  8
0
  6
BYBLOCK
 62
     0
  2
_OPEN
 10
3252.2717389999998
 20
1318.4752410000001
 30
0.0
 41
40.0
 42
40.0
 43
40.0
  0
POINT
  5
7DCB
  8
DEFPOINTS
  6
BYBLOCK
 62
     0
 10
2997.2717389999998
 20
1477.1422389999991
 30
0.0
  0
POINT
  5
7DCC
  8
DEFPOINTS
  6
BYBLOCK
 62
     0
 10
3252.2717389999998
 20
1349.1158898964891
 30
0.0
  0
POINT
  5
7DCD
  8
DEFPOINTS
  6
BYBLOCK
 62
     0
 10
3252.2717389999998
 20
1318.4752410000001
 30
0.0
  0
ENDBLK
  5
7DCE
  8
0
  0
BLOCK
  8
0
  2
*D15
 70
     1
 10
0.0
 20
0.0
 30
0.0
  3
*D15
  1

  0
LINE
  5
7E5A
  8
3
  6
CONTINUOUS
 62
     0
 10
3507.2717389999998
 20
1467.142239
 30
0.0
 11
3507.2717389999998
 21
1298.4752410000001
 31
0.0
  0
LINE
  5
7E5B
  8
3
  6
CONTINUOUS
 62
     0
 10
3292.2717389999998
 20
1318.4752410000001
 30
0.0
 11
3467.2717389999998
 21
1318.4752410000001
 31
0.0
  0
TEXT
  8
3
  40
60
  5
7E93
  62
0
  72
0
  71
0
 10
3248.66
 20
1262.56
 30
0.000000
  1
255
  0
INSERT
  5
7E5D
  8
3
  6
CONTINUOUS
 62
     0
  2
_OPEN
 10
3252.2717389999998
 20
1318.4752410000001
 30
0.0
 41
40.0
 42
40.0
 43
40.0
 50
180.0
  0
INSERT
  5
7E5E
  8
3
  6
CONTINUOUS
 62
     0
  2
_OPEN
 10
3507.2717389999998
 20
1318.4752410000001
 30
0.0
 41
40.0
 42
40.0
 43
40.0
  0
POINT
  5
7E5F
  8
DEFPOINTS
  6
CONTINUOUS
 62
     0
 10
3252.2717389999998
 20
1356.8276653982441
 30
0.0
  0
POINT
  5
7E60
  8
DEFPOINTS
  6
CONTINUOUS
 62
     0
 10
3507.2717389999998
 20
1477.1422389999991
 30
0.0
  0
POINT
  5
7E61
  8
DEFPOINTS
  6
CONTINUOUS
 62
     0
 10
3507.2717389999998
 20
1318.4752410000001
 30
0.0
  0
ENDBLK
  5
7DC3
  8
0
  0
BLOCK
  8
0
  2
*D16
 70
     1
 10
0.0
 20
0.0
 30
0.0
  3
*D16
  1

  0
LINE
  5
7E62
  8
3
  6
CONTINUOUS
 62
     0
 10
1229.7049999999999
 20
4095.3554680000002
 30
0.0
 11
1229.7049999999999
 21
4225.1642250000004
 31
0.0
  0
LINE
  5
7E63
  8
3
  6
CONTINUOUS
 62
     0
 10
2479.7049999999999
 20
4095.3554680000002
 30
0.0
 11
2479.7049999999999
 21
4225.1642250000004
 31
0.0
  0
LINE
  5
7E64
  8
3
  6
CONTINUOUS
 62
     0
 10
1269.7049999999999
 20
4205.1642250000004
 30
0.0
 11
2439.7049999999999
 21
4205.1642250000004
 31
0.0
  0
INSERT
  5
7E65
  8
3
  6
CONTINUOUS
 62
     0
  2
_OPEN
 10
1229.7049999999999
 20
4205.1642250000004
 30
0.0
 41
40.0
 42
40.0
 43
40.0
 50
180.0
  0
INSERT
  5
7E66
  8
3
  6
CONTINUOUS
 62
     0
  2
_OPEN
 10
2479.7049999999999
 20
4205.1642250000004
 30
0.0
 41
40.0
 42
40.0
 43
40.0
  0
TEXT
  8
3
  40
60
  5
7E94
  62
0
  72
0
  71
0
 10
1724.15
 20
4148.96
 30
0.000000
  1
1250
  0
POINT
  5
7E68
  8
DEFPOINTS
  6
CONTINUOUS
 62
     0
 10
1229.7049999999999
 20
4085.3554679999988
 30
0.0
  0
POINT
  5
7E69
  8
DEFPOINTS
  6
CONTINUOUS
 62
     0
 10
2479.7049999999999
 20
4085.3554679999988
 30
0.0
  0
POINT
  5
7E6A
  8
DEFPOINTS
  6
CONTINUOUS
 62
     0
 10
2479.7049999999999
 20
4205.1642250000004
 30
0.0
  0
ENDBLK
  5
7C80
  8
0
  0
BLOCK
  8
0
  2
*D17
 70
     1
 10
0.0
 20
0.0
 30
0.0
  3
*D17
  1

  0
LINE
  5
7E6B
  8
3
  6
CONTINUOUS
 62
     0
 10
2489.7049999999999
 20
4085.3554679999988
 30
0.0
 11
2666.7954559999998
 21
4085.3554679999988
 31
0.0
  0
LINE
  5
7E6C
  8
3
  6
CONTINUOUS
 62
     0
 10
2489.7049999999999
 20
3575.3554680000002
 30
0.0
 11
2666.7954559999998
 21
3575.3554680000002
 31
0.0
  0
LINE
  5
7E6D
  8
3
  6
CONTINUOUS
 62
     0
 10
2646.7954559999998
 20
4045.3554679999988
 30
0.0
 11
2646.7954559999998
 21
3615.3554680000002
 31
0.0
  0
INSERT
  5
7E6E
  8
3
  6
CONTINUOUS
 62
     0
  2
_OPEN
 10
2646.7954559999998
 20
4085.3554679999988
 30
0.0
 41
40.0
 42
40.0
 43
40.0
 50
90.0
  0
INSERT
  5
7E6F
  8
3
  6
CONTINUOUS
 62
     0
  2
_OPEN
 10
2646.7954559999998
 20
3575.3554680000002
 30
0.0
 41
40.0
 42
40.0
 43
40.0
 50
270.0
  0
TEXT
  8
3
  40
60
  5
7E95
  62
0
  72
0
  71
0
 10
2476.80
 20
3734.08
 30
0.000000
  1
510
  0
POINT
  5
7E71
  8
DEFPOINTS
  6
CONTINUOUS
 62
     0
 10
2479.7049999999999
 20
4085.3554679999988
 30
0.0
  0
POINT
  5
7E72
  8
DEFPOINTS
  6
CONTINUOUS
 62
     0
 10
2479.7049999999999
 20
3575.3554680000002
 30
0.0
  0
POINT
  5
7E73
  8
DEFPOINTS
  6
CONTINUOUS
 62
     0
 10
2646.7954559999998
 20
3575.3554680000002
 30
0.0
  0
ENDBLK
  5
7C8D
  8
0
  0
BLOCK
  8
0
  2
*D18
 70
     1
 10
0.0
 20
0.0
 30
0.0
  3
*D18
  1

  0
LINE
  5
7E74
  8
3
  6
CONTINUOUS
 62
     0
 10
3042.2717389999998
 20
2603.1422389999998
 30
0.0
 11
3042.2717389999998
 21
2735.4437459999999
 31
0.0
  0
LINE
  5
7E75
  8
3
  6
CONTINUOUS
 62
     0
 10
3462.2717389999998
 20
2603.1422389999998
 30
0.0
 11
3462.2717389999998
 21
2735.4437459999999
 31
0.0
  0
LINE
  5
7E76
  8
3
  6
CONTINUOUS
 62
     0
 10
3082.2717389999998
 20
2715.4437459999999
 30
0.0
 11
3422.2717390000012
 21
2715.4437459999999
 31
0.0
  0
INSERT
  5
7E77
  8
3
  6
CONTINUOUS
 62
     0
  2
_OPEN
 10
3042.2717389999998
 20
2715.4437459999999
 30
0.0
 41
40.0
 42
40.0
 43
40.0
 50
180.0
  0
INSERT
  5
7E78
  8
3
  6
CONTINUOUS
 62
     0
  2
_OPEN
 10
3462.2717389999998
 20
2715.4437459999999
 30
0.0
 41
40.0
 42
40.0
 43
40.0
  0
TEXT
  8
3
  40
60
  5
7E96
  62
0
  72
0
  71
0
 10
3120.82
 20
2659.24
 30
0.000000
  1
420
  0
POINT
  5
7E7A
  8
DEFPOINTS
  6
CONTINUOUS
 62
     0
 10
3042.2717389999998
 20
2593.1422389999998
 30
0.0
  0
POINT
  5
7E7B
  8
DEFPOINTS
  6
CONTINUOUS
 62
     0
 10
3462.2717389999998
 20
2593.1422389999998
 30
0.0
  0
POINT
  5
7E7C
  8
DEFPOINTS
  6
CONTINUOUS
 62
     0
 10
3462.2717389999998
 20
2715.4437459999999
 30
0.0
  0
ENDBLK
  5
7D1E
  8
0
  0
BLOCK
  8
0
  2
*D19
 70
     1
 10
0.0
 20
0.0
 30
0.0
  3
*D19
  1

  0
LINE
  5
7E7D
  8
3
 62
     0
 10
1169.704999999999
 20
2292.1422389999998
 30
0.0
 11
1169.704999999999
 21
2900.1395723520418
 31
0.0
  0
LINE
  5
7E7E
  8
3
 62
     0
 10
2479.7049999999999
 20
1654.142239
 30
0.0
 11
2479.7049999999999
 21
2900.1395723520418
 31
0.0
  0
LINE
  5
7E7F
  8
3
 62
     0
 10
1209.7049999999999
 20
2880.1395723520409
 30
0.0
 11
2439.7049999999999
 21
2880.1395723520409
 31
0.0
  0
INSERT
  5
7E80
  8
3
 62
     0
  2
_OPEN
 10
1169.704999999999
 20
2880.1395723520409
 30
0.0
 41
40.0
 42
40.0
 43
40.0
 50
180.0
  0
INSERT
  5
7E81
  8
3
 62
     0
  2
_OPEN
 10
2479.7049999999999
 20
2880.1395723520409
 30
0.0
 41
40.0
 42
40.0
 43
40.0
  0
TEXT
  8
3
  40
60
  5
7E97
  62
0
  72
0
  71
0
 10
1671.57
 20
2823.94
 30
0.000000
  1
1310
  0
POINT
  5
7E83
  8
DEFPOINTS
 62
     0
 10
1169.704999999999
 20
2282.1422389999998
 30
0.0
  0
POINT
  5
7E84
  8
DEFPOINTS
 62
     0
 10
2479.7049999999999
 20
1644.1422389999991
 30
0.0
  0
POINT
  5
7E85
  8
DEFPOINTS
 62
     0
 10
2479.7049999999999
 20
2880.1395723520409
 30
0.0
  0
ENDBLK
  5
7D8E
  8
0
  0
ENDSEC
  0
SECTION
  2
ENTITIES
  0
LINE
  5
7ABD
  8
1
  6
CONTINUOUS
 10
2293.7049999999999
 20
3575.3554680000002
 30
0.0
 11
2479.7049999999999
 21
3575.3554680000002
 31
0.0
  0
LINE
  5
7ABE
  8
1
  6
CONTINUOUS
 10
1229.7049999999999
 20
4085.3554679999988
 30
0.0
 11
2479.7049999999999
 21
4085.3554679999988
 31
0.0
  0
LINE
  5
7ABF
  8
1
  6
CONTINUOUS
 10
1214.7049999999999
 20
1644.1422389999991
 30
0.0
 11
2479.7049999999999
 21
1644.1422389999991
 31
0.0
  0
LINE
  5
7AC0
  8
1
  6
CONTINUOUS
 10
1229.7049999999999
 20
1564.142239
 30
0.0
 11
2479.7049999999999
 21
1564.142239
 31
0.0
  0
LINE
  5
7AC1
  8
1
  6
CONTINUOUS
 10
1229.7049999999999
 20
1477.1422389999991
 30
0.0
 11
2479.7049999999999
 21
1477.1422389999991
 31
0.0
  0
LINE
  5
7AC2
  8
1
  6
CONTINUOUS
 10
1229.7049999999999
 20
1542.142239
 30
0.0
 11
2479.7049999999999
 21
1542.142239
 31
0.0
  0
CIRCLE
  5
7AC3
  8
1
  6
CONTINUOUS
 10
1574.704999999999
 20
2234.1422389999998
 30
0.0
 40
320.0
  0
LINE
  5
7AC4
  8
1
  6
CONTINUOUS
 10
1214.7049999999999
 20
1644.1422389999991
 30
0.0
 11
1934.7049999999999
 21
1644.1422389999991
 31
0.0
  0
LINE
  5
7AC5
  8
1
  6
CONTINUOUS
 10
1214.7049999999999
 20
2644.1422389999998
 30
0.0
 11
1934.7049999999999
 21
2644.1422389999998
 31
0.0
  0
LINE
  5
7AC6
  8
1
  6
CONTINUOUS
 10
1169.704999999999
 20
1695.142239
 30
0.0
 11
1574.704999999999
 21
1697.142239
 31
0.0
  0
ARC
  5
7AC7
  8
1
  6
CONTINUOUS
 10
1598.704999999999
 20
2258.1422389999998
 30
0.0
 40
377.65927299999993
 50
97.253195000000005
 51
180.45514299999991
  0
LINE
  5
7AC8
  8
1
  6
CONTINUOUS
 10
1194.704999999999
 20
2255.1422389999998
 30
0.0
 11
1194.704999999999
 21
1695.2656959999999
 31
0.0
  0
LINE
  5
7AC9
  8
1
  6
CONTINUOUS
 10
1214.7049999999999
 20
1644.1422389999991
 30
0.0
 11
1214.7049999999999
 21
2644.1422389999998
 31
0.0
  0
LINE
  5
7ACA
  8
1
  6
CONTINUOUS
 10
1169.704999999999
 20
2282.1422389999998
 30
0.0
 11
1169.704999999999
 21
1668.142239
 31
0.0
  0
LINE
  5
7ACB
  8
1
  6
CONTINUOUS
 10
1229.7049999999999
 20
1644.1422389999991
 30
0.0
 11
1229.7049999999999
 21
1564.142239
 31
0.0
  0
LINE
  5
7ACC
  8
1
  6
CONTINUOUS
 10
1229.7049999999999
 20
1542.142239
 30
0.0
 11
1229.7049999999999
 21
1477.1422389999991
 31
0.0
  0
LINE
  5
7ACD
  8
1
  6
CONTINUOUS
 10
1221.057642999999
 20
2255.1422389999998
 30
0.0
 11
1169.704999999999
 21
2255.1422389999998
 31
0.0
  0
LINE
  5
7ACE
  8
1
  6
CONTINUOUS
 10
2241.7189589999989
 20
1764.401482
 30
0.0
 11
1527.5820839999999
 21
2145.9411570000002
 31
0.0
  0
LINE
  5
7ACF
  8
1
  6
CONTINUOUS
 10
2312.1695810000001
 20
1885.2726469999991
 30
0.0
 11
1628.2258300000001
 21
2318.614251
 31
0.0
  0
LINE
  5
7AD0
  8
1
  6
CONTINUOUS
 10
1574.2049999999999
 20
2479.1422389999998
 30
0.0
 11
2434.2049999999999
 21
1874.142239
 31
0.0
  0
ARC
  5
7AD1
  8
1
  6
CONTINUOUS
 10
1537.704999999999
 20
2197.1422389999998
 30
0.0
 40
501.36713099999992
 50
274.23217399999999
 51
5.0424509999999989
  0
ARC
  5
7AD2
  8
1
  6
CONTINUOUS
 10
1605.7049999999999
 20
2203.1422389999998
 30
0.0
 40
433.10293799999999
 50
5.0424509999999989
 51
97.253195000000005
  0
LINE
  5
7AD3
  8
1
  6
CONTINUOUS
 10
1304.2049999999999
 20
1644.1422389999991
 30
0.0
 11
1304.2049999999999
 21
2394.1422389999998
 31
0.0
  0
CIRCLE
  5
7AD4
  8
1
  6
CONTINUOUS
 10
1574.704999999999
 20
2234.1422389999998
 30
0.0
 40
295.0
  0
LINE
  5
7AD5
  8
1
  6
CONTINUOUS
 10
1304.2049999999999
 20
2394.1422389999998
 30
0.0
 11
1574.2049999999999
 21
2479.1422389999998
 31
0.0
  0
LINE
  5
7AD6
  8
2
  6
CENTER
 10
1073.952211
 20
2234.1422389999998
 30
0.0
 11
2118.4083783759852
 21
2234.1422389999998
 31
0.0
  0
CIRCLE
  5
7AD7
  8
1
  6
CONTINUOUS
 10
1574.704999999999
 20
2234.1422389999998
 30
0.0
 40
100.0
  0
LINE
  5
7AD8
  8
2
  6
CENTER
 10
1574.704999999999
 20
4179.1944020000001
 30
0.0
 11
1574.704999999999
 21
3290.8524980000002
 31
0.0
  0
LINE
  5
7AD9
  8
1
  6
CONTINUOUS
 10
1934.7049999999999
 20
1644.1422389999991
 30
0.0
 11
1934.7049999999999
 21
2644.1422389999998
 31
0.0
  0
ARC
  5
7ADA
  8
1
  6
CONTINUOUS
 10
2274.704999999999
 20
1826.142239
 30
0.0
 40
142.0
 50
324.59875699999998
 51
215.40124299999999
  0
LINE
  5
7ADB
  8
1
  6
CONTINUOUS
 10
2404.704999999999
 20
1644.1422389999991
 30
0.0
 11
2144.7049999999999
 21
1644.1422389999991
 31
0.0
  0
LINE
  5
7ADC
  8
1
  6
CONTINUOUS
 10
2144.7049999999999
 20
1644.1422389999991
 30
0.0
 11
2144.7049999999999
 21
1709.142239
 31
0.0
  0
LINE
  5
7ADD
  8
1
  6
CONTINUOUS
 10
2144.7049999999999
 20
1709.142239
 30
0.0
 11
2158.9586370000002
 21
1743.881801999999
 31
0.0
  0
LINE
  5
7ADE
  8
1
  6
CONTINUOUS
 10
2404.704999999999
 20
1644.1422389999991
 30
0.0
 11
2404.704999999999
 21
1709.142239
 31
0.0
  0
LINE
  5
7ADF
  8
1
  6
CONTINUOUS
 10
2434.2049999999999
 20
1644.1422389999991
 30
0.0
 11
2434.2049999999999
 21
1874.142239
 31
0.0
  0
LINE
  5
7AE0
  8
2
  6
CENTER
 10
2344.7049999999999
 20
1826.142239
 30
0.0
 11
2204.7049999999999
 21
1826.142239
 31
0.0
  0
CIRCLE
  5
7AE1
  8
1
  6
CONTINUOUS
 10
2274.704999999999
 20
1826.142239
 30
0.0
 40
70.0
  0
LINE
  5
7AE2
  8
2
  6
CENTER
 10
2274.704999999999
 20
1756.142239
 30
0.0
 11
2274.704999999999
 21
1896.1422389999991
 31
0.0
  0
LINE
  5
7AE3
  8
1
  6
CONTINUOUS
 10
2404.704999999999
 20
1709.142239
 30
0.0
 11
2390.4513629999992
 21
1743.881801999999
 31
0.0
  0
LINE
  5
7AE4
  8
1
  6
CONTINUOUS
 10
1254.704999999999
 20
4042.3554679999988
 30
0.0
 11
1894.7049999999999
 21
4042.3554679999988
 31
0.0
  0
LINE
  5
7AE5
  8
1
  6
CONTINUOUS
 10
1229.7049999999999
 20
3575.3554680000002
 30
0.0
 11
1558.704999999999
 21
3575.3554680000002
 31
0.0
  0
LINE
  5
7AE6
  8
1
  6
CONTINUOUS
 10
2039.0721309999999
 20
3620.3554679999988
 30
0.0
 11
1169.704999999999
 21
3620.3554679999988
 31
0.0
  0
LINE
  5
7AE7
  8
1
  6
CONTINUOUS
 10
2039.0721309999999
 20
4040.3554680000002
 30
0.0
 11
1169.704999999999
 21
4040.3554680000002
 31
0.0
  0
LINE
  5
7AE8
  8
1
  6
CONTINUOUS
 10
1169.704999999999
 20
4067.3554679999988
 30
0.0
 11
1169.704999999999
 21
3593.3554680000002
 31
0.0
  0
LINE
  5
7AE9
  8
1
  6
CONTINUOUS
 10
1194.704999999999
 20
4040.3554680000002
 30
0.0
 11
1194.704999999999
 21
3620.3554679999988
 31
0.0
  0
LINE
  5
7AEA
  8
1
  6
CONTINUOUS
 10
1229.7049999999999
 20
3620.3554679999988
 30
0.0
 11
1229.7049999999999
 21
3575.3554680000002
 31
0.0
  0
LINE
  5
7AEB
  8
1
  6
CONTINUOUS
 10
1254.704999999999
 20
4040.3554680000002
 30
0.0
 11
1254.704999999999
 21
4042.3554679999988
 31
0.0
  0
LINE
  5
7AEC
  8
1
  6
CONTINUOUS
 10
1229.7049999999999
 20
4085.3554679999988
 30
0.0
 11
1229.7049999999999
 21
4040.3554680000002
 31
0.0
  0
LINE
  5
7AED
  8
1
  6
CONTINUOUS
 10
1590.704999999999
 20
3575.3554680000002
 30
0.0
 11
2255.7049999999999
 21
3575.3554680000002
 31
0.0
  0
LINE
  5
7AEE
  8
1
  6
CONTINUOUS
 10
1304.2049999999999
 20
3420.3554679999988
 30
0.0
 11
2434.2049999999999
 21
3420.3554679999988
 31
0.0
  0
LINE
  5
7AEF
  8
1
  6
CONTINUOUS
 10
1304.2049999999999
 20
3540.3554680000002
 30
0.0
 11
2434.2049999999999
 21
3540.3554680000002
 31
0.0
  0
LINE
  5
7AF0
  8
1
  6
CONTINUOUS
 10
1674.704999999999
 20
3450.3554680000002
 30
0.0
 11
1474.7049999999999
 21
3450.3554680000002
 31
0.0
  0
LINE
  5
7AF1
  8
1
  6
CONTINUOUS
 10
1674.704999999999
 20
3510.3554679999988
 30
0.0
 11
1474.7049999999999
 21
3510.3554679999988
 31
0.0
  0
LINE
  5
7AF2
  8
1
  6
CONTINUOUS
 10
1558.704999999999
 20
3620.3554679999988
 30
0.0
 11
1558.704999999999
 21
3510.3554679999988
 31
0.0
  0
LINE
  5
7AF3
  8
1
  6
CONTINUOUS
 10
1304.2049999999999
 20
3420.3554679999988
 30
0.0
 11
1304.2049999999999
 21
3540.3554680000002
 31
0.0
  0
LINE
  5
7AF4
  8
1
  6
CONTINUOUS
 10
1474.7049999999999
 20
3450.3554680000002
 30
0.0
 11
1474.7049999999999
 21
3510.3554679999988
 31
0.0
  0
LINE
  5
7AF5
  8
1
  6
CONTINUOUS
 10
1590.704999999999
 20
3620.3554679999988
 30
0.0
 11
1590.704999999999
 21
3510.3554679999988
 31
0.0
  0
LINE
  5
7AF6
  8
1
  6
CONTINUOUS
 10
1674.704999999999
 20
3450.3554680000002
 30
0.0
 11
1674.704999999999
 21
3510.3554679999988
 31
0.0
  0
LINE
  5
7AF7
  8
1
  6
CONTINUOUS
 10
2039.0721309999999
 20
3620.3554679999988
 30
0.0
 11
2039.0721309999999
 21
4040.3554680000002
 31
0.0
  0
LINE
  5
7AF8
  8
1
  6
CONTINUOUS
 10
2416.7049999999999
 20
3594.0933009999999
 30
0.0
 11
2132.7049999999999
 21
3594.0933009999999
 31
0.0
  0
LINE
  5
7AF9
  8
1
  6
CONTINUOUS
 10
2416.7049999999999
 20
3994.0933009999999
 30
0.0
 11
2132.7049999999999
 21
3994.0933009999999
 31
0.0
  0
LINE
  5
7AFA
  8
1
  6
CONTINUOUS
 10
2132.7049999999999
 20
3994.0933009999999
 30
0.0
 11
2132.7049999999999
 21
3594.0933009999999
 31
0.0
  0
LINE
  5
7AFB
  8
1
  6
CONTINUOUS
 10
2293.7049999999999
 20
3510.3554679999988
 30
0.0
 11
2293.7049999999999
 21
3594.0933009999999
 31
0.0
  0
LINE
  5
7AFC
  8
1
  6
CONTINUOUS
 10
2255.7049999999999
 20
3510.3554679999988
 30
0.0
 11
2255.7049999999999
 21
3594.0933009999999
 31
0.0
  0
LINE
  5
7AFD
  8
1
  6
CONTINUOUS
 10
2344.7049999999999
 20
3510.3554679999988
 30
0.0
 11
2204.7049999999999
 21
3510.3554679999988
 31
0.0
  0
LINE
  5
7AFE
  8
1
  6
CONTINUOUS
 10
2344.7049999999999
 20
3450.3554680000002
 30
0.0
 11
2204.7049999999999
 21
3450.3554680000002
 31
0.0
  0
LINE
  5
7AFF
  8
1
  6
CONTINUOUS
 10
2204.7049999999999
 20
3450.3554680000002
 30
0.0
 11
2204.7049999999999
 21
3510.3554679999988
 31
0.0
  0
LINE
  5
7B00
  8
1
  6
CONTINUOUS
 10
2434.2049999999999
 20
3420.3554679999988
 30
0.0
 11
2434.2049999999999
 21
3540.3554680000002
 31
0.0
  0
LINE
  5
7B01
  8
1
  6
CONTINUOUS
 10
2344.7049999999999
 20
3450.3554680000002
 30
0.0
 11
2344.7049999999999
 21
3510.3554679999988
 31
0.0
  0
LINE
  5
7B02
  8
1
  6
CONTINUOUS
 10
2416.7049999999999
 20
3994.0933009999999
 30
0.0
 11
2416.7049999999999
 21
3594.0933009999999
 31
0.0
  0
LINE
  5
7B03
  8
1
  6
CONTINUOUS
 10
1894.7049999999999
 20
4040.3554680000002
 30
0.0
 11
1894.7049999999999
 21
4042.3554679999988
 31
0.0
  0
LINE
  5
7B04
  8
1
  6
CONTINUOUS
 10
3507.2717389999998
 20
1477.1422389999991
 30
0.0
 11
2997.2717389999998
 21
1477.1422389999991
 31
0.0
  0
LINE
  5
7B05
  8
1
  6
CONTINUOUS
 10
3507.2717389999998
 20
1542.142239
 30
0.0
 11
2997.2717389999998
 21
1542.142239
 31
0.0
  0
LINE
  5
7B06
  8
1
  6
CONTINUOUS
 10
3042.2717389999998
 20
1695.142239
 30
0.0
 11
3462.2717389999998
 21
2255.1422389999998
 31
0.0
  0
LINE
  5
7B07
  8
1
  6
CONTINUOUS
 10
3042.2717389999998
 20
2255.1422389999998
 30
0.0
 11
3462.2717389999998
 21
1695.142239
 31
0.0
  0
LINE
  5
7B08
  8
1
  6
CONTINUOUS
 10
3042.2717389999998
 20
2593.1422389999998
 30
0.0
 11
3462.2717389999998
 21
2593.1422389999998
 31
0.0
  0
LINE
  5
7B09
  8
1
  6
CONTINUOUS
 10
3507.2717389999998
 20
1644.1422389999991
 30
0.0
 11
2842.2717389999998
 21
1644.1422389999991
 31
0.0
  0
LINE
  5
7B0A
  8
1
  6
CONTINUOUS
 10
3507.2717389999998
 20
1564.142239
 30
0.0
 11
2997.2717389999998
 21
1564.142239
 31
0.0
  0
LINE
  5
7B0B
  8
1
  6
CONTINUOUS
 10
3042.2717389999998
 20
1695.142239
 30
0.0
 11
3462.2717389999998
 21
1695.142239
 31
0.0
  0
LINE
  5
7B0C
  8
1
  6
CONTINUOUS
 10
3042.2717389999998
 20
2255.1422389999998
 30
0.0
 11
3462.2717389999998
 21
2255.1422389999998
 31
0.0
  0
LINE
  5
7B20
  8
1
  6
CONTINUOUS
 10
2479.7049999999999
 20
1644.1422389999991
 30
0.0
 11
2479.7049999999999
 21
1564.142239
 31
0.0
  0
LINE
  5
7B21
  8
1
  6
CONTINUOUS
 10
2479.7049999999999
 20
1542.142239
 30
0.0
 11
2479.7049999999999
 21
1477.1422389999991
 31
0.0
  0
LINE
  5
7B37
  8
1
  6
CONTINUOUS
 10
3042.2717389999998
 20
1644.1422389999991
 30
0.0
 11
3042.2717389999998
 21
2593.1422389999998
 31
0.0
  0
LINE
  5
7B38
  8
1
  6
CONTINUOUS
 10
2962.2717389999998
 20
1644.1422389999991
 30
0.0
 11
2962.2717389999998
 21
2479.1422389999998
 31
0.0
  0
LINE
  5
7B39
  8
1
  6
CONTINUOUS
 10
2842.2717389999998
 20
1644.1422389999991
 30
0.0
 11
2842.2717389999998
 21
2479.1422389999998
 31
0.0
  0
LINE
  5
7B3C
  8
1
  6
CONTINUOUS
 10
2932.2717389999998
 20
1810.142239
 30
0.0
 11
3042.2717389999998
 21
1810.142239
 31
0.0
  0
LINE
  5
7B3D
  8
1
  6
CONTINUOUS
 10
2932.2717389999998
 20
1842.142239
 30
0.0
 11
3042.2717389999998
 21
1842.142239
 31
0.0
  0
LINE
  5
7B3E
  8
1
  6
CONTINUOUS
 10
2932.2717389999998
 20
1896.1422389999991
 30
0.0
 11
2932.2717389999998
 21
1756.142239
 31
0.0
  0
LINE
  5
7B3F
  8
1
  6
CONTINUOUS
 10
2872.2717389999998
 20
1896.1422389999991
 30
0.0
 11
2872.2717389999998
 21
1756.142239
 31
0.0
  0
LINE
  5
7B40
  8
1
  6
CONTINUOUS
 10
2872.2717389999998
 20
1756.142239
 30
0.0
 11
2932.2717389999998
 21
1756.142239
 31
0.0
  0
LINE
  5
7B41
  8
1
  6
CONTINUOUS
 10
2872.2717389999998
 20
1896.1422389999991
 30
0.0
 11
2932.2717389999998
 21
1896.1422389999991
 31
0.0
  0
LINE
  5
7B42
  8
1
  6
CONTINUOUS
 10
2997.2717389999998
 20
1477.1422389999991
 30
0.0
 11
2997.2717389999998
 21
1542.142239
 31
0.0
  0
LINE
  5
7B43
  8
1
  6
CONTINUOUS
 10
2997.2717389999998
 20
1564.142239
 30
0.0
 11
2997.2717389999998
 21
1644.1422389999991
 31
0.0
  0
LINE
  5
7B44
  8
1
  6
CONTINUOUS
 10
3042.2717389999998
 20
2218.1422389999998
 30
0.0
 11
2932.2717389999998
 21
2218.1422389999998
 31
0.0
  0
LINE
  5
7B45
  8
1
  6
CONTINUOUS
 10
3042.2717389999998
 20
2250.1422389999998
 30
0.0
 11
2932.2717389999998
 21
2250.1422389999998
 31
0.0
  0
LINE
  5
7B46
  8
1
  6
CONTINUOUS
 10
2932.2717389999998
 20
2334.1422389999998
 30
0.0
 11
2932.2717389999998
 21
2134.1422389999998
 31
0.0
  0
LINE
  5
7B47
  8
1
  6
CONTINUOUS
 10
2872.2717389999998
 20
2334.1422389999998
 30
0.0
 11
2872.2717389999998
 21
2134.1422389999998
 31
0.0
  0
LINE
  5
7B48
  8
1
  6
CONTINUOUS
 10
2872.2717389999998
 20
2134.1422389999998
 30
0.0
 11
2932.2717389999998
 21
2134.1422389999998
 31
0.0
  0
LINE
  5
7B49
  8
1
  6
CONTINUOUS
 10
2872.2717389999998
 20
2334.1422389999998
 30
0.0
 11
2932.2717389999998
 21
2334.1422389999998
 31
0.0
  0
LINE
  5
7B4A
  8
1
  6
CONTINUOUS
 10
2842.2717389999998
 20
2479.1422389999998
 30
0.0
 11
2962.2717389999998
 21
2479.1422389999998
 31
0.0
  0
LINE
  5
7B58
  8
1
  6
CONTINUOUS
 10
2479.7049999999999
 20
4085.3554679999988
 30
0.0
 11
2479.7049999999999
 21
3575.3554680000002
 31
0.0
  0
LINE
  5
7B6F
  8
1
  6
CONTINUOUS
 10
3462.2717389999998
 20
1644.1422389999991
 30
0.0
 11
3462.2717389999998
 21
2593.1422389999998
 31
0.0
  0
LINE
  5
7B70
  8
1
  6
CONTINUOUS
 10
3464.2717389999998
 20
1914.142239
 30
0.0
 11
3464.2717389999998
 21
2554.1422389999998
 31
0.0
  0
LINE
  5
7B71
  8
1
  6
CONTINUOUS
 10
3507.2717389999998
 20
1477.1422389999991
 30
0.0
 11
3507.2717389999998
 21
1542.142239
 31
0.0
  0
LINE
  5
7B72
  8
1
  6
CONTINUOUS
 10
3507.2717389999998
 20
1564.142239
 30
0.0
 11
3507.2717389999998
 21
1644.1422389999991
 31
0.0
  0
LINE
  5
7B73
  8
1
  6
CONTINUOUS
 10
3462.2717389999998
 20
1914.142239
 30
0.0
 11
3464.2717389999998
 21
1914.142239
 31
0.0
  0
LINE
  5
7B74
  8
1
  6
CONTINUOUS
 10
3462.2717389999998
 20
2554.1422389999998
 30
0.0
 11
3464.2717389999998
 21
2554.1422389999998
 31
0.0
  0
LINE
  5
7B75
  8
2
  6
CENTER
 10
3252.2717389999998
 20
2659.6460959999999
 30
0.0
 11
3252.2717389999998
 21
1349.1158898964891
 31
0.0
  0
LINE
  5
7B76
  8
2
  6
CENTER
 10
2549.1193060000001
 20
3830.3554680000002
 30
0.0
 11
1063.6650029999989
 21
3830.3554680000002
 31
0.0
  0
LINE
  5
7B77
  8
2
  6
CENTER
 10
1574.704999999999
 20
2729.2123889999998
 30
0.0
 11
1574.704999999999
 21
1401.7266541540801
 31
0.0
  0
LINE
  5
7B78
  8
2
  6
CENTER
 10
2795.7657608300169
 20
2234.1422389999998
 30
0.0
 11
3511.0172782231848
 21
2234.1422389999998
 31
0.0
  0
LINE
  5
7B79
  8
4
  6
CONTINUOUS
 10
3700.0
 20
1000.0
 30
0.0
 11
3700.0
 21
600.0
 31
0.0
  0
LINE
  5
7B7A
  8
4
  6
CONTINUOUS
 10
2300.0
 20
1000.0
 30
0.0
 11
2300.0
 21
600.0
 31
0.0
  0
LINE
  5
7B7B
  8
4
  6
CONTINUOUS
 10
1300.0
 20
1000.0
 30
0.0
 11
1300.0
 21
600.0
 31
0.0
  0
LINE
  5
7B7E
  8
4
  6
CONTINUOUS
 10
1300.0
 20
600.0
 30
0.0
 11
3700.0
 21
600.0
 31
0.0
  0
LINE
  5
7B7F
  8
4
  6
CONTINUOUS
 10
1300.0
 20
800.0
 30
0.0
 11
3700.0
 21
800.0
 31
0.0
  0
TEXT
  5
7B80
  8
4
  6
CONTINUOUS
 10
1377.004162
 20
863.086052
 30
0.0
 40
100.0
  1
機器名称
  0
TEXT
  5
7B81
  8
4
  6
CONTINUOUS
 10
1372.516212
 20
643.29031299999986
 30
0.0
 40
100.0
  1
機器型番
  0
TEXT
  5
7B82
  8
4
  6
CONTINUOUS
 10
2355.3574910000002
 20
845.14353800000015
 30
0.0
 40
100.0
  1
ミツヤ多翼送風機
  0
TEXT
  5
7B83
  8
4
  6
CONTINUOUS
 10
2373.3089909999999
 20
634.31916899999999
 30
0.0
 40
100.0
  1
MF#3 1/2-4
  0
TEXT
  5
7B85
  8
4
  6
CONTINUOUS
 10
1582.4368689999999
 20
4766.8576830000002
 30
0.0
 40
108.0
  1
床置防振ベット
  0
TEXT
  5
7B86
  8
4
  6
CONTINUOUS
 10
632.33518700000002
 20
5067.7619520000007
 30
0.0
 40
144.0
  1
ベルト駆動式片吸込両持多翼ファン
  0
LINE
  5
7B87
  8
4
  6
CONTINUOUS
 10
500.0
 20
4938.8175090000004
 30
0.0
 11
3700.0
 21
4938.8175090000004
 31
0.0
  0
LINE
  5
7B88
  8
4
  6
CONTINUOUS
 10
500.0
 20
5338.8175090000004
 30
0.0
 11
3700.0
 21
5338.8175090000004
 31
0.0
  0
LINE
  5
7B89
  8
4
  6
CONTINUOUS
 10
1300.0
 20
1000.0
 30
0.0
 11
3700.0
 21
1000.0
 31
0.0
  0
LINE
  5
7B8A
  8
4
  6
CONTINUOUS
 10
500.0
 20
5338.8175090000004
 30
0.0
 11
500.0
 21
4938.8175090000004
 31
0.0
  0
TEXT
  5
7B8B
  8
4
  6
CONTINUOUS
 10
710.71920399999999
 20
4764.6389549999994
 30
0.0
 40
108.0
  1
右回転左横向
  0
TEXT
  5
7B8C
  8
4
  6
CONTINUOUS
 10
2937.9391179999998
 20
5412.122163
 30
0.0
 40
112.0
  1
No.
  0
TEXT
  5
7B8D
  8
4
  6
CONTINUOUS
 10
2622.5921250000001
 20
4766.8576830000002
 30
0.0
 40
108.0
  1
縮尺：1/20
  0
LINE
  5
7B8E
  8
4
  6
CONTINUOUS
 10
3700.0
 20
5338.8175090000004
 30
0.0
 11
3700.0
 21
4938.8175090000004
 31
0.0
  0
LINE
  5
7B90
  8
4
  6
CONTINUOUS
 10
2881.234845
 20
5362.5271659999999
 30
0.0
 11
2881.234845
 21
5573.3045229999998
 31
0.0
  0
LINE
  5
7B91
  8
4
  6
CONTINUOUS
 10
2881.234845
 20
5573.3045229999998
 30
0.0
 11
3700.0
 21
5573.3045229999998
 31
0.0
  0
LINE
  5
7B92
  8
4
  6
CONTINUOUS
 10
3700.0
 20
5573.3045229999998
 30
0.0
 11
3700.0
 21
5362.5271659999999
 31
0.0
  0
LINE
  5
7B93
  8
4
  6
CONTINUOUS
 10
3700.0
 20
5362.5271659999999
 30
0.0
 11
2881.234845
 21
5362.5271659999999
 31
0.0
  0
DIMENSION
  5
7BAB
  8
3
  6
CONTINUOUS
  2
*D1
 10
1071.236952
 20
1695.142239
 30
0.0
 11
1071.236952
 21
1970.027476
 31
0.0
 70
   128
 13
1169.704999999999
 23
2255.1422389999998
 33
0.0
 14
1169.704999999999
 24
1695.142239
 34
0.0
 50
90.0
1001
ACAD
1000
DSTYLE
1002
{
1070
   287
1070
     3
1070
    40
1040
20.0
1070
   143
1040
0.039
1070
   172
1070
     1
1070
   271
1070
     0
1070
   279
1070
     0
1070
   288
1070
     1
1002
}
  0
DIMENSION
  5
7BB8
  8
3
  6
CONTINUOUS
  2
*D2
 10
956.57367500000021
 20
1695.142239
 30
0.0
 11
956.57367499999987
 21
1974.270303
 31
0.0
 70
   128
 13
1073.952211
 23
2234.1422389999998
 33
0.0
 14
1169.704999999999
 24
1695.142239
 34
0.0
 50
90.0
1001
ACAD
1000
DSTYLE
1002
{
1070
   287
1070
     3
1070
    40
1040
20.0
1070
   143
1040
0.039
1070
   172
1070
     1
1070
   271
1070
     0
1070
   279
1070
     0
1070
   288
1070
     1
1002
}
  0
DIMENSION
  5
7BC5
  8
3
  6
CONTINUOUS
  2
*D3
 10
807.93609600000036
 20
2234.1422389999998
 30
0.0
 11
807.93609600000002
 21
2424.0104929999989
 31
0.0
 70
   128
 13
1214.7049999999999
 23
2644.1422389999998
 33
0.0
 14
1073.952211
 24
2234.1422389999998
 34
0.0
 50
90.0
1001
ACAD
1000
DSTYLE
1002
{
1070
   287
1070
     3
1070
    40
1040
20.0
1070
   143
1040
0.039
1070
   172
1070
     1
1070
   271
1070
     0
1070
   279
1070
     0
1070
   288
1070
     1
1002
}
  0
DIMENSION
  5
7BD1
  8
3
  6
CONTINUOUS
  2
*D4
 10
807.93609600000002
 20
1564.142239
 30
0.0
 11
757.93609599999979
 21
1899.142239
 31
0.0
 70
     0
 13
1073.952211
 23
2234.1422389999998
 33
0.0
 14
1229.7049999999999
 24
1564.142239
 34
0.0
 50
90.0
1001
ACAD
1000
DSTYLE
1002
{
1070
   287
1070
     4
1070
    40
1040
20.0
1070
    75
1070
     1
1070
   143
1040
0.039
1070
   172
1070
     1
1070
   271
1070
     0
1070
   279
1070
     1
1070
   288
1070
     1
1002
}
  0
DIMENSION
  5
7BE1
  8
3
  6
CONTINUOUS
  2
*D5
 10
807.93609600000002
 20
1477.1422389999991
 30
0.0
 11
809.25918200000001
 21
1398.074071
 31
0.0
 70
   128
 13
1229.7049999999999
 23
1564.142239
 33
0.0
 14
1229.7049999999999
 24
1477.1422389999991
 34
0.0
 50
90.0
1001
ACAD
1000
DSTYLE
1002
{
1070
   287
1070
     4
1070
    40
1040
20.0
1070
    75
1070
     1
1070
   143
1040
0.039
1070
   172
1070
     1
1070
   271
1070
     0
1070
   279
1070
     1
1070
   288
1070
     1
1002
}
  0
DIMENSION
  5
7BEE
  8
3
  6
CONTINUOUS
  2
*D6
 10
684.05547900000022
 20
1477.1422389999991
 30
0.0
 11
684.05547899999988
 21
2020.9414569999999
 31
0.0
 70
   128
 13
1214.7049999999999
 23
2644.1422389999998
 33
0.0
 14
1229.7049999999999
 24
1477.1422389999991
 34
0.0
 50
90.0
1001
ACAD
1000
DSTYLE
1002
{
1070
   287
1070
     3
1070
    40
1040
20.0
1070
   143
1040
0.039
1070
   172
1070
     1
1070
   271
1070
     0
1070
   279
1070
     0
1070
   288
1070
     1
1002
}
  0
DIMENSION
  5
7BFB
  8
3
  6
CONTINUOUS
  2
*D7
 10
1574.704999999999
 20
1301.2305690000001
 30
0.0
 11
1406.7332690000001
 21
1301.2305690000001
 31
0.0
 70
   128
 13
1229.7049999999999
 23
1477.1422389999991
 33
0.0
 14
1574.704999999999
 24
1401.7266541540801
 34
0.0
1001
ACAD
1000
DSTYLE
1002
{
1070
   287
1070
     3
1070
    40
1040
20.0
1070
   143
1040
0.039
1070
   172
1070
     1
1070
   271
1070
     0
1070
   279
1070
     0
1070
   288
1070
     1
1002
}
  0
DIMENSION
  5
7C07
  8
3
  6
CONTINUOUS
  2
*D8
 10
2479.7049999999999
 20
1301.2305690000001
 30
0.0
 11
2027.204999999999
 21
1351.2305690000001
 31
0.0
 70
     0
 13
1574.704999999999
 23
1401.7266541540801
 33
0.0
 14
2479.7049999999999
 24
1477.1422389999991
 34
0.0
1001
ACAD
1000
DSTYLE
1002
{
1070
   287
1070
     4
1070
    40
1040
20.0
1070
    75
1070
     1
1070
   143
1040
0.039
1070
   172
1070
     1
1070
   271
1070
     0
1070
   279
1070
     1
1070
   288
1070
     1
1002
}
  0
DIMENSION
  5
7C14
  8
3
  6
CONTINUOUS
  2
*D9
 10
1574.704999999999
 20
2759.1942300000001
 30
0.0
 11
1360.018597
 21
2759.1942300000001
 31
0.0
 70
   128
 13
1169.704999999999
 23
2282.1422389999998
 33
0.0
 14
1574.704999999999
 24
2729.2123889999998
 34
0.0
1001
ACAD
1000
DSTYLE
1002
{
1070
   287
1070
     3
1070
    40
1040
20.0
1070
   143
1040
0.039
1070
   172
1070
     1
1070
   271
1070
     0
1070
   279
1070
     0
1070
   288
1070
     1
1002
}
  0
DIMENSION
  5
7C20
  8
3
  6
CONTINUOUS
  2
*D10
 10
2037.7049999999999
 20
2759.1942300000001
 30
0.0
 11
1806.2049999999999
 21
2809.1942300000001
 31
0.0
 70
     0
 13
1574.704999999999
 23
2729.2123889999998
 33
0.0
 14
2037.7049999999999
 24
2197.1422389999998
 34
0.0
1001
ACAD
1000
DSTYLE
1002
{
1070
   287
1070
     4
1070
    40
1040
20.0
1070
    75
1070
     1
1070
   143
1040
0.039
1070
   172
1070
     1
1070
   271
1070
     0
1070
   279
1070
     1
1070
   288
1070
     1
1002
}
  0
DIMENSION
  5
7C3C
  8
3
  6
CONTINUOUS
  2
*D11
 10
3647.915066
 20
1939.1422389999991
 30
0.0
 11
3647.9150659999991
 21
2237.325887
 31
0.0
 70
   128
 13
3462.2717389999998
 23
2529.1422389999998
 33
0.0
 14
3462.2717389999998
 24
1939.1422389999991
 34
0.0
 50
90.0
1001
ACAD
1000
DSTYLE
1002
{
1070
   287
1070
     3
1070
     3
1000
φ<>
1070
    40
1040
20.0
1070
   143
1040
0.039
1070
   172
1070
     1
1070
   271
1070
     0
1070
   279
1070
     0
1070
   288
1070
     1
1002
}
  0
DIMENSION
  5
7C4B
  8
3
  6
CONTINUOUS
  2
*D12
 10
3252.2717389999998
 20
2860.094055999999
 30
0.0
 11
3358.2717389999998
 21
2913.269570454846
 31
0.0
 70
   128
 13
3464.2717389999998
 23
2554.1422389999998
 33
0.0
 14
3252.2717389999998
 24
2809.2282329999998
 34
0.0
1001
ACAD
1000
DSTYLE
1002
{
1070
   288
1070
     1
1070
   172
1070
     1
1070
    40
1040
20.0
1070
   271
1070
     0
1070
   143
1040
0.039
1002
}
  0
DIMENSION
  5
7C57
  8
3
  6
CONTINUOUS
  2
*D13
 10
2842.2717389999998
 20
2860.094055999999
 30
0.0
 11
3047.2717389999998
 21
2960.094055999999
 31
0.0
 70
     0
  1
MAX\P470
 13
3252.2717389999998
 23
2809.2282329999998
 33
0.0
 14
2842.2717389999998
 24
2479.1422389999998
 34
0.0
1001
ACAD
1000
DSTYLE
1002
{
1070
   287
1070
     4
1070
    40
1040
20.0
1070
    75
1070
     1
1070
   143
1040
0.039
1070
   172
1070
     1
1070
   271
1070
     0
1070
   279
1070
     1
1070
   288
1070
     1
1002
}
  0
DIMENSION
  5
7C66
  8
3
  6
CONTINUOUS
  2
*D14
 10
3252.2717389999998
 20
1318.4752410000001
 30
0.0
 11
3124.7717389999998
 21
1365.6256383575289
 31
0.0
 70
   128
 13
2997.2717389999998
 23
1477.1422389999991
 33
0.0
 14
3252.2717389999998
 24
1349.1158898964891
 34
0.0
1001
ACAD
1000
DSTYLE
1002
{
1070
   288
1070
     1
1070
   172
1070
     1
1070
    40
1040
20.0
1070
   271
1070
     0
1070
   143
1040
0.039
1002
}
  0
DIMENSION
  5
7C74
  8
3
  6
CONTINUOUS
  2
*D15
 10
3507.2717389999998
 20
1318.4752410000001
 30
0.0
 11
3368.6611979999989
 21
1318.7636729999999
 31
0.0
 70
   128
 13
3252.2717389999998
 23
1356.8276653982441
 33
0.0
 14
3507.2717389999998
 24
1477.1422389999991
 34
0.0
1001
ACAD
1000
DSTYLE
1002
{
1070
   287
1070
     4
1070
    40
1040
20.0
1070
    75
1070
     1
1070
   143
1040
0.039
1070
   172
1070
     1
1070
   271
1070
     0
1070
   279
1070
     1
1070
   288
1070
     1
1002
}
  0
DIMENSION
  5
7C81
  8
3
  6
CONTINUOUS
  2
*D16
 10
2479.7049999999999
 20
4205.1642250000004
 30
0.0
 11
1844.152468
 21
4205.1642250000004
 31
0.0
 70
   128
 13
1229.7049999999999
 23
4085.3554679999988
 33
0.0
 14
2479.7049999999999
 24
4085.3554679999988
 34
0.0
1001
ACAD
1000
DSTYLE
1002
{
1070
   287
1070
     3
1070
    40
1040
20.0
1070
   143
1040
0.039
1070
   172
1070
     1
1070
   271
1070
     0
1070
   279
1070
     0
1070
   288
1070
     1
1002
}
  0
DIMENSION
  5
7C8E
  8
3
  6
CONTINUOUS
  2
*D17
 10
2646.7954559999998
 20
3575.3554680000002
 30
0.0
 11
2646.7954559999989
 21
3840.2806780000001
 31
0.0
 70
   128
 13
2479.7049999999999
 23
4085.3554679999988
 33
0.0
 14
2479.7049999999999
 24
3575.3554680000002
 34
0.0
 50
90.0
1001
ACAD
1000
DSTYLE
1002
{
1070
   287
1070
     3
1070
    40
1040
20.0
1070
   143
1040
0.039
1070
   172
1070
     1
1070
   271
1070
     0
1070
   279
1070
     0
1070
   288
1070
     1
1002
}
  0
DIMENSION
  5
7D1F
  8
3
  6
CONTINUOUS
  2
*D18
 10
3462.2717389999998
 20
2715.4437459999999
 30
0.0
 11
3240.8206190000001
 21
2715.4437459999999
 31
0.0
 70
   128
 13
3042.2717389999998
 23
2593.1422389999998
 33
0.0
 14
3462.2717389999998
 24
2593.1422389999998
 34
0.0
1001
ACAD
1000
DSTYLE
1002
{
1070
   287
1070
     3
1070
    40
1040
20.0
1070
   143
1040
0.039
1070
   172
1070
     1
1070
   271
1070
     0
1070
   279
1070
     0
1070
   288
1070
     1
1002
}
  0
DIMENSION
  5
7D8F
  8
3
  2
*D19
 10
2479.7049999999999
 20
2880.1395723520409
 30
0.0
 11
1791.5715784301351
 21
2880.1395723520409
 31
0.0
 70
   128
 13
1169.704999999999
 23
2282.1422389999998
 33
0.0
 14
2479.7049999999999
 24
1644.1422389999991
 34
0.0
1001
ACAD
1000
DSTYLE
1002
{
1070
   287
1070
     3
1070
    40
1040
20.0
1070
   143
1040
0.039
1070
   172
1070
     1
1070
   271
1070
     0
1070
   279
1070
     0
1070
   288
1070
     1
1002
}
  0
ENDSEC
  0
EOF
