  0
SECTION
  2
HEADER
  9
$ACADVER
  1
AC1009
  9
$INSBASE
 10
0.0
 20
0.0
 30
0.0
  9
$EXTMIN
 10
500.0
 20
600.0
 30
0.0
  9
$EXTMAX
 10
3700.0
 20
5573.3045229999998
 30
0.0
  9
$LIMMIN
 10
0.0
 20
0.0
  9
$LIMMAX
 10
297.0
 20
210.0
  9
$ORTHOMODE
 70
     0
  9
$REGENMODE
 70
     1
  9
$FILLMODE
 70
     0
  9
$QTEXTMODE
 70
     0
  9
$MIRRTEXT
 70
     1
  9
$DRAGMODE
 70
     2
  9
$LTSCALE
 40
100.0
  9
$OSMODE
 70
    37
  9
$ATTMODE
 70
     1
  9
$TEXTSIZE
 40
180.0
  9
$TRACEWID
 40
0.05
  9
$TEXTSTYLE
  7
STANDARD
  9
$CLAYER
  8
3
  9
$CELTYPE
  6
BYLAYER
  9
$CECOLOR
 62
   256
  9
$DIMSCALE
 40
20.0
  9
$DIMASZ
 40
2.0
  9
$DIMEXO
 40
0.5
  9
$DIMDLI
 40
10.0
  9
$DIMRND
 40
0.0
  9
$DIMDLE
 40
0.0
  9
$DIMEXE
 40
1.0
  9
$DIMTP
 40
1.0
  9
$DIMTM
 40
1.0
  9
$DIMTXT
 40
3.0
  9
$DIMCEN
 40
0.0
  9
$DIMTSZ
 40
0.0
  9
$DIMTOL
 70
     0
  9
$DIMLIM
 70
     0
  9
$DIMTIH
 70
     0
  9
$DIMTOH
 70
     0
  9
$DIMSE1
 70
     0
  9
$DIMSE2
 70
     0
  9
$DIMTAD
 70
     1
  9
$DIMZIN
 70
     8
  9
$DIMBLK
  1

  9
$DIMASO
 70
     1
  9
$DIMSHO
 70
     1
  9
$DIMPOST
  1

  9
$DIMAPOST
  1

  9
$DIMALT
 70
     0
  9
$DIMALTD
 70
     2
  9
$DIMALTF
 40
0.039
  9
$DIMLFAC
 40
1.0
  9
$DIMTOFL
 70
     1
  9
$DIMTVP
 40
0.0
  9
$DIMTIX
 70
     0
  9
$DIMSOXD
 70
     0
  9
$DIMSAH
 70
     1
  9
$DIMBLK1
  1
OPEN
  9
$DIMBLK2
  1
OPEN
  9
$DIMSTYLE
  2
IGA
  9
$DIMCLRD
 70
     0
  9
$DIMCLRE
 70
     0
  9
$DIMCLRT
 70
     0
  9
$DIMTFAC
 40
10.0
  9
$DIMGAP
 40
1.0
  9
$LUNITS
 70
     2
  9
$LUPREC
 70
     3
  9
$SKETCHINC
 40
0.1
  9
$FILLETRAD
 40
50.0
  9
$AUNITS
 70
     0
  9
$AUPREC
 70
     0
  9
$MENU
  1
acad
  9
$ELEVATION
 40
0.0
  9
$PELEVATION
 40
0.0
  9
$THICKNESS
 40
0.0
  9
$LIMCHECK
 70
     0
  9
$BLIPMODE
 70
     0
  9
$CHAMFERA
 40
0.5
  9
$CHAMFERB
 40
0.5
  9
$SKPOLY
 70
     0
  9
$TDCREATE
 40
2450736.59773611
  9
$TDUPDATE
 40
2454953.7697554971
  9
$TDINDWG
 40
0.0039986343
  9
$TDUSRTIMER
 40
0.0039986343
  9
$USRTIMER
 70
     1
  9
$ANGBASE
 50
0.0
  9
$ANGDIR
 70
     0
  9
$PDMODE
 70
     0
  9
$PDSIZE
 40
0.0
  9
$PLINEWID
 40
0.0
  9
$COORDS
 70
     1
  9
$SPLFRAME
 70
     0
  9
$SPLINETYPE
 70
     6
  9
$SPLINESEGS
 70
     8
  9
$ATTDIA
 70
     0
  9
$ATTREQ
 70
     1
  9
$HANDLING
 70
 10241
  9
$HANDSEED
  5
7E7D
  9
$SURFTAB1
 70
     6
  9
$SURFTAB2
 70
     6
  9
$SURFTYPE
 70
     6
  9
$SURFU
 70
     6
  9
$SURFV
 70
     6
  9
$UCSNAME
  2

  9
$UCSORG
 10
0.0
 20
0.0
 30
0.0
  9
$UCSXDIR
 10
1.0
 20
0.0
 30
0.0
  9
$UCSYDIR
 10
0.0
 20
1.0
 30
0.0
  9
$PUCSNAME
  2

  9
$PUCSORG
 10
0.0
 20
0.0
 30
0.0
  9
$PUCSXDIR
 10
1.0
 20
0.0
 30
0.0
  9
$PUCSYDIR
 10
0.0
 20
1.0
 30
0.0
  9
$USERI1
 70
     0
  9
$USERI2
 70
     0
  9
$USERI3
 70
     0
  9
$USERI4
 70
     0
  9
$USERI5
 70
     0
  9
$USERR1
 40
0.0
  9
$USERR2
 40
0.0
  9
$USERR3
 40
0.0
  9
$USERR4
 40
0.0
  9
$USERR5
 40
0.0
  9
$WORLDVIEW
 70
     1
  9
$SHADEDGE
 70
     3
  9
$SHADEDIF
 70
    70
  9
$TILEMODE
 70
     1
  9
$MAXACTVP
 70
    16
  9
$PLIMCHECK
 70
     0
  9
$PEXTMIN
 10
1.0000000000000000E+020
 20
1.0000000000000000E+020
 30
1.0000000000000000E+020
  9
$PEXTMAX
 10
-1.0000000000000000E+020
 20
-1.0000000000000000E+020
 30
-1.0000000000000000E+020
  9
$PLIMMIN
 10
0.0
 20
0.0
  9
$PLIMMAX
 10
12.0
 20
9.0
  9
$UNITMODE
 70
     0
  9
$VISRETAIN
 70
     0
  9
$PLINEGEN
 70
     0
  9
$PSLTSCALE
 70
     1
  0
ENDSEC
  0
SECTION
  2
TABLES
  0
TABLE
  2
VPORT
 70
     2
  0
VPORT
  2
*ACTIVE
 70
     0
 10
0.0
 20
0.0
 11
1.0
 21
1.0
 12
6292.1124769529506
 22
3086.6374998146398
 13
0.0
 23
0.0
 14
10.0
 24
10.0
 15
10.0
 25
10.0
 16
0.0
 26
0.0
 36
1.0
 17
0.0
 27
0.0
 37
0.0
 40
5011.4968576296578
 41
3.1666666666666661
 42
50.0
 43
0.0
 44
0.0
 50
0.0
 51
0.0
 71
     0
 72
   100
 73
     1
 74
     0
 75
     0
 76
     0
 77
     0
 78
     0
  0
ENDTAB
  0
TABLE
  2
LTYPE
 70
     2
  0
LTYPE
  2
CONTINUOUS
 70
     0
  3
Solid line
 72
    65
 73
     0
 40
0.0
  0
LTYPE
  2
CENTER
 70
     0
  3
____ _ ____ _ ____ _ ____ _ ____ _ ____ _ ____ 
 72
    65
 73
     4
 40
2.0
 49
1.25
 49
-0.25
 49
0.25
 49
-0.25
  0
ENDTAB
  0
TABLE
  2
LAYER
 70
     6
  0
LAYER
  2
0
 70
     0
 62
     7
  6
CONTINUOUS
  0
LAYER
  2
3
 70
     0
 62
     2
  6
CONTINUOUS
  0
LAYER
  2
2
 70
     0
 62
     3
  6
CENTER
  0
LAYER
  2
1
 70
     0
 62
     4
  6
CONTINUOUS
  0
LAYER
  2
4
 70
     0
 62
     7
  6
CONTINUOUS
  0
LAYER
  2
DEFPOINTS
 70
     0
 62
     7
  6
CONTINUOUS
  0
ENDTAB
  0
TABLE
  2
STYLE
 70
     1
  0
STYLE
  2
STANDARD
 70
     0
 40
0.0
 41
1.0
 50
0.0
 71
     0
 42
180.0
  3
simplex.shx
  4
extfont.shx
  0
ENDTAB
  0
TABLE
  2
VIEW
 70
     0
  0
ENDTAB
  0
TABLE
  2
UCS
 70
     0
  0
ENDTAB
  0
TABLE
  2
APPID
 70
     1
  0
APPID
  2
ACAD
 70
     0
  0
ENDTAB
  0
TABLE
  2
DIMSTYLE
 70
     1
  0
DIMSTYLE
  2
IGA
 70
     0
  3

  4

  5

  6
OPEN
  7
OPEN
 40
2.0
 41
2.0
 42
0.5
 43
10.0
 44
1.0
 45
0.0
 46
0.0
 47
1.0
 48
1.0
140
3.0
141
0.0
142
0.0
143
0.03937
144
1.0
145
0.0
146
10.0
147
1.0
 71
     0
 72
     0
 73
     0
 74
     0
 75
     0
 76
     0
 77
     1
 78
     8
170
     0
171
     2
172
     0
173
     1
174
     0
175
     0
176
     0
177
     0
178
     0
  0
ENDTAB
  0
ENDSEC
  0
SECTION
  2
BLOCKS
  0
BLOCK
  8
0
  2
$MODEL_SPACE
 70
     0
 10
0.0
 20
0.0
 30
0.0
  3
$MODEL_SPACE
  1

  0
ENDBLK
  5
1B
  8
0
  0
BLOCK
 67
     1
  8
0
  2
$PAPER_SPACE
 70
     0
 10
0.0
 20
0.0
 30
0.0
  3
$PAPER_SPACE
  1

  0
ENDBLK
  5
18
 67
     1
  8
0
  0
BLOCK
  8
0
  2
_OPEN
 70
     0
 10
0.0
 20
0.0
 30
0.0
  3
_OPEN
  1

  0
LINE
  5
7B96
  8
0
  6
BYBLOCK
 62
     0
 10
-1.0
 20
0.166667
 30
0.0
 11
0.0
 21
0.0
 31
0.0
  0
LINE
  5
7B97
  8
0
  6
BYBLOCK
 62
     0
 10
0.0
 20
0.0
 30
0.0
 11
-1.0
 21
-0.166667
 31
0.0
  0
LINE
  5
7B98
  8
0
  6
BYBLOCK
 62
     0
 10
0.0
 20
0.0
 30
0.0
 11
-1.0
 21
0.0
 31
0.0
  0
ENDBLK
  5
7B99
  8
0
  0
BLOCK
  8
0
  2
*D1
 70
     1
 10
0.0
 20
0.0
 30
0.0
  3
*D1
  1

  0
LINE
  5
7DE0
  8
3
  6
CONTINUOUS
 62
     0
 10
1045.9182920000001
 20
2675.8690219999999
 30
0.0
 11
945.58546400000046
 21
2675.8690219999999
 31
0.0
  0
LINE
  5
7DE1
  8
3
  6
CONTINUOUS
 62
     0
 10
1045.9182920000001
 20
2115.8690219999999
 30
0.0
 11
945.58546400000046
 21
2115.8690219999999
 31
0.0
  0
LINE
  5
7DE2
  8
3
  6
CONTINUOUS
 62
     0
 10
965.58546400000057
 20
2635.8690219999999
 30
0.0
 11
965.58546400000046
 21
2155.8690219999999
 31
0.0
  0
INSERT
  5
7DE3
  8
3
  6
CONTINUOUS
 62
     0
  2
_OPEN
 10
965.58546400000057
 20
2675.8690219999999
 30
0.0
 41
40.0
 42
40.0
 43
40.0
 50
90.0
  0
INSERT
  5
7DE4
  8
3
  6
CONTINUOUS
 62
     0
  2
_OPEN
 10
965.58546400000046
 20
2115.8690219999999
 30
0.0
 41
40.0
 42
40.0
 43
40.0
 50
270.0
  0
TEXT
  8
3
  40
60
  5
7E6C
  62
0
  72
0
  71
0
 10
795.585
 20
2261.49
 30
0.000000
  1
560
  0
POINT
  5
7DE6
  8
DEFPOINTS
  6
CONTINUOUS
 62
     0
 10
1055.9182920000001
 20
2675.8690219999999
 30
0.0
  0
POINT
  5
7DE7
  8
DEFPOINTS
  6
CONTINUOUS
 62
     0
 10
1055.9182920000001
 20
2115.8690219999999
 30
0.0
  0
POINT
  5
7DE8
  8
DEFPOINTS
  6
CONTINUOUS
 62
     0
 10
965.58546400000046
 20
2115.8690219999999
 30
0.0
  0
ENDBLK
  5
7BA6
  8
0
  0
BLOCK
  8
0
  2
*D2
 70
     1
 10
0.0
 20
0.0
 30
0.0
  3
*D2
  1

  0
LINE
  5
7DE9
  8
3
  6
CONTINUOUS
 62
     0
 10
1045.9182920000001
 20
2675.8690219999999
 30
0.0
 11
821.07168400000046
 21
2675.8690219999999
 31
0.0
  0
LINE
  5
7DEA
  8
3
  6
CONTINUOUS
 62
     0
 10
889.27298099999996
 20
2136.8690219999989
 30
0.0
 11
821.07168400000035
 21
2136.8690219999989
 31
0.0
  0
LINE
  5
7DEB
  8
3
  6
CONTINUOUS
 62
     0
 10
841.07168400000035
 20
2635.8690219999999
 30
0.0
 11
841.07168400000023
 21
2176.8690219999989
 31
0.0
  0
INSERT
  5
7DEC
  8
3
  6
CONTINUOUS
 62
     0
  2
_OPEN
 10
841.07168400000035
 20
2675.8690219999999
 30
0.0
 41
40.0
 42
40.0
 43
40.0
 50
90.0
  0
INSERT
  5
7DED
  8
3
  6
CONTINUOUS
 62
     0
  2
_OPEN
 10
841.07168400000023
 20
2136.8690219999989
 30
0.0
 41
40.0
 42
40.0
 43
40.0
 50
270.0
  0
TEXT
  8
3
  40
60
  5
7E6D
  62
0
  72
0
  71
0
 10
671.072
 20
2261.49
 30
0.000000
  1
539
  0
POINT
  5
7DEF
  8
DEFPOINTS
  6
CONTINUOUS
 62
     0
 10
1055.9182920000001
 20
2675.8690219999999
 30
0.0
  0
POINT
  5
7DF0
  8
DEFPOINTS
  6
CONTINUOUS
 62
     0
 10
899.27298099999996
 20
2136.8690219999989
 30
0.0
  0
POINT
  5
7DF1
  8
DEFPOINTS
  6
CONTINUOUS
 62
     0
 10
841.07168400000023
 20
2136.8690219999989
 30
0.0
  0
ENDBLK
  5
7BB3
  8
0
  0
BLOCK
  8
0
  2
*D3
 70
     1
 10
0.0
 20
0.0
 30
0.0
  3
*D3
  1

  0
LINE
  5
7DF2
  8
3
  6
CONTINUOUS
 62
     0
 10
1105.9182920000001
 20
1646.8690220000001
 30
0.0
 11
821.07168399999989
 21
1646.8690220000001
 31
0.0
  0
LINE
  5
7DF3
  8
3
  6
CONTINUOUS
 62
     0
 10
841.071684
 20
2096.8690219999989
 30
0.0
 11
841.071684
 21
1686.8690220000001
 31
0.0
  0
INSERT
  5
7DF4
  8
3
  6
CONTINUOUS
 62
     0
  2
_OPEN
 10
841.071684
 20
2136.8690219999989
 30
0.0
 41
40.0
 42
40.0
 43
40.0
 50
90.0
  0
INSERT
  5
7DF5
  8
3
  6
CONTINUOUS
 62
     0
  2
_OPEN
 10
841.071684
 20
1646.8690220000001
 30
0.0
 41
40.0
 42
40.0
 43
40.0
 50
270.0
  0
TEXT
  8
3
  40
60
  5
7E6E
  62
0
  72
0
  71
0
 10
671.072
 20
1785.67
 30
0.000000
  1
490
  0
POINT
  5
7DF7
  8
DEFPOINTS
  6
CONTINUOUS
 62
     0
 10
899.27298099999996
 20
2136.8690219999989
 30
0.0
  0
POINT
  5
7DF8
  8
DEFPOINTS
  6
CONTINUOUS
 62
     0
 10
1115.9182920000001
 20
1646.8690220000001
 30
0.0
  0
POINT
  5
7DF9
  8
DEFPOINTS
  6
CONTINUOUS
 62
     0
 10
841.071684
 20
1646.8690220000001
 30
0.0
  0
ENDBLK
  5
7BBF
  8
0
  0
BLOCK
  8
0
  2
*D4
 70
     1
 10
0.0
 20
0.0
 30
0.0
  3
*D4
  1

  0
LINE
  5
7DFA
  8
3
  6
CONTINUOUS
 62
     0
 10
1105.9182920000001
 20
1559.8690220000001
 30
0.0
 11
821.07168399999989
 21
1559.8690220000001
 31
0.0
  0
LINE
  5
7DFB
  8
3
  6
CONTINUOUS
 62
     0
 10
841.071684
 20
1686.8690220000001
 30
0.0
 11
841.071684
 21
1726.8690219999989
 31
0.0
  0
LINE
  5
7DFC
  8
3
  6
CONTINUOUS
 62
     0
 10
841.071684
 20
1519.8690220000001
 30
0.0
 11
841.071684
 21
1479.8690220000001
 31
0.0
  0
TEXT
  8
3
  40
60
  5
7E6F
  62
0
  72
0
  71
0
 10
670.460
 20
1381.23
 30
0.000000
  1
87
  0
LINE
  5
7DFE
  8
3
  6
CONTINUOUS
 62
     0
 10
841.071684
 20
1646.8690220000001
 30
0.0
 11
841.071684
 21
1559.8690220000001
 31
0.0
  0
INSERT
  5
7DFF
  8
3
  6
CONTINUOUS
 62
     0
  2
_OPEN
 10
841.071684
 20
1646.8690220000001
 30
0.0
 41
40.0
 42
40.0
 43
40.0
 50
270.0
  0
INSERT
  5
7E00
  8
3
  6
CONTINUOUS
 62
     0
  2
_OPEN
 10
841.071684
 20
1559.8690220000001
 30
0.0
 41
40.0
 42
40.0
 43
40.0
 50
90.0
  0
POINT
  5
7E01
  8
DEFPOINTS
  6
CONTINUOUS
 62
     0
 10
1115.9182920000001
 20
1646.8690220000001
 30
0.0
  0
POINT
  5
7E02
  8
DEFPOINTS
  6
CONTINUOUS
 62
     0
 10
1115.9182920000001
 20
1559.8690220000001
 30
0.0
  0
POINT
  5
7E03
  8
DEFPOINTS
  6
CONTINUOUS
 62
     0
 10
841.071684
 20
1559.8690220000001
 30
0.0
  0
ENDBLK
  5
7CB2
  8
0
  0
BLOCK
  8
0
  2
*D5
 70
     1
 10
0.0
 20
0.0
 30
0.0
  3
*D5
  1

  0
LINE
  5
7E04
  8
3
  6
CONTINUOUS
 62
     0
 10
1045.9182920000001
 20
2702.8690219999989
 30
0.0
 11
692.75418600000046
 21
2702.8690219999999
 31
0.0
  0
LINE
  5
7E05
  8
3
  6
CONTINUOUS
 62
     0
 10
1105.9182920000001
 20
1559.8690220000001
 30
0.0
 11
692.75418600000023
 21
1559.8690220000001
 31
0.0
  0
LINE
  5
7E06
  8
3
  6
CONTINUOUS
 62
     0
 10
712.75418600000035
 20
2662.8690219999999
 30
0.0
 11
712.75418600000023
 21
1599.8690220000001
 31
0.0
  0
INSERT
  5
7E07
  8
3
  6
CONTINUOUS
 62
     0
  2
_OPEN
 10
712.75418600000035
 20
2702.8690219999999
 30
0.0
 41
40.0
 42
40.0
 43
40.0
 50
90.0
  0
INSERT
  5
7E08
  8
3
  6
CONTINUOUS
 62
     0
  2
_OPEN
 10
712.75418600000023
 20
1559.8690220000001
 30
0.0
 41
40.0
 42
40.0
 43
40.0
 50
270.0
  0
TEXT
  8
3
  40
60
  5
7E70
  62
0
  72
0
  71
0
 10
542.754
 20
2060.54
 30
0.000000
  1
1143
  0
POINT
  5
7E0A
  8
DEFPOINTS
  6
CONTINUOUS
 62
     0
 10
1055.9182920000001
 20
2702.8690219999989
 30
0.0
  0
POINT
  5
7E0B
  8
DEFPOINTS
  6
CONTINUOUS
 62
     0
 10
1115.9182920000001
 20
1559.8690220000001
 30
0.0
  0
POINT
  5
7E0C
  8
DEFPOINTS
  6
CONTINUOUS
 62
     0
 10
712.75418600000023
 20
1559.8690220000001
 30
0.0
  0
ENDBLK
  5
7CBD
  8
0
  0
BLOCK
  8
0
  2
*D6
 70
     1
 10
0.0
 20
0.0
 30
0.0
  3
*D6
  1

  0
LINE
  5
7E0D
  8
3
  6
CONTINUOUS
 62
     0
 10
1115.9182920000001
 20
1549.8690220000001
 30
0.0
 11
1115.9182920000001
 21
1329.2832269999999
 31
0.0
  0
LINE
  5
7E0E
  8
3
  6
CONTINUOUS
 62
     0
 10
1460.9182920000001
 20
1432.7619788690599
 30
0.0
 11
1460.9182920000001
 21
1329.2832269999999
 31
0.0
  0
LINE
  5
7E0F
  8
3
  6
CONTINUOUS
 62
     0
 10
1155.9182920000001
 20
1349.283226999999
 30
0.0
 11
1420.9182920000001
 21
1349.283226999999
 31
0.0
  0
INSERT
  5
7E10
  8
3
  6
CONTINUOUS
 62
     0
  2
_OPEN
 10
1115.9182920000001
 20
1349.283226999999
 30
0.0
 41
40.0
 42
40.0
 43
40.0
 50
180.0
  0
INSERT
  5
7E11
  8
3
  6
CONTINUOUS
 62
     0
  2
_OPEN
 10
1460.9182920000001
 20
1349.283226999999
 30
0.0
 41
40.0
 42
40.0
 43
40.0
  0
TEXT
  8
3
  40
60
  5
7E71
  62
0
  72
0
  71
0
 10
1161.66
 20
1293.08
 30
0.000000
  1
345
  0
POINT
  5
7E13
  8
DEFPOINTS
  6
CONTINUOUS
 62
     0
 10
1115.9182920000001
 20
1559.8690220000001
 30
0.0
  0
POINT
  5
7E14
  8
DEFPOINTS
  6
CONTINUOUS
 62
     0
 10
1460.9182920000001
 20
1442.7619788690599
 30
0.0
  0
POINT
  5
7E15
  8
DEFPOINTS
  6
CONTINUOUS
 62
     0
 10
1460.9182920000001
 20
1349.283226999999
 30
0.0
  0
ENDBLK
  5
7DBD
  8
0
  0
BLOCK
  8
0
  2
*D7
 70
     1
 10
0.0
 20
0.0
 30
0.0
  3
*D7
  1

  0
LINE
  5
7E16
  8
3
  6
CONTINUOUS
 62
     0
 10
2365.9182919999998
 20
1549.8690220000001
 30
0.0
 11
2365.9182919999998
 21
1329.2832269999999
 31
0.0
  0
LINE
  5
7E17
  8
3
  6
CONTINUOUS
 62
     0
 10
1500.9182920000001
 20
1349.283226999999
 30
0.0
 11
2325.9182919999998
 21
1349.283226999999
 31
0.0
  0
INSERT
  5
7E18
  8
3
  6
CONTINUOUS
 62
     0
  2
_OPEN
 10
1460.9182920000001
 20
1349.283226999999
 30
0.0
 41
40.0
 42
40.0
 43
40.0
 50
180.0
  0
INSERT
  5
7E19
  8
3
  6
CONTINUOUS
 62
     0
  2
_OPEN
 10
2365.9182919999998
 20
1349.283226999999
 30
0.0
 41
40.0
 42
40.0
 43
40.0
  0
TEXT
  8
3
  40
60
  5
7E72
  62
0
  72
0
  71
0
 10
1793.42
 20
1293.08
 30
0.000000
  1
905
  0
POINT
  5
7E1B
  8
DEFPOINTS
  6
CONTINUOUS
 62
     0
 10
1460.9182920000001
 20
1442.7619788690599
 30
0.0
  0
POINT
  5
7E1C
  8
DEFPOINTS
  6
CONTINUOUS
 62
     0
 10
2365.9182919999998
 20
1559.8690220000001
 30
0.0
  0
POINT
  5
7E1D
  8
DEFPOINTS
  6
CONTINUOUS
 62
     0
 10
2365.9182919999998
 20
1349.283226999999
 30
0.0
  0
ENDBLK
  5
7DB2
  8
0
  0
BLOCK
  8
0
  2
*D8
 70
     1
 10
0.0
 20
0.0
 30
0.0
  3
*D8
  1

  0
LINE
  5
7E1E
  8
3
  6
CONTINUOUS
 62
     0
 10
1055.9182920000001
 20
2712.8690219999999
 30
0.0
 11
1055.9182920000001
 21
2799.1621660000001
 31
0.0
  0
LINE
  5
7E1F
  8
3
  6
CONTINUOUS
 62
     0
 10
1460.9182920000001
 20
2766.5001790000001
 30
0.0
 11
1460.9182920000001
 21
2799.1621660000001
 31
0.0
  0
LINE
  5
7E20
  8
3
  6
CONTINUOUS
 62
     0
 10
1095.9182920000001
 20
2779.1621660000001
 30
0.0
 11
1420.9182920000001
 21
2779.1621660000001
 31
0.0
  0
INSERT
  5
7E21
  8
3
  6
CONTINUOUS
 62
     0
  2
_OPEN
 10
1055.9182920000001
 20
2779.1621660000001
 30
0.0
 41
40.0
 42
40.0
 43
40.0
 50
180.0
  0
INSERT
  5
7E22
  8
3
  6
CONTINUOUS
 62
     0
  2
_OPEN
 10
1460.9182920000001
 20
2779.1621660000001
 30
0.0
 41
40.0
 42
40.0
 43
40.0
  0
TEXT
  8
3
  40
60
  5
7E73
  62
0
  72
0
  71
0
 10
1137.71
 20
2722.96
 30
0.000000
  1
405
  0
POINT
  5
7E24
  8
DEFPOINTS
  6
CONTINUOUS
 62
     0
 10
1055.9182920000001
 20
2702.8690219999989
 30
0.0
  0
POINT
  5
7E25
  8
DEFPOINTS
  6
CONTINUOUS
 62
     0
 10
1460.9182920000001
 20
2756.5001790000001
 30
0.0
  0
POINT
  5
7E26
  8
DEFPOINTS
  6
CONTINUOUS
 62
     0
 10
1460.9182920000001
 20
2779.1621660000001
 30
0.0
  0
ENDBLK
  5
7C02
  8
0
  0
BLOCK
  8
0
  2
*D9
 70
     1
 10
0.0
 20
0.0
 30
0.0
  3
*D9
  1

  0
LINE
  5
7E27
  8
3
  6
CONTINUOUS
 62
     0
 10
1935.9182920000001
 20
2556.8690219999999
 30
0.0
 11
1935.9182920000001
 21
2799.1621660000001
 31
0.0
  0
LINE
  5
7E28
  8
3
  6
CONTINUOUS
 62
     0
 10
1500.9182920000001
 20
2779.1621660000001
 30
0.0
 11
1895.9182920000001
 21
2779.1621660000001
 31
0.0
  0
INSERT
  5
7E29
  8
3
  6
CONTINUOUS
 62
     0
  2
_OPEN
 10
1460.9182920000001
 20
2779.1621660000001
 30
0.0
 41
40.0
 42
40.0
 43
40.0
 50
180.0
  0
INSERT
  5
7E2A
  8
3
  6
CONTINUOUS
 62
     0
  2
_OPEN
 10
1935.9182920000001
 20
2779.1621660000001
 30
0.0
 41
40.0
 42
40.0
 43
40.0
  0
TEXT
  8
3
  40
60
  5
7E74
  62
0
  72
0
  71
0
 10
1578.42
 20
2722.96
 30
0.000000
  1
475
  0
POINT
  5
7E2C
  8
DEFPOINTS
  6
CONTINUOUS
 62
     0
 10
1460.9182920000001
 20
2756.5001790000001
 30
0.0
  0
POINT
  5
7E2D
  8
DEFPOINTS
  6
CONTINUOUS
 62
     0
 10
1935.9182920000001
 20
2546.8690219999999
 30
0.0
  0
POINT
  5
7E2E
  8
DEFPOINTS
  6
CONTINUOUS
 62
     0
 10
1935.9182920000001
 20
2779.1621660000001
 30
0.0
  0
ENDBLK
  5
7C0E
  8
0
  0
BLOCK
  8
0
  2
*D10
 70
     1
 10
0.0
 20
0.0
 30
0.0
  3
*D10
  1

  0
LINE
  5
7E2F
  8
3
  6
CONTINUOUS
 62
     0
 10
3402.7977517735471
 20
2431.8690219999999
 30
0.0
 11
3618.7291017735479
 21
2431.8690219999999
 31
0.0
  0
LINE
  5
7E30
  8
3
  6
CONTINUOUS
 62
     0
 10
3402.7977517735471
 20
1841.8690220000001
 30
0.0
 11
3618.7291017735479
 21
1841.8690220000001
 31
0.0
  0
LINE
  5
7E31
  8
3
  6
CONTINUOUS
 62
     0
 10
3598.7291017735479
 20
2391.8690219999989
 30
0.0
 11
3598.7291017735479
 21
1881.8690219999989
 31
0.0
  0
INSERT
  5
7E32
  8
3
  6
CONTINUOUS
 62
     0
  2
_OPEN
 10
3598.7291017735479
 20
2431.8690219999999
 30
0.0
 41
40.0
 42
40.0
 43
40.0
 50
90.0
  0
INSERT
  5
7E33
  8
3
  6
CONTINUOUS
 62
     0
  2
_OPEN
 10
3598.7291017735479
 20
1841.8690220000001
 30
0.0
 41
40.0
 42
40.0
 43
40.0
 50
270.0
  0
TEXT
  8
3
  40
60
  5
7E75
  62
0
  72
0
  71
0
 10
3428.73
 20
2027.05
 30
0.000000
  1
φ590
  0
POINT
  5
7E35
  8
DEFPOINTS
  6
CONTINUOUS
 62
     0
 10
3392.7977517735471
 20
2431.8690219999999
 30
0.0
  0
POINT
  5
7E36
  8
DEFPOINTS
  6
CONTINUOUS
 62
     0
 10
3392.7977517735471
 20
1841.8690220000001
 30
0.0
  0
POINT
  5
7E37
  8
DEFPOINTS
  6
CONTINUOUS
 62
     0
 10
3598.7291017735479
 20
1841.8690220000001
 30
0.0
  0
ENDBLK
  5
7D51
  8
0
  0
BLOCK
  8
0
  2
*D11
 70
     1
 10
0.0
 20
0.0
 30
0.0
  3
*D11
  1

  0
LINE
  5
7D69
  8
0
  6
BYBLOCK
 62
     0
 10
3392.7977517735471
 20
2466.8690219999999
 30
0.0
 11
3392.7977517735471
 21
2940.108154
 31
0.0
  0
LINE
  5
7D6A
  8
0
  6
BYBLOCK
 62
     0
 10
3180.7977517735471
 20
2874.6365481862899
 30
0.0
 11
3180.7977517735471
 21
2940.108154
 31
0.0
  0
LINE
  5
7D6B
  8
0
  6
BYBLOCK
 62
     0
 10
3352.7977517735471
 20
2920.108154
 30
0.0
 11
3220.7977517735471
 21
2920.108154
 31
0.0
  0
TEXT
  5
7D6C
  8
3
 62
     0
 10
3215.3691803449751
 20
2949.4271236103059
 30
0.0
 40
60.0
  1
212
  0
INSERT
  5
7D6D
  8
0
  6
BYBLOCK
 62
     0
  2
_OPEN
 10
3392.7977517735471
 20
2920.108154
 30
0.0
 41
40.0
 42
40.0
 43
40.0
  0
INSERT
  5
7D6E
  8
0
  6
BYBLOCK
 62
     0
  2
_OPEN
 10
3180.7977517735471
 20
2920.108154
 30
0.0
 41
40.0
 42
40.0
 43
40.0
 50
180.0
  0
POINT
  5
7D6F
  8
DEFPOINTS
  6
BYBLOCK
 62
     0
 10
3392.7977517735471
 20
2456.8690219999999
 30
0.0
  0
POINT
  5
7D70
  8
DEFPOINTS
  6
BYBLOCK
 62
     0
 10
3180.7977517735471
 20
2864.6365481862899
 30
0.0
  0
POINT
  5
7D71
  8
DEFPOINTS
  6
BYBLOCK
 62
     0
 10
3180.7977517735471
 20
2920.108154
 30
0.0
  0
ENDBLK
  5
7D72
  8
0
  0
BLOCK
  8
0
  2
*D12
 70
     1
 10
0.0
 20
0.0
 30
0.0
  3
*D12
  1

  0
LINE
  5
7E38
  8
3
  6
CONTINUOUS
 62
     0
 10
2770.7977517735471
 20
2571.8690219999999
 30
0.0
 11
2770.7977517735471
 21
2940.108154
 31
0.0
  0
LINE
  5
7E39
  8
3
  6
CONTINUOUS
 62
     0
 10
3140.7977517735471
 20
2920.108154
 30
0.0
 11
2810.7977517735471
 21
2920.108154
 31
0.0
  0
INSERT
  5
7E3A
  8
3
  6
CONTINUOUS
 62
     0
  2
_OPEN
 10
3180.7977517735471
 20
2920.108154
 30
0.0
 41
40.0
 42
40.0
 43
40.0
  0
INSERT
  5
7E3B
  8
3
  6
CONTINUOUS
 62
     0
  2
_OPEN
 10
2770.7977517735471
 20
2920.108154
 30
0.0
 41
40.0
 42
40.0
 43
40.0
 50
180.0
  0
TEXT
  8
3
  40
60
  5
7E76
  62
0
  72
0
  71
0
 10
2855.80
 20
2913.91
 30
0.000000
  1
MAX
  0
TEXT
  8
3
  40
60
  5
7E77
  62
0
  72
0
  71
0
 10
2855.80
 20
2835.91
 30
0.000000
  1
470
  0
POINT
  5
7E3D
  8
DEFPOINTS
  6
CONTINUOUS
 62
     0
 10
3180.7977517735471
 20
2864.6365481862899
 30
0.0
  0
POINT
  5
7E3E
  8
DEFPOINTS
  6
CONTINUOUS
 62
     0
 10
2770.7977517735471
 20
2561.8690219999989
 30
0.0
  0
POINT
  5
7E3F
  8
DEFPOINTS
  6
CONTINUOUS
 62
     0
 10
2770.7977517735471
 20
2920.108154
 30
0.0
  0
ENDBLK
  5
7D86
  8
0
  0
BLOCK
  8
0
  2
*D13
 70
     1
 10
0.0
 20
0.0
 30
0.0
  3
*D13
  1

  0
LINE
  5
7D53
  8
0
  6
BYBLOCK
 62
     0
 10
2925.7977517735471
 20
1549.8690220000001
 30
0.0
 11
2925.7977517735471
 21
1347.0461110000001
 31
0.0
  0
LINE
  5
7D54
  8
0
  6
BYBLOCK
 62
     0
 10
3180.7977517735471
 20
1439.72558
 30
0.0
 11
3180.7977517735471
 21
1347.0461110000001
 31
0.0
  0
LINE
  5
7D55
  8
0
  6
BYBLOCK
 62
     0
 10
2965.7977517735471
 20
1367.0461110000001
 30
0.0
 11
3140.7977517735471
 21
1367.0461110000001
 31
0.0
  0
TEXT
  5
7D56
  8
3
 62
     0
 10
2976.1548946306898
 20
1383.120308153018
 30
0.0
 40
60.0
  1
255
  0
INSERT
  5
7D57
  8
0
  6
BYBLOCK
 62
     0
  2
_OPEN
 10
2925.7977517735471
 20
1367.0461110000001
 30
0.0
 41
40.0
 42
40.0
 43
40.0
 50
180.0
  0
INSERT
  5
7D58
  8
0
  6
BYBLOCK
 62
     0
  2
_OPEN
 10
3180.7977517735471
 20
1367.0461110000001
 30
0.0
 41
40.0
 42
40.0
 43
40.0
  0
POINT
  5
7D59
  8
DEFPOINTS
  6
BYBLOCK
 62
     0
 10
2925.7977517735471
 20
1559.8690220000001
 30
0.0
  0
POINT
  5
7D5A
  8
DEFPOINTS
  6
BYBLOCK
 62
     0
 10
3180.7977517735471
 20
1449.72558
 30
0.0
  0
POINT
  5
7D5B
  8
DEFPOINTS
  6
BYBLOCK
 62
     0
 10
3180.7977517735471
 20
1367.0461110000001
 30
0.0
  0
ENDBLK
  5
7D5C
  8
0
  0
BLOCK
  8
0
  2
*D14
 70
     1
 10
0.0
 20
0.0
 30
0.0
  3
*D14
  1

  0
LINE
  5
7E40
  8
3
  6
CONTINUOUS
 62
     0
 10
3435.7977517735471
 20
1549.8690220000001
 30
0.0
 11
3435.7977517735471
 21
1347.0461110000001
 31
0.0
  0
LINE
  5
7E41
  8
3
  6
CONTINUOUS
 62
     0
 10
3220.7977517735471
 20
1367.0461110000001
 30
0.0
 11
3395.7977517735471
 21
1367.0461110000001
 31
0.0
  0
TEXT
  8
3
  40
60
  5
7E78
  62
0
  72
0
  71
0
 10
3203.59
 20
1311.54
 30
0.000000
  1
255
  0
INSERT
  5
7E43
  8
3
  6
CONTINUOUS
 62
     0
  2
_OPEN
 10
3180.7977517735471
 20
1367.0461110000001
 30
0.0
 41
40.0
 42
40.0
 43
40.0
 50
180.0
  0
INSERT
  5
7E44
  8
3
  6
CONTINUOUS
 62
     0
  2
_OPEN
 10
3435.7977517735471
 20
1367.0461110000001
 30
0.0
 41
40.0
 42
40.0
 43
40.0
  0
POINT
  5
7E45
  8
DEFPOINTS
  6
CONTINUOUS
 62
     0
 10
3180.7977517735471
 20
1449.72558
 30
0.0
  0
POINT
  5
7E46
  8
DEFPOINTS
  6
CONTINUOUS
 62
     0
 10
3435.7977517735471
 20
1559.8690220000001
 30
0.0
  0
POINT
  5
7E47
  8
DEFPOINTS
  6
CONTINUOUS
 62
     0
 10
3435.7977517735471
 20
1367.0461110000001
 30
0.0
  0
ENDBLK
  5
7D19
  8
0
  0
BLOCK
  8
0
  2
*D15
 70
     1
 10
0.0
 20
0.0
 30
0.0
  3
*D15
  1

  0
LINE
  5
7E48
  8
3
  6
CONTINUOUS
 62
     0
 10
1115.9182920000001
 20
4066.8690219999999
 30
0.0
 11
1115.9182920000001
 21
4236.8753889999998
 31
0.0
  0
LINE
  5
7E49
  8
3
  6
CONTINUOUS
 62
     0
 10
2365.9182919999998
 20
4066.8690219999999
 30
0.0
 11
2365.9182919999998
 21
4236.8753889999998
 31
0.0
  0
LINE
  5
7E4A
  8
3
  6
CONTINUOUS
 62
     0
 10
1155.9182920000001
 20
4216.8753889999998
 30
0.0
 11
2325.9182919999998
 21
4216.8753889999998
 31
0.0
  0
INSERT
  5
7E4B
  8
3
  6
CONTINUOUS
 62
     0
  2
_OPEN
 10
1115.9182920000001
 20
4216.8753889999998
 30
0.0
 41
40.0
 42
40.0
 43
40.0
 50
180.0
  0
INSERT
  5
7E4C
  8
3
  6
CONTINUOUS
 62
     0
  2
_OPEN
 10
2365.9182919999998
 20
4216.8753889999998
 30
0.0
 41
40.0
 42
40.0
 43
40.0
  0
TEXT
  8
3
  40
60
  5
7E79
  62
0
  72
0
  71
0
 10
1544.78
 20
4160.68
 30
0.000000
  1
1250
  0
POINT
  5
7E4E
  8
DEFPOINTS
  6
CONTINUOUS
 62
     0
 10
1115.9182920000001
 20
4056.8690219999989
 30
0.0
  0
POINT
  5
7E4F
  8
DEFPOINTS
  6
CONTINUOUS
 62
     0
 10
2365.9182919999998
 20
4056.8690219999989
 30
0.0
  0
POINT
  5
7E50
  8
DEFPOINTS
  6
CONTINUOUS
 62
     0
 10
2365.9182919999998
 20
4216.8753889999998
 30
0.0
  0
ENDBLK
  5
7C6F
  8
0
  0
BLOCK
  8
0
  2
*D16
 70
     1
 10
0.0
 20
0.0
 30
0.0
  3
*D16
  1

  0
LINE
  5
7E51
  8
3
  6
CONTINUOUS
 62
     0
 10
2375.9182919999998
 20
4056.8690219999989
 30
0.0
 11
2580.3195040000001
 21
4056.8690219999989
 31
0.0
  0
LINE
  5
7E52
  8
3
  6
CONTINUOUS
 62
     0
 10
2375.9182919999998
 20
3546.8690219999999
 30
0.0
 11
2580.3195040000001
 21
3546.8690219999999
 31
0.0
  0
LINE
  5
7E53
  8
3
  6
CONTINUOUS
 62
     0
 10
2560.3195040000001
 20
4016.8690219999999
 30
0.0
 11
2560.3195040000001
 21
3586.8690219999999
 31
0.0
  0
INSERT
  5
7E54
  8
3
  6
CONTINUOUS
 62
     0
  2
_OPEN
 10
2560.3195040000001
 20
4056.8690219999989
 30
0.0
 41
40.0
 42
40.0
 43
40.0
 50
90.0
  0
INSERT
  5
7E55
  8
3
  6
CONTINUOUS
 62
     0
  2
_OPEN
 10
2560.3195040000001
 20
3546.8690219999999
 30
0.0
 41
40.0
 42
40.0
 43
40.0
 50
270.0
  0
TEXT
  8
3
  40
60
  5
7E7A
  62
0
  72
0
  71
0
 10
2390.32
 20
3708.78
 30
0.000000
  1
510
  0
POINT
  5
7E57
  8
DEFPOINTS
  6
CONTINUOUS
 62
     0
 10
2365.9182919999998
 20
4056.8690219999989
 30
0.0
  0
POINT
  5
7E58
  8
DEFPOINTS
  6
CONTINUOUS
 62
     0
 10
2365.9182919999998
 20
3546.8690219999999
 30
0.0
  0
POINT
  5
7E59
  8
DEFPOINTS
  6
CONTINUOUS
 62
     0
 10
2560.3195040000001
 20
3546.8690219999999
 30
0.0
  0
ENDBLK
  5
7C7C
  8
0
  0
BLOCK
  8
0
  2
*D17
 70
     1
 10
0.0
 20
0.0
 30
0.0
  3
*D17
  1

  0
LINE
  5
7E5A
  8
3
  6
CONTINUOUS
 62
     0
 10
2970.7977517735471
 20
2685.8690219999999
 30
0.0
 11
2970.7977517735471
 21
2796.9752749999989
 31
0.0
  0
LINE
  5
7E5B
  8
3
  6
CONTINUOUS
 62
     0
 10
3390.7977517735471
 20
2685.8690219999999
 30
0.0
 11
3390.7977517735471
 21
2796.9752749999989
 31
0.0
  0
LINE
  5
7E5C
  8
3
  6
CONTINUOUS
 62
     0
 10
3010.7977517735471
 20
2776.9752749999989
 30
0.0
 11
3350.7977517735462
 21
2776.9752749999989
 31
0.0
  0
INSERT
  5
7E5D
  8
3
  6
CONTINUOUS
 62
     0
  2
_OPEN
 10
2970.7977517735471
 20
2776.9752749999989
 30
0.0
 41
40.0
 42
40.0
 43
40.0
 50
180.0
  0
INSERT
  5
7E5E
  8
3
  6
CONTINUOUS
 62
     0
  2
_OPEN
 10
3390.7977517735471
 20
2776.9752749999989
 30
0.0
 41
40.0
 42
40.0
 43
40.0
  0
TEXT
  8
3
  40
60
  5
7E7B
  62
0
  72
0
  71
0
 10
3032.26
 20
2720.78
 30
0.000000
  1
420
  0
POINT
  5
7E60
  8
DEFPOINTS
  6
CONTINUOUS
 62
     0
 10
2970.7977517735471
 20
2675.8690219999999
 30
0.0
  0
POINT
  5
7E61
  8
DEFPOINTS
  6
CONTINUOUS
 62
     0
 10
3390.7977517735471
 20
2675.8690219999999
 30
0.0
  0
POINT
  5
7E62
  8
DEFPOINTS
  6
CONTINUOUS
 62
     0
 10
3390.7977517735471
 20
2776.9752749999989
 30
0.0
  0
ENDBLK
  5
7CE0
  8
0
  0
BLOCK
  8
0
  2
*D18
 70
     1
 10
0.0
 20
0.0
 30
0.0
  3
*D18
  1

  0
LINE
  5
7E63
  8
3
 62
     0
 10
1055.9182920000001
 20
2712.8690219999999
 30
0.0
 11
1055.9182920000001
 21
2941.94797231962
 31
0.0
  0
LINE
  5
7E64
  8
3
 62
     0
 10
2365.9182919999998
 20
1736.8690219999989
 30
0.0
 11
2365.9182919999998
 21
2941.94797231962
 31
0.0
  0
LINE
  5
7E65
  8
3
 62
     0
 10
1095.9182920000001
 20
2921.94797231962
 30
0.0
 11
2325.9182919999998
 21
2921.94797231962
 31
0.0
  0
INSERT
  5
7E66
  8
3
 62
     0
  2
_OPEN
 10
1055.9182920000001
 20
2921.94797231962
 30
0.0
 41
40.0
 42
40.0
 43
40.0
 50
180.0
  0
INSERT
  5
7E67
  8
3
 62
     0
  2
_OPEN
 10
2365.9182919999998
 20
2921.94797231962
 30
0.0
 41
40.0
 42
40.0
 43
40.0
  0
TEXT
  8
3
  40
60
  5
7E7C
  62
0
  72
0
  71
0
 10
1601.81
 20
2865.75
 30
0.000000
  1
1310
  0
POINT
  5
7E69
  8
DEFPOINTS
 62
     0
 10
1055.9182920000001
 20
2702.8690219999989
 30
0.0
  0
POINT
  5
7E6A
  8
DEFPOINTS
 62
     0
 10
2365.9182919999998
 20
1726.8690219999989
 30
0.0
  0
POINT
  5
7E6B
  8
DEFPOINTS
 62
     0
 10
2365.9182919999998
 20
2921.94797231962
 30
0.0
  0
ENDBLK
  5
7D92
  8
0
  0
ENDSEC
  0
SECTION
  2
ENTITIES
  0
LINE
  5
7ABB
  8
1
  6
CONTINUOUS
 10
1780.9182920000001
 20
4013.8690219999999
 30
0.0
 11
1140.9182920000001
 21
4013.8690219999999
 31
0.0
  0
LINE
  5
7ABC
  8
1
  6
CONTINUOUS
 10
2141.9695360000001
 20
1841.482489999999
 30
0.0
 11
1433.848641
 21
2040.6025480000001
 31
0.0
  0
LINE
  5
7ABD
  8
1
  6
CONTINUOUS
 10
2185.2915619999999
 20
1974.4887120000001
 30
0.0
 11
1495.7372499999999
 21
2230.6114360000001
 31
0.0
  0
LINE
  5
7ABE
  8
1
  6
CONTINUOUS
 10
1476.9182920000001
 20
3546.8690219999999
 30
0.0
 11
2141.9182919999998
 21
3546.8690219999999
 31
0.0
  0
CIRCLE
  5
7ABF
  8
1
  6
CONTINUOUS
 10
1460.9182920000001
 20
2136.8690219999989
 30
0.0
 40
320.0
  0
CIRCLE
  5
7AC0
  8
1
  6
CONTINUOUS
 10
1460.9182920000001
 20
2136.8690219999989
 30
0.0
 40
295.0
  0
LINE
  5
7AC1
  8
1
  6
CONTINUOUS
 10
1190.4182920000001
 20
3511.8690219999989
 30
0.0
 11
2320.4182919999998
 21
3511.8690219999989
 31
0.0
  0
LINE
  5
7AC2
  8
1
  6
CONTINUOUS
 10
1190.4182920000001
 20
3391.8690219999999
 30
0.0
 11
2320.4182919999998
 21
3391.8690219999999
 31
0.0
  0
LINE
  5
7AC3
  8
1
  6
CONTINUOUS
 10
1115.9182920000001
 20
4056.8690219999989
 30
0.0
 11
2365.9182919999998
 21
4056.8690219999989
 31
0.0
  0
LINE
  5
7AC4
  8
1
  6
CONTINUOUS
 10
1935.9182920000001
 20
4011.8690219999989
 30
0.0
 11
1055.9182920000001
 21
4011.8690219999989
 31
0.0
  0
LINE
  5
7AC5
  8
1
  6
CONTINUOUS
 10
1935.9182920000001
 20
3591.8690219999999
 30
0.0
 11
1055.9182920000001
 21
3591.8690219999999
 31
0.0
  0
LINE
  5
7AC6
  8
1
  6
CONTINUOUS
 10
1460.4182920000001
 20
2561.8690219999989
 30
0.0
 11
2320.4182919999998
 21
1956.8690220000001
 31
0.0
  0
LINE
  5
7AC7
  8
1
  6
CONTINUOUS
 10
1115.9182920000001
 20
1646.8690220000001
 30
0.0
 11
2365.9182919999998
 21
1646.8690220000001
 31
0.0
  0
ARC
  5
7AC8
  8
1
  6
CONTINUOUS
 10
1423.9182920000001
 20
2173.8690219999989
 30
0.0
 40
501.36713099999992
 50
354.95754899999997
 51
85.767825999999985
  0
ARC
  5
7AC9
  8
1
  6
CONTINUOUS
 10
1491.9182920000001
 20
2167.8690219999999
 30
0.0
 40
433.10293799999999
 50
262.74680499999999
 51
354.95754899999997
  0
LINE
  5
7ACA
  8
1
  6
CONTINUOUS
 10
1100.9182920000001
 20
1726.8690219999989
 30
0.0
 11
2365.9182919999998
 21
1726.8690219999989
 31
0.0
  0
LINE
  5
7ACB
  8
1
  6
CONTINUOUS
 10
1100.9182920000001
 20
2546.8690219999999
 30
0.0
 11
1935.9182920000001
 21
2546.8690219999999
 31
0.0
  0
LINE
  5
7ACC
  8
1
  6
CONTINUOUS
 10
1115.9182920000001
 20
1624.8690220000001
 30
0.0
 11
2365.9182919999998
 21
1624.8690220000001
 31
0.0
  0
LINE
  5
7ACD
  8
1
  6
CONTINUOUS
 10
1115.9182920000001
 20
1559.8690220000001
 30
0.0
 11
2365.9182919999998
 21
1559.8690220000001
 31
0.0
  0
LINE
  5
7ACE
  8
1
  6
CONTINUOUS
 10
1107.270935
 20
2115.8690219999999
 30
0.0
 11
1055.9182920000001
 21
2115.8690219999999
 31
0.0
  0
LINE
  5
7ACF
  8
1
  6
CONTINUOUS
 10
1055.9182920000001
 20
2675.8690219999999
 30
0.0
 11
1460.9182920000001
 21
2673.8690219999989
 31
0.0
  0
ARC
  5
7AD0
  8
1
  6
CONTINUOUS
 10
1484.9182920000001
 20
2112.8690219999989
 30
0.0
 40
377.65927299999993
 50
179.54485700000001
 51
262.74680499999999
  0
LINE
  5
7AD1
  8
1
  6
CONTINUOUS
 10
1055.9182920000001
 20
2088.8690219999989
 30
0.0
 11
1055.9182920000001
 21
2702.8690219999989
 31
0.0
  0
CIRCLE
  5
7AD2
  8
1
  6
CONTINUOUS
 10
1460.9182920000001
 20
2136.8690219999989
 30
0.0
 40
100.0
  0
LINE
  5
7AD3
  8
1
  6
CONTINUOUS
 10
1190.4182920000001
 20
1726.8690219999989
 30
0.0
 11
1190.4182920000001
 21
2476.8690219999999
 31
0.0
  0
LINE
  5
7AD4
  8
1
  6
CONTINUOUS
 10
1080.9182920000001
 20
2115.8690219999999
 30
0.0
 11
1080.9182920000001
 21
2675.7455649999988
 31
0.0
  0
LINE
  5
7AD5
  8
2
  6
CENTER
 10
1460.9182920000001
 20
4140.1438749999988
 30
0.0
 11
1460.9182920000001
 21
3268.9608109999999
 31
0.0
  0
LINE
  5
7AD6
  8
1
  6
CONTINUOUS
 10
1100.9182920000001
 20
2546.8690219999999
 30
0.0
 11
1100.9182920000001
 21
1726.8690219999989
 31
0.0
  0
LINE
  5
7AD7
  8
2
  6
CENTER
 10
899.27298099999996
 20
2136.8690219999989
 30
0.0
 11
2336.267456999999
 21
2136.8690219999989
 31
0.0
  0
LINE
  5
7AD8
  8
1
  6
CONTINUOUS
 10
1115.9182920000001
 20
1726.8690219999989
 30
0.0
 11
1115.9182920000001
 21
1646.8690220000001
 31
0.0
  0
LINE
  5
7AD9
  8
1
  6
CONTINUOUS
 10
1115.9182920000001
 20
1624.8690220000001
 30
0.0
 11
1115.9182920000001
 21
1559.8690220000001
 31
0.0
  0
LINE
  5
7ADA
  8
1
  6
CONTINUOUS
 10
1190.4182920000001
 20
2476.8690219999999
 30
0.0
 11
1460.4182920000001
 21
2561.8690219999989
 31
0.0
  0
LINE
  5
7ADB
  8
1
  6
CONTINUOUS
 10
1055.9182920000001
 20
4038.8690219999999
 30
0.0
 11
1055.9182920000001
 21
3564.8690219999989
 31
0.0
  0
LINE
  5
7ADC
  8
1
  6
CONTINUOUS
 10
1080.9182920000001
 20
4011.8690219999989
 30
0.0
 11
1080.9182920000001
 21
3591.8690219999999
 31
0.0
  0
LINE
  5
7ADD
  8
1
  6
CONTINUOUS
 10
1560.9182920000001
 20
3481.8690219999999
 30
0.0
 11
1360.9182920000001
 21
3481.8690219999999
 31
0.0
  0
LINE
  5
7ADE
  8
1
  6
CONTINUOUS
 10
1560.9182920000001
 20
3421.8690219999999
 30
0.0
 11
1360.9182920000001
 21
3421.8690219999999
 31
0.0
  0
LINE
  5
7ADF
  8
1
  6
CONTINUOUS
 10
1115.9182920000001
 20
3546.8690219999999
 30
0.0
 11
1444.9182920000001
 21
3546.8690219999999
 31
0.0
  0
LINE
  5
7AE0
  8
1
  6
CONTINUOUS
 10
1190.4182920000001
 20
3391.8690219999999
 30
0.0
 11
1190.4182920000001
 21
3511.8690219999989
 31
0.0
  0
LINE
  5
7AE1
  8
1
  6
CONTINUOUS
 10
1360.9182920000001
 20
3421.8690219999999
 30
0.0
 11
1360.9182920000001
 21
3481.8690219999999
 31
0.0
  0
LINE
  5
7AE2
  8
1
  6
CONTINUOUS
 10
1115.9182920000001
 20
3591.8690219999999
 30
0.0
 11
1115.9182920000001
 21
3546.8690219999999
 31
0.0
  0
LINE
  5
7AE3
  8
1
  6
CONTINUOUS
 10
1444.9182920000001
 20
3591.8690219999999
 30
0.0
 11
1444.9182920000001
 21
3481.8690219999999
 31
0.0
  0
LINE
  5
7AE4
  8
1
  6
CONTINUOUS
 10
1476.9182920000001
 20
3591.8690219999999
 30
0.0
 11
1476.9182920000001
 21
3481.8690219999999
 31
0.0
  0
LINE
  5
7AE5
  8
1
  6
CONTINUOUS
 10
1560.9182920000001
 20
3421.8690219999999
 30
0.0
 11
1560.9182920000001
 21
3481.8690219999999
 31
0.0
  0
LINE
  5
7AE6
  8
1
  6
CONTINUOUS
 10
1140.9182920000001
 20
4011.8690219999989
 30
0.0
 11
1140.9182920000001
 21
4013.8690219999999
 31
0.0
  0
LINE
  5
7AE7
  8
1
  6
CONTINUOUS
 10
1115.9182920000001
 20
4056.8690219999989
 30
0.0
 11
1115.9182920000001
 21
4011.8690219999989
 31
0.0
  0
LINE
  5
7AF0
  8
1
  6
CONTINUOUS
 10
2290.9182919999998
 20
1726.8690219999989
 30
0.0
 11
2030.9182920000001
 21
1726.8690219999989
 31
0.0
  0
LINE
  5
7AF1
  8
1
  6
CONTINUOUS
 10
2290.9182919999998
 20
1791.8690220000001
 30
0.0
 11
2276.664655
 21
1826.6085849999999
 31
0.0
  0
ARC
  5
7AF2
  8
1
  6
CONTINUOUS
 10
2160.9182919999998
 20
1908.8690220000001
 30
0.0
 40
142.0
 50
324.59875699999998
 51
215.40124299999999
  0
LINE
  5
7AF3
  8
1
  6
CONTINUOUS
 10
1935.9182920000001
 20
2546.8690219999999
 30
0.0
 11
1935.9182920000001
 21
1726.8690219999989
 31
0.0
  0
LINE
  5
7AF4
  8
1
  6
CONTINUOUS
 10
2030.9182920000001
 20
1726.8690219999989
 30
0.0
 11
2030.9182920000001
 21
1791.8690220000001
 31
0.0
  0
CIRCLE
  5
7AF5
  8
1
  6
CONTINUOUS
 10
2160.9182919999998
 20
1908.8690220000001
 30
0.0
 40
70.0
  0
LINE
  5
7AF6
  8
2
  6
CENTER
 10
2230.9182919999998
 20
1908.8690220000001
 30
0.0
 11
2090.9182919999998
 21
1908.8690220000001
 31
0.0
  0
LINE
  5
7AF7
  8
1
  6
CONTINUOUS
 10
2030.9182920000001
 20
1791.8690220000001
 30
0.0
 11
2045.171928999999
 21
1826.6085849999999
 31
0.0
  0
LINE
  5
7AF8
  8
2
  6
CENTER
 10
2160.9182919999998
 20
1838.8690219999989
 30
0.0
 11
2160.9182919999998
 21
1978.8690219999989
 31
0.0
  0
LINE
  5
7AF9
  8
1
  6
CONTINUOUS
 10
2320.4182919999998
 20
1726.8690219999989
 30
0.0
 11
2320.4182919999998
 21
1956.8690220000001
 31
0.0
  0
LINE
  5
7AFA
  8
1
  6
CONTINUOUS
 10
2290.9182919999998
 20
1726.8690219999989
 30
0.0
 11
2290.9182919999998
 21
1791.8690220000001
 31
0.0
  0
LINE
  5
7AFB
  8
1
  6
CONTINUOUS
 10
2365.9182919999998
 20
1726.8690219999989
 30
0.0
 11
2365.9182919999998
 21
1646.8690220000001
 31
0.0
  0
LINE
  5
7AFC
  8
1
  6
CONTINUOUS
 10
2365.9182919999998
 20
1624.8690220000001
 30
0.0
 11
2365.9182919999998
 21
1559.8690220000001
 31
0.0
  0
LINE
  5
7B22
  8
1
  6
CONTINUOUS
 10
2179.9182919999998
 20
3546.8690219999999
 30
0.0
 11
2365.9182919999998
 21
3546.8690219999999
 31
0.0
  0
LINE
  5
7B23
  8
1
  6
CONTINUOUS
 10
2302.9182919999998
 20
3965.6068549999991
 30
0.0
 11
2018.9182920000001
 21
3965.6068549999991
 31
0.0
  0
LINE
  5
7B24
  8
1
  6
CONTINUOUS
 10
2302.9182919999998
 20
3565.6068549999991
 30
0.0
 11
2018.9182920000001
 21
3565.6068549999991
 31
0.0
  0
LINE
  5
7B25
  8
1
  6
CONTINUOUS
 10
1935.9182920000001
 20
3591.8690219999999
 30
0.0
 11
1935.9182920000001
 21
4011.8690219999989
 31
0.0
  0
LINE
  5
7B26
  8
1
  6
CONTINUOUS
 10
2141.9182919999998
 20
3481.8690219999999
 30
0.0
 11
2141.9182919999998
 21
3565.6068549999991
 31
0.0
  0
LINE
  5
7B27
  8
1
  6
CONTINUOUS
 10
2179.9182919999998
 20
3481.8690219999999
 30
0.0
 11
2179.9182919999998
 21
3565.6068549999991
 31
0.0
  0
LINE
  5
7B28
  8
1
  6
CONTINUOUS
 10
2230.9182919999998
 20
3421.8690219999999
 30
0.0
 11
2090.9182919999998
 21
3421.8690219999999
 31
0.0
  0
LINE
  5
7B29
  8
1
  6
CONTINUOUS
 10
2230.9182919999998
 20
3481.8690219999999
 30
0.0
 11
2090.9182919999998
 21
3481.8690219999999
 31
0.0
  0
LINE
  5
7B2A
  8
1
  6
CONTINUOUS
 10
2090.9182919999998
 20
3421.8690219999999
 30
0.0
 11
2090.9182919999998
 21
3481.8690219999999
 31
0.0
  0
LINE
  5
7B2B
  8
1
  6
CONTINUOUS
 10
2230.9182919999998
 20
3421.8690219999999
 30
0.0
 11
2230.9182919999998
 21
3481.8690219999999
 31
0.0
  0
LINE
  5
7B2C
  8
1
  6
CONTINUOUS
 10
2018.9182920000001
 20
3965.6068549999991
 30
0.0
 11
2018.9182920000001
 21
3565.6068549999991
 31
0.0
  0
LINE
  5
7B2D
  8
1
  6
CONTINUOUS
 10
1780.9182920000001
 20
4011.8690219999989
 30
0.0
 11
1780.9182920000001
 21
4013.8690219999999
 31
0.0
  0
LINE
  5
7B2E
  8
1
  6
CONTINUOUS
 10
2365.9182919999998
 20
4056.8690219999989
 30
0.0
 11
2365.9182919999998
 21
3546.8690219999999
 31
0.0
  0
LINE
  5
7B30
  8
1
  6
CONTINUOUS
 10
2320.4182919999998
 20
3391.8690219999999
 30
0.0
 11
2320.4182919999998
 21
3511.8690219999989
 31
0.0
  0
LINE
  5
7B31
  8
1
  6
CONTINUOUS
 10
2302.9182919999998
 20
3965.6068549999991
 30
0.0
 11
2302.9182919999998
 21
3565.6068549999991
 31
0.0
  0
LINE
  5
7B4F
  8
1
  6
CONTINUOUS
 10
3435.7977517735471
 20
1624.8690220000001
 30
0.0
 11
2925.7977517735471
 21
1624.8690220000001
 31
0.0
  0
LINE
  5
7B50
  8
1
  6
CONTINUOUS
 10
3435.7977517735471
 20
1559.8690220000001
 30
0.0
 11
2925.7977517735471
 21
1559.8690220000001
 31
0.0
  0
LINE
  5
7B51
  8
1
  6
CONTINUOUS
 10
3435.7977517735471
 20
1646.8690220000001
 30
0.0
 11
2925.7977517735471
 21
1646.8690220000001
 31
0.0
  0
LINE
  5
7B52
  8
1
  6
CONTINUOUS
 10
3435.7977517735471
 20
1726.8690219999989
 30
0.0
 11
2770.7977517735471
 21
1726.8690219999989
 31
0.0
  0
LINE
  5
7B53
  8
1
  6
CONTINUOUS
 10
2970.7977517735471
 20
2675.8690219999999
 30
0.0
 11
3390.7977517735471
 21
2675.8690219999999
 31
0.0
  0
LINE
  5
7B54
  8
1
  6
CONTINUOUS
 10
2970.7977517735471
 20
2115.8690219999999
 30
0.0
 11
3390.7977517735471
 21
2115.8690219999999
 31
0.0
  0
LINE
  5
7B55
  8
1
  6
CONTINUOUS
 10
2970.7977517735471
 20
2675.8690219999999
 30
0.0
 11
3390.7977517735471
 21
2115.8690219999999
 31
0.0
  0
LINE
  5
7B56
  8
1
  6
CONTINUOUS
 10
2970.7977517735471
 20
2115.8690219999999
 30
0.0
 11
3390.7977517735471
 21
2675.8690219999999
 31
0.0
  0
LINE
  5
7B57
  8
1
  6
CONTINUOUS
 10
2970.7977517735471
 20
1726.8690219999989
 30
0.0
 11
2970.7977517735471
 21
2675.8690219999999
 31
0.0
  0
LINE
  5
7B58
  8
1
  6
CONTINUOUS
 10
2770.7977517735471
 20
1726.8690219999989
 30
0.0
 11
2770.7977517735471
 21
2561.8690219999989
 31
0.0
  0
LINE
  5
7B59
  8
1
  6
CONTINUOUS
 10
2890.7977517735471
 20
1726.8690219999989
 30
0.0
 11
2890.7977517735471
 21
2561.8690219999989
 31
0.0
  0
LINE
  5
7B5A
  8
1
  6
CONTINUOUS
 10
2800.7977517735471
 20
2236.8690219999999
 30
0.0
 11
2800.7977517735471
 21
2036.8690219999989
 31
0.0
  0
LINE
  5
7B5B
  8
1
  6
CONTINUOUS
 10
2860.7977517735471
 20
2236.8690219999999
 30
0.0
 11
2860.7977517735471
 21
2036.8690219999989
 31
0.0
  0
LINE
  5
7B5E
  8
1
  6
CONTINUOUS
 10
2800.7977517735471
 20
2036.8690219999989
 30
0.0
 11
2860.7977517735471
 21
2036.8690219999989
 31
0.0
  0
LINE
  5
7B5F
  8
1
  6
CONTINUOUS
 10
2800.7977517735471
 20
1978.8690219999989
 30
0.0
 11
2860.7977517735471
 21
1978.8690219999989
 31
0.0
  0
LINE
  5
7B60
  8
1
  6
CONTINUOUS
 10
2800.7977517735471
 20
1838.8690219999989
 30
0.0
 11
2860.7977517735471
 21
1838.8690219999989
 31
0.0
  0
LINE
  5
7B61
  8
1
  6
CONTINUOUS
 10
2800.7977517735471
 20
1978.8690219999989
 30
0.0
 11
2800.7977517735471
 21
1838.8690219999989
 31
0.0
  0
LINE
  5
7B62
  8
1
  6
CONTINUOUS
 10
2925.7977517735471
 20
1559.8690220000001
 30
0.0
 11
2925.7977517735471
 21
1624.8690220000001
 31
0.0
  0
LINE
  5
7B63
  8
1
  6
CONTINUOUS
 10
2925.7977517735471
 20
1646.8690220000001
 30
0.0
 11
2925.7977517735471
 21
1726.8690219999989
 31
0.0
  0
LINE
  5
7B64
  8
1
  6
CONTINUOUS
 10
2860.7977517735471
 20
1924.8690220000001
 30
0.0
 11
2970.7977517735471
 21
1924.8690220000001
 31
0.0
  0
LINE
  5
7B65
  8
1
  6
CONTINUOUS
 10
2860.7977517735471
 20
1892.8690220000001
 30
0.0
 11
2970.7977517735471
 21
1892.8690220000001
 31
0.0
  0
LINE
  5
7B66
  8
1
  6
CONTINUOUS
 10
2970.7977517735471
 20
2152.8690219999989
 30
0.0
 11
2860.7977517735471
 21
2152.8690219999989
 31
0.0
  0
LINE
  5
7B67
  8
1
  6
CONTINUOUS
 10
2970.7977517735471
 20
2120.8690219999989
 30
0.0
 11
2860.7977517735471
 21
2120.8690219999989
 31
0.0
  0
LINE
  5
7B68
  8
1
  6
CONTINUOUS
 10
2860.7977517735471
 20
1978.8690219999989
 30
0.0
 11
2860.7977517735471
 21
1838.8690219999989
 31
0.0
  0
LINE
  5
7B69
  8
1
  6
CONTINUOUS
 10
2770.7977517735471
 20
2561.8690219999989
 30
0.0
 11
2890.7977517735471
 21
2561.8690219999989
 31
0.0
  0
LINE
  5
7B6A
  8
1
  6
CONTINUOUS
 10
2800.7977517735471
 20
2236.8690219999999
 30
0.0
 11
2860.7977517735471
 21
2236.8690219999999
 31
0.0
  0
LINE
  5
7B6B
  8
1
  6
CONTINUOUS
 10
3390.7977517735471
 20
1726.8690219999989
 30
0.0
 11
3390.7977517735471
 21
2675.8690219999999
 31
0.0
  0
LINE
  5
7B6C
  8
1
  6
CONTINUOUS
 10
3392.7977517735471
 20
1816.8690219999989
 30
0.0
 11
3392.7977517735471
 21
2456.8690219999999
 31
0.0
  0
LINE
  5
7B6D
  8
1
  6
CONTINUOUS
 10
3390.7977517735471
 20
1816.8690219999989
 30
0.0
 11
3392.7977517735471
 21
1816.8690219999989
 31
0.0
  0
LINE
  5
7B6E
  8
1
  6
CONTINUOUS
 10
3435.7977517735471
 20
1559.8690220000001
 30
0.0
 11
3435.7977517735471
 21
1624.8690220000001
 31
0.0
  0
LINE
  5
7B6F
  8
1
  6
CONTINUOUS
 10
3435.7977517735471
 20
1646.8690220000001
 30
0.0
 11
3435.7977517735471
 21
1726.8690219999989
 31
0.0
  0
LINE
  5
7B70
  8
1
  6
CONTINUOUS
 10
3390.7977517735471
 20
2456.8690219999999
 30
0.0
 11
3392.7977517735471
 21
2456.8690219999999
 31
0.0
  0
LINE
  5
7B71
  8
2
  6
CENTER
 10
2436.0340500000002
 20
3801.8690219999989
 30
0.0
 11
951.33153699999991
 21
3801.8690219999989
 31
0.0
  0
LINE
  5
7B72
  8
2
  6
CENTER
 10
3180.7977517735471
 20
2702.8105839999989
 30
0.0
 11
3180.7977517735471
 21
1449.72558
 31
0.0
  0
LINE
  5
7B73
  8
2
  6
CENTER
 10
1460.9182920000001
 20
2756.5001790000001
 30
0.0
 11
1460.9182920000001
 21
1442.7619788690599
 31
0.0
  0
LINE
  5
7B74
  8
2
  6
CENTER
 10
2682.4924987735471
 20
2136.8690219999989
 30
0.0
 11
3477.5482987735468
 21
2136.8690219999989
 31
0.0
  0
LINE
  5
7B75
  8
4
  6
CONTINUOUS
 10
3700.0
 20
1000.0
 30
0.0
 11
3700.0
 21
600.0
 31
0.0
  0
LINE
  5
7B76
  8
4
  6
CONTINUOUS
 10
2300.0
 20
1000.0
 30
0.0
 11
2300.0
 21
600.0
 31
0.0
  0
LINE
  5
7B77
  8
4
  6
CONTINUOUS
 10
1300.0
 20
1000.0
 30
0.0
 11
1300.0
 21
600.0
 31
0.0
  0
LINE
  5
7B7A
  8
4
  6
CONTINUOUS
 10
1300.0
 20
600.0
 30
0.0
 11
3700.0
 21
600.0
 31
0.0
  0
LINE
  5
7B7B
  8
4
  6
CONTINUOUS
 10
1300.0
 20
800.0
 30
0.0
 11
3700.0
 21
800.0
 31
0.0
  0
TEXT
  5
7B7C
  8
4
  6
CONTINUOUS
 10
1377.004162
 20
863.086052
 30
0.0
 40
100.0
  1
機器名称
  0
TEXT
  5
7B7D
  8
4
  6
CONTINUOUS
 10
1372.516212
 20
643.29031299999986
 30
0.0
 40
100.0
  1
機器型番
  0
TEXT
  5
7B7E
  8
4
  6
CONTINUOUS
 10
2355.3574910000002
 20
845.14353800000015
 30
0.0
 40
100.0
  1
ミツヤ多翼送風機
  0
TEXT
  5
7B7F
  8
4
  6
CONTINUOUS
 10
2373.3089909999999
 20
634.31916899999999
 30
0.0
 40
100.0
  1
MF#3 1/2-4
  0
TEXT
  5
7B81
  8
4
  6
CONTINUOUS
 10
1494.1062549999999
 20
4766.8576830000002
 30
0.0
 40
108.0
  1
床置防振ベット
  0
TEXT
  5
7B82
  8
4
  6
CONTINUOUS
 10
632.33518700000002
 20
5067.7619520000007
 30
0.0
 40
144.0
  1
ベルト駆動式片吸込両持多翼ファン
  0
LINE
  5
7B83
  8
4
  6
CONTINUOUS
 10
500.0
 20
4938.8175090000004
 30
0.0
 11
3700.0
 21
4938.8175090000004
 31
0.0
  0
LINE
  5
7B84
  8
4
  6
CONTINUOUS
 10
500.0
 20
5338.8175090000004
 30
0.0
 11
3700.0
 21
5338.8175090000004
 31
0.0
  0
LINE
  5
7B85
  8
4
  6
CONTINUOUS
 10
1300.0
 20
1000.0
 30
0.0
 11
3700.0
 21
1000.0
 31
0.0
  0
LINE
  5
7B86
  8
4
  6
CONTINUOUS
 10
500.0
 20
5338.8175090000004
 30
0.0
 11
500.0
 21
4938.8175090000004
 31
0.0
  0
TEXT
  5
7B87
  8
4
  6
CONTINUOUS
 10
622.38859099999991
 20
4764.6389549999994
 30
0.0
 40
108.0
  1
左回転左横向
  0
TEXT
  5
7B88
  8
4
  6
CONTINUOUS
 10
2937.9391179999998
 20
5412.122163
 30
0.0
 40
112.0
  1
No.
  0
TEXT
  5
7B89
  8
4
  6
CONTINUOUS
 10
2622.5921250000001
 20
4766.8576830000002
 30
0.0
 40
108.0
  1
縮尺：1/20
  0
LINE
  5
7B8A
  8
4
  6
CONTINUOUS
 10
3700.0
 20
5338.8175090000004
 30
0.0
 11
3700.0
 21
4938.8175090000004
 31
0.0
  0
LINE
  5
7B8C
  8
4
  6
CONTINUOUS
 10
2881.234845
 20
5362.5271659999999
 30
0.0
 11
2881.234845
 21
5573.3045229999998
 31
0.0
  0
LINE
  5
7B8D
  8
4
  6
CONTINUOUS
 10
2881.234845
 20
5573.3045229999998
 30
0.0
 11
3700.0
 21
5573.3045229999998
 31
0.0
  0
LINE
  5
7B8E
  8
4
  6
CONTINUOUS
 10
3700.0
 20
5573.3045229999998
 30
0.0
 11
3700.0
 21
5362.5271659999999
 31
0.0
  0
LINE
  5
7B8F
  8
4
  6
CONTINUOUS
 10
3700.0
 20
5362.5271659999999
 30
0.0
 11
2881.234845
 21
5362.5271659999999
 31
0.0
  0
DIMENSION
  5
7BA7
  8
3
  6
CONTINUOUS
  2
*D1
 10
965.58546400000046
 20
2115.8690219999999
 30
0.0
 11
965.58546400000012
 21
2367.6932109999998
 31
0.0
 70
   128
 13
1055.9182920000001
 23
2675.8690219999999
 33
0.0
 14
1055.9182920000001
 24
2115.8690219999999
 34
0.0
 50
90.0
1001
ACAD
1000
DSTYLE
1002
{
1070
   287
1070
     3
1070
    40
1040
20.0
1070
   143
1040
0.039
1070
   172
1070
     1
1070
   271
1070
     0
1070
   279
1070
     0
1070
   288
1070
     1
1002
}
  0
DIMENSION
  5
7BB4
  8
3
  6
CONTINUOUS
  2
*D2
 10
841.07168400000023
 20
2136.8690219999989
 30
0.0
 11
841.071684
 21
2367.6932109999998
 31
0.0
 70
   128
 13
1055.9182920000001
 23
2675.8690219999999
 33
0.0
 14
899.27298099999996
 24
2136.8690219999989
 34
0.0
 50
90.0
1001
ACAD
1000
DSTYLE
1002
{
1070
   287
1070
     3
1070
    40
1040
20.0
1070
   143
1040
0.039
1070
   172
1070
     1
1070
   271
1070
     0
1070
   279
1070
     0
1070
   288
1070
     1
1002
}
  0
DIMENSION
  5
7BC0
  8
3
  6
CONTINUOUS
  2
*D3
 10
841.071684
 20
1646.8690220000001
 30
0.0
 11
791.07168399999978
 21
1891.8690220000001
 31
0.0
 70
     0
 13
899.27298099999996
 23
2136.8690219999989
 33
0.0
 14
1115.9182920000001
 24
1646.8690220000001
 34
0.0
 50
90.0
1001
ACAD
1000
DSTYLE
1002
{
1070
   287
1070
     4
1070
    40
1040
20.0
1070
    75
1070
     1
1070
   143
1040
0.039
1070
   172
1070
     1
1070
   271
1070
     0
1070
   279
1070
     1
1070
   288
1070
     1
1002
}
  0
DIMENSION
  5
7BD0
  8
3
  6
CONTINUOUS
  2
*D4
 10
841.071684
 20
1559.8690220000001
 30
0.0
 11
840.46019999999999
 21
1487.4305469999999
 31
0.0
 70
   128
 13
1115.9182920000001
 23
1646.8690220000001
 33
0.0
 14
1115.9182920000001
 24
1559.8690220000001
 34
0.0
 50
90.0
1001
ACAD
1000
DSTYLE
1002
{
1070
   287
1070
     4
1070
    40
1040
20.0
1070
    75
1070
     1
1070
   143
1040
0.039
1070
   172
1070
     1
1070
   271
1070
     0
1070
   279
1070
     1
1070
   288
1070
     1
1002
}
  0
DIMENSION
  5
7BDD
  8
3
  6
CONTINUOUS
  2
*D5
 10
712.75418600000023
 20
1559.8690220000001
 30
0.0
 11
712.754186
 21
2166.7432579999991
 31
0.0
 70
   128
 13
1055.9182920000001
 23
2702.8690219999989
 33
0.0
 14
1115.9182920000001
 24
1559.8690220000001
 34
0.0
 50
90.0
1001
ACAD
1000
DSTYLE
1002
{
1070
   287
1070
     3
1070
    40
1040
20.0
1070
   143
1040
0.039
1070
   172
1070
     1
1070
   271
1070
     0
1070
   279
1070
     0
1070
   288
1070
     1
1002
}
  0
DIMENSION
  5
7BEA
  8
3
  6
CONTINUOUS
  2
*D6
 10
1460.9182920000001
 20
1349.283226999999
 30
0.0
 11
1281.6588869999989
 21
1349.283226999999
 31
0.0
 70
   128
 13
1115.9182920000001
 23
1559.8690220000001
 33
0.0
 14
1460.9182920000001
 24
1442.7619788690599
 34
0.0
1001
ACAD
1000
DSTYLE
1002
{
1070
   287
1070
     3
1070
    40
1040
20.0
1070
   143
1040
0.039
1070
   172
1070
     1
1070
   271
1070
     0
1070
   279
1070
     0
1070
   288
1070
     1
1002
}
  0
DIMENSION
  5
7BF6
  8
3
  6
CONTINUOUS
  2
*D7
 10
2365.9182919999998
 20
1349.283226999999
 30
0.0
 11
1913.4182920000001
 21
1399.283226999999
 31
0.0
 70
     0
 13
1460.9182920000001
 23
1442.7619788690599
 33
0.0
 14
2365.9182919999998
 24
1559.8690220000001
 34
0.0
1001
ACAD
1000
DSTYLE
1002
{
1070
   287
1070
     4
1070
    40
1040
20.0
1070
    75
1070
     1
1070
   143
1040
0.039
1070
   172
1070
     1
1070
   271
1070
     0
1070
   279
1070
     1
1070
   288
1070
     1
1002
}
  0
DIMENSION
  5
7C03
  8
3
  6
CONTINUOUS
  2
*D8
 10
1460.9182920000001
 20
2779.1621660000001
 30
0.0
 11
1257.7139159999999
 21
2779.1621660000001
 31
0.0
 70
   128
 13
1055.9182920000001
 23
2702.8690219999989
 33
0.0
 14
1460.9182920000001
 24
2756.5001790000001
 34
0.0
1001
ACAD
1000
DSTYLE
1002
{
1070
   287
1070
     3
1070
    40
1040
20.0
1070
   143
1040
0.039
1070
   172
1070
     1
1070
   271
1070
     0
1070
   279
1070
     0
1070
   288
1070
     1
1002
}
  0
DIMENSION
  5
7C0F
  8
3
  6
CONTINUOUS
  2
*D9
 10
1935.9182920000001
 20
2779.1621660000001
 30
0.0
 11
1698.4182920000001
 21
2829.1621660000001
 31
0.0
 70
     0
 13
1460.9182920000001
 23
2756.5001790000001
 33
0.0
 14
1935.9182920000001
 24
2546.8690219999999
 34
0.0
1001
ACAD
1000
DSTYLE
1002
{
1070
   287
1070
     4
1070
    40
1040
20.0
1070
    75
1070
     1
1070
   143
1040
0.039
1070
   172
1070
     1
1070
   271
1070
     0
1070
   279
1070
     1
1070
   288
1070
     1
1002
}
  0
DIMENSION
  5
7C2B
  8
3
  6
CONTINUOUS
  2
*D10
 10
3598.7291017735479
 20
1841.8690220000001
 30
0.0
 11
3598.729101773547
 21
2133.2515939999998
 31
0.0
 70
   128
 13
3392.7977517735471
 23
2431.8690219999999
 33
0.0
 14
3392.7977517735471
 24
1841.8690220000001
 34
0.0
 50
90.0
1001
ACAD
1000
DSTYLE
1002
{
1070
   287
1070
     3
1070
     3
1000
φ<>
1070
    40
1040
20.0
1070
   143
1040
0.039
1070
   172
1070
     1
1070
   271
1070
     0
1070
   279
1070
     0
1070
   288
1070
     1
1002
}
  0
DIMENSION
  5
7C3A
  8
3
  6
CONTINUOUS
  2
*D11
 10
3180.7977517735471
 20
2920.108154
 30
0.0
 11
3286.7977517735462
 21
2979.4271236103068
 31
0.0
 70
   128
 13
3392.7977517735471
 23
2456.8690219999999
 33
0.0
 14
3180.7977517735471
 24
2864.6365481862899
 34
0.0
1001
ACAD
1000
DSTYLE
1002
{
1070
   288
1070
     1
1070
   172
1070
     1
1070
    40
1040
20.0
1070
   271
1070
     0
1070
   143
1040
0.039
1002
}
  0
DIMENSION
  5
7C46
  8
3
  6
CONTINUOUS
  2
*D12
 10
2770.7977517735471
 20
2920.108154
 30
0.0
 11
2975.7977517735471
 21
3020.108154
 31
0.0
 70
     0
  1
MAX\P470
 13
3180.7977517735471
 23
2864.6365481862899
 33
0.0
 14
2770.7977517735471
 24
2561.8690219999989
 34
0.0
1001
ACAD
1000
DSTYLE
1002
{
1070
   287
1070
     4
1070
    40
1040
20.0
1070
    75
1070
     1
1070
   143
1040
0.039
1070
   172
1070
     1
1070
   271
1070
     0
1070
   279
1070
     1
1070
   288
1070
     1
1002
}
  0
DIMENSION
  5
7C55
  8
3
  6
CONTINUOUS
  2
*D13
 10
3180.7977517735471
 20
1367.0461110000001
 30
0.0
 11
3053.2977517735471
 21
1413.120308153018
 31
0.0
 70
   128
 13
2925.7977517735471
 23
1559.8690220000001
 33
0.0
 14
3180.7977517735471
 24
1449.72558
 34
0.0
1001
ACAD
1000
DSTYLE
1002
{
1070
   288
1070
     1
1070
   172
1070
     1
1070
    40
1040
20.0
1070
   271
1070
     0
1070
   143
1040
0.039
1002
}
  0
DIMENSION
  5
7C63
  8
3
  6
CONTINUOUS
  2
*D14
 10
3435.7977517735471
 20
1367.0461110000001
 30
0.0
 11
3323.5859207735471
 21
1367.7433199999989
 31
0.0
 70
   128
 13
3180.7977517735471
 23
1449.72558
 33
0.0
 14
3435.7977517735471
 24
1559.8690220000001
 34
0.0
1001
ACAD
1000
DSTYLE
1002
{
1070
   287
1070
     4
1070
    40
1040
20.0
1070
    75
1070
     1
1070
   143
1040
0.039
1070
   172
1070
     1
1070
   271
1070
     0
1070
   279
1070
     1
1070
   288
1070
     1
1002
}
  0
DIMENSION
  5
7C70
  8
3
  6
CONTINUOUS
  2
*D15
 10
2365.9182919999998
 20
4216.8753889999998
 30
0.0
 11
1664.778174
 21
4216.8753889999998
 31
0.0
 70
   128
 13
1115.9182920000001
 23
4056.8690219999989
 33
0.0
 14
2365.9182919999998
 24
4056.8690219999989
 34
0.0
1001
ACAD
1000
DSTYLE
1002
{
1070
   287
1070
     3
1070
    40
1040
20.0
1070
   143
1040
0.039
1070
   172
1070
     1
1070
   271
1070
     0
1070
   279
1070
     0
1070
   288
1070
     1
1002
}
  0
DIMENSION
  5
7C7D
  8
3
  6
CONTINUOUS
  2
*D16
 10
2560.3195040000001
 20
3546.8690219999999
 30
0.0
 11
2560.3195040000001
 21
3814.9754829999988
 31
0.0
 70
   128
 13
2365.9182919999998
 23
4056.8690219999989
 33
0.0
 14
2365.9182919999998
 24
3546.8690219999999
 34
0.0
 50
90.0
1001
ACAD
1000
DSTYLE
1002
{
1070
   287
1070
     3
1070
    40
1040
20.0
1070
   143
1040
0.039
1070
   172
1070
     1
1070
   271
1070
     0
1070
   279
1070
     0
1070
   288
1070
     1
1002
}
  0
DIMENSION
  5
7CE1
  8
3
  6
CONTINUOUS
  2
*D17
 10
3390.7977517735471
 20
2776.9752749999989
 30
0.0
 11
3152.2612587735471
 21
2776.9752749999989
 31
0.0
 70
   128
 13
2970.7977517735471
 23
2675.8690219999999
 33
0.0
 14
3390.7977517735471
 24
2675.8690219999999
 34
0.0
1001
ACAD
1000
DSTYLE
1002
{
1070
   287
1070
     3
1070
    40
1040
20.0
1070
   143
1040
0.039
1070
   172
1070
     1
1070
   271
1070
     0
1070
   279
1070
     0
1070
   288
1070
     1
1002
}
  0
DIMENSION
  5
7D93
  8
3
  2
*D18
 10
2365.9182919999998
 20
2921.94797231962
 30
0.0
 11
1721.8062087758369
 21
2921.94797231962
 31
0.0
 70
   128
 13
1055.9182920000001
 23
2702.8690219999989
 33
0.0
 14
2365.9182919999998
 24
1726.8690219999989
 34
0.0
1001
ACAD
1000
DSTYLE
1002
{
1070
   287
1070
     3
1070
    40
1040
20.0
1070
   143
1040
0.039
1070
   172
1070
     1
1070
   271
1070
     0
1070
   279
1070
     0
1070
   288
1070
     1
1002
}
  0
ENDSEC
  0
EOF
