  0
SECTION
  2
HEADER
  9
$ACADVER
  1
AC1009
  9
$INSBASE
 10
0.0
 20
0.0
 30
0.0
  9
$EXTMIN
 10
500.0
 20
600.0
 30
0.0
  9
$EXTMAX
 10
3700.0
 20
5573.3045229999998
 30
0.0
  9
$LIMMIN
 10
0.0
 20
0.0
  9
$LIMMAX
 10
297.0
 20
210.0
  9
$ORTHOMODE
 70
     0
  9
$REGENMODE
 70
     1
  9
$FILLMODE
 70
     0
  9
$QTEXTMODE
 70
     0
  9
$MIRRTEXT
 70
     1
  9
$DRAGMODE
 70
     2
  9
$LTSCALE
 40
100.0
  9
$OSMODE
 70
    37
  9
$ATTMODE
 70
     1
  9
$TEXTSIZE
 40
180.0
  9
$TRACEWID
 40
0.05
  9
$TEXTSTYLE
  7
STANDARD
  9
$CLAYER
  8
3
  9
$CELTYPE
  6
BYLAYER
  9
$CECOLOR
 62
   256
  9
$DIMSCALE
 40
20.0
  9
$DIMASZ
 40
2.0
  9
$DIMEXO
 40
0.5
  9
$DIMDLI
 40
10.0
  9
$DIMRND
 40
0.0
  9
$DIMDLE
 40
0.0
  9
$DIMEXE
 40
1.0
  9
$DIMTP
 40
1.0
  9
$DIMTM
 40
1.0
  9
$DIMTXT
 40
3.0
  9
$DIMCEN
 40
0.0
  9
$DIMTSZ
 40
0.0
  9
$DIMTOL
 70
     0
  9
$DIMLIM
 70
     0
  9
$DIMTIH
 70
     0
  9
$DIMTOH
 70
     0
  9
$DIMSE1
 70
     0
  9
$DIMSE2
 70
     0
  9
$DIMTAD
 70
     1
  9
$DIMZIN
 70
     8
  9
$DIMBLK
  1

  9
$DIMASO
 70
     1
  9
$DIMSHO
 70
     1
  9
$DIMPOST
  1

  9
$DIMAPOST
  1

  9
$DIMALT
 70
     0
  9
$DIMALTD
 70
     2
  9
$DIMALTF
 40
0.039
  9
$DIMLFAC
 40
1.0
  9
$DIMTOFL
 70
     1
  9
$DIMTVP
 40
0.0
  9
$DIMTIX
 70
     0
  9
$DIMSOXD
 70
     0
  9
$DIMSAH
 70
     1
  9
$DIMBLK1
  1
OPEN
  9
$DIMBLK2
  1
OPEN
  9
$DIMSTYLE
  2
IGA
  9
$DIMCLRD
 70
     0
  9
$DIMCLRE
 70
     0
  9
$DIMCLRT
 70
     0
  9
$DIMTFAC
 40
10.0
  9
$DIMGAP
 40
1.0
  9
$LUNITS
 70
     2
  9
$LUPREC
 70
     3
  9
$SKETCHINC
 40
0.1
  9
$FILLETRAD
 40
50.0
  9
$AUNITS
 70
     0
  9
$AUPREC
 70
     0
  9
$MENU
  1
acad
  9
$ELEVATION
 40
0.0
  9
$PELEVATION
 40
0.0
  9
$THICKNESS
 40
0.0
  9
$LIMCHECK
 70
     0
  9
$BLIPMODE
 70
     0
  9
$CHAMFERA
 40
0.5
  9
$CHAMFERB
 40
0.5
  9
$SKPOLY
 70
     0
  9
$TDCREATE
 40
2450736.5620034719
  9
$TDUPDATE
 40
2454953.7696511461
  9
$TDINDWG
 40
0.0045892824
  9
$TDUSRTIMER
 40
0.0045892824
  9
$USRTIMER
 70
     1
  9
$ANGBASE
 50
0.0
  9
$ANGDIR
 70
     0
  9
$PDMODE
 70
     0
  9
$PDSIZE
 40
0.0
  9
$PLINEWID
 40
0.0
  9
$COORDS
 70
     1
  9
$SPLFRAME
 70
     0
  9
$SPLINETYPE
 70
     6
  9
$SPLINESEGS
 70
     8
  9
$ATTDIA
 70
     0
  9
$ATTREQ
 70
     1
  9
$HANDLING
 70
 10241
  9
$HANDSEED
  5
7E1F
  9
$SURFTAB1
 70
     6
  9
$SURFTAB2
 70
     6
  9
$SURFTYPE
 70
     6
  9
$SURFU
 70
     6
  9
$SURFV
 70
     6
  9
$UCSNAME
  2

  9
$UCSORG
 10
0.0
 20
0.0
 30
0.0
  9
$UCSXDIR
 10
1.0
 20
0.0
 30
0.0
  9
$UCSYDIR
 10
0.0
 20
1.0
 30
0.0
  9
$PUCSNAME
  2

  9
$PUCSORG
 10
0.0
 20
0.0
 30
0.0
  9
$PUCSXDIR
 10
1.0
 20
0.0
 30
0.0
  9
$PUCSYDIR
 10
0.0
 20
1.0
 30
0.0
  9
$USERI1
 70
     0
  9
$USERI2
 70
     0
  9
$USERI3
 70
     0
  9
$USERI4
 70
     0
  9
$USERI5
 70
     0
  9
$USERR1
 40
0.0
  9
$USERR2
 40
0.0
  9
$USERR3
 40
0.0
  9
$USERR4
 40
0.0
  9
$USERR5
 40
0.0
  9
$WORLDVIEW
 70
     1
  9
$SHADEDGE
 70
     3
  9
$SHADEDIF
 70
    70
  9
$TILEMODE
 70
     1
  9
$MAXACTVP
 70
    16
  9
$PLIMCHECK
 70
     0
  9
$PEXTMIN
 10
1.0000000000000000E+020
 20
1.0000000000000000E+020
 30
1.0000000000000000E+020
  9
$PEXTMAX
 10
-1.0000000000000000E+020
 20
-1.0000000000000000E+020
 30
-1.0000000000000000E+020
  9
$PLIMMIN
 10
0.0
 20
0.0
  9
$PLIMMAX
 10
12.0
 20
9.0
  9
$UNITMODE
 70
     0
  9
$VISRETAIN
 70
     0
  9
$PLINEGEN
 70
     0
  9
$PSLTSCALE
 70
     1
  0
ENDSEC
  0
SECTION
  2
TABLES
  0
TABLE
  2
VPORT
 70
     2
  0
VPORT
  2
*ACTIVE
 70
     0
 10
0.0
 20
0.0
 11
1.0
 21
1.0
 12
6292.1124769529506
 22
3086.6374998146398
 13
0.0
 23
0.0
 14
10.0
 24
10.0
 15
10.0
 25
10.0
 16
0.0
 26
0.0
 36
1.0
 17
0.0
 27
0.0
 37
0.0
 40
5011.4968576296578
 41
3.1666666666666661
 42
50.0
 43
0.0
 44
0.0
 50
0.0
 51
0.0
 71
     0
 72
   100
 73
     1
 74
     0
 75
     0
 76
     0
 77
     0
 78
     0
  0
ENDTAB
  0
TABLE
  2
LTYPE
 70
     2
  0
LTYPE
  2
CONTINUOUS
 70
     0
  3
Solid line
 72
    65
 73
     0
 40
0.0
  0
LTYPE
  2
CENTER
 70
     0
  3
____ _ ____ _ ____ _ ____ _ ____ _ ____ _ ____ 
 72
    65
 73
     4
 40
2.0
 49
1.25
 49
-0.25
 49
0.25
 49
-0.25
  0
ENDTAB
  0
TABLE
  2
LAYER
 70
     6
  0
LAYER
  2
0
 70
     0
 62
     7
  6
CONTINUOUS
  0
LAYER
  2
3
 70
     0
 62
     2
  6
CONTINUOUS
  0
LAYER
  2
2
 70
     0
 62
     3
  6
CENTER
  0
LAYER
  2
1
 70
     0
 62
     4
  6
CONTINUOUS
  0
LAYER
  2
4
 70
     0
 62
     7
  6
CONTINUOUS
  0
LAYER
  2
DEFPOINTS
 70
     0
 62
     7
  6
CONTINUOUS
  0
ENDTAB
  0
TABLE
  2
STYLE
 70
     1
  0
STYLE
  2
STANDARD
 70
     0
 40
0.0
 41
1.0
 50
0.0
 71
     0
 42
180.0
  3
simplex.shx
  4
extfont.shx
  0
ENDTAB
  0
TABLE
  2
VIEW
 70
     0
  0
ENDTAB
  0
TABLE
  2
UCS
 70
     0
  0
ENDTAB
  0
TABLE
  2
APPID
 70
     1
  0
APPID
  2
ACAD
 70
     0
  0
ENDTAB
  0
TABLE
  2
DIMSTYLE
 70
     1
  0
DIMSTYLE
  2
IGA
 70
     0
  3

  4

  5

  6
OPEN
  7
OPEN
 40
2.0
 41
2.0
 42
0.5
 43
10.0
 44
1.0
 45
0.0
 46
0.0
 47
1.0
 48
1.0
140
3.0
141
0.0
142
0.0
143
0.03937
144
1.0
145
0.0
146
10.0
147
1.0
 71
     0
 72
     0
 73
     0
 74
     0
 75
     0
 76
     0
 77
     1
 78
     8
170
     0
171
     2
172
     0
173
     1
174
     0
175
     0
176
     0
177
     0
178
     0
  0
ENDTAB
  0
ENDSEC
  0
SECTION
  2
BLOCKS
  0
BLOCK
  8
0
  2
$MODEL_SPACE
 70
     0
 10
0.0
 20
0.0
 30
0.0
  3
$MODEL_SPACE
  1

  0
ENDBLK
  5
1B
  8
0
  0
BLOCK
 67
     1
  8
0
  2
$PAPER_SPACE
 70
     0
 10
0.0
 20
0.0
 30
0.0
  3
$PAPER_SPACE
  1

  0
ENDBLK
  5
18
 67
     1
  8
0
  0
BLOCK
  8
0
  2
_OPEN
 70
     0
 10
0.0
 20
0.0
 30
0.0
  3
_OPEN
  1

  0
LINE
  5
7AEC
  8
0
  6
BYBLOCK
 62
     0
 10
-1.0
 20
0.166667
 30
0.0
 11
0.0
 21
0.0
 31
0.0
  0
LINE
  5
7AED
  8
0
  6
BYBLOCK
 62
     0
 10
0.0
 20
0.0
 30
0.0
 11
-1.0
 21
-0.166667
 31
0.0
  0
LINE
  5
7AEE
  8
0
  6
BYBLOCK
 62
     0
 10
0.0
 20
0.0
 30
0.0
 11
-1.0
 21
0.0
 31
0.0
  0
ENDBLK
  5
7AEF
  8
0
  0
BLOCK
  8
0
  2
*D1
 70
     1
 10
0.0
 20
0.0
 30
0.0
  3
*D1
  1

  0
LINE
  5
7D8D
  8
3
  6
CONTINUOUS
 62
     0
 10
1619.5911450000001
 20
2587.055965
 30
0.0
 11
1619.5911450000001
 21
2747.2549100000001
 31
0.0
  0
LINE
  5
7D8E
  8
3
  6
CONTINUOUS
 62
     0
 10
1059.591144999999
 20
2587.055965
 30
0.0
 11
1059.591144999999
 21
2747.2549100000001
 31
0.0
  0
LINE
  5
7D8F
  8
3
  6
CONTINUOUS
 62
     0
 10
1579.5911450000001
 20
2727.2549100000001
 30
0.0
 11
1099.591144999999
 21
2727.2549100000001
 31
0.0
  0
INSERT
  5
7D90
  8
3
  6
CONTINUOUS
 62
     0
  2
_OPEN
 10
1619.5911450000001
 20
2727.2549100000001
 30
0.0
 41
40.0
 42
40.0
 43
40.0
  0
INSERT
  5
7D91
  8
3
  6
CONTINUOUS
 62
     0
  2
_OPEN
 10
1059.591144999999
 20
2727.2549100000001
 30
0.0
 41
40.0
 42
40.0
 43
40.0
 50
180.0
  0
TEXT
  8
3
  40
60
  5
7E0F
  62
0
  72
0
  71
0
 10
1219.59
 20
2671.05
 30
0.000000
  1
560
  0
POINT
  5
7D93
  8
DEFPOINTS
  6
CONTINUOUS
 62
     0
 10
1619.5911450000001
 20
2577.055965
 30
0.0
  0
POINT
  5
7D94
  8
DEFPOINTS
  6
CONTINUOUS
 62
     0
 10
1059.591144999999
 20
2577.055965
 30
0.0
  0
POINT
  5
7D95
  8
DEFPOINTS
  6
CONTINUOUS
 62
     0
 10
1059.591144999999
 20
2727.2549100000001
 30
0.0
  0
ENDBLK
  5
7CE8
  8
0
  0
BLOCK
  8
0
  2
*D2
 70
     1
 10
0.0
 20
0.0
 30
0.0
  3
*D2
  1

  0
LINE
  5
7D96
  8
3
  6
CONTINUOUS
 62
     0
 10
1059.591144999999
 20
2737.2549100000001
 30
0.0
 11
1059.591144999999
 21
2900.1327510000001
 31
0.0
  0
LINE
  5
7D97
  8
3
  6
CONTINUOUS
 62
     0
 10
1598.5911450000001
 20
2659.6916322076881
 30
0.0
 11
1598.5911450000001
 21
2900.1327510000001
 31
0.0
  0
LINE
  5
7D98
  8
3
  6
CONTINUOUS
 62
     0
 10
1099.591144999999
 20
2880.1327510000001
 30
0.0
 11
1558.5911450000001
 21
2880.1327510000001
 31
0.0
  0
INSERT
  5
7D99
  8
3
  6
CONTINUOUS
 62
     0
  2
_OPEN
 10
1059.591144999999
 20
2880.1327510000001
 30
0.0
 41
40.0
 42
40.0
 43
40.0
 50
180.0
  0
INSERT
  5
7D9A
  8
3
  6
CONTINUOUS
 62
     0
  2
_OPEN
 10
1598.5911450000001
 20
2880.1327510000001
 30
0.0
 41
40.0
 42
40.0
 43
40.0
  0
TEXT
  8
3
  40
60
  5
7E10
  62
0
  72
0
  71
0
 10
1220.97
 20
2823.93
 30
0.000000
  1
539
  0
POINT
  5
7D9C
  8
DEFPOINTS
  6
CONTINUOUS
 62
     0
 10
1059.591144999999
 20
2727.2549100000001
 30
0.0
  0
POINT
  5
7D9D
  8
DEFPOINTS
  6
CONTINUOUS
 62
     0
 10
1598.5911450000001
 20
2649.6916322076881
 30
0.0
  0
POINT
  5
7D9E
  8
DEFPOINTS
  6
CONTINUOUS
 62
     0
 10
1598.5911450000001
 20
2880.1327510000001
 30
0.0
  0
ENDBLK
  5
7D12
  8
0
  0
BLOCK
  8
0
  2
*D3
 70
     1
 10
0.0
 20
0.0
 30
0.0
  3
*D3
  1

  0
LINE
  5
7D9F
  8
3
  6
CONTINUOUS
 62
     0
 10
2008.5911450000001
 20
2542.055965
 30
0.0
 11
2008.5911450000001
 21
2900.1327510000001
 31
0.0
  0
LINE
  5
7DA0
  8
3
  6
CONTINUOUS
 62
     0
 10
1638.591144999999
 20
2880.1327510000001
 30
0.0
 11
1968.591144999999
 21
2880.1327510000001
 31
0.0
  0
INSERT
  5
7DA1
  8
3
  6
CONTINUOUS
 62
     0
  2
_OPEN
 10
1598.5911450000001
 20
2880.1327510000001
 30
0.0
 41
40.0
 42
40.0
 43
40.0
 50
180.0
  0
INSERT
  5
7DA2
  8
3
  6
CONTINUOUS
 62
     0
  2
_OPEN
 10
2008.5911450000001
 20
2880.1327510000001
 30
0.0
 41
40.0
 42
40.0
 43
40.0
  0
TEXT
  8
3
  40
60
  5
7E11
  62
0
  72
0
  71
0
 10
1683.59
 20
2823.93
 30
0.000000
  1
410
  0
POINT
  5
7DA4
  8
DEFPOINTS
  6
CONTINUOUS
 62
     0
 10
1598.5911450000001
 20
2649.6916322076881
 30
0.0
  0
POINT
  5
7DA5
  8
DEFPOINTS
  6
CONTINUOUS
 62
     0
 10
2008.5911450000001
 20
2532.055965
 30
0.0
  0
POINT
  5
7DA6
  8
DEFPOINTS
  6
CONTINUOUS
 62
     0
 10
2008.5911450000001
 20
2880.1327510000001
 30
0.0
  0
ENDBLK
  5
7D07
  8
0
  0
BLOCK
  8
0
  2
*D4
 70
     1
 10
0.0
 20
0.0
 30
0.0
  3
*D4
  1

  0
LINE
  5
7DA7
  8
3
  6
CONTINUOUS
 62
     0
 10
1656.591144999999
 20
2577.055965
 30
0.0
 11
2204.3844119999999
 21
2577.055965
 31
0.0
  0
LINE
  5
7DA8
  8
3
  6
CONTINUOUS
 62
     0
 10
2108.910433
 20
2172.055965
 30
0.0
 11
2204.3844119999999
 21
2172.055965
 31
0.0
  0
LINE
  5
7DA9
  8
3
  6
CONTINUOUS
 62
     0
 10
2184.3844119999999
 20
2537.055965
 30
0.0
 11
2184.3844119999999
 21
2212.055965
 31
0.0
  0
INSERT
  5
7DAA
  8
3
  6
CONTINUOUS
 62
     0
  2
_OPEN
 10
2184.3844119999999
 20
2577.055965
 30
0.0
 41
40.0
 42
40.0
 43
40.0
 50
90.0
  0
INSERT
  5
7DAB
  8
3
  6
CONTINUOUS
 62
     0
  2
_OPEN
 10
2184.3844119999999
 20
2172.055965
 30
0.0
 41
40.0
 42
40.0
 43
40.0
 50
270.0
  0
TEXT
  8
3
  40
60
  5
7E12
  62
0
  72
0
  71
0
 10
2014.38
 20
2261.11
 30
0.000000
  1
405
  0
POINT
  5
7DAD
  8
DEFPOINTS
  6
CONTINUOUS
 62
     0
 10
1646.5911450000001
 20
2577.055965
 30
0.0
  0
POINT
  5
7DAE
  8
DEFPOINTS
  6
CONTINUOUS
 62
     0
 10
2098.9104329999991
 20
2172.055965
 30
0.0
  0
POINT
  5
7DAF
  8
DEFPOINTS
  6
CONTINUOUS
 62
     0
 10
2184.3844119999999
 20
2172.055965
 30
0.0
  0
ENDBLK
  5
7B3A
  8
0
  0
BLOCK
  8
0
  2
*D5
 70
     1
 10
0.0
 20
0.0
 30
0.0
  3
*D5
  1

  0
LINE
  5
7DB0
  8
3
  6
CONTINUOUS
 62
     0
 10
1953.5911450000001
 20
1617.055965
 30
0.0
 11
2204.3844119999999
 21
1617.055965
 31
0.0
  0
LINE
  5
7DB1
  8
3
  6
CONTINUOUS
 62
     0
 10
2184.384411999999
 20
2132.055965
 30
0.0
 11
2184.384411999999
 21
1657.055965
 31
0.0
  0
INSERT
  5
7DB2
  8
3
  6
CONTINUOUS
 62
     0
  2
_OPEN
 10
2184.384411999999
 20
2172.055965
 30
0.0
 41
40.0
 42
40.0
 43
40.0
 50
90.0
  0
INSERT
  5
7DB3
  8
3
  6
CONTINUOUS
 62
     0
  2
_OPEN
 10
2184.384411999999
 20
1617.055965
 30
0.0
 41
40.0
 42
40.0
 43
40.0
 50
270.0
  0
TEXT
  8
3
  40
60
  5
7E13
  62
0
  72
0
  71
0
 10
2014.38
 20
1788.36
 30
0.000000
  1
555
  0
POINT
  5
7DB5
  8
DEFPOINTS
  6
CONTINUOUS
 62
     0
 10
2098.9104329999991
 20
2172.055965
 30
0.0
  0
POINT
  5
7DB6
  8
DEFPOINTS
  6
CONTINUOUS
 62
     0
 10
1943.5911450000001
 20
1617.055965
 30
0.0
  0
POINT
  5
7DB7
  8
DEFPOINTS
  6
CONTINUOUS
 62
     0
 10
2184.384411999999
 20
1617.055965
 30
0.0
  0
ENDBLK
  5
7B46
  8
0
  0
BLOCK
  8
0
  2
*D6
 70
     1
 10
0.0
 20
0.0
 30
0.0
  3
*D6
  1

  0
LINE
  5
7DB8
  8
3
  6
CONTINUOUS
 62
     0
 10
693.59114499999987
 20
1607.0559649999991
 30
0.0
 11
693.59114499999987
 21
1387.801218999999
 31
0.0
  0
LINE
  5
7DB9
  8
3
  6
CONTINUOUS
 62
     0
 10
1598.5911450000001
 20
1509.458502
 30
0.0
 11
1598.5911450000001
 21
1387.801218999999
 31
0.0
  0
LINE
  5
7DBA
  8
3
  6
CONTINUOUS
 62
     0
 10
733.59114499999998
 20
1407.801218999999
 30
0.0
 11
1558.5911450000001
 21
1407.801218999999
 31
0.0
  0
INSERT
  5
7DBB
  8
3
  6
CONTINUOUS
 62
     0
  2
_OPEN
 10
693.59114499999987
 20
1407.801218999999
 30
0.0
 41
40.0
 42
40.0
 43
40.0
 50
180.0
  0
INSERT
  5
7DBC
  8
3
  6
CONTINUOUS
 62
     0
  2
_OPEN
 10
1598.5911450000001
 20
1407.801218999999
 30
0.0
 41
40.0
 42
40.0
 43
40.0
  0
TEXT
  8
3
  40
60
  5
7E14
  62
0
  72
0
  71
0
 10
1044.74
 20
1351.60
 30
0.000000
  1
905
  0
POINT
  5
7DBE
  8
DEFPOINTS
  6
CONTINUOUS
 62
     0
 10
693.59114499999987
 20
1617.055965
 30
0.0
  0
POINT
  5
7DBF
  8
DEFPOINTS
  6
CONTINUOUS
 62
     0
 10
1598.5911450000001
 20
1519.458501999999
 30
0.0
  0
POINT
  5
7DC0
  8
DEFPOINTS
  6
CONTINUOUS
 62
     0
 10
1598.5911450000001
 20
1407.801218999999
 30
0.0
  0
ENDBLK
  5
7BEC
  8
0
  0
BLOCK
  8
0
  2
*D7
 70
     1
 10
0.0
 20
0.0
 30
0.0
  3
*D7
  1

  0
LINE
  5
7DC1
  8
3
  6
CONTINUOUS
 62
     0
 10
1943.5911450000001
 20
1607.0559649999991
 30
0.0
 11
1943.5911450000001
 21
1387.801218999999
 31
0.0
  0
LINE
  5
7DC2
  8
3
  6
CONTINUOUS
 62
     0
 10
1638.591144999999
 20
1407.801218999999
 30
0.0
 11
1903.5911450000001
 21
1407.801218999999
 31
0.0
  0
INSERT
  5
7DC3
  8
3
  6
CONTINUOUS
 62
     0
  2
_OPEN
 10
1598.5911450000001
 20
1407.801218999999
 30
0.0
 41
40.0
 42
40.0
 43
40.0
 50
180.0
  0
INSERT
  5
7DC4
  8
3
  6
CONTINUOUS
 62
     0
  2
_OPEN
 10
1943.5911450000001
 20
1407.801218999999
 30
0.0
 41
40.0
 42
40.0
 43
40.0
  0
TEXT
  8
3
  40
60
  5
7E15
  62
0
  72
0
  71
0
 10
1651.09
 20
1351.60
 30
0.000000
  1
345
  0
POINT
  5
7DC6
  8
DEFPOINTS
  6
CONTINUOUS
 62
     0
 10
1598.5911450000001
 20
1519.458501999999
 30
0.0
  0
POINT
  5
7DC7
  8
DEFPOINTS
  6
CONTINUOUS
 62
     0
 10
1943.5911450000001
 20
1617.055965
 30
0.0
  0
POINT
  5
7DC8
  8
DEFPOINTS
  6
CONTINUOUS
 62
     0
 10
1943.5911450000001
 20
1407.801218999999
 30
0.0
  0
ENDBLK
  5
7BF6
  8
0
  0
BLOCK
  8
0
  2
*D8
 70
     1
 10
0.0
 20
0.0
 30
0.0
  3
*D8
  1

  0
LINE
  5
7DC9
  8
3
  6
CONTINUOUS
 62
     0
 10
1666.591144999999
 20
2577.055965
 30
0.0
 11
2347.050729
 21
2577.055965
 31
0.0
  0
LINE
  5
7DCA
  8
3
  6
CONTINUOUS
 62
     0
 10
1953.5911450000001
 20
1617.055965
 30
0.0
 11
2347.050729
 21
1617.055965
 31
0.0
  0
LINE
  5
7DCB
  8
3
  6
CONTINUOUS
 62
     0
 10
2327.050729
 20
2537.055965
 30
0.0
 11
2327.050729
 21
1657.055965
 31
0.0
  0
INSERT
  5
7DCC
  8
3
  6
CONTINUOUS
 62
     0
  2
_OPEN
 10
2327.050729
 20
2577.055965
 30
0.0
 41
40.0
 42
40.0
 43
40.0
 50
90.0
  0
INSERT
  5
7DCD
  8
3
  6
CONTINUOUS
 62
     0
  2
_OPEN
 10
2327.050729
 20
1617.055965
 30
0.0
 41
40.0
 42
40.0
 43
40.0
 50
270.0
  0
TEXT
  8
3
  40
60
  5
7E16
  62
0
  72
0
  71
0
 10
2157.05
 20
2009.58
 30
0.000000
  1
960
  0
POINT
  5
7DCF
  8
DEFPOINTS
  6
CONTINUOUS
 62
     0
 10
1656.591144999999
 20
2577.055965
 30
0.0
  0
POINT
  5
7DD0
  8
DEFPOINTS
  6
CONTINUOUS
 62
     0
 10
1943.5911450000001
 20
1617.055965
 30
0.0
  0
POINT
  5
7DD1
  8
DEFPOINTS
  6
CONTINUOUS
 62
     0
 10
2327.050729
 20
1617.055965
 30
0.0
  0
ENDBLK
  5
7B6C
  8
0
  0
BLOCK
  8
0
  2
*D9
 70
     1
 10
0.0
 20
0.0
 30
0.0
  3
*D9
  1

  0
LINE
  5
7DD2
  8
3
  6
CONTINUOUS
 62
     0
 10
3454.2520089999998
 20
2587.055965
 30
0.0
 11
3454.2520089999998
 21
2681.7367850000001
 31
0.0
  0
LINE
  5
7DD3
  8
3
  6
CONTINUOUS
 62
     0
 10
3034.2520089999989
 20
2587.055965
 30
0.0
 11
3034.2520089999989
 21
2681.7367850000001
 31
0.0
  0
LINE
  5
7DD4
  8
3
  6
CONTINUOUS
 62
     0
 10
3414.2520089999998
 20
2661.7367850000001
 30
0.0
 11
3074.2520089999998
 21
2661.7367850000001
 31
0.0
  0
INSERT
  5
7DD5
  8
3
  6
CONTINUOUS
 62
     0
  2
_OPEN
 10
3454.2520089999998
 20
2661.7367850000001
 30
0.0
 41
40.0
 42
40.0
 43
40.0
  0
INSERT
  5
7DD6
  8
3
  6
CONTINUOUS
 62
     0
  2
_OPEN
 10
3034.2520089999989
 20
2661.7367850000001
 30
0.0
 41
40.0
 42
40.0
 43
40.0
 50
180.0
  0
TEXT
  8
3
  40
60
  5
7E17
  62
0
  72
0
  71
0
 10
3121.24
 20
2605.54
 30
0.000000
  1
420
  0
POINT
  5
7DD8
  8
DEFPOINTS
  6
CONTINUOUS
 62
     0
 10
3454.2520089999998
 20
2577.055965
 30
0.0
  0
POINT
  5
7DD9
  8
DEFPOINTS
  6
CONTINUOUS
 62
     0
 10
3034.2520089999989
 20
2577.055965
 30
0.0
  0
POINT
  5
7DDA
  8
DEFPOINTS
  6
CONTINUOUS
 62
     0
 10
3034.2520089999989
 20
2661.7367850000001
 30
0.0
  0
ENDBLK
  5
7C6E
  8
0
  0
BLOCK
  8
0
  2
*D10
 70
     1
 10
0.0
 20
0.0
 30
0.0
  3
*D10
  1

  0
LINE
  5
7DDB
  8
3
  6
CONTINUOUS
 62
     0
 10
3464.2520089999998
 20
2467.055965
 30
0.0
 11
3647.2741560000009
 21
2467.055965
 31
0.0
  0
LINE
  5
7DDC
  8
3
  6
CONTINUOUS
 62
     0
 10
3464.2520089999998
 20
1877.055965
 30
0.0
 11
3647.2741560000009
 21
1877.0559649999991
 31
0.0
  0
LINE
  5
7DDD
  8
3
  6
CONTINUOUS
 62
     0
 10
3627.2741559999999
 20
2427.055965
 30
0.0
 11
3627.2741559999999
 21
1917.0559649999991
 31
0.0
  0
INSERT
  5
7DDE
  8
3
  6
CONTINUOUS
 62
     0
  2
_OPEN
 10
3627.2741559999999
 20
2467.055965
 30
0.0
 41
40.0
 42
40.0
 43
40.0
 50
90.0
  0
INSERT
  5
7DDF
  8
3
  6
CONTINUOUS
 62
     0
  2
_OPEN
 10
3627.2741559999999
 20
1877.0559649999991
 30
0.0
 41
40.0
 42
40.0
 43
40.0
 50
270.0
  0
TEXT
  8
3
  40
60
  5
7E18
  62
0
  72
0
  71
0
 10
3457.27
 20
2043.11
 30
0.000000
  1
φ590
  0
POINT
  5
7DE1
  8
DEFPOINTS
  6
CONTINUOUS
 62
     0
 10
3454.2520089999998
 20
2467.055965
 30
0.0
  0
POINT
  5
7DE2
  8
DEFPOINTS
  6
CONTINUOUS
 62
     0
 10
3454.2520089999998
 20
1877.055965
 30
0.0
  0
POINT
  5
7DE3
  8
DEFPOINTS
  6
CONTINUOUS
 62
     0
 10
3627.2741559999999
 20
1877.0559649999991
 30
0.0
  0
ENDBLK
  5
7D33
  8
0
  0
BLOCK
  8
0
  2
*D11
 70
     1
 10
0.0
 20
0.0
 30
0.0
  3
*D11
  1

  0
LINE
  5
7D1F
  8
0
  6
BYBLOCK
 62
     0
 10
3456.2520089999998
 20
2502.055965
 30
0.0
 11
3456.2520089999998
 21
2830.4413809999992
 31
0.0
  0
LINE
  5
7D20
  8
0
  6
BYBLOCK
 62
     0
 10
3244.2520089999998
 20
2761.8418139999999
 30
0.0
 11
3244.2520089999998
 21
2830.4413809999992
 31
0.0
  0
LINE
  5
7D21
  8
0
  6
BYBLOCK
 62
     0
 10
3416.2520089999998
 20
2810.4413810000001
 30
0.0
 11
3284.2520089999998
 21
2810.4413810000001
 31
0.0
  0
TEXT
  5
7D22
  8
3
 62
     0
 10
3278.8234375714278
 20
2842.8118528942591
 30
0.0
 40
60.0
  1
212
  0
INSERT
  5
7D23
  8
0
  6
BYBLOCK
 62
     0
  2
_OPEN
 10
3456.2520089999998
 20
2810.4413810000001
 30
0.0
 41
40.0
 42
40.0
 43
40.0
  0
INSERT
  5
7D24
  8
0
  6
BYBLOCK
 62
     0
  2
_OPEN
 10
3244.2520089999998
 20
2810.4413810000001
 30
0.0
 41
40.0
 42
40.0
 43
40.0
 50
180.0
  0
POINT
  5
7D25
  8
DEFPOINTS
  6
BYBLOCK
 62
     0
 10
3456.2520089999998
 20
2492.055965
 30
0.0
  0
POINT
  5
7D26
  8
DEFPOINTS
  6
BYBLOCK
 62
     0
 10
3244.2520089999998
 20
2751.8418139999999
 30
0.0
  0
POINT
  5
7D27
  8
DEFPOINTS
  6
BYBLOCK
 62
     0
 10
3244.2520089999998
 20
2810.4413810000001
 30
0.0
  0
ENDBLK
  5
7D28
  8
0
  0
BLOCK
  8
0
  2
*D12
 70
     1
 10
0.0
 20
0.0
 30
0.0
  3
*D12
  1

  0
LINE
  5
7DE4
  8
3
  6
CONTINUOUS
 62
     0
 10
2834.2520089999998
 20
2542.055965
 30
0.0
 11
2834.2520089999998
 21
2830.4413809999992
 31
0.0
  0
LINE
  5
7DE5
  8
3
  6
CONTINUOUS
 62
     0
 10
3204.2520089999989
 20
2810.4413810000001
 30
0.0
 11
2874.2520089999998
 21
2810.4413810000001
 31
0.0
  0
INSERT
  5
7DE6
  8
3
  6
CONTINUOUS
 62
     0
  2
_OPEN
 10
3244.2520089999998
 20
2810.4413810000001
 30
0.0
 41
40.0
 42
40.0
 43
40.0
  0
INSERT
  5
7DE7
  8
3
  6
CONTINUOUS
 62
     0
  2
_OPEN
 10
2834.2520089999998
 20
2810.4413810000001
 30
0.0
 41
40.0
 42
40.0
 43
40.0
 50
180.0
  0
TEXT
  8
3
  40
60
  5
7E19
  62
0
  72
0
  71
0
 10
2919.25
 20
2804.24
 30
0.000000
  1
MAX
  0
TEXT
  8
3
  40
60
  5
7E1A
  62
0
  72
0
  71
0
 10
2919.25
 20
2726.24
 30
0.000000
  1
470
  0
POINT
  5
7DE9
  8
DEFPOINTS
  6
CONTINUOUS
 62
     0
 10
3244.2520089999998
 20
2751.8418139999999
 30
0.0
  0
POINT
  5
7DEA
  8
DEFPOINTS
  6
CONTINUOUS
 62
     0
 10
2834.2520089999998
 20
2532.055965
 30
0.0
  0
POINT
  5
7DEB
  8
DEFPOINTS
  6
CONTINUOUS
 62
     0
 10
2834.2520089999998
 20
2810.4413810000001
 30
0.0
  0
ENDBLK
  5
7D52
  8
0
  0
BLOCK
  8
0
  2
*D13
 70
     1
 10
0.0
 20
0.0
 30
0.0
  3
*D13
  1

  0
LINE
  5
7D35
  8
0
  6
BYBLOCK
 62
     0
 10
2989.2520089999989
 20
1607.0559649999991
 30
0.0
 11
2989.2520089999989
 21
1420.80691
 31
0.0
  0
LINE
  5
7D36
  8
0
  6
BYBLOCK
 62
     0
 10
3244.2520089999998
 20
1536.9907300254249
 30
0.0
 11
3244.2520089999998
 21
1420.80691
 31
0.0
  0
LINE
  5
7D37
  8
0
  6
BYBLOCK
 62
     0
 10
3029.2520089999998
 20
1440.80691
 30
0.0
 11
3204.2520089999989
 21
1440.80691
 31
0.0
  0
TEXT
  5
7D38
  8
3
 62
     0
 10
3039.609151857142
 20
1458.806124935667
 30
0.0
 40
60.0
  1
255
  0
INSERT
  5
7D39
  8
0
  6
BYBLOCK
 62
     0
  2
_OPEN
 10
2989.2520089999989
 20
1440.80691
 30
0.0
 41
40.0
 42
40.0
 43
40.0
 50
180.0
  0
INSERT
  5
7D3A
  8
0
  6
BYBLOCK
 62
     0
  2
_OPEN
 10
3244.2520089999998
 20
1440.80691
 30
0.0
 41
40.0
 42
40.0
 43
40.0
  0
POINT
  5
7D3B
  8
DEFPOINTS
  6
BYBLOCK
 62
     0
 10
2989.2520089999989
 20
1617.055965
 30
0.0
  0
POINT
  5
7D3C
  8
DEFPOINTS
  6
BYBLOCK
 62
     0
 10
3244.2520089999998
 20
1546.9907300254249
 30
0.0
  0
POINT
  5
7D3D
  8
DEFPOINTS
  6
BYBLOCK
 62
     0
 10
3244.2520089999998
 20
1440.80691
 30
0.0
  0
ENDBLK
  5
7D3E
  8
0
  0
BLOCK
  8
0
  2
*D14
 70
     1
 10
0.0
 20
0.0
 30
0.0
  3
*D14
  1

  0
LINE
  5
7DEC
  8
3
  6
CONTINUOUS
 62
     0
 10
3499.2520089999998
 20
1607.0559649999991
 30
0.0
 11
3499.2520089999998
 21
1420.80691
 31
0.0
  0
LINE
  5
7DED
  8
3
  6
CONTINUOUS
 62
     0
 10
3284.2520089999998
 20
1440.80691
 30
0.0
 11
3459.2520089999998
 21
1440.80691
 31
0.0
  0
TEXT
  8
3
  40
60
  5
7E1B
  62
0
  72
0
  71
0
 10
3256.53
 20
1383.94
 30
0.000000
  1
255
  0
INSERT
  5
7DEF
  8
3
  6
CONTINUOUS
 62
     0
  2
_OPEN
 10
3244.2520089999998
 20
1440.80691
 30
0.0
 41
40.0
 42
40.0
 43
40.0
 50
180.0
  0
INSERT
  5
7DF0
  8
3
  6
CONTINUOUS
 62
     0
  2
_OPEN
 10
3499.2520089999998
 20
1440.80691
 30
0.0
 41
40.0
 42
40.0
 43
40.0
  0
POINT
  5
7DF1
  8
DEFPOINTS
  6
CONTINUOUS
 62
     0
 10
3244.2520089999998
 20
1564.4914719618239
 30
0.0
  0
POINT
  5
7DF2
  8
DEFPOINTS
  6
CONTINUOUS
 62
     0
 10
3499.2520089999998
 20
1617.055965
 30
0.0
  0
POINT
  5
7DF3
  8
DEFPOINTS
  6
CONTINUOUS
 62
     0
 10
3499.2520089999998
 20
1440.80691
 30
0.0
  0
ENDBLK
  5
7D48
  8
0
  0
BLOCK
  8
0
  2
*D15
 70
     1
 10
0.0
 20
0.0
 30
0.0
  3
*D15
  1

  0
LINE
  5
7DF4
  8
3
  6
CONTINUOUS
 62
     0
 10
693.59114499999987
 20
4037.055965
 30
0.0
 11
693.59114499999987
 21
4212.0109119999988
 31
0.0
  0
LINE
  5
7DF5
  8
3
  6
CONTINUOUS
 62
     0
 10
1943.5911450000001
 20
4037.055965
 30
0.0
 11
1943.5911450000001
 21
4212.0109119999988
 31
0.0
  0
LINE
  5
7DF6
  8
3
  6
CONTINUOUS
 62
     0
 10
733.59114499999998
 20
4192.0109119999988
 30
0.0
 11
1903.5911450000001
 21
4192.0109119999988
 31
0.0
  0
INSERT
  5
7DF7
  8
3
  6
CONTINUOUS
 62
     0
  2
_OPEN
 10
693.59114499999987
 20
4192.0109119999988
 30
0.0
 41
40.0
 42
40.0
 43
40.0
 50
180.0
  0
INSERT
  5
7DF8
  8
3
  6
CONTINUOUS
 62
     0
  2
_OPEN
 10
1943.5911450000001
 20
4192.0109119999988
 30
0.0
 41
40.0
 42
40.0
 43
40.0
  0
TEXT
  8
3
  40
60
  5
7E1C
  62
0
  72
0
  71
0
 10
1166.43
 20
4135.81
 30
0.000000
  1
1250
  0
POINT
  5
7DFA
  8
DEFPOINTS
  6
CONTINUOUS
 62
     0
 10
693.59114499999987
 20
4027.055965
 30
0.0
  0
POINT
  5
7DFB
  8
DEFPOINTS
  6
CONTINUOUS
 62
     0
 10
1943.5911450000001
 20
4027.055965
 30
0.0
  0
POINT
  5
7DFC
  8
DEFPOINTS
  6
CONTINUOUS
 62
     0
 10
1943.5911450000001
 20
4192.0109119999988
 30
0.0
  0
ENDBLK
  5
7C91
  8
0
  0
BLOCK
  8
0
  2
*D16
 70
     1
 10
0.0
 20
0.0
 30
0.0
  3
*D16
  1

  0
LINE
  5
7DFD
  8
3
  6
CONTINUOUS
 62
     0
 10
1953.5911450000001
 20
4027.055965
 30
0.0
 11
2233.7568649999998
 21
4027.055965
 31
0.0
  0
LINE
  5
7DFE
  8
3
  6
CONTINUOUS
 62
     0
 10
1953.5911450000001
 20
3517.055965
 30
0.0
 11
2233.7568649999998
 21
3517.055965
 31
0.0
  0
LINE
  5
7DFF
  8
3
  6
CONTINUOUS
 62
     0
 10
2213.7568649999998
 20
3987.055965
 30
0.0
 11
2213.7568649999998
 21
3557.0559649999991
 31
0.0
  0
INSERT
  5
7E00
  8
3
  6
CONTINUOUS
 62
     0
  2
_OPEN
 10
2213.7568649999998
 20
4027.055965
 30
0.0
 41
40.0
 42
40.0
 43
40.0
 50
90.0
  0
INSERT
  5
7E01
  8
3
  6
CONTINUOUS
 62
     0
  2
_OPEN
 10
2213.7568649999998
 20
3517.055965
 30
0.0
 41
40.0
 42
40.0
 43
40.0
 50
270.0
  0
TEXT
  8
3
  40
60
  5
7E1D
  62
0
  72
0
  71
0
 10
2043.76
 20
3676.34
 30
0.000000
  1
510
  0
POINT
  5
7E03
  8
DEFPOINTS
  6
CONTINUOUS
 62
     0
 10
1943.5911450000001
 20
4027.055965
 30
0.0
  0
POINT
  5
7E04
  8
DEFPOINTS
  6
CONTINUOUS
 62
     0
 10
1943.5911450000001
 20
3517.055965
 30
0.0
  0
POINT
  5
7E05
  8
DEFPOINTS
  6
CONTINUOUS
 62
     0
 10
2213.7568649999998
 20
3517.055965
 30
0.0
  0
ENDBLK
  5
7BDA
  8
0
  0
BLOCK
  8
0
  2
*D17
 70
     1
 10
0.0
 20
0.0
 30
0.0
  3
*D17
  1

  0
LINE
  5
7E06
  8
3
 62
     0
 10
2008.5911450000001
 20
2542.055965
 30
0.0
 11
2008.5911450000001
 21
3029.7249477839468
 31
0.0
  0
LINE
  5
7E07
  8
3
 62
     0
 10
693.59114499999976
 20
1707.055965
 30
0.0
 11
693.59114499999987
 21
3029.7249477839468
 31
0.0
  0
LINE
  5
7E08
  8
3
 62
     0
 10
1968.591144999999
 20
3009.7249477839468
 30
0.0
 11
733.59114499999998
 21
3009.7249477839468
 31
0.0
  0
INSERT
  5
7E09
  8
3
 62
     0
  2
_OPEN
 10
2008.5911450000001
 20
3009.7249477839468
 30
0.0
 41
40.0
 42
40.0
 43
40.0
  0
INSERT
  5
7E0A
  8
3
 62
     0
  2
_OPEN
 10
693.59114499999987
 20
3009.7249477839468
 30
0.0
 41
40.0
 42
40.0
 43
40.0
 50
180.0
  0
TEXT
  8
3
  40
60
  5
7E1E
  62
0
  72
0
  71
0
 10
1316.02
 20
2953.52
 30
0.000000
  1
1315
  0
POINT
  5
7E0C
  8
DEFPOINTS
 62
     0
 10
2008.5911450000001
 20
2532.055965
 30
0.0
  0
POINT
  5
7E0D
  8
DEFPOINTS
 62
     0
 10
693.59114499999976
 20
1697.0559649999991
 30
0.0
  0
POINT
  5
7E0E
  8
DEFPOINTS
 62
     0
 10
693.59114499999987
 20
3009.7249477839468
 30
0.0
  0
ENDBLK
  5
7D6A
  8
0
  0
ENDSEC
  0
SECTION
  2
ENTITIES
  0
LINE
  5
7A66
  8
1
  6
CONTINUOUS
 10
2834.2520089999998
 20
2532.055965
 30
0.0
 11
2954.2520089999998
 21
2532.055965
 31
0.0
  0
LINE
  5
7A67
  8
1
  6
CONTINUOUS
 10
2864.2520089999989
 20
2272.055965
 30
0.0
 11
2924.2520089999989
 21
2272.055965
 31
0.0
  0
LINE
  5
7A68
  8
1
  6
CONTINUOUS
 10
2864.2520089999989
 20
2072.055965
 30
0.0
 11
2924.2520089999989
 21
2072.055965
 31
0.0
  0
LINE
  5
7A69
  8
1
  6
CONTINUOUS
 10
2864.2520089999989
 20
1949.0559649999991
 30
0.0
 11
2924.2520089999989
 21
1949.0559649999991
 31
0.0
  0
LINE
  5
7A6A
  8
1
  6
CONTINUOUS
 10
2864.2520089999989
 20
1809.0559649999991
 30
0.0
 11
2924.2520089999989
 21
1809.0559649999991
 31
0.0
  0
LINE
  5
7A6B
  8
1
  6
CONTINUOUS
 10
3499.2520089999998
 20
1697.0559649999991
 30
0.0
 11
2834.2520089999998
 21
1697.0559649999991
 31
0.0
  0
LINE
  5
7A6C
  8
1
  6
CONTINUOUS
 10
2008.5911450000001
 20
1697.0559649999991
 30
0.0
 11
693.59114499999987
 21
1697.0559649999991
 31
0.0
  0
ARC
  5
7A6D
  8
1
  6
CONTINUOUS
 10
1561.591144999999
 20
2209.055965
 30
0.0
 40
501.36713099999992
 50
184.2321739999999
 51
275.04245099999991
  0
LINE
  5
7A6E
  8
1
  6
CONTINUOUS
 10
1619.5911450000001
 20
2552.055965
 30
0.0
 11
1059.714602
 21
2552.055965
 31
0.0
  0
LINE
  5
7A6F
  8
1
  6
CONTINUOUS
 10
1646.5911450000001
 20
2577.055965
 30
0.0
 11
1032.5911450000001
 21
2577.055965
 31
0.0
  0
LINE
  5
7A70
  8
1
  6
CONTINUOUS
 10
923.04510400000004
 20
1813.466302
 30
0.0
 11
1633.5253720000001
 21
2078.3564459999998
 31
0.0
  0
LINE
  5
7A71
  8
1
  6
CONTINUOUS
 10
869.03168100000005
 20
1942.508609
 30
0.0
 11
1556.3633389999991
 21
2262.7026000000001
 31
0.0
  0
LINE
  5
7A72
  8
1
  6
CONTINUOUS
 10
1599.0911450000001
 20
2532.055965
 30
0.0
 11
739.09114499999987
 21
1927.055965
 31
0.0
  0
LINE
  5
7A73
  8
1
  6
CONTINUOUS
 10
1943.5911450000001
 20
1617.055965
 30
0.0
 11
693.59114499999987
 21
1617.055965
 31
0.0
  0
LINE
  5
7A74
  8
1
  6
CONTINUOUS
 10
1059.591144999999
 20
2577.055965
 30
0.0
 11
1061.591144999999
 21
2172.055965
 31
0.0
  0
ARC
  5
7A75
  8
1
  6
CONTINUOUS
 10
898.59114499999987
 20
1879.055965
 30
0.0
 40
142.0
 50
324.59875699999998
 51
215.40124299999999
  0
LINE
  5
7A76
  8
2
  6
CENTER
 10
828.59114499999998
 20
1879.055965
 30
0.0
 11
968.59114499999976
 21
1879.055965
 31
0.0
  0
LINE
  5
7A77
  8
1
  6
CONTINUOUS
 10
768.59114499999987
 20
1697.0559649999991
 30
0.0
 11
1028.591144999999
 21
1697.0559649999991
 31
0.0
  0
CIRCLE
  5
7A78
  8
1
  6
CONTINUOUS
 10
898.59114499999987
 20
1879.055965
 30
0.0
 40
70.0
  0
LINE
  5
7A79
  8
1
  6
CONTINUOUS
 10
768.59114499999987
 20
1762.0559649999991
 30
0.0
 11
782.84478200000001
 21
1796.7955280000001
 31
0.0
  0
LINE
  5
7A7A
  8
1
  6
CONTINUOUS
 10
739.09114499999987
 20
1697.0559649999991
 30
0.0
 11
739.09114499999987
 21
1927.055965
 31
0.0
  0
LINE
  5
7A7B
  8
1
  6
CONTINUOUS
 10
693.59114499999987
 20
1697.0559649999991
 30
0.0
 11
693.59114499999987
 21
1617.055965
 31
0.0
  0
LINE
  5
7A7C
  8
1
  6
CONTINUOUS
 10
768.59114499999987
 20
1697.0559649999991
 30
0.0
 11
768.59114499999987
 21
1762.0559649999991
 31
0.0
  0
LINE
  5
7A7D
  8
1
  6
CONTINUOUS
 10
1028.591144999999
 20
1762.0559649999991
 30
0.0
 11
1014.337508
 21
1796.7955280000001
 31
0.0
  0
LINE
  5
7A7E
  8
1
  6
CONTINUOUS
 10
1028.591144999999
 20
1697.0559649999991
 30
0.0
 11
1028.591144999999
 21
1762.0559649999991
 31
0.0
  0
LINE
  5
7A7F
  8
2
  6
CENTER
 10
898.59114499999987
 20
1809.0559649999991
 30
0.0
 11
898.59114499999987
 21
1949.0559649999991
 31
0.0
  0
LINE
  5
7A80
  8
1
  6
CONTINUOUS
 10
1188.591144999999
 20
2532.055965
 30
0.0
 11
2008.5911450000001
 21
2532.055965
 31
0.0
  0
ARC
  5
7A81
  8
1
  6
CONTINUOUS
 10
1622.591144999999
 20
2148.055965
 30
0.0
 40
377.65927299999993
 50
7.2531949999999998
 51
90.455143000000007
  0
CIRCLE
  5
7A82
  8
1
  6
CONTINUOUS
 10
1598.5911450000001
 20
2172.055965
 30
0.0
 40
320.0
  0
ARC
  5
7A83
  8
1
  6
CONTINUOUS
 10
1567.591144999999
 20
2141.055965
 30
0.0
 40
433.10293799999999
 50
275.04245099999991
 51
7.2531949999999998
  0
LINE
  5
7A84
  8
1
  6
CONTINUOUS
 10
1869.091144999999
 20
2447.055965
 30
0.0
 11
1599.0911450000001
 21
2532.055965
 31
0.0
  0
CIRCLE
  5
7A85
  8
1
  6
CONTINUOUS
 10
1598.5911450000001
 20
2172.055965
 30
0.0
 40
295.0
  0
LINE
  5
7A86
  8
1
  6
CONTINUOUS
 10
1188.591144999999
 20
2532.055965
 30
0.0
 11
1188.591144999999
 21
1697.0559649999991
 31
0.0
  0
LINE
  5
7A87
  8
2
  6
CENTER
 10
1598.5911450000001
 20
4098.8617198595784
 30
0.0
 11
1598.5911450000001
 21
3275.0904859999991
 31
0.0
  0
CIRCLE
  5
7A88
  8
1
  6
CONTINUOUS
 10
1598.5911450000001
 20
2172.055965
 30
0.0
 40
100.0
  0
LINE
  5
7A89
  8
2
  6
CENTER
 10
3518.1763850000002
 20
2172.055965
 30
0.0
 11
2802.6037379999998
 21
2172.055965
 31
0.0
  0
LINE
  5
7A8A
  8
1
  6
CONTINUOUS
 10
1619.5911450000001
 20
2525.7033219999998
 30
0.0
 11
1619.5911450000001
 21
2577.055965
 31
0.0
  0
LINE
  5
7A8B
  8
1
  6
CONTINUOUS
 10
2008.5911450000001
 20
2532.055965
 30
0.0
 11
2008.5911450000001
 21
1697.0559649999991
 31
0.0
  0
LINE
  5
7A8C
  8
1
  6
CONTINUOUS
 10
2834.2520089999998
 20
1697.0559649999991
 30
0.0
 11
2834.2520089999998
 21
2532.055965
 31
0.0
  0
LINE
  5
7A8D
  8
1
  6
CONTINUOUS
 10
2864.2520089999989
 20
2272.055965
 30
0.0
 11
2864.2520089999989
 21
2072.055965
 31
0.0
  0
LINE
  5
7A8E
  8
1
  6
CONTINUOUS
 10
1869.091144999999
 20
1697.0559649999991
 30
0.0
 11
1869.091144999999
 21
2447.055965
 31
0.0
  0
LINE
  5
7A8F
  8
1
  6
CONTINUOUS
 10
1943.5911450000001
 20
1697.0559649999991
 30
0.0
 11
1943.5911450000001
 21
1617.055965
 31
0.0
  0
LINE
  5
7A90
  8
1
  6
CONTINUOUS
 10
2864.2520089999989
 20
1949.0559649999991
 30
0.0
 11
2864.2520089999989
 21
1809.0559649999991
 31
0.0
  0
LINE
  5
7A92
  8
1
  6
CONTINUOUS
 10
2954.2520089999998
 20
1697.0559649999991
 30
0.0
 11
2954.2520089999998
 21
2532.055965
 31
0.0
  0
LINE
  5
7A93
  8
1
  6
CONTINUOUS
 10
2924.2520089999989
 20
2272.055965
 30
0.0
 11
2924.2520089999989
 21
2072.055965
 31
0.0
  0
LINE
  5
7A94
  8
1
  6
CONTINUOUS
 10
3034.2520089999989
 20
1697.0559649999991
 30
0.0
 11
3034.2520089999989
 21
2577.055965
 31
0.0
  0
LINE
  5
7A95
  8
1
  6
CONTINUOUS
 10
3454.2520089999998
 20
1697.0559649999991
 30
0.0
 11
3454.2520089999998
 21
2577.055965
 31
0.0
  0
LINE
  5
7A96
  8
1
  6
CONTINUOUS
 10
3499.2520089999998
 20
1617.055965
 30
0.0
 11
2989.2520089999989
 21
1617.055965
 31
0.0
  0
LINE
  5
7A97
  8
1
  6
CONTINUOUS
 10
2989.2520089999989
 20
1617.055965
 30
0.0
 11
2989.2520089999989
 21
1697.0559649999991
 31
0.0
  0
LINE
  5
7A98
  8
1
  6
CONTINUOUS
 10
2924.2520089999989
 20
1895.055965
 30
0.0
 11
3034.2520089999989
 21
1895.055965
 31
0.0
  0
LINE
  5
7A99
  8
1
  6
CONTINUOUS
 10
2924.2520089999989
 20
1863.055965
 30
0.0
 11
3034.2520089999989
 21
1863.055965
 31
0.0
  0
LINE
  5
7A9A
  8
1
  6
CONTINUOUS
 10
3034.2520089999989
 20
2188.055965
 30
0.0
 11
2924.2520089999989
 21
2188.055965
 31
0.0
  0
LINE
  5
7A9B
  8
1
  6
CONTINUOUS
 10
3034.2520089999989
 20
2156.055965
 30
0.0
 11
2924.2520089999989
 21
2156.055965
 31
0.0
  0
LINE
  5
7A9C
  8
1
  6
CONTINUOUS
 10
2924.2520089999989
 20
1949.0559649999991
 30
0.0
 11
2924.2520089999989
 21
1809.0559649999991
 31
0.0
  0
LINE
  5
7A9D
  8
1
  6
CONTINUOUS
 10
3499.2520089999998
 20
1617.055965
 30
0.0
 11
3499.2520089999998
 21
1697.0559649999991
 31
0.0
  0
LINE
  5
7A9E
  8
1
  6
CONTINUOUS
 10
3454.2520089999998
 20
1852.0559649999991
 30
0.0
 11
3455.2520089999998
 21
1852.0559649999991
 31
0.0
  0
LINE
  5
7A9F
  8
1
  6
CONTINUOUS
 10
3034.2520089999989
 20
2552.055965
 30
0.0
 11
3454.2520089999998
 21
2552.055965
 31
0.0
  0
LINE
  5
7AA0
  8
1
  6
CONTINUOUS
 10
3007.2520089999998
 20
2577.055965
 30
0.0
 11
3481.2520089999998
 21
2577.055965
 31
0.0
  0
LINE
  5
7AA2
  8
1
  6
CONTINUOUS
 10
1582.5911450000001
 20
3517.055965
 30
0.0
 11
917.59114499999987
 21
3517.055965
 31
0.0
  0
LINE
  5
7AA3
  8
1
  6
CONTINUOUS
 10
1943.5911450000001
 20
4027.055965
 30
0.0
 11
693.59114499999987
 21
4027.055965
 31
0.0
  0
LINE
  5
7AA4
  8
1
  6
CONTINUOUS
 10
1869.091144999999
 20
3362.055965
 30
0.0
 11
739.09114499999987
 21
3362.055965
 31
0.0
  0
LINE
  5
7AA5
  8
1
  6
CONTINUOUS
 10
1869.091144999999
 20
3482.055965
 30
0.0
 11
739.09114499999987
 21
3482.055965
 31
0.0
  0
LINE
  5
7AA6
  8
1
  6
CONTINUOUS
 10
2008.5911450000001
 20
3982.055965
 30
0.0
 11
1059.591144999999
 21
3982.055965
 31
0.0
  0
LINE
  5
7AA7
  8
1
  6
CONTINUOUS
 10
2008.5911450000001
 20
3562.055965
 30
0.0
 11
1059.591144999999
 21
3562.055965
 31
0.0
  0
LINE
  5
7AA8
  8
1
  6
CONTINUOUS
 10
1059.591144999999
 20
3982.055965
 30
0.0
 11
1619.5911450000001
 21
3562.055965
 31
0.0
  0
LINE
  5
7AA9
  8
1
  6
CONTINUOUS
 10
1619.5911450000001
 20
3982.055965
 30
0.0
 11
1059.591144999999
 21
3562.055965
 31
0.0
  0
LINE
  5
7AAA
  8
1
  6
CONTINUOUS
 10
879.59114499999976
 20
3517.055965
 30
0.0
 11
693.59114499999987
 21
3517.055965
 31
0.0
  0
LINE
  5
7AAB
  8
1
  6
CONTINUOUS
 10
756.59114499999987
 20
3535.7937979999988
 30
0.0
 11
1040.5911450000001
 21
3535.7937979999988
 31
0.0
  0
LINE
  5
7AAC
  8
1
  6
CONTINUOUS
 10
756.59114499999987
 20
3935.7937979999988
 30
0.0
 11
1040.5911450000001
 21
3935.7937979999988
 31
0.0
  0
LINE
  5
7AAD
  8
1
  6
CONTINUOUS
 10
828.59114499999998
 20
3452.055965
 30
0.0
 11
968.59114499999976
 21
3452.055965
 31
0.0
  0
LINE
  5
7AAE
  8
1
  6
CONTINUOUS
 10
828.59114499999998
 20
3392.055965
 30
0.0
 11
968.59114499999976
 21
3392.055965
 31
0.0
  0
LINE
  5
7AAF
  8
1
  6
CONTINUOUS
 10
756.59114499999987
 20
3935.7937979999988
 30
0.0
 11
756.59114499999987
 21
3535.7937979999988
 31
0.0
  0
LINE
  5
7AB0
  8
1
  6
CONTINUOUS
 10
693.59114499999987
 20
4027.055965
 30
0.0
 11
693.59114499999987
 21
3517.055965
 31
0.0
  0
LINE
  5
7AB1
  8
1
  6
CONTINUOUS
 10
739.09114499999987
 20
3362.055965
 30
0.0
 11
739.09114499999987
 21
3482.055965
 31
0.0
  0
LINE
  5
7AB2
  8
1
  6
CONTINUOUS
 10
828.59114499999998
 20
3392.055965
 30
0.0
 11
828.59114499999998
 21
3452.055965
 31
0.0
  0
LINE
  5
7AB3
  8
1
  6
CONTINUOUS
 10
1040.5911450000001
 20
3935.7937979999988
 30
0.0
 11
1040.5911450000001
 21
3535.7937979999988
 31
0.0
  0
LINE
  5
7AB4
  8
1
  6
CONTINUOUS
 10
1059.591144999999
 20
3982.055965
 30
0.0
 11
1059.591144999999
 21
3562.055965
 31
0.0
  0
LINE
  5
7AB5
  8
1
  6
CONTINUOUS
 10
879.59114499999976
 20
3452.055965
 30
0.0
 11
879.59114499999976
 21
3535.7937979999988
 31
0.0
  0
LINE
  5
7AB6
  8
1
  6
CONTINUOUS
 10
917.59114499999987
 20
3452.055965
 30
0.0
 11
917.59114499999987
 21
3535.7937979999988
 31
0.0
  0
LINE
  5
7AB7
  8
1
  6
CONTINUOUS
 10
968.59114499999976
 20
3392.055965
 30
0.0
 11
968.59114499999976
 21
3452.055965
 31
0.0
  0
LINE
  5
7AB8
  8
1
  6
CONTINUOUS
 10
1918.591144999999
 20
3984.055965
 30
0.0
 11
1278.5911450000001
 21
3984.055965
 31
0.0
  0
LINE
  5
7AB9
  8
1
  6
CONTINUOUS
 10
1943.5911450000001
 20
3517.055965
 30
0.0
 11
1614.5911450000001
 21
3517.055965
 31
0.0
  0
LINE
  5
7ABA
  8
1
  6
CONTINUOUS
 10
1278.5911450000001
 20
3982.055965
 30
0.0
 11
1278.5911450000001
 21
3984.055965
 31
0.0
  0
LINE
  5
7ABB
  8
1
  6
CONTINUOUS
 10
1619.5911450000001
 20
3982.055965
 30
0.0
 11
1619.5911450000001
 21
3562.055965
 31
0.0
  0
LINE
  5
7ABC
  8
1
  6
CONTINUOUS
 10
1498.591144999999
 20
3392.055965
 30
0.0
 11
1698.591144999999
 21
3392.055965
 31
0.0
  0
LINE
  5
7ABD
  8
1
  6
CONTINUOUS
 10
1498.591144999999
 20
3452.055965
 30
0.0
 11
1698.591144999999
 21
3452.055965
 31
0.0
  0
LINE
  5
7ABE
  8
1
  6
CONTINUOUS
 10
1498.591144999999
 20
3392.055965
 30
0.0
 11
1498.591144999999
 21
3452.055965
 31
0.0
  0
LINE
  5
7ABF
  8
1
  6
CONTINUOUS
 10
1582.5911450000001
 20
3562.055965
 30
0.0
 11
1582.5911450000001
 21
3452.055965
 31
0.0
  0
LINE
  5
7AC0
  8
1
  6
CONTINUOUS
 10
1614.5911450000001
 20
3562.055965
 30
0.0
 11
1614.5911450000001
 21
3452.055965
 31
0.0
  0
LINE
  5
7AC1
  8
1
  6
CONTINUOUS
 10
1698.591144999999
 20
3392.055965
 30
0.0
 11
1698.591144999999
 21
3452.055965
 31
0.0
  0
LINE
  5
7AC2
  8
1
  6
CONTINUOUS
 10
2008.5911450000001
 20
3562.055965
 30
0.0
 11
2008.5911450000001
 21
3982.055965
 31
0.0
  0
LINE
  5
7AC3
  8
1
  6
CONTINUOUS
 10
1869.091144999999
 20
3362.055965
 30
0.0
 11
1869.091144999999
 21
3482.055965
 31
0.0
  0
LINE
  5
7AC4
  8
1
  6
CONTINUOUS
 10
1943.5911450000001
 20
3562.055965
 30
0.0
 11
1943.5911450000001
 21
3517.055965
 31
0.0
  0
LINE
  5
7AC5
  8
1
  6
CONTINUOUS
 10
1918.591144999999
 20
3982.055965
 30
0.0
 11
1918.591144999999
 21
3984.055965
 31
0.0
  0
LINE
  5
7AC6
  8
1
  6
CONTINUOUS
 10
1943.5911450000001
 20
4027.055965
 30
0.0
 11
1943.5911450000001
 21
3982.055965
 31
0.0
  0
LINE
  5
7AC7
  8
2
  6
CENTER
 10
3244.2520089999998
 20
2648.103372
 30
0.0
 11
3244.2520089999998
 21
1544.0309750513261
 31
0.0
  0
LINE
  5
7AC8
  8
2
  6
CENTER
 10
2087.6073649999989
 20
3772.0559649999991
 30
0.0
 11
608.89025400000003
 21
3772.0559649999991
 31
0.0
  0
LINE
  5
7AC9
  8
2
  6
CENTER
 10
1598.5911450000001
 20
2649.6916322076881
 30
0.0
 11
1598.5911450000001
 21
1519.458501999999
 31
0.0
  0
LINE
  5
7ACA
  8
2
  6
CENTER
 10
2098.9104329999991
 20
2172.055965
 30
0.0
 11
868.51498000000015
 21
2172.055965
 31
0.0
  0
LINE
  5
7ACB
  8
4
  6
CONTINUOUS
 10
3700.0
 20
1000.0
 30
0.0
 11
3700.0
 21
600.0
 31
0.0
  0
LINE
  5
7ACC
  8
4
  6
CONTINUOUS
 10
2300.0
 20
1000.0
 30
0.0
 11
2300.0
 21
600.0
 31
0.0
  0
LINE
  5
7ACD
  8
4
  6
CONTINUOUS
 10
1300.0
 20
1000.0
 30
0.0
 11
1300.0
 21
600.0
 31
0.0
  0
LINE
  5
7AD0
  8
4
  6
CONTINUOUS
 10
1300.0
 20
600.0
 30
0.0
 11
3700.0
 21
600.0
 31
0.0
  0
LINE
  5
7AD1
  8
4
  6
CONTINUOUS
 10
1300.0
 20
800.0
 30
0.0
 11
3700.0
 21
800.0
 31
0.0
  0
TEXT
  5
7AD2
  8
4
  6
CONTINUOUS
 10
1377.004162
 20
863.086052
 30
0.0
 40
100.0
  1
機器名称
  0
TEXT
  5
7AD3
  8
4
  6
CONTINUOUS
 10
1372.516212
 20
643.29031299999986
 30
0.0
 40
100.0
  1
機器型番
  0
TEXT
  5
7AD4
  8
4
  6
CONTINUOUS
 10
2355.3574910000002
 20
845.14353800000015
 30
0.0
 40
100.0
  1
ミツヤ多翼送風機
  0
TEXT
  5
7AD5
  8
4
  6
CONTINUOUS
 10
2373.3089909999999
 20
634.31916899999999
 30
0.0
 40
100.0
  1
MF#3 1/2-4
  0
TEXT
  5
7AD7
  8
4
  6
CONTINUOUS
 10
1809.5715309999989
 20
4766.8576830000002
 30
0.0
 40
108.0
  1
床置ベット
  0
TEXT
  5
7AD8
  8
4
  6
CONTINUOUS
 10
632.33518700000002
 20
5067.7619520000007
 30
0.0
 40
144.0
  1
ベルト駆動式片吸込両持多翼ファン
  0
LINE
  5
7AD9
  8
4
  6
CONTINUOUS
 10
500.0
 20
4938.8175090000004
 30
0.0
 11
3700.0
 21
4938.8175090000004
 31
0.0
  0
LINE
  5
7ADA
  8
4
  6
CONTINUOUS
 10
500.0
 20
5338.8175090000004
 30
0.0
 11
3700.0
 21
5338.8175090000004
 31
0.0
  0
LINE
  5
7ADB
  8
4
  6
CONTINUOUS
 10
1300.0
 20
1000.0
 30
0.0
 11
3700.0
 21
1000.0
 31
0.0
  0
LINE
  5
7ADC
  8
4
  6
CONTINUOUS
 10
500.0
 20
5338.8175090000004
 30
0.0
 11
500.0
 21
4938.8175090000004
 31
0.0
  0
TEXT
  5
7ADD
  8
4
  6
CONTINUOUS
 10
937.85386600000004
 20
4764.6389549999994
 30
0.0
 40
108.0
  1
右回転上向
  0
TEXT
  5
7ADE
  8
4
  6
CONTINUOUS
 10
2937.9391179999998
 20
5412.122163
 30
0.0
 40
112.0
  1
No.
  0
TEXT
  5
7ADF
  8
4
  6
CONTINUOUS
 10
2622.5921250000001
 20
4766.8576830000002
 30
0.0
 40
108.0
  1
縮尺：1/20
  0
LINE
  5
7AE0
  8
4
  6
CONTINUOUS
 10
3700.0
 20
5338.8175090000004
 30
0.0
 11
3700.0
 21
4938.8175090000004
 31
0.0
  0
LINE
  5
7AE2
  8
4
  6
CONTINUOUS
 10
2881.234845
 20
5362.5271659999999
 30
0.0
 11
2881.234845
 21
5573.3045229999998
 31
0.0
  0
LINE
  5
7AE3
  8
4
  6
CONTINUOUS
 10
2881.234845
 20
5573.3045229999998
 30
0.0
 11
3700.0
 21
5573.3045229999998
 31
0.0
  0
LINE
  5
7AE4
  8
4
  6
CONTINUOUS
 10
3700.0
 20
5573.3045229999998
 30
0.0
 11
3700.0
 21
5362.5271659999999
 31
0.0
  0
LINE
  5
7AE5
  8
4
  6
CONTINUOUS
 10
3700.0
 20
5362.5271659999999
 30
0.0
 11
2881.234845
 21
5362.5271659999999
 31
0.0
  0
DIMENSION
  5
7B09
  8
3
  6
CONTINUOUS
  2
*D1
 10
1059.591144999999
 20
2727.2549100000001
 30
0.0
 11
1339.591144999999
 21
2777.2549100000001
 31
0.0
 70
     0
 13
1619.5911450000001
 23
2577.055965
 33
0.0
 14
1059.591144999999
 24
2577.055965
 34
0.0
1001
ACAD
1000
DSTYLE
1002
{
1070
   287
1070
     3
1070
    40
1040
20.0
1070
   143
1040
0.039
1070
   172
1070
     1
1070
   271
1070
     0
1070
   279
1070
     0
1070
   288
1070
     1
1002
}
  0
DIMENSION
  5
7B22
  8
3
  6
CONTINUOUS
  2
*D2
 10
1598.5911450000001
 20
2880.1327510000001
 30
0.0
 11
1340.974645
 21
2880.1327510000001
 31
0.0
 70
   128
 13
1059.591144999999
 23
2727.2549100000001
 33
0.0
 14
1598.5911450000001
 24
2649.6916322076881
 34
0.0
1001
ACAD
1000
DSTYLE
1002
{
1070
   287
1070
     3
1070
    40
1040
20.0
1070
   143
1040
0.039
1070
   172
1070
     1
1070
   271
1070
     0
1070
   279
1070
     0
1070
   288
1070
     1
1002
}
  0
DIMENSION
  5
7B2E
  8
3
  6
CONTINUOUS
  2
*D3
 10
2008.5911450000001
 20
2880.1327510000001
 30
0.0
 11
1803.5911450000001
 21
2930.1327510000001
 31
0.0
 70
     0
 13
1598.5911450000001
 23
2649.6916322076881
 33
0.0
 14
2008.5911450000001
 24
2532.055965
 34
0.0
1001
ACAD
1000
DSTYLE
1002
{
1070
   287
1070
     4
1070
    40
1040
20.0
1070
    75
1070
     1
1070
   143
1040
0.039
1070
   172
1070
     1
1070
   271
1070
     0
1070
   279
1070
     1
1070
   288
1070
     1
1002
}
  0
DIMENSION
  5
7B3B
  8
3
  6
CONTINUOUS
  2
*D4
 10
2184.3844119999999
 20
2172.055965
 30
0.0
 11
2184.384411999999
 21
2367.3058959999998
 31
0.0
 70
   128
 13
1646.5911450000001
 23
2577.055965
 33
0.0
 14
2098.9104329999991
 24
2172.055965
 34
0.0
 50
90.0
1001
ACAD
1000
DSTYLE
1002
{
1070
   287
1070
     3
1070
    40
1040
20.0
1070
   143
1040
0.039
1070
   172
1070
     1
1070
   271
1070
     0
1070
   279
1070
     0
1070
   288
1070
     1
1002
}
  0
DIMENSION
  5
7B47
  8
3
  6
CONTINUOUS
  2
*D5
 10
2184.384411999999
 20
1617.055965
 30
0.0
 11
2134.384411999999
 21
1894.555965
 31
0.0
 70
     0
 13
2098.9104329999991
 23
2172.055965
 33
0.0
 14
1943.5911450000001
 24
1617.055965
 34
0.0
 50
90.0
1001
ACAD
1000
DSTYLE
1002
{
1070
   287
1070
     4
1070
    40
1040
20.0
1070
    75
1070
     1
1070
   143
1040
0.039
1070
   172
1070
     1
1070
   271
1070
     0
1070
   279
1070
     1
1070
   288
1070
     1
1002
}
  0
DIMENSION
  5
7B54
  8
3
  6
CONTINUOUS
  2
*D6
 10
1598.5911450000001
 20
1407.801218999999
 30
0.0
 11
1164.739759
 21
1407.801218999999
 31
0.0
 70
   128
 13
693.59114499999987
 23
1617.055965
 33
0.0
 14
1598.5911450000001
 24
1519.458501999999
 34
0.0
1001
ACAD
1000
DSTYLE
1002
{
1070
   287
1070
     3
1070
    40
1040
20.0
1070
   143
1040
0.039
1070
   172
1070
     1
1070
   271
1070
     0
1070
   279
1070
     0
1070
   288
1070
     1
1002
}
  0
DIMENSION
  5
7B60
  8
3
  6
CONTINUOUS
  2
*D7
 10
1943.5911450000001
 20
1407.801218999999
 30
0.0
 11
1771.091144999999
 21
1457.8012189999999
 31
0.0
 70
     0
 13
1598.5911450000001
 23
1519.458501999999
 33
0.0
 14
1943.5911450000001
 24
1617.055965
 34
0.0
1001
ACAD
1000
DSTYLE
1002
{
1070
   287
1070
     4
1070
    40
1040
20.0
1070
    75
1070
     1
1070
   143
1040
0.039
1070
   172
1070
     1
1070
   271
1070
     0
1070
   279
1070
     1
1070
   288
1070
     1
1002
}
  0
DIMENSION
  5
7B6D
  8
3
  6
CONTINUOUS
  2
*D8
 10
2327.050729
 20
1617.055965
 30
0.0
 11
2327.050729
 21
2115.7767050000002
 31
0.0
 70
   128
 13
1656.591144999999
 23
2577.055965
 33
0.0
 14
1943.5911450000001
 24
1617.055965
 34
0.0
 50
90.0
1001
ACAD
1000
DSTYLE
1002
{
1070
   287
1070
     3
1070
    40
1040
20.0
1070
   143
1040
0.039
1070
   172
1070
     1
1070
   271
1070
     0
1070
   279
1070
     0
1070
   288
1070
     1
1002
}
  0
DIMENSION
  5
7B7A
  8
3
  6
CONTINUOUS
  2
*D9
 10
3034.2520089999989
 20
2661.7367850000001
 30
0.0
 11
3241.2358640000002
 21
2661.7367850000001
 31
0.0
 70
   128
 13
3454.2520089999998
 23
2577.055965
 33
0.0
 14
3034.2520089999989
 24
2577.055965
 34
0.0
1001
ACAD
1000
DSTYLE
1002
{
1070
   287
1070
     3
1070
    40
1040
20.0
1070
   143
1040
0.039
1070
   172
1070
     1
1070
   271
1070
     0
1070
   279
1070
     0
1070
   288
1070
     1
1002
}
  0
DIMENSION
  5
7B89
  8
3
  6
CONTINUOUS
  2
*D10
 10
3627.2741559999999
 20
1877.0559649999991
 30
0.0
 11
3627.2741559999999
 21
2149.3139209999999
 31
0.0
 70
   128
 13
3454.2520089999998
 23
2467.055965
 33
0.0
 14
3454.2520089999998
 24
1877.055965
 34
0.0
 50
90.0
1001
ACAD
1000
DSTYLE
1002
{
1070
   287
1070
     3
1070
     3
1000
φ<>
1070
    40
1040
20.0
1070
   143
1040
0.039
1070
   172
1070
     1
1070
   271
1070
     0
1070
   279
1070
     0
1070
   288
1070
     1
1002
}
  0
DIMENSION
  5
7B98
  8
3
  6
CONTINUOUS
  2
*D11
 10
3244.2520089999998
 20
2810.4413810000001
 30
0.0
 11
3350.2520089999998
 21
2872.8118528942591
 31
0.0
 70
   128
 13
3456.2520089999998
 23
2492.055965
 33
0.0
 14
3244.2520089999998
 24
2751.8418139999999
 34
0.0
1001
ACAD
1000
DSTYLE
1002
{
1070
   288
1070
     1
1070
   172
1070
     1
1070
    40
1040
20.0
1070
   271
1070
     0
1070
   143
1040
0.039
1002
}
  0
DIMENSION
  5
7BA4
  8
3
  6
CONTINUOUS
  2
*D12
 10
2834.2520089999998
 20
2810.4413810000001
 30
0.0
 11
3039.2520089999998
 21
2910.4413810000001
 31
0.0
 70
     0
  1
MAX\P470
 13
3244.2520089999998
 23
2751.8418139999999
 33
0.0
 14
2834.2520089999998
 24
2532.055965
 34
0.0
1001
ACAD
1000
DSTYLE
1002
{
1070
   287
1070
     4
1070
    40
1040
20.0
1070
    75
1070
     1
1070
   143
1040
0.039
1070
   172
1070
     1
1070
   271
1070
     0
1070
   279
1070
     1
1070
   288
1070
     1
1002
}
  0
DIMENSION
  5
7BB3
  8
3
  6
CONTINUOUS
  2
*D13
 10
3244.2520089999998
 20
1440.80691
 30
0.0
 11
3116.7520089999998
 21
1488.806124935666
 31
0.0
 70
   128
 13
2989.2520089999989
 23
1617.055965
 33
0.0
 14
3244.2520089999998
 24
1546.9907300254249
 34
0.0
1001
ACAD
1000
DSTYLE
1002
{
1070
   288
1070
     1
1070
   172
1070
     1
1070
    40
1040
20.0
1070
   271
1070
     0
1070
   143
1040
0.039
1002
}
  0
DIMENSION
  5
7BC1
  8
3
  6
CONTINUOUS
  2
*D14
 10
3499.2520089999998
 20
1440.80691
 30
0.0
 11
3376.527904999999
 21
1440.142977
 31
0.0
 70
   128
 13
3244.2520089999998
 23
1564.4914719618239
 33
0.0
 14
3499.2520089999998
 24
1617.055965
 34
0.0
1001
ACAD
1000
DSTYLE
1002
{
1070
   287
1070
     4
1070
    40
1040
20.0
1070
    75
1070
     1
1070
   143
1040
0.039
1070
   172
1070
     1
1070
   271
1070
     0
1070
   279
1070
     1
1070
   288
1070
     1
1002
}
  0
DIMENSION
  5
7BCE
  8
3
  6
CONTINUOUS
  2
*D15
 10
1943.5911450000001
 20
4192.0109119999988
 30
0.0
 11
1286.425735
 21
4192.0109119999988
 31
0.0
 70
   128
 13
693.59114499999987
 23
4027.055965
 33
0.0
 14
1943.5911450000001
 24
4027.055965
 34
0.0
1001
ACAD
1000
DSTYLE
1002
{
1070
   287
1070
     3
1070
    40
1040
20.0
1070
   143
1040
0.039
1070
   172
1070
     1
1070
   271
1070
     0
1070
   279
1070
     0
1070
   288
1070
     1
1002
}
  0
DIMENSION
  5
7BDB
  8
3
  6
CONTINUOUS
  2
*D16
 10
2213.7568649999998
 20
3517.055965
 30
0.0
 11
2213.7568649999998
 21
3782.5391370000002
 31
0.0
 70
   128
 13
1943.5911450000001
 23
4027.055965
 33
0.0
 14
1943.5911450000001
 24
3517.055965
 34
0.0
 50
90.0
1001
ACAD
1000
DSTYLE
1002
{
1070
   287
1070
     3
1070
    40
1040
20.0
1070
   143
1040
0.039
1070
   172
1070
     1
1070
   271
1070
     0
1070
   279
1070
     0
1070
   288
1070
     1
1002
}
  0
LINE
  5
7C94
  8
1
  6
CONTINUOUS
 10
3456.2520089999998
 20
1877.055965
 30
0.0
 11
3456.2520089999998
 21
2467.055965
 31
0.0
  0
LINE
  5
7C9B
  8
1
  6
CONTINUOUS
 10
3456.2520089999998
 20
2467.055965
 30
0.0
 11
3456.2520089999998
 21
2492.055965
 31
0.0
  0
LINE
  5
7C9C
  8
1
  6
CONTINUOUS
 10
3456.2520089999998
 20
2492.055965
 30
0.0
 11
3454.2520089999998
 21
2492.055965
 31
0.0
  0
LINE
  5
7C9D
  8
1
  6
CONTINUOUS
 10
3456.2520089999998
 20
1877.055965
 30
0.0
 11
3456.2520089999998
 21
1852.0559649999991
 31
0.0
  0
LINE
  5
7C9E
  8
1
  6
CONTINUOUS
 10
3456.2520089999998
 20
1852.0559649999991
 30
0.0
 11
3454.2520089999998
 21
1852.0559649999991
 31
0.0
  0
DIMENSION
  5
7D5F
  8
3
  2
*D17
 10
693.59114499999987
 20
3009.7249477839468
 30
0.0
 11
1436.0152099092909
 21
3009.7249477839468
 31
0.0
 70
   128
 13
2008.5911450000001
 23
2532.055965
 33
0.0
 14
693.59114499999976
 24
1697.0559649999991
 34
0.0
1001
ACAD
1000
DSTYLE
1002
{
1070
   287
1070
     3
1070
    40
1040
20.0
1070
   143
1040
0.039
1070
   172
1070
     1
1070
   271
1070
     0
1070
   279
1070
     0
1070
   288
1070
     1
1002
}
  0
ENDSEC
  0
EOF
