  0
SECTION
  2
HEADER
  9
$ACADVER
  1
AC1009
  9
$INSBASE
 10
0.0
 20
0.0
 30
0.0
  9
$EXTMIN
 10
500.0
 20
600.0
 30
0.0
  9
$EXTMAX
 10
3700.0
 20
5573.3045229999998
 30
0.0
  9
$LIMMIN
 10
0.0
 20
0.0
  9
$LIMMAX
 10
297.0
 20
210.0
  9
$ORTHOMODE
 70
     0
  9
$REGENMODE
 70
     1
  9
$FILLMODE
 70
     0
  9
$QTEXTMODE
 70
     0
  9
$MIRRTEXT
 70
     1
  9
$DRAGMODE
 70
     2
  9
$LTSCALE
 40
100.0
  9
$OSMODE
 70
    37
  9
$ATTMODE
 70
     1
  9
$TEXTSIZE
 40
180.0
  9
$TRACEWID
 40
0.05
  9
$TEXTSTYLE
  7
STANDARD
  9
$CLAYER
  8
3
  9
$CELTYPE
  6
BYLAYER
  9
$CECOLOR
 62
   256
  9
$DIMSCALE
 40
20.0
  9
$DIMASZ
 40
2.0
  9
$DIMEXO
 40
0.5
  9
$DIMDLI
 40
10.0
  9
$DIMRND
 40
0.0
  9
$DIMDLE
 40
0.0
  9
$DIMEXE
 40
1.0
  9
$DIMTP
 40
1.0
  9
$DIMTM
 40
1.0
  9
$DIMTXT
 40
3.0
  9
$DIMCEN
 40
0.0
  9
$DIMTSZ
 40
0.0
  9
$DIMTOL
 70
     0
  9
$DIMLIM
 70
     0
  9
$DIMTIH
 70
     0
  9
$DIMTOH
 70
     0
  9
$DIMSE1
 70
     0
  9
$DIMSE2
 70
     0
  9
$DIMTAD
 70
     1
  9
$DIMZIN
 70
     8
  9
$DIMBLK
  1

  9
$DIMASO
 70
     1
  9
$DIMSHO
 70
     1
  9
$DIMPOST
  1

  9
$DIMAPOST
  1

  9
$DIMALT
 70
     0
  9
$DIMALTD
 70
     2
  9
$DIMALTF
 40
0.039
  9
$DIMLFAC
 40
1.0
  9
$DIMTOFL
 70
     1
  9
$DIMTVP
 40
0.0
  9
$DIMTIX
 70
     0
  9
$DIMSOXD
 70
     0
  9
$DIMSAH
 70
     1
  9
$DIMBLK1
  1
OPEN
  9
$DIMBLK2
  1
OPEN
  9
$DIMSTYLE
  2
IGA
  9
$DIMCLRD
 70
     0
  9
$DIMCLRE
 70
     0
  9
$DIMCLRT
 70
     0
  9
$DIMTFAC
 40
10.0
  9
$DIMGAP
 40
1.0
  9
$LUNITS
 70
     2
  9
$LUPREC
 70
     3
  9
$SKETCHINC
 40
0.1
  9
$FILLETRAD
 40
50.0
  9
$AUNITS
 70
     0
  9
$AUPREC
 70
     0
  9
$MENU
  1
acad
  9
$ELEVATION
 40
0.0
  9
$PELEVATION
 40
0.0
  9
$THICKNESS
 40
0.0
  9
$LIMCHECK
 70
     0
  9
$BLIPMODE
 70
     0
  9
$CHAMFERA
 40
0.5
  9
$CHAMFERB
 40
0.5
  9
$SKPOLY
 70
     0
  9
$TDCREATE
 40
2450736.4929123842
  9
$TDUPDATE
 40
2454953.7696021409
  9
$TDINDWG
 40
0.045095463
  9
$TDUSRTIMER
 40
0.045095463
  9
$USRTIMER
 70
     1
  9
$ANGBASE
 50
0.0
  9
$ANGDIR
 70
     0
  9
$PDMODE
 70
     0
  9
$PDSIZE
 40
0.0
  9
$PLINEWID
 40
0.0
  9
$COORDS
 70
     1
  9
$SPLFRAME
 70
     0
  9
$SPLINETYPE
 70
     6
  9
$SPLINESEGS
 70
     8
  9
$ATTDIA
 70
     0
  9
$ATTREQ
 70
     1
  9
$HANDLING
 70
 10241
  9
$HANDSEED
  5
7E29
  9
$SURFTAB1
 70
     6
  9
$SURFTAB2
 70
     6
  9
$SURFTYPE
 70
     6
  9
$SURFU
 70
     6
  9
$SURFV
 70
     6
  9
$UCSNAME
  2

  9
$UCSORG
 10
0.0
 20
0.0
 30
0.0
  9
$UCSXDIR
 10
1.0
 20
0.0
 30
0.0
  9
$UCSYDIR
 10
0.0
 20
1.0
 30
0.0
  9
$PUCSNAME
  2

  9
$PUCSORG
 10
0.0
 20
0.0
 30
0.0
  9
$PUCSXDIR
 10
1.0
 20
0.0
 30
0.0
  9
$PUCSYDIR
 10
0.0
 20
1.0
 30
0.0
  9
$USERI1
 70
     0
  9
$USERI2
 70
     0
  9
$USERI3
 70
     0
  9
$USERI4
 70
     0
  9
$USERI5
 70
     0
  9
$USERR1
 40
0.0
  9
$USERR2
 40
0.0
  9
$USERR3
 40
0.0
  9
$USERR4
 40
0.0
  9
$USERR5
 40
0.0
  9
$WORLDVIEW
 70
     1
  9
$SHADEDGE
 70
     3
  9
$SHADEDIF
 70
    70
  9
$TILEMODE
 70
     1
  9
$MAXACTVP
 70
    16
  9
$PLIMCHECK
 70
     0
  9
$PEXTMIN
 10
1.0000000000000000E+020
 20
1.0000000000000000E+020
 30
1.0000000000000000E+020
  9
$PEXTMAX
 10
-1.0000000000000000E+020
 20
-1.0000000000000000E+020
 30
-1.0000000000000000E+020
  9
$PLIMMIN
 10
0.0
 20
0.0
  9
$PLIMMAX
 10
12.0
 20
9.0
  9
$UNITMODE
 70
     0
  9
$VISRETAIN
 70
     0
  9
$PLINEGEN
 70
     0
  9
$PSLTSCALE
 70
     1
  0
ENDSEC
  0
SECTION
  2
TABLES
  0
TABLE
  2
VPORT
 70
     2
  0
VPORT
  2
*ACTIVE
 70
     0
 10
0.0
 20
0.0
 11
1.0
 21
1.0
 12
6292.1124769529506
 22
3086.6374998146398
 13
0.0
 23
0.0
 14
10.0
 24
10.0
 15
10.0
 25
10.0
 16
0.0
 26
0.0
 36
1.0
 17
0.0
 27
0.0
 37
0.0
 40
5011.4968576296578
 41
3.1666666666666661
 42
50.0
 43
0.0
 44
0.0
 50
0.0
 51
0.0
 71
     0
 72
   100
 73
     1
 74
     0
 75
     0
 76
     0
 77
     0
 78
     0
  0
ENDTAB
  0
TABLE
  2
LTYPE
 70
     2
  0
LTYPE
  2
CONTINUOUS
 70
     0
  3
Solid line
 72
    65
 73
     0
 40
0.0
  0
LTYPE
  2
CENTER
 70
     0
  3
____ _ ____ _ ____ _ ____ _ ____ _ ____ _ ____ 
 72
    65
 73
     4
 40
2.0
 49
1.25
 49
-0.25
 49
0.25
 49
-0.25
  0
ENDTAB
  0
TABLE
  2
LAYER
 70
     6
  0
LAYER
  2
0
 70
     0
 62
     7
  6
CONTINUOUS
  0
LAYER
  2
3
 70
     0
 62
     2
  6
CONTINUOUS
  0
LAYER
  2
2
 70
     0
 62
     3
  6
CENTER
  0
LAYER
  2
1
 70
     0
 62
     4
  6
CONTINUOUS
  0
LAYER
  2
4
 70
     0
 62
     7
  6
CONTINUOUS
  0
LAYER
  2
DEFPOINTS
 70
     0
 62
     7
  6
CONTINUOUS
  0
ENDTAB
  0
TABLE
  2
STYLE
 70
     1
  0
STYLE
  2
STANDARD
 70
     0
 40
0.0
 41
1.0
 50
0.0
 71
     0
 42
180.0
  3
simplex.shx
  4
extfont.shx
  0
ENDTAB
  0
TABLE
  2
VIEW
 70
     0
  0
ENDTAB
  0
TABLE
  2
UCS
 70
     0
  0
ENDTAB
  0
TABLE
  2
APPID
 70
     1
  0
APPID
  2
ACAD
 70
     0
  0
ENDTAB
  0
TABLE
  2
DIMSTYLE
 70
     1
  0
DIMSTYLE
  2
IGA
 70
     0
  3

  4

  5

  6
OPEN
  7
OPEN
 40
2.0
 41
2.0
 42
0.5
 43
10.0
 44
1.0
 45
0.0
 46
0.0
 47
1.0
 48
1.0
140
3.0
141
0.0
142
0.0
143
0.03937
144
1.0
145
0.0
146
10.0
147
1.0
 71
     0
 72
     0
 73
     0
 74
     0
 75
     0
 76
     0
 77
     1
 78
     8
170
     0
171
     2
172
     0
173
     1
174
     0
175
     0
176
     0
177
     0
178
     0
  0
ENDTAB
  0
ENDSEC
  0
SECTION
  2
BLOCKS
  0
BLOCK
  8
0
  2
$MODEL_SPACE
 70
     0
 10
0.0
 20
0.0
 30
0.0
  3
$MODEL_SPACE
  1

  0
ENDBLK
  5
1B
  8
0
  0
BLOCK
 67
     1
  8
0
  2
$PAPER_SPACE
 70
     0
 10
0.0
 20
0.0
 30
0.0
  3
$PAPER_SPACE
  1

  0
ENDBLK
  5
18
 67
     1
  8
0
  0
BLOCK
  8
0
  2
_OPEN
 70
     0
 10
0.0
 20
0.0
 30
0.0
  3
_OPEN
  1

  0
LINE
  5
7ABF
  8
0
  6
BYBLOCK
 62
     0
 10
-1.0
 20
0.166667
 30
0.0
 11
0.0
 21
0.0
 31
0.0
  0
LINE
  5
7AC0
  8
0
  6
BYBLOCK
 62
     0
 10
0.0
 20
0.0
 30
0.0
 11
-1.0
 21
-0.166667
 31
0.0
  0
LINE
  5
7AC1
  8
0
  6
BYBLOCK
 62
     0
 10
0.0
 20
0.0
 30
0.0
 11
-1.0
 21
0.0
 31
0.0
  0
ENDBLK
  5
7AC2
  8
0
  0
BLOCK
  8
0
  2
*D1
 70
     1
 10
0.0
 20
0.0
 30
0.0
  3
*D1
  1

  0
LINE
  5
7D9F
  8
3
  6
CONTINUOUS
 62
     0
 10
2011.736969
 20
2608.1353840000002
 30
0.0
 11
2161.4355340000002
 21
2608.1353840000002
 31
0.0
  0
LINE
  5
7DA0
  8
3
  6
CONTINUOUS
 62
     0
 10
2011.736969
 20
2048.1353840000002
 30
0.0
 11
2161.4355340000002
 21
2048.1353840000002
 31
0.0
  0
LINE
  5
7DA1
  8
3
  6
CONTINUOUS
 62
     0
 10
2141.4355340000002
 20
2568.1353840000002
 30
0.0
 11
2141.4355340000002
 21
2088.1353840000002
 31
0.0
  0
INSERT
  5
7DA2
  8
3
  6
CONTINUOUS
 62
     0
  2
_OPEN
 10
2141.4355340000002
 20
2608.1353840000002
 30
0.0
 41
40.0
 42
40.0
 43
40.0
 50
90.0
  0
INSERT
  5
7DA3
  8
3
  6
CONTINUOUS
 62
     0
  2
_OPEN
 10
2141.4355340000002
 20
2048.1353840000002
 30
0.0
 41
40.0
 42
40.0
 43
40.0
 50
270.0
  0
TEXT
  8
3
  40
60
  5
7E1A
  62
0
  72
0
  71
0
 10
1971.44
 20
2225.67
 30
0.000000
  1
560
  0
POINT
  5
7DA5
  8
DEFPOINTS
  6
CONTINUOUS
 62
     0
 10
2001.736969
 20
2608.1353840000002
 30
0.0
  0
POINT
  5
7DA6
  8
DEFPOINTS
  6
CONTINUOUS
 62
     0
 10
2001.736969
 20
2048.1353840000002
 30
0.0
  0
POINT
  5
7DA7
  8
DEFPOINTS
  6
CONTINUOUS
 62
     0
 10
2141.4355340000002
 20
2048.1353840000002
 30
0.0
  0
ENDBLK
  5
7ACF
  8
0
  0
BLOCK
  8
0
  2
*D2
 70
     1
 10
0.0
 20
0.0
 30
0.0
  3
*D2
  1

  0
LINE
  5
7DA8
  8
3
  6
CONTINUOUS
 62
     0
 10
2011.736969
 20
2608.1353840000002
 30
0.0
 11
2293.025083
 21
2608.1353840000002
 31
0.0
  0
LINE
  5
7DA9
  8
3
  6
CONTINUOUS
 62
     0
 10
2110.5818020000002
 20
2069.1353840000002
 30
0.0
 11
2293.025083
 21
2069.1353840000002
 31
0.0
  0
LINE
  5
7DAA
  8
3
  6
CONTINUOUS
 62
     0
 10
2273.025083
 20
2568.1353840000002
 30
0.0
 11
2273.025083
 21
2109.1353840000002
 31
0.0
  0
INSERT
  5
7DAB
  8
3
  6
CONTINUOUS
 62
     0
  2
_OPEN
 10
2273.025083
 20
2608.1353840000002
 30
0.0
 41
40.0
 42
40.0
 43
40.0
 50
90.0
  0
INSERT
  5
7DAC
  8
3
  6
CONTINUOUS
 62
     0
  2
_OPEN
 10
2273.025083
 20
2069.1353840000002
 30
0.0
 41
40.0
 42
40.0
 43
40.0
 50
270.0
  0
TEXT
  8
3
  40
60
  5
7E1B
  62
0
  72
0
  71
0
 10
2103.03
 20
2233.18
 30
0.000000
  1
539
  0
POINT
  5
7DAE
  8
DEFPOINTS
  6
CONTINUOUS
 62
     0
 10
2001.736969
 20
2608.1353840000002
 30
0.0
  0
POINT
  5
7DAF
  8
DEFPOINTS
  6
CONTINUOUS
 62
     0
 10
2100.5818020000002
 20
2069.1353840000002
 30
0.0
  0
POINT
  5
7DB0
  8
DEFPOINTS
  6
CONTINUOUS
 62
     0
 10
2273.025083
 20
2069.1353840000002
 30
0.0
  0
ENDBLK
  5
7ADC
  8
0
  0
BLOCK
  8
0
  2
*D3
 70
     1
 10
0.0
 20
0.0
 30
0.0
  3
*D3
  1

  0
LINE
  5
7DB1
  8
3
  6
CONTINUOUS
 62
     0
 10
1951.736969
 20
1579.135383999999
 30
0.0
 11
2293.025083
 21
1579.135383999999
 31
0.0
  0
LINE
  5
7DB2
  8
3
  6
CONTINUOUS
 62
     0
 10
2273.0250829999991
 20
2029.1353839999999
 30
0.0
 11
2273.0250829999991
 21
1619.135383999999
 31
0.0
  0
INSERT
  5
7DB3
  8
3
  6
CONTINUOUS
 62
     0
  2
_OPEN
 10
2273.0250829999991
 20
2069.1353840000002
 30
0.0
 41
40.0
 42
40.0
 43
40.0
 50
90.0
  0
INSERT
  5
7DB4
  8
3
  6
CONTINUOUS
 62
     0
  2
_OPEN
 10
2273.0250829999991
 20
1579.135383999999
 30
0.0
 41
40.0
 42
40.0
 43
40.0
 50
270.0
  0
TEXT
  8
3
  40
60
  5
7E1C
  62
0
  72
0
  71
0
 10
2103.03
 20
1717.94
 30
0.000000
  1
490
  0
POINT
  5
7DB6
  8
DEFPOINTS
  6
CONTINUOUS
 62
     0
 10
2100.5818020000002
 20
2069.1353840000002
 30
0.0
  0
POINT
  5
7DB7
  8
DEFPOINTS
  6
CONTINUOUS
 62
     0
 10
1941.736969
 20
1579.135383999999
 30
0.0
  0
POINT
  5
7DB8
  8
DEFPOINTS
  6
CONTINUOUS
 62
     0
 10
2273.0250829999991
 20
1579.135383999999
 30
0.0
  0
ENDBLK
  5
7AE8
  8
0
  0
BLOCK
  8
0
  2
*D4
 70
     1
 10
0.0
 20
0.0
 30
0.0
  3
*D4
  1

  0
LINE
  5
7DB9
  8
3
  6
CONTINUOUS
 62
     0
 10
2011.736969
 20
2635.1353840000002
 30
0.0
 11
2454.6922500000001
 21
2635.1353840000002
 31
0.0
  0
LINE
  5
7DBA
  8
3
  6
CONTINUOUS
 62
     0
 10
1951.736969
 20
1579.135383999999
 30
0.0
 11
2454.6922500000001
 21
1579.135383999999
 31
0.0
  0
LINE
  5
7DBB
  8
3
  6
CONTINUOUS
 62
     0
 10
2434.6922500000001
 20
2595.1353840000002
 30
0.0
 11
2434.6922500000001
 21
1619.135383999999
 31
0.0
  0
INSERT
  5
7DBC
  8
3
  6
CONTINUOUS
 62
     0
  2
_OPEN
 10
2434.6922500000001
 20
2635.1353840000002
 30
0.0
 41
40.0
 42
40.0
 43
40.0
 50
90.0
  0
INSERT
  5
7DBD
  8
3
  6
CONTINUOUS
 62
     0
  2
_OPEN
 10
2434.6922500000001
 20
1579.135383999999
 30
0.0
 41
40.0
 42
40.0
 43
40.0
 50
270.0
  0
TEXT
  8
3
  40
60
  5
7E1D
  62
0
  72
0
  71
0
 10
2264.69
 20
1981.52
 30
0.000000
  1
1056
  0
POINT
  5
7DBF
  8
DEFPOINTS
  6
CONTINUOUS
 62
     0
 10
2001.736969
 20
2635.1353840000002
 30
0.0
  0
POINT
  5
7DC0
  8
DEFPOINTS
  6
CONTINUOUS
 62
     0
 10
1941.736969
 20
1579.135383999999
 30
0.0
  0
POINT
  5
7DC1
  8
DEFPOINTS
  6
CONTINUOUS
 62
     0
 10
2434.6922500000001
 20
1579.135383999999
 30
0.0
  0
ENDBLK
  5
7AF5
  8
0
  0
BLOCK
  8
0
  2
*D5
 70
     1
 10
0.0
 20
0.0
 30
0.0
  3
*D5
  1

  0
LINE
  5
7D46
  8
0
  6
BYBLOCK
 62
     0
 10
2959.6529919999998
 20
1569.135383999999
 30
0.0
 11
2959.6529919999998
 21
1392.304122
 31
0.0
  0
LINE
  5
7D47
  8
0
  6
BYBLOCK
 62
     0
 10
3214.6529919999998
 20
1452.8717604014089
 30
0.0
 11
3214.6529919999998
 21
1392.304122
 31
0.0
  0
LINE
  5
7D48
  8
0
  6
BYBLOCK
 62
     0
 10
2999.6529919999998
 20
1412.304122
 30
0.0
 11
3174.6529919999998
 21
1412.304122
 31
0.0
  0
TEXT
  5
7D49
  8
3
 62
     0
 10
3010.0101348571429
 20
1434.601981963038
 30
0.0
 40
60.0
  1
255
  0
INSERT
  5
7D4A
  8
0
  6
BYBLOCK
 62
     0
  2
_OPEN
 10
2959.6529919999998
 20
1412.304122
 30
0.0
 41
40.0
 42
40.0
 43
40.0
 50
180.0
  0
INSERT
  5
7D4B
  8
0
  6
BYBLOCK
 62
     0
  2
_OPEN
 10
3214.6529919999998
 20
1412.304122
 30
0.0
 41
40.0
 42
40.0
 43
40.0
  0
POINT
  5
7D4C
  8
DEFPOINTS
  6
BYBLOCK
 62
     0
 10
2959.6529919999998
 20
1579.135383999999
 30
0.0
  0
POINT
  5
7D4D
  8
DEFPOINTS
  6
BYBLOCK
 62
     0
 10
3214.6529919999998
 20
1462.8717604014089
 30
0.0
  0
POINT
  5
7D4E
  8
DEFPOINTS
  6
BYBLOCK
 62
     0
 10
3214.6529919999998
 20
1412.304122
 30
0.0
  0
ENDBLK
  5
7D4F
  8
0
  0
BLOCK
  8
0
  2
*D6
 70
     1
 10
0.0
 20
0.0
 30
0.0
  3
*D6
  1

  0
LINE
  5
7D3C
  8
0
  6
BYBLOCK
 62
     0
 10
3469.6529919999998
 20
1569.135383999999
 30
0.0
 11
3469.6529919999998
 21
1392.304122
 31
0.0
  0
LINE
  5
7D3D
  8
0
  6
BYBLOCK
 62
     0
 10
3254.6529919999998
 20
1412.304122
 30
0.0
 11
3429.6529919999998
 21
1412.304122
 31
0.0
  0
TEXT
  5
7D3E
  8
3
 62
     0
 10
3264.132008857142
 20
1430.737837338454
 30
0.0
 40
60.0
  1
255
  0
INSERT
  5
7D3F
  8
0
  6
BYBLOCK
 62
     0
  2
_OPEN
 10
3214.6529919999998
 20
1412.304122
 30
0.0
 41
40.0
 42
40.0
 43
40.0
 50
180.0
  0
INSERT
  5
7D40
  8
0
  6
BYBLOCK
 62
     0
  2
_OPEN
 10
3469.6529919999998
 20
1412.304122
 30
0.0
 41
40.0
 42
40.0
 43
40.0
  0
POINT
  5
7D41
  8
DEFPOINTS
  6
BYBLOCK
 62
     0
 10
3214.6529919999998
 20
1461.824757498279
 30
0.0
  0
POINT
  5
7D42
  8
DEFPOINTS
  6
BYBLOCK
 62
     0
 10
3469.6529919999998
 20
1579.135383999999
 30
0.0
  0
POINT
  5
7D43
  8
DEFPOINTS
  6
BYBLOCK
 62
     0
 10
3469.6529919999998
 20
1412.304122
 30
0.0
  0
ENDBLK
  5
7D44
  8
0
  0
BLOCK
  8
0
  2
*D7
 70
     1
 10
0.0
 20
0.0
 30
0.0
  3
*D7
  1

  0
LINE
  5
7CB1
  8
0
  6
BYBLOCK
 62
     0
 10
3426.6529919999998
 20
2399.1353840000002
 30
0.0
 11
3426.6529919999998
 21
2874.2585749999998
 31
0.0
  0
LINE
  5
7CB2
  8
0
  6
BYBLOCK
 62
     0
 10
3214.6529919999998
 20
2815.257623
 30
0.0
 11
3214.6529919999998
 21
2874.2585749999998
 31
0.0
  0
LINE
  5
7CB3
  8
0
  6
BYBLOCK
 62
     0
 10
3386.6529919999998
 20
2854.2585749999998
 30
0.0
 11
3254.6529919999998
 21
2854.2585749999998
 31
0.0
  0
TEXT
  5
7CB4
  8
3
 62
     0
 10
3249.2244205714278
 20
2883.6561559568472
 30
0.0
 40
60.0
  1
212
  0
INSERT
  5
7CB5
  8
0
  6
BYBLOCK
 62
     0
  2
_OPEN
 10
3426.6529919999998
 20
2854.2585749999998
 30
0.0
 41
40.0
 42
40.0
 43
40.0
  0
INSERT
  5
7CB6
  8
0
  6
BYBLOCK
 62
     0
  2
_OPEN
 10
3214.6529919999998
 20
2854.2585749999998
 30
0.0
 41
40.0
 42
40.0
 43
40.0
 50
180.0
  0
POINT
  5
7CB7
  8
DEFPOINTS
  6
BYBLOCK
 62
     0
 10
3426.6529919999998
 20
2389.1353840000002
 30
0.0
  0
POINT
  5
7CB8
  8
DEFPOINTS
  6
BYBLOCK
 62
     0
 10
3214.6529919999998
 20
2805.257623
 30
0.0
  0
POINT
  5
7CB9
  8
DEFPOINTS
  6
BYBLOCK
 62
     0
 10
3214.6529919999998
 20
2854.2585749999998
 30
0.0
  0
ENDBLK
  5
7CBA
  8
0
  0
BLOCK
  8
0
  2
*D8
 70
     1
 10
0.0
 20
0.0
 30
0.0
  3
*D8
  1

  0
LINE
  5
7DC2
  8
3
  6
CONTINUOUS
 62
     0
 10
2804.6529919999998
 20
2504.1353840000002
 30
0.0
 11
2804.6529919999998
 21
2874.2585749999998
 31
0.0
  0
LINE
  5
7DC3
  8
3
  6
CONTINUOUS
 62
     0
 10
3174.6529919999998
 20
2854.2585749999998
 30
0.0
 11
2844.6529919999998
 21
2854.2585749999998
 31
0.0
  0
INSERT
  5
7DC4
  8
3
  6
CONTINUOUS
 62
     0
  2
_OPEN
 10
3214.6529919999998
 20
2854.2585749999998
 30
0.0
 41
40.0
 42
40.0
 43
40.0
  0
INSERT
  5
7DC5
  8
3
  6
CONTINUOUS
 62
     0
  2
_OPEN
 10
2804.6529919999998
 20
2854.2585749999998
 30
0.0
 41
40.0
 42
40.0
 43
40.0
 50
180.0
  0
TEXT
  8
3
  40
60
  5
7E1E
  62
0
  72
0
  71
0
 10
2889.65
 20
2848.06
 30
0.000000
  1
MAX
  0
TEXT
  8
3
  40
60
  5
7E1F
  62
0
  72
0
  71
0
 10
2889.65
 20
2770.06
 30
0.000000
  1
470
  0
POINT
  5
7DC7
  8
DEFPOINTS
  6
CONTINUOUS
 62
     0
 10
3214.6529919999998
 20
2805.257623
 30
0.0
  0
POINT
  5
7DC8
  8
DEFPOINTS
  6
CONTINUOUS
 62
     0
 10
2804.6529919999998
 20
2494.1353840000002
 30
0.0
  0
POINT
  5
7DC9
  8
DEFPOINTS
  6
CONTINUOUS
 62
     0
 10
2804.6529919999998
 20
2854.2585749999998
 30
0.0
  0
ENDBLK
  5
7D59
  8
0
  0
BLOCK
  8
0
  2
*D9
 70
     1
 10
0.0
 20
0.0
 30
0.0
  3
*D9
  1

  0
LINE
  5
7DCA
  8
3
  6
CONTINUOUS
 62
     0
 10
3436.6529919999998
 20
2364.1353840000002
 30
0.0
 11
3653.751714
 21
2364.1353840000002
 31
0.0
  0
LINE
  5
7DCB
  8
3
  6
CONTINUOUS
 62
     0
 10
3436.6529919999998
 20
1774.1353839999999
 30
0.0
 11
3653.751714
 21
1774.1353839999999
 31
0.0
  0
LINE
  5
7DCC
  8
3
  6
CONTINUOUS
 62
     0
 10
3633.751714
 20
2324.1353840000002
 30
0.0
 11
3633.751714
 21
1814.135383999999
 31
0.0
  0
INSERT
  5
7DCD
  8
3
  6
CONTINUOUS
 62
     0
  2
_OPEN
 10
3633.751714
 20
2364.1353840000002
 30
0.0
 41
40.0
 42
40.0
 43
40.0
 50
90.0
  0
INSERT
  5
7DCE
  8
3
  6
CONTINUOUS
 62
     0
  2
_OPEN
 10
3633.751714
 20
1774.1353839999999
 30
0.0
 41
40.0
 42
40.0
 43
40.0
 50
270.0
  0
TEXT
  8
3
  40
60
  5
7E20
  62
0
  72
0
  71
0
 10
3463.75
 20
1974.00
 30
0.000000
  1
φ590
  0
POINT
  5
7DD0
  8
DEFPOINTS
  6
CONTINUOUS
 62
     0
 10
3426.6529919999998
 20
2364.1353840000002
 30
0.0
  0
POINT
  5
7DD1
  8
DEFPOINTS
  6
CONTINUOUS
 62
     0
 10
3426.6529919999998
 20
1774.1353839999999
 30
0.0
  0
POINT
  5
7DD2
  8
DEFPOINTS
  6
CONTINUOUS
 62
     0
 10
3633.751714
 20
1774.1353839999999
 30
0.0
  0
ENDBLK
  5
7CC5
  8
0
  0
BLOCK
  8
0
  2
*D10
 70
     1
 10
0.0
 20
0.0
 30
0.0
  3
*D10
  1

  0
LINE
  5
7DD3
  8
3
  6
CONTINUOUS
 62
     0
 10
691.73696900000004
 20
4069.9074509999991
 30
0.0
 11
691.73696900000004
 21
4231.4193369999994
 31
0.0
  0
LINE
  5
7DD4
  8
3
  6
CONTINUOUS
 62
     0
 10
1941.736969
 20
4069.9074509999991
 30
0.0
 11
1941.736969
 21
4231.4193369999994
 31
0.0
  0
LINE
  5
7DD5
  8
3
  6
CONTINUOUS
 62
     0
 10
731.73696900000004
 20
4211.4193369999994
 30
0.0
 11
1901.736969
 21
4211.4193369999994
 31
0.0
  0
INSERT
  5
7DD6
  8
3
  6
CONTINUOUS
 62
     0
  2
_OPEN
 10
691.73696900000004
 20
4211.4193369999994
 30
0.0
 41
40.0
 42
40.0
 43
40.0
 50
180.0
  0
INSERT
  5
7DD7
  8
3
  6
CONTINUOUS
 62
     0
  2
_OPEN
 10
1941.736969
 20
4211.4193369999994
 30
0.0
 41
40.0
 42
40.0
 43
40.0
  0
TEXT
  8
3
  40
60
  5
7E21
  62
0
  72
0
  71
0
 10
1208.97
 20
4155.22
 30
0.000000
  1
1250
  0
POINT
  5
7DD9
  8
DEFPOINTS
  6
CONTINUOUS
 62
     0
 10
691.73696900000004
 20
4059.9074509999991
 30
0.0
  0
POINT
  5
7DDA
  8
DEFPOINTS
  6
CONTINUOUS
 62
     0
 10
1941.736969
 20
4059.9074509999991
 30
0.0
  0
POINT
  5
7DDB
  8
DEFPOINTS
  6
CONTINUOUS
 62
     0
 10
1941.736969
 20
4211.4193369999994
 30
0.0
  0
ENDBLK
  5
7B72
  8
0
  0
BLOCK
  8
0
  2
*D11
 70
     1
 10
0.0
 20
0.0
 30
0.0
  3
*D11
  1

  0
LINE
  5
7DDC
  8
3
  6
CONTINUOUS
 62
     0
 10
1951.736969
 20
4059.9074509999991
 30
0.0
 11
2228.7378330000001
 21
4059.9074509999991
 31
0.0
  0
LINE
  5
7DDD
  8
3
  6
CONTINUOUS
 62
     0
 10
1951.736969
 20
3549.907451
 30
0.0
 11
2228.7378330000001
 21
3549.907451
 31
0.0
  0
LINE
  5
7DDE
  8
3
  6
CONTINUOUS
 62
     0
 10
2208.7378330000001
 20
4019.9074509999991
 30
0.0
 11
2208.7378330000001
 21
3589.907451
 31
0.0
  0
INSERT
  5
7DDF
  8
3
  6
CONTINUOUS
 62
     0
  2
_OPEN
 10
2208.7378330000001
 20
4059.9074509999991
 30
0.0
 41
40.0
 42
40.0
 43
40.0
 50
90.0
  0
INSERT
  5
7DE0
  8
3
  6
CONTINUOUS
 62
     0
  2
_OPEN
 10
2208.7378330000001
 20
3549.907451
 30
0.0
 41
40.0
 42
40.0
 43
40.0
 50
270.0
  0
TEXT
  8
3
  40
60
  5
7E22
  62
0
  72
0
  71
0
 10
2038.74
 20
3688.28
 30
0.000000
  1
510
  0
POINT
  5
7DE2
  8
DEFPOINTS
  6
CONTINUOUS
 62
     0
 10
1941.736969
 20
4059.9074509999991
 30
0.0
  0
POINT
  5
7DE3
  8
DEFPOINTS
  6
CONTINUOUS
 62
     0
 10
1941.736969
 20
3549.907451
 30
0.0
  0
POINT
  5
7DE4
  8
DEFPOINTS
  6
CONTINUOUS
 62
     0
 10
2208.7378330000001
 20
3549.907451
 30
0.0
  0
ENDBLK
  5
7B7F
  8
0
  0
BLOCK
  8
0
  2
*D12
 70
     1
 10
0.0
 20
0.0
 30
0.0
  3
*D12
  1

  0
LINE
  5
7DE5
  8
3
  6
CONTINUOUS
 62
     0
 10
691.73696900000004
 20
1569.135383999999
 30
0.0
 11
691.73696900000004
 21
1374.38993
 31
0.0
  0
LINE
  5
7DE6
  8
3
  6
CONTINUOUS
 62
     0
 10
1596.736969
 20
1432.783527442456
 30
0.0
 11
1596.736969
 21
1374.38993
 31
0.0
  0
LINE
  5
7DE7
  8
3
  6
CONTINUOUS
 62
     0
 10
731.73696900000004
 20
1394.3899299999989
 30
0.0
 11
1556.736969
 21
1394.3899299999989
 31
0.0
  0
INSERT
  5
7DE8
  8
3
  6
CONTINUOUS
 62
     0
  2
_OPEN
 10
691.73696900000004
 20
1394.3899299999989
 30
0.0
 41
40.0
 42
40.0
 43
40.0
 50
180.0
  0
INSERT
  5
7DE9
  8
3
  6
CONTINUOUS
 62
     0
  2
_OPEN
 10
1596.736969
 20
1394.3899299999989
 30
0.0
 41
40.0
 42
40.0
 43
40.0
  0
TEXT
  8
3
  40
60
  5
7E23
  62
0
  72
0
  71
0
 10
1017.70
 20
1338.19
 30
0.000000
  1
905
  0
POINT
  5
7DEB
  8
DEFPOINTS
  6
CONTINUOUS
 62
     0
 10
691.73696900000004
 20
1579.135383999999
 30
0.0
  0
POINT
  5
7DEC
  8
DEFPOINTS
  6
CONTINUOUS
 62
     0
 10
1596.736969
 20
1442.783527442456
 30
0.0
  0
POINT
  5
7DED
  8
DEFPOINTS
  6
CONTINUOUS
 62
     0
 10
1596.736969
 20
1394.3899299999989
 30
0.0
  0
ENDBLK
  5
7D6E
  8
0
  0
BLOCK
  8
0
  2
*D13
 70
     1
 10
0.0
 20
0.0
 30
0.0
  3
*D13
  1

  0
LINE
  5
7DEE
  8
3
  6
CONTINUOUS
 62
     0
 10
1941.736969
 20
1569.135383999999
 30
0.0
 11
1941.736969
 21
1374.38993
 31
0.0
  0
LINE
  5
7DEF
  8
3
  6
CONTINUOUS
 62
     0
 10
1636.736969
 20
1394.3899299999989
 30
0.0
 11
1901.736969
 21
1394.3899299999989
 31
0.0
  0
INSERT
  5
7DF0
  8
3
  6
CONTINUOUS
 62
     0
  2
_OPEN
 10
1596.736969
 20
1394.3899299999989
 30
0.0
 41
40.0
 42
40.0
 43
40.0
 50
180.0
  0
INSERT
  5
7DF1
  8
3
  6
CONTINUOUS
 62
     0
  2
_OPEN
 10
1941.736969
 20
1394.3899299999989
 30
0.0
 41
40.0
 42
40.0
 43
40.0
  0
TEXT
  8
3
  40
60
  5
7E24
  62
0
  72
0
  71
0
 10
1649.24
 20
1338.19
 30
0.000000
  1
345
  0
POINT
  5
7DF3
  8
DEFPOINTS
  6
CONTINUOUS
 62
     0
 10
1596.736969
 20
1448.8171039026979
 30
0.0
  0
POINT
  5
7DF4
  8
DEFPOINTS
  6
CONTINUOUS
 62
     0
 10
1941.736969
 20
1579.135383999999
 30
0.0
  0
POINT
  5
7DF5
  8
DEFPOINTS
  6
CONTINUOUS
 62
     0
 10
1941.736969
 20
1394.3899299999989
 30
0.0
  0
ENDBLK
  5
7D63
  8
0
  0
BLOCK
  8
0
  2
*D14
 70
     1
 10
0.0
 20
0.0
 30
0.0
  3
*D14
  1

  0
LINE
  5
7DF6
  8
3
  6
CONTINUOUS
 62
     0
 10
2001.736969
 20
2645.1353840000002
 30
0.0
 11
2001.736969
 21
2768.7656569999999
 31
0.0
  0
LINE
  5
7DF7
  8
3
  6
CONTINUOUS
 62
     0
 10
1596.736969
 20
2721.9327454377599
 30
0.0
 11
1596.736969
 21
2768.7656569999999
 31
0.0
  0
LINE
  5
7DF8
  8
3
  6
CONTINUOUS
 62
     0
 10
1961.736969
 20
2748.765656999999
 30
0.0
 11
1636.736969
 21
2748.765656999999
 31
0.0
  0
INSERT
  5
7DF9
  8
3
  6
CONTINUOUS
 62
     0
  2
_OPEN
 10
2001.736969
 20
2748.765656999999
 30
0.0
 41
40.0
 42
40.0
 43
40.0
  0
INSERT
  5
7DFA
  8
3
  6
CONTINUOUS
 62
     0
  2
_OPEN
 10
1596.736969
 20
2748.765656999999
 30
0.0
 41
40.0
 42
40.0
 43
40.0
 50
180.0
  0
TEXT
  8
3
  40
60
  5
7E25
  62
0
  72
0
  71
0
 10
1670.11
 20
2692.57
 30
0.000000
  1
405
  0
POINT
  5
7DFC
  8
DEFPOINTS
  6
CONTINUOUS
 62
     0
 10
2001.736969
 20
2635.1353840000002
 30
0.0
  0
POINT
  5
7DFD
  8
DEFPOINTS
  6
CONTINUOUS
 62
     0
 10
1596.736969
 20
2711.9327454377599
 30
0.0
  0
POINT
  5
7DFE
  8
DEFPOINTS
  6
CONTINUOUS
 62
     0
 10
1596.736969
 20
2748.765656999999
 30
0.0
  0
ENDBLK
  5
7CA4
  8
0
  0
BLOCK
  8
0
  2
*D15
 70
     1
 10
0.0
 20
0.0
 30
0.0
  3
*D15
  1

  0
LINE
  5
7DFF
  8
3
  6
CONTINUOUS
 62
     0
 10
1596.736969
 20
2739.4650569999999
 30
0.0
 11
1596.736969
 21
2728.7656569999999
 31
0.0
  0
LINE
  5
7E00
  8
3
  6
CONTINUOUS
 62
     0
 10
1121.736969
 20
2489.1353840000002
 30
0.0
 11
1121.736969
 21
2768.7656569999999
 31
0.0
  0
LINE
  5
7E01
  8
3
  6
CONTINUOUS
 62
     0
 10
1556.736969
 20
2748.765656999999
 30
0.0
 11
1161.736969
 21
2748.765656999999
 31
0.0
  0
INSERT
  5
7E02
  8
3
  6
CONTINUOUS
 62
     0
  2
_OPEN
 10
1596.736969
 20
2748.765656999999
 30
0.0
 41
40.0
 42
40.0
 43
40.0
  0
INSERT
  5
7E03
  8
3
  6
CONTINUOUS
 62
     0
  2
_OPEN
 10
1121.736969
 20
2748.765656999999
 30
0.0
 41
40.0
 42
40.0
 43
40.0
 50
180.0
  0
TEXT
  8
3
  40
60
  5
7E26
  62
0
  72
0
  71
0
 10
1239.24
 20
2692.57
 30
0.000000
  1
475
  0
POINT
  5
7E05
  8
DEFPOINTS
  6
CONTINUOUS
 62
     0
 10
1596.736969
 20
2749.4650569999999
 30
0.0
  0
POINT
  5
7E06
  8
DEFPOINTS
  6
CONTINUOUS
 62
     0
 10
1121.736969
 20
2479.1353840000002
 30
0.0
  0
POINT
  5
7E07
  8
DEFPOINTS
  6
CONTINUOUS
 62
     0
 10
1121.736969
 20
2748.765656999999
 30
0.0
  0
ENDBLK
  5
7C99
  8
0
  0
BLOCK
  8
0
  2
*D16
 70
     1
 10
0.0
 20
0.0
 30
0.0
  3
*D16
  1

  0
LINE
  5
7E08
  8
3
  6
CONTINUOUS
 62
     0
 10
3004.6529919999998
 20
2618.1353840000002
 30
0.0
 11
3004.6529919999998
 21
2734.6717760000001
 31
0.0
  0
LINE
  5
7E09
  8
3
  6
CONTINUOUS
 62
     0
 10
3424.6529919999998
 20
2618.1353840000002
 30
0.0
 11
3424.6529919999998
 21
2734.6717760000001
 31
0.0
  0
LINE
  5
7E0A
  8
3
  6
CONTINUOUS
 62
     0
 10
3044.6529919999998
 20
2714.6717760000001
 30
0.0
 11
3384.6529919999998
 21
2714.6717760000001
 31
0.0
  0
INSERT
  5
7E0B
  8
3
  6
CONTINUOUS
 62
     0
  2
_OPEN
 10
3004.6529919999998
 20
2714.6717760000001
 30
0.0
 41
40.0
 42
40.0
 43
40.0
 50
180.0
  0
INSERT
  5
7E0C
  8
3
  6
CONTINUOUS
 62
     0
  2
_OPEN
 10
3424.6529919999998
 20
2714.6717760000001
 30
0.0
 41
40.0
 42
40.0
 43
40.0
  0
TEXT
  8
3
  40
60
  5
7E27
  62
0
  72
0
  71
0
 10
3073.96
 20
2658.47
 30
0.000000
  1
420
  0
POINT
  5
7E0E
  8
DEFPOINTS
  6
CONTINUOUS
 62
     0
 10
3004.6529919999998
 20
2608.1353840000002
 30
0.0
  0
POINT
  5
7E0F
  8
DEFPOINTS
  6
CONTINUOUS
 62
     0
 10
3424.6529919999998
 20
2608.1353840000002
 30
0.0
  0
POINT
  5
7E10
  8
DEFPOINTS
  6
CONTINUOUS
 62
     0
 10
3424.6529919999998
 20
2714.6717760000001
 30
0.0
  0
ENDBLK
  5
7C5B
  8
0
  0
BLOCK
  8
0
  2
*D17
 70
     1
 10
0.0
 20
0.0
 30
0.0
  3
*D17
  1

  0
LINE
  5
7E11
  8
3
 62
     0
 10
2001.736969
 20
2645.1353840000002
 30
0.0
 11
2001.736969
 21
2902.7429989601751
 31
0.0
  0
LINE
  5
7E12
  8
3
 62
     0
 10
691.73696900000004
 20
1669.135383999999
 30
0.0
 11
691.73696900000004
 21
2902.7429989601751
 31
0.0
  0
LINE
  5
7E13
  8
3
 62
     0
 10
1961.736969
 20
2882.7429989601751
 30
0.0
 11
731.73696900000004
 21
2882.7429989601751
 31
0.0
  0
INSERT
  5
7E14
  8
3
 62
     0
  2
_OPEN
 10
2001.736969
 20
2882.7429989601751
 30
0.0
 41
40.0
 42
40.0
 43
40.0
  0
INSERT
  5
7E15
  8
3
 62
     0
  2
_OPEN
 10
691.73696900000004
 20
2882.7429989601751
 30
0.0
 41
40.0
 42
40.0
 43
40.0
 50
180.0
  0
TEXT
  8
3
  40
60
  5
7E28
  62
0
  72
0
  71
0
 10
1319.25
 20
2826.54
 30
0.000000
  1
1310
  0
POINT
  5
7E17
  8
DEFPOINTS
 62
     0
 10
2001.736969
 20
2635.1353840000002
 30
0.0
  0
POINT
  5
7E18
  8
DEFPOINTS
 62
     0
 10
691.73696900000004
 20
1659.1353839999999
 30
0.0
  0
POINT
  5
7E19
  8
DEFPOINTS
 62
     0
 10
691.73696900000004
 20
2882.7429989601751
 30
0.0
  0
ENDBLK
  5
7D7A
  8
0
  0
ENDSEC
  0
SECTION
  2
ENTITIES
  0
LINE
  5
7A5F
  8
1
  6
CONTINUOUS
 10
1597.236969
 20
2494.1353840000002
 30
0.0
 11
737.23696900000004
 21
1889.1353839999999
 31
0.0
  0
ARC
  5
7A60
  8
1
  6
CONTINUOUS
 10
896.73696899999993
 20
1841.1353839999999
 30
0.0
 40
142.0
 50
324.59875699999998
 51
215.40124299999999
  0
LINE
  5
7A61
  8
1
  6
CONTINUOUS
 10
1941.736969
 20
1579.135383999999
 30
0.0
 11
691.73696900000004
 21
1579.135383999999
 31
0.0
  0
LINE
  5
7A62
  8
1
  6
CONTINUOUS
 10
1956.7369689999989
 20
1659.1353839999999
 30
0.0
 11
691.73696900000004
 21
1659.1353839999999
 31
0.0
  0
LINE
  5
7A63
  8
1
  6
CONTINUOUS
 10
737.23696900000004
 20
1659.1353839999999
 30
0.0
 11
737.23696900000004
 21
1889.1353839999999
 31
0.0
  0
LINE
  5
7A64
  8
1
  6
CONTINUOUS
 10
766.73696900000004
 20
1724.1353839999999
 30
0.0
 11
780.99060599999984
 21
1758.8749469999991
 31
0.0
  0
LINE
  5
7A65
  8
1
  6
CONTINUOUS
 10
766.73696900000004
 20
1659.1353839999999
 30
0.0
 11
766.73696900000004
 21
1724.1353839999999
 31
0.0
  0
LINE
  5
7A66
  8
1
  6
CONTINUOUS
 10
691.73696900000004
 20
1659.1353839999999
 30
0.0
 11
691.73696900000004
 21
1579.135383999999
 31
0.0
  0
ARC
  5
7A67
  8
1
  6
CONTINUOUS
 10
1565.736969
 20
2100.1353840000002
 30
0.0
 40
433.10293799999999
 50
185.042451
 51
277.25319500000001
  0
LINE
  5
7A68
  8
1
  6
CONTINUOUS
 10
1956.7369689999989
 20
2479.1353840000002
 30
0.0
 11
1121.736969
 21
2479.1353840000002
 31
0.0
  0
ARC
  5
7A69
  8
1
  6
CONTINUOUS
 10
1633.736969
 20
2106.1353840000002
 30
0.0
 40
501.36713099999992
 50
94.232174000000001
 51
185.042451
  0
LINE
  5
7A6A
  8
1
  6
CONTINUOUS
 10
915.68572499999993
 20
1773.748851999999
 30
0.0
 11
1623.8066199999989
 21
1972.8689099999999
 31
0.0
  0
LINE
  5
7A6B
  8
1
  6
CONTINUOUS
 10
872.36369900000011
 20
1906.755073999999
 30
0.0
 11
1561.918011
 21
2162.8777979999991
 31
0.0
  0
CIRCLE
  5
7A6C
  8
1
  6
CONTINUOUS
 10
1596.736969
 20
2069.1353840000002
 30
0.0
 40
320.0
  0
CIRCLE
  5
7A6D
  8
1
  6
CONTINUOUS
 10
1596.736969
 20
2069.1353840000002
 30
0.0
 40
295.0
  0
LINE
  5
7A6E
  8
1
  6
CONTINUOUS
 10
1121.736969
 20
2479.1353840000002
 30
0.0
 11
1121.736969
 21
1659.1353839999999
 31
0.0
  0
LINE
  5
7A6F
  8
1
  6
CONTINUOUS
 10
1026.736969
 20
1724.1353839999999
 30
0.0
 11
1012.483332
 21
1758.8749469999991
 31
0.0
  0
LINE
  5
7A70
  8
1
  6
CONTINUOUS
 10
1026.736969
 20
1659.1353839999999
 30
0.0
 11
1026.736969
 21
1724.1353839999999
 31
0.0
  0
LINE
  5
7A71
  8
2
  6
CENTER
 10
826.73696900000004
 20
1841.1353839999999
 30
0.0
 11
966.73696899999993
 21
1841.1353839999999
 31
0.0
  0
CIRCLE
  5
7A72
  8
1
  6
CONTINUOUS
 10
896.73696899999993
 20
1841.1353839999999
 30
0.0
 40
70.0
  0
LINE
  5
7A73
  8
2
  6
CENTER
 10
896.73696899999993
 20
1771.1353839999999
 30
0.0
 11
896.73696899999993
 21
1911.135383999999
 31
0.0
  0
LINE
  5
7A74
  8
1
  6
CONTINUOUS
 10
1976.736969
 20
2048.1353840000002
 30
0.0
 11
1976.736969
 21
2608.011927
 31
0.0
  0
LINE
  5
7A75
  8
1
  6
CONTINUOUS
 10
2001.736969
 20
2021.1353839999999
 30
0.0
 11
2001.736969
 21
2635.1353840000002
 31
0.0
  0
LINE
  5
7A76
  8
1
  6
CONTINUOUS
 10
1956.7369689999989
 20
2479.1353840000002
 30
0.0
 11
1956.7369689999989
 21
1659.1353839999999
 31
0.0
  0
LINE
  5
7A77
  8
1
  6
CONTINUOUS
 10
1867.236969
 20
1659.1353839999999
 30
0.0
 11
1867.236969
 21
2409.1353840000002
 31
0.0
  0
ARC
  5
7A78
  8
1
  6
CONTINUOUS
 10
1572.736969
 20
2045.135383999999
 30
0.0
 40
377.65927299999993
 50
277.25319500000001
 51
0.455143
  0
LINE
  5
7A79
  8
2
  6
CENTER
 10
3480.7447429999988
 20
2069.1353840000002
 30
0.0
 11
2723.558509
 21
2069.1353840000002
 31
0.0
  0
CIRCLE
  5
7A7A
  8
1
  6
CONTINUOUS
 10
1596.736969
 20
2069.1353840000002
 30
0.0
 40
100.0
  0
LINE
  5
7A7B
  8
2
  6
CENTER
 10
1596.736969
 20
4149.1258369999987
 30
0.0
 11
1596.736969
 21
3319.9196589999988
 31
0.0
  0
LINE
  5
7A7C
  8
1
  6
CONTINUOUS
 10
1941.736969
 20
1659.1353839999999
 30
0.0
 11
1941.736969
 21
1579.135383999999
 31
0.0
  0
LINE
  5
7A7D
  8
1
  6
CONTINUOUS
 10
1950.3843260000001
 20
2048.1353840000002
 30
0.0
 11
2001.736969
 21
2048.1353840000002
 31
0.0
  0
LINE
  5
7A7E
  8
1
  6
CONTINUOUS
 10
1867.236969
 20
2409.1353840000002
 30
0.0
 11
1597.236969
 21
2494.1353840000002
 31
0.0
  0
LINE
  5
7A7F
  8
1
  6
CONTINUOUS
 10
2001.736969
 20
2608.1353840000002
 30
0.0
 11
1596.736969
 21
2606.1353840000002
 31
0.0
  0
LINE
  5
7A80
  8
1
  6
CONTINUOUS
 10
3004.6529919999998
 20
2048.1353840000002
 30
0.0
 11
3424.6529919999998
 21
2608.1353840000002
 31
0.0
  0
LINE
  5
7A81
  8
1
  6
CONTINUOUS
 10
3004.6529919999998
 20
2608.1353840000002
 30
0.0
 11
3424.6529919999998
 21
2048.1353840000002
 31
0.0
  0
LINE
  5
7A82
  8
1
  6
CONTINUOUS
 10
3004.6529919999998
 20
2048.1353840000002
 30
0.0
 11
3424.6529919999998
 21
2048.1353840000002
 31
0.0
  0
LINE
  5
7A83
  8
1
  6
CONTINUOUS
 10
3004.6529919999998
 20
2608.1353840000002
 30
0.0
 11
3424.6529919999998
 21
2608.1353840000002
 31
0.0
  0
LINE
  5
7A84
  8
1
  6
CONTINUOUS
 10
2804.6529919999998
 20
1659.1353839999999
 30
0.0
 11
3469.6529919999998
 21
1659.1353839999999
 31
0.0
  0
LINE
  5
7A85
  8
1
  6
CONTINUOUS
 10
2959.6529919999998
 20
1579.135383999999
 30
0.0
 11
3469.6529919999998
 21
1579.135383999999
 31
0.0
  0
LINE
  5
7A86
  8
1
  6
CONTINUOUS
 10
3004.6529919999998
 20
1659.1353839999999
 30
0.0
 11
3004.6529919999998
 21
2608.1353840000002
 31
0.0
  0
LINE
  5
7A87
  8
1
  6
CONTINUOUS
 10
2924.6529919999998
 20
1659.1353839999999
 30
0.0
 11
2924.6529919999998
 21
2494.1353840000002
 31
0.0
  0
LINE
  5
7A88
  8
1
  6
CONTINUOUS
 10
2804.6529919999998
 20
1659.1353839999999
 30
0.0
 11
2804.6529919999998
 21
2494.1353840000002
 31
0.0
  0
LINE
  5
7A89
  8
1
  6
CONTINUOUS
 10
2834.6529919999998
 20
1771.1353839999999
 30
0.0
 11
2894.6529919999998
 21
1771.1353839999999
 31
0.0
  0
LINE
  5
7A8A
  8
1
  6
CONTINUOUS
 10
2834.6529919999998
 20
1911.135383999999
 30
0.0
 11
2894.6529919999998
 21
1911.135383999999
 31
0.0
  0
LINE
  5
7A8B
  8
1
  6
CONTINUOUS
 10
2834.6529919999998
 20
1969.1353839999999
 30
0.0
 11
2894.6529919999998
 21
1969.1353839999999
 31
0.0
  0
LINE
  5
7A8C
  8
1
  6
CONTINUOUS
 10
2834.6529919999998
 20
2169.1353840000002
 30
0.0
 11
2894.6529919999998
 21
2169.1353840000002
 31
0.0
  0
LINE
  5
7A8D
  8
1
  6
CONTINUOUS
 10
2834.6529919999998
 20
1911.135383999999
 30
0.0
 11
2834.6529919999998
 21
1771.1353839999999
 31
0.0
  0
LINE
  5
7A8E
  8
1
  6
CONTINUOUS
 10
2834.6529919999998
 20
2169.1353840000002
 30
0.0
 11
2834.6529919999998
 21
1969.1353839999999
 31
0.0
  0
LINE
  5
7A8F
  8
1
  6
CONTINUOUS
 10
2959.6529919999998
 20
1579.135383999999
 30
0.0
 11
2959.6529919999998
 21
1659.1353839999999
 31
0.0
  0
LINE
  5
7A90
  8
1
  6
CONTINUOUS
 10
3004.6529919999998
 20
2053.1353840000002
 30
0.0
 11
2894.6529919999998
 21
2053.1353840000002
 31
0.0
  0
LINE
  5
7A91
  8
1
  6
CONTINUOUS
 10
3004.6529919999998
 20
2085.1353840000002
 30
0.0
 11
2894.6529919999998
 21
2085.1353840000002
 31
0.0
  0
LINE
  5
7A92
  8
1
  6
CONTINUOUS
 10
2894.6529919999998
 20
1825.1353839999999
 30
0.0
 11
3004.6529919999998
 21
1825.1353839999999
 31
0.0
  0
LINE
  5
7A93
  8
1
  6
CONTINUOUS
 10
2894.6529919999998
 20
1857.1353839999999
 30
0.0
 11
3004.6529919999998
 21
1857.1353839999999
 31
0.0
  0
LINE
  5
7A94
  8
1
  6
CONTINUOUS
 10
2894.6529919999998
 20
1911.135383999999
 30
0.0
 11
2894.6529919999998
 21
1771.1353839999999
 31
0.0
  0
LINE
  5
7A95
  8
1
  6
CONTINUOUS
 10
2894.6529919999998
 20
2169.1353840000002
 30
0.0
 11
2894.6529919999998
 21
1969.1353839999999
 31
0.0
  0
LINE
  5
7A96
  8
1
  6
CONTINUOUS
 10
2804.6529919999998
 20
2494.1353840000002
 30
0.0
 11
2924.6529919999998
 21
2494.1353840000002
 31
0.0
  0
LINE
  5
7A97
  8
1
  6
CONTINUOUS
 10
3424.6529919999998
 20
1659.1353839999999
 30
0.0
 11
3424.6529919999998
 21
2608.1353840000002
 31
0.0
  0
LINE
  5
7A98
  8
1
  6
CONTINUOUS
 10
3426.6529919999998
 20
1749.135383999999
 30
0.0
 11
3426.6529919999998
 21
2389.1353840000002
 31
0.0
  0
LINE
  5
7A99
  8
1
  6
CONTINUOUS
 10
3424.6529919999998
 20
1749.135383999999
 30
0.0
 11
3426.6529919999998
 21
1749.135383999999
 31
0.0
  0
LINE
  5
7A9A
  8
1
  6
CONTINUOUS
 10
3469.6529919999998
 20
1579.135383999999
 30
0.0
 11
3469.6529919999998
 21
1659.1353839999999
 31
0.0
  0
LINE
  5
7A9B
  8
1
  6
CONTINUOUS
 10
3424.6529919999998
 20
2389.1353840000002
 30
0.0
 11
3426.6529919999998
 21
2389.1353840000002
 31
0.0
  0
LINE
  5
7A9C
  8
1
  6
CONTINUOUS
 10
877.73696899999982
 20
3549.907451
 30
0.0
 11
691.73696900000004
 21
3549.907451
 31
0.0
  0
LINE
  5
7A9D
  8
1
  6
CONTINUOUS
 10
1867.236969
 20
3514.907451
 30
0.0
 11
737.23696900000004
 21
3514.907451
 31
0.0
  0
LINE
  5
7A9E
  8
1
  6
CONTINUOUS
 10
1867.236969
 20
3394.9074509999991
 30
0.0
 11
737.23696900000004
 21
3394.9074509999991
 31
0.0
  0
LINE
  5
7A9F
  8
1
  6
CONTINUOUS
 10
1941.736969
 20
4059.9074509999991
 30
0.0
 11
691.73696900000004
 21
4059.9074509999991
 31
0.0
  0
LINE
  5
7AA0
  8
1
  6
CONTINUOUS
 10
691.73696900000004
 20
4059.9074509999991
 30
0.0
 11
691.73696900000004
 21
3549.907451
 31
0.0
  0
LINE
  5
7AA1
  8
1
  6
CONTINUOUS
 10
737.23696900000004
 20
3394.9074509999991
 30
0.0
 11
737.23696900000004
 21
3514.907451
 31
0.0
  0
LINE
  5
7AA2
  8
1
  6
CONTINUOUS
 10
1276.736969
 20
4016.9074509999991
 30
0.0
 11
1916.736969
 21
4016.9074509999991
 31
0.0
  0
LINE
  5
7AA3
  8
1
  6
CONTINUOUS
 10
1580.736969
 20
3549.907451
 30
0.0
 11
915.73696899999993
 21
3549.907451
 31
0.0
  0
LINE
  5
7AA4
  8
1
  6
CONTINUOUS
 10
1121.736969
 20
4014.907451
 30
0.0
 11
2001.736969
 21
4014.907451
 31
0.0
  0
LINE
  5
7AA5
  8
1
  6
CONTINUOUS
 10
1121.736969
 20
3594.9074509999991
 30
0.0
 11
2001.736969
 21
3594.9074509999991
 31
0.0
  0
LINE
  5
7AA6
  8
1
  6
CONTINUOUS
 10
826.73696900000004
 20
3424.907451
 30
0.0
 11
966.73696899999993
 21
3424.907451
 31
0.0
  0
LINE
  5
7AA7
  8
1
  6
CONTINUOUS
 10
826.73696900000004
 20
3484.9074509999991
 30
0.0
 11
966.73696899999993
 21
3484.9074509999991
 31
0.0
  0
LINE
  5
7AA8
  8
1
  6
CONTINUOUS
 10
826.73696900000004
 20
3424.907451
 30
0.0
 11
826.73696900000004
 21
3484.9074509999991
 31
0.0
  0
LINE
  5
7AA9
  8
1
  6
CONTINUOUS
 10
966.73696899999993
 20
3424.907451
 30
0.0
 11
966.73696899999993
 21
3484.9074509999991
 31
0.0
  0
LINE
  5
7AAA
  8
1
  6
CONTINUOUS
 10
1121.736969
 20
3594.9074509999991
 30
0.0
 11
1121.736969
 21
4014.907451
 31
0.0
  0
LINE
  5
7AAB
  8
1
  6
CONTINUOUS
 10
1276.736969
 20
4014.907451
 30
0.0
 11
1276.736969
 21
4016.9074509999991
 31
0.0
  0
LINE
  5
7AAC
  8
1
  6
CONTINUOUS
 10
1941.736969
 20
3549.907451
 30
0.0
 11
1612.736969
 21
3549.907451
 31
0.0
  0
LINE
  5
7AAD
  8
1
  6
CONTINUOUS
 10
1496.736969
 20
3484.9074509999991
 30
0.0
 11
1696.736969
 21
3484.9074509999991
 31
0.0
  0
LINE
  5
7AAE
  8
1
  6
CONTINUOUS
 10
1496.736969
 20
3424.907451
 30
0.0
 11
1696.736969
 21
3424.907451
 31
0.0
  0
LINE
  5
7AAF
  8
1
  6
CONTINUOUS
 10
1496.736969
 20
3424.907451
 30
0.0
 11
1496.736969
 21
3484.9074509999991
 31
0.0
  0
LINE
  5
7AB0
  8
1
  6
CONTINUOUS
 10
1696.736969
 20
3424.907451
 30
0.0
 11
1696.736969
 21
3484.9074509999991
 31
0.0
  0
LINE
  5
7AB1
  8
1
  6
CONTINUOUS
 10
1612.736969
 20
3594.9074509999991
 30
0.0
 11
1612.736969
 21
3484.9074509999991
 31
0.0
  0
LINE
  5
7AB2
  8
1
  6
CONTINUOUS
 10
1580.736969
 20
3594.9074509999991
 30
0.0
 11
1580.736969
 21
3484.9074509999991
 31
0.0
  0
LINE
  5
7AB3
  8
1
  6
CONTINUOUS
 10
1976.736969
 20
4014.907451
 30
0.0
 11
1976.736969
 21
3594.9074509999991
 31
0.0
  0
LINE
  5
7AB4
  8
1
  6
CONTINUOUS
 10
2001.736969
 20
4041.9074509999991
 30
0.0
 11
2001.736969
 21
3567.9074509999991
 31
0.0
  0
LINE
  5
7AB5
  8
1
  6
CONTINUOUS
 10
1867.236969
 20
3394.9074509999991
 30
0.0
 11
1867.236969
 21
3514.907451
 31
0.0
  0
LINE
  5
7AB6
  8
1
  6
CONTINUOUS
 10
1941.736969
 20
3594.9074509999991
 30
0.0
 11
1941.736969
 21
3549.907451
 31
0.0
  0
LINE
  5
7AB7
  8
1
  6
CONTINUOUS
 10
1916.736969
 20
4014.907451
 30
0.0
 11
1916.736969
 21
4016.9074509999991
 31
0.0
  0
LINE
  5
7AB8
  8
1
  6
CONTINUOUS
 10
1941.736969
 20
4059.9074509999991
 30
0.0
 11
1941.736969
 21
4014.907451
 31
0.0
  0
LINE
  5
7AB9
  8
2
  6
CENTER
 10
3214.6529919999998
 20
2680.6995649999999
 30
0.0
 11
3214.6529919999998
 21
1460.7777545951501
 31
0.0
  0
LINE
  5
7ABA
  8
2
  6
CENTER
 10
608.72010699999987
 20
3804.907451
 30
0.0
 11
2111.0878769999999
 21
3804.907451
 31
0.0
  0
LINE
  5
7ABB
  8
2
  6
CENTER
 10
1596.736969
 20
2715.1385323627528
 30
0.0
 11
1596.736969
 21
1454.8506683179021
 31
0.0
  0
LINE
  5
7ABC
  8
2
  6
CENTER
 10
2100.5818020000002
 20
2069.1353840000002
 30
0.0
 11
897.82194031868505
 21
2069.1353840000002
 31
0.0
  0
DIMENSION
  5
7AD0
  8
3
  6
CONTINUOUS
  2
*D1
 10
2141.4355340000002
 20
2048.1353840000002
 30
0.0
 11
2141.4355340000002
 21
2331.8695659999989
 31
0.0
 70
   128
 13
2001.736969
 23
2608.1353840000002
 33
0.0
 14
2001.736969
 24
2048.1353840000002
 34
0.0
 50
90.0
1001
ACAD
1000
DSTYLE
1002
{
1070
   287
1070
     3
1070
    40
1040
20.0
1070
   143
1040
0.039
1070
   172
1070
     1
1070
   271
1070
     0
1070
   279
1070
     0
1070
   288
1070
     1
1002
}
  0
DIMENSION
  5
7ADD
  8
3
  6
CONTINUOUS
  2
*D2
 10
2273.025083
 20
2069.1353840000002
 30
0.0
 11
2273.0250829999991
 21
2339.3819600000002
 31
0.0
 70
   128
 13
2001.736969
 23
2608.1353840000002
 33
0.0
 14
2100.5818020000002
 24
2069.1353840000002
 34
0.0
 50
90.0
1001
ACAD
1000
DSTYLE
1002
{
1070
   287
1070
     3
1070
    40
1040
20.0
1070
   143
1040
0.039
1070
   172
1070
     1
1070
   271
1070
     0
1070
   279
1070
     0
1070
   288
1070
     1
1002
}
  0
DIMENSION
  5
7AE9
  8
3
  6
CONTINUOUS
  2
*D3
 10
2273.0250829999991
 20
1579.135383999999
 30
0.0
 11
2223.0250829999991
 21
1824.1353839999999
 31
0.0
 70
     0
 13
2100.5818020000002
 23
2069.1353840000002
 33
0.0
 14
1941.736969
 24
1579.135383999999
 34
0.0
 50
90.0
1001
ACAD
1000
DSTYLE
1002
{
1070
   287
1070
     4
1070
    40
1040
20.0
1070
    75
1070
     1
1070
   143
1040
0.039
1070
   172
1070
     1
1070
   271
1070
     0
1070
   279
1070
     1
1070
   288
1070
     1
1002
}
  0
DIMENSION
  5
7AF6
  8
3
  6
CONTINUOUS
  2
*D4
 10
2434.6922500000001
 20
1579.135383999999
 30
0.0
 11
2434.6922500000001
 21
2087.716629
 31
0.0
 70
   128
 13
2001.736969
 23
2635.1353840000002
 33
0.0
 14
1941.736969
 24
1579.135383999999
 34
0.0
 50
90.0
1001
ACAD
1000
DSTYLE
1002
{
1070
   287
1070
     3
1070
    40
1040
20.0
1070
   143
1040
0.039
1070
   172
1070
     1
1070
   271
1070
     0
1070
   279
1070
     0
1070
   288
1070
     1
1002
}
  0
DIMENSION
  5
7B05
  8
3
  6
CONTINUOUS
  2
*D5
 10
3214.6529919999998
 20
1412.304122
 30
0.0
 11
3087.1529919999998
 21
1464.601981963038
 31
0.0
 70
   128
 13
2959.6529919999998
 23
1579.135383999999
 33
0.0
 14
3214.6529919999998
 24
1462.8717604014089
 34
0.0
1001
ACAD
1000
DSTYLE
1002
{
1070
   288
1070
     1
1070
   172
1070
     1
1070
    40
1040
20.0
1070
   271
1070
     0
1070
   143
1040
0.039
1002
}
  0
DIMENSION
  5
7B13
  8
3
  6
CONTINUOUS
  2
*D6
 10
3469.6529919999998
 20
1412.304122
 30
0.0
 11
3341.2748660000002
 21
1460.737837338454
 31
0.0
 70
   128
 13
3214.6529919999998
 23
1461.824757498279
 33
0.0
 14
3469.6529919999998
 24
1579.135383999999
 34
0.0
1001
ACAD
1000
DSTYLE
1002
{
1070
   288
1070
     1
1070
   172
1070
     1
1070
    75
1070
     1
1070
    40
1040
20.0
1070
   271
1070
     0
1070
   143
1040
0.039
1002
}
  0
DIMENSION
  5
7B4B
  8
3
  6
CONTINUOUS
  2
*D7
 10
3214.6529919999998
 20
2854.2585749999998
 30
0.0
 11
3320.6529919999998
 21
2913.6561559568472
 31
0.0
 70
   128
 13
3426.6529919999998
 23
2389.1353840000002
 33
0.0
 14
3214.6529919999998
 24
2805.257623
 34
0.0
1001
ACAD
1000
DSTYLE
1002
{
1070
   288
1070
     1
1070
   172
1070
     1
1070
    40
1040
20.0
1070
   271
1070
     0
1070
   143
1040
0.039
1002
}
  0
DIMENSION
  5
7B57
  8
3
  6
CONTINUOUS
  2
*D8
 10
2804.6529919999998
 20
2854.2585749999998
 30
0.0
 11
3009.6529919999998
 21
2954.2585749999998
 31
0.0
 70
     0
  1
MAX\P470
 13
3214.6529919999998
 23
2805.257623
 33
0.0
 14
2804.6529919999998
 24
2494.1353840000002
 34
0.0
1001
ACAD
1000
DSTYLE
1002
{
1070
   287
1070
     4
1070
    40
1040
20.0
1070
    75
1070
     1
1070
   143
1040
0.039
1070
   172
1070
     1
1070
   271
1070
     0
1070
   279
1070
     1
1070
   288
1070
     1
1002
}
  0
DIMENSION
  5
7B66
  8
3
  6
CONTINUOUS
  2
*D9
 10
3633.751714
 20
1774.1353839999999
 30
0.0
 11
3633.751714
 21
2080.2042350000002
 31
0.0
 70
   128
 13
3426.6529919999998
 23
2364.1353840000002
 33
0.0
 14
3426.6529919999998
 24
1774.1353839999999
 34
0.0
 50
90.0
1001
ACAD
1000
DSTYLE
1002
{
1070
   287
1070
     3
1070
     3
1000
φ<>
1070
    40
1040
20.0
1070
   143
1040
0.039
1070
   172
1070
     1
1070
   271
1070
     0
1070
   279
1070
     0
1070
   288
1070
     1
1002
}
  0
DIMENSION
  5
7B73
  8
3
  6
CONTINUOUS
  2
*D10
 10
1941.736969
 20
4211.4193369999994
 30
0.0
 11
1328.967688
 21
4211.4193369999994
 31
0.0
 70
   128
 13
691.73696900000004
 23
4059.9074509999991
 33
0.0
 14
1941.736969
 24
4059.9074509999991
 34
0.0
1001
ACAD
1000
DSTYLE
1002
{
1070
   287
1070
     3
1070
    40
1040
20.0
1070
   143
1040
0.039
1070
   172
1070
     1
1070
   271
1070
     0
1070
   279
1070
     0
1070
   288
1070
     1
1002
}
  0
DIMENSION
  5
7B80
  8
3
  6
CONTINUOUS
  2
*D11
 10
2208.7378330000001
 20
3549.907451
 30
0.0
 11
2208.7378329999988
 21
3794.4812549999988
 31
0.0
 70
   128
 13
1941.736969
 23
4059.9074509999991
 33
0.0
 14
1941.736969
 24
3549.907451
 34
0.0
 50
90.0
1001
ACAD
1000
DSTYLE
1002
{
1070
   287
1070
     3
1070
    40
1040
20.0
1070
   143
1040
0.039
1070
   172
1070
     1
1070
   271
1070
     0
1070
   279
1070
     0
1070
   288
1070
     1
1002
}
  0
DIMENSION
  5
7B8D
  8
3
  6
CONTINUOUS
  2
*D12
 10
1596.736969
 20
1394.3899299999989
 30
0.0
 11
1137.7017849999991
 21
1394.3899299999989
 31
0.0
 70
   128
 13
691.73696900000004
 23
1579.135383999999
 33
0.0
 14
1596.736969
 24
1442.783527442456
 34
0.0
1001
ACAD
1000
DSTYLE
1002
{
1070
   287
1070
     3
1070
    40
1040
20.0
1070
   143
1040
0.039
1070
   172
1070
     1
1070
   271
1070
     0
1070
   279
1070
     0
1070
   288
1070
     1
1002
}
  0
DIMENSION
  5
7B99
  8
3
  6
CONTINUOUS
  2
*D13
 10
1941.736969
 20
1394.3899299999989
 30
0.0
 11
1769.236969
 21
1444.3899299999989
 31
0.0
 70
     0
 13
1596.736969
 23
1448.8171039026979
 33
0.0
 14
1941.736969
 24
1579.135383999999
 34
0.0
1001
ACAD
1000
DSTYLE
1002
{
1070
   287
1070
     4
1070
    40
1040
20.0
1070
    75
1070
     1
1070
   143
1040
0.039
1070
   172
1070
     1
1070
   271
1070
     0
1070
   279
1070
     1
1070
   288
1070
     1
1002
}
  0
DIMENSION
  5
7BA6
  8
3
  6
CONTINUOUS
  2
*D14
 10
1596.736969
 20
2748.765656999999
 30
0.0
 11
1790.1089300000001
 21
2748.765656999999
 31
0.0
 70
   128
 13
2001.736969
 23
2635.1353840000002
 33
0.0
 14
1596.736969
 24
2711.9327454377599
 34
0.0
1001
ACAD
1000
DSTYLE
1002
{
1070
   287
1070
     3
1070
    40
1040
20.0
1070
   143
1040
0.039
1070
   172
1070
     1
1070
   271
1070
     0
1070
   279
1070
     0
1070
   288
1070
     1
1002
}
  0
DIMENSION
  5
7BB2
  8
3
  6
CONTINUOUS
  2
*D15
 10
1121.736969
 20
2748.765656999999
 30
0.0
 11
1359.236969
 21
2798.7656569999999
 31
0.0
 70
     0
 13
1596.736969
 23
2749.4650569999999
 33
0.0
 14
1121.736969
 24
2479.1353840000002
 34
0.0
1001
ACAD
1000
DSTYLE
1002
{
1070
   287
1070
     3
1070
    40
1040
20.0
1070
   143
1040
0.039
1070
   172
1070
     1
1070
   271
1070
     0
1070
   279
1070
     0
1070
   288
1070
     1
1002
}
  0
LINE
  5
7BB3
  8
4
  6
CONTINUOUS
 10
3700.0
 20
1000.0
 30
0.0
 11
3700.0
 21
600.0
 31
0.0
  0
LINE
  5
7BB4
  8
4
  6
CONTINUOUS
 10
2300.0
 20
1000.0
 30
0.0
 11
2300.0
 21
600.0
 31
0.0
  0
LINE
  5
7BB5
  8
4
  6
CONTINUOUS
 10
1300.0
 20
1000.0
 30
0.0
 11
1300.0
 21
600.0
 31
0.0
  0
LINE
  5
7BB8
  8
4
  6
CONTINUOUS
 10
1300.0
 20
600.0
 30
0.0
 11
3700.0
 21
600.0
 31
0.0
  0
LINE
  5
7BB9
  8
4
  6
CONTINUOUS
 10
1300.0
 20
800.0
 30
0.0
 11
3700.0
 21
800.0
 31
0.0
  0
TEXT
  5
7BBA
  8
4
  6
CONTINUOUS
 10
1377.004162
 20
863.086052
 30
0.0
 40
100.0
  1
機器名称
  0
TEXT
  5
7BBB
  8
4
  6
CONTINUOUS
 10
1372.516212
 20
643.29031299999986
 30
0.0
 40
100.0
  1
機器型番
  0
TEXT
  5
7BBC
  8
4
  6
CONTINUOUS
 10
2355.3574910000002
 20
845.14353800000015
 30
0.0
 40
100.0
  1
ミツヤ多翼送風機
  0
TEXT
  5
7BBD
  8
4
  6
CONTINUOUS
 10
2373.3089909999999
 20
634.31916899999999
 30
0.0
 40
100.0
  1
MF#3 1/2-4
  0
TEXT
  5
7BBF
  8
4
  6
CONTINUOUS
 10
1789.3370159999999
 20
4766.8576830000002
 30
0.0
 40
108.0
  1
床置ベット
  0
TEXT
  5
7BC0
  8
4
  6
CONTINUOUS
 10
632.33518700000002
 20
5067.7619520000007
 30
0.0
 40
144.0
  1
ベルト駆動式片吸込両持多翼ファン
  0
LINE
  5
7BC1
  8
4
  6
CONTINUOUS
 10
500.0
 20
4938.8175090000004
 30
0.0
 11
3700.0
 21
4938.8175090000004
 31
0.0
  0
LINE
  5
7BC2
  8
4
  6
CONTINUOUS
 10
500.0
 20
5338.8175090000004
 30
0.0
 11
3700.0
 21
5338.8175090000004
 31
0.0
  0
LINE
  5
7BC3
  8
4
  6
CONTINUOUS
 10
1300.0
 20
1000.0
 30
0.0
 11
3700.0
 21
1000.0
 31
0.0
  0
LINE
  5
7BC4
  8
4
  6
CONTINUOUS
 10
500.0
 20
5338.8175090000004
 30
0.0
 11
500.0
 21
4938.8175090000004
 31
0.0
  0
TEXT
  5
7BC5
  8
4
  6
CONTINUOUS
 10
796.21225799999991
 20
4764.6389549999994
 30
0.0
 40
108.0
  1
右回転右横向
  0
TEXT
  5
7BC6
  8
4
  6
CONTINUOUS
 10
2937.9391179999998
 20
5412.122163
 30
0.0
 40
112.0
  1
No.
  0
TEXT
  5
7BC7
  8
4
  6
CONTINUOUS
 10
2622.5921250000001
 20
4766.8576830000002
 30
0.0
 40
108.0
  1
縮尺：1/20
  0
LINE
  5
7BC8
  8
4
  6
CONTINUOUS
 10
3700.0
 20
5338.8175090000004
 30
0.0
 11
3700.0
 21
4938.8175090000004
 31
0.0
  0
LINE
  5
7BCA
  8
4
  6
CONTINUOUS
 10
2881.234845
 20
5362.5271659999999
 30
0.0
 11
2881.234845
 21
5573.3045229999998
 31
0.0
  0
LINE
  5
7BCB
  8
4
  6
CONTINUOUS
 10
2881.234845
 20
5573.3045229999998
 30
0.0
 11
3700.0
 21
5573.3045229999998
 31
0.0
  0
LINE
  5
7BCC
  8
4
  6
CONTINUOUS
 10
3700.0
 20
5573.3045229999998
 30
0.0
 11
3700.0
 21
5362.5271659999999
 31
0.0
  0
LINE
  5
7BCD
  8
4
  6
CONTINUOUS
 10
3700.0
 20
5362.5271659999999
 30
0.0
 11
2881.234845
 21
5362.5271659999999
 31
0.0
  0
DIMENSION
  5
7C5C
  8
3
  6
CONTINUOUS
  2
*D16
 10
3424.6529919999998
 20
2714.6717760000001
 30
0.0
 11
3193.9605630000001
 21
2714.6717760000001
 31
0.0
 70
   128
 13
3004.6529919999998
 23
2608.1353840000002
 33
0.0
 14
3424.6529919999998
 24
2608.1353840000002
 34
0.0
1001
ACAD
1000
DSTYLE
1002
{
1070
   287
1070
     3
1070
    40
1040
20.0
1070
   143
1040
0.039
1070
   172
1070
     1
1070
   271
1070
     0
1070
   279
1070
     0
1070
   288
1070
     1
1002
}
  0
DIMENSION
  5
7D7B
  8
3
  2
*D17
 10
691.73696900000004
 20
2882.7429989601751
 30
0.0
 11
1439.2489698882889
 21
2882.7429989601751
 31
0.0
 70
   128
 13
2001.736969
 23
2635.1353840000002
 33
0.0
 14
691.73696900000004
 24
1659.1353839999999
 34
0.0
1001
ACAD
1000
DSTYLE
1002
{
1070
   287
1070
     3
1070
    40
1040
20.0
1070
   143
1040
0.039
1070
   172
1070
     1
1070
   271
1070
     0
1070
   279
1070
     0
1070
   288
1070
     1
1002
}
  0
ENDSEC
  0
EOF
