  0
SECTION
  2
HEADER
  9
$ACADVER
  1
AC1009
  9
$INSBASE
 10
0.0
 20
0.0
 30
0.0
  9
$EXTMIN
 10
500.0
 20
600.0
 30
0.0
  9
$EXTMAX
 10
3700.0
 20
5573.3045229999998
 30
0.0
  9
$LIMMIN
 10
0.0
 20
0.0
  9
$LIMMAX
 10
297.0
 20
210.0
  9
$ORTHOMODE
 70
     0
  9
$REGENMODE
 70
     1
  9
$FILLMODE
 70
     0
  9
$QTEXTMODE
 70
     0
  9
$MIRRTEXT
 70
     1
  9
$DRAGMODE
 70
     2
  9
$LTSCALE
 40
100.0
  9
$OSMODE
 70
    37
  9
$ATTMODE
 70
     1
  9
$TEXTSIZE
 40
180.0
  9
$TRACEWID
 40
0.05
  9
$TEXTSTYLE
  7
STANDARD
  9
$CLAYER
  8
3
  9
$CELTYPE
  6
BYLAYER
  9
$CECOLOR
 62
   256
  9
$DIMSCALE
 40
20.0
  9
$DIMASZ
 40
2.0
  9
$DIMEXO
 40
0.5
  9
$DIMDLI
 40
10.0
  9
$DIMRND
 40
0.0
  9
$DIMDLE
 40
0.0
  9
$DIMEXE
 40
1.0
  9
$DIMTP
 40
1.0
  9
$DIMTM
 40
1.0
  9
$DIMTXT
 40
3.0
  9
$DIMCEN
 40
0.0
  9
$DIMTSZ
 40
0.0
  9
$DIMTOL
 70
     0
  9
$DIMLIM
 70
     0
  9
$DIMTIH
 70
     0
  9
$DIMTOH
 70
     0
  9
$DIMSE1
 70
     0
  9
$DIMSE2
 70
     0
  9
$DIMTAD
 70
     1
  9
$DIMZIN
 70
     8
  9
$DIMBLK
  1

  9
$DIMASO
 70
     1
  9
$DIMSHO
 70
     1
  9
$DIMPOST
  1

  9
$DIMAPOST
  1

  9
$DIMALT
 70
     0
  9
$DIMALTD
 70
     2
  9
$DIMALTF
 40
0.039
  9
$DIMLFAC
 40
1.0
  9
$DIMTOFL
 70
     1
  9
$DIMTVP
 40
0.0
  9
$DIMTIX
 70
     0
  9
$DIMSOXD
 70
     0
  9
$DIMSAH
 70
     1
  9
$DIMBLK1
  1
OPEN
  9
$DIMBLK2
  1
OPEN
  9
$DIMSTYLE
  2
IGA
  9
$DIMCLRD
 70
     0
  9
$DIMCLRE
 70
     0
  9
$DIMCLRT
 70
     0
  9
$DIMTFAC
 40
10.0
  9
$DIMGAP
 40
1.0
  9
$LUNITS
 70
     2
  9
$LUPREC
 70
     3
  9
$SKETCHINC
 40
0.1
  9
$FILLETRAD
 40
50.0
  9
$AUNITS
 70
     0
  9
$AUPREC
 70
     0
  9
$MENU
  1
acad
  9
$ELEVATION
 40
0.0
  9
$PELEVATION
 40
0.0
  9
$THICKNESS
 40
0.0
  9
$LIMCHECK
 70
     0
  9
$BLIPMODE
 70
     0
  9
$CHAMFERA
 40
0.5
  9
$CHAMFERB
 40
0.5
  9
$SKPOLY
 70
     0
  9
$TDCREATE
 40
2450736.476446759
  9
$TDUPDATE
 40
2454953.7694485988
  9
$TDINDWG
 40
0.0034146065
  9
$TDUSRTIMER
 40
0.0034146065
  9
$USRTIMER
 70
     1
  9
$ANGBASE
 50
0.0
  9
$ANGDIR
 70
     0
  9
$PDMODE
 70
     0
  9
$PDSIZE
 40
0.0
  9
$PLINEWID
 40
0.0
  9
$COORDS
 70
     1
  9
$SPLFRAME
 70
     0
  9
$SPLINETYPE
 70
     6
  9
$SPLINESEGS
 70
     8
  9
$ATTDIA
 70
     0
  9
$ATTREQ
 70
     1
  9
$HANDLING
 70
 10241
  9
$HANDSEED
  5
7E2C
  9
$SURFTAB1
 70
     6
  9
$SURFTAB2
 70
     6
  9
$SURFTYPE
 70
     6
  9
$SURFU
 70
     6
  9
$SURFV
 70
     6
  9
$UCSNAME
  2

  9
$UCSORG
 10
0.0
 20
0.0
 30
0.0
  9
$UCSXDIR
 10
1.0
 20
0.0
 30
0.0
  9
$UCSYDIR
 10
0.0
 20
1.0
 30
0.0
  9
$PUCSNAME
  2

  9
$PUCSORG
 10
0.0
 20
0.0
 30
0.0
  9
$PUCSXDIR
 10
1.0
 20
0.0
 30
0.0
  9
$PUCSYDIR
 10
0.0
 20
1.0
 30
0.0
  9
$USERI1
 70
     0
  9
$USERI2
 70
     0
  9
$USERI3
 70
     0
  9
$USERI4
 70
     0
  9
$USERI5
 70
     0
  9
$USERR1
 40
0.0
  9
$USERR2
 40
0.0
  9
$USERR3
 40
0.0
  9
$USERR4
 40
0.0
  9
$USERR5
 40
0.0
  9
$WORLDVIEW
 70
     1
  9
$SHADEDGE
 70
     3
  9
$SHADEDIF
 70
    70
  9
$TILEMODE
 70
     1
  9
$MAXACTVP
 70
    16
  9
$PLIMCHECK
 70
     0
  9
$PEXTMIN
 10
1.0000000000000000E+020
 20
1.0000000000000000E+020
 30
1.0000000000000000E+020
  9
$PEXTMAX
 10
-1.0000000000000000E+020
 20
-1.0000000000000000E+020
 30
-1.0000000000000000E+020
  9
$PLIMMIN
 10
0.0
 20
0.0
  9
$PLIMMAX
 10
12.0
 20
9.0
  9
$UNITMODE
 70
     0
  9
$VISRETAIN
 70
     0
  9
$PLINEGEN
 70
     0
  9
$PSLTSCALE
 70
     1
  0
ENDSEC
  0
SECTION
  2
TABLES
  0
TABLE
  2
VPORT
 70
     2
  0
VPORT
  2
*ACTIVE
 70
     0
 10
0.0
 20
0.0
 11
1.0
 21
1.0
 12
6292.1124769529506
 22
3086.6374998146398
 13
0.0
 23
0.0
 14
10.0
 24
10.0
 15
10.0
 25
10.0
 16
0.0
 26
0.0
 36
1.0
 17
0.0
 27
0.0
 37
0.0
 40
5011.4968576296578
 41
3.1666666666666661
 42
50.0
 43
0.0
 44
0.0
 50
0.0
 51
0.0
 71
     0
 72
   100
 73
     1
 74
     0
 75
     0
 76
     0
 77
     0
 78
     0
  0
ENDTAB
  0
TABLE
  2
LTYPE
 70
     2
  0
LTYPE
  2
CONTINUOUS
 70
     0
  3
Solid line
 72
    65
 73
     0
 40
0.0
  0
LTYPE
  2
CENTER
 70
     0
  3
____ _ ____ _ ____ _ ____ _ ____ _ ____ _ ____ 
 72
    65
 73
     4
 40
2.0
 49
1.25
 49
-0.25
 49
0.25
 49
-0.25
  0
ENDTAB
  0
TABLE
  2
LAYER
 70
     6
  0
LAYER
  2
0
 70
     0
 62
     7
  6
CONTINUOUS
  0
LAYER
  2
3
 70
     0
 62
     2
  6
CONTINUOUS
  0
LAYER
  2
2
 70
     0
 62
     3
  6
CENTER
  0
LAYER
  2
1
 70
     0
 62
     4
  6
CONTINUOUS
  0
LAYER
  2
4
 70
     0
 62
     7
  6
CONTINUOUS
  0
LAYER
  2
DEFPOINTS
 70
     0
 62
     7
  6
CONTINUOUS
  0
ENDTAB
  0
TABLE
  2
STYLE
 70
     1
  0
STYLE
  2
STANDARD
 70
     0
 40
0.0
 41
1.0
 50
0.0
 71
     0
 42
180.0
  3
simplex.shx
  4
extfont.shx
  0
ENDTAB
  0
TABLE
  2
VIEW
 70
     0
  0
ENDTAB
  0
TABLE
  2
UCS
 70
     0
  0
ENDTAB
  0
TABLE
  2
APPID
 70
     1
  0
APPID
  2
ACAD
 70
     0
  0
ENDTAB
  0
TABLE
  2
DIMSTYLE
 70
     1
  0
DIMSTYLE
  2
IGA
 70
     0
  3

  4

  5

  6
OPEN
  7
OPEN
 40
2.0
 41
2.0
 42
0.5
 43
10.0
 44
1.0
 45
0.0
 46
0.0
 47
1.0
 48
1.0
140
3.0
141
0.0
142
0.0
143
0.03937
144
1.0
145
0.0
146
10.0
147
1.0
 71
     0
 72
     0
 73
     0
 74
     0
 75
     0
 76
     0
 77
     1
 78
     8
170
     0
171
     2
172
     0
173
     1
174
     0
175
     0
176
     0
177
     0
178
     0
  0
ENDTAB
  0
ENDSEC
  0
SECTION
  2
BLOCKS
  0
BLOCK
  8
0
  2
$MODEL_SPACE
 70
     0
 10
0.0
 20
0.0
 30
0.0
  3
$MODEL_SPACE
  1

  0
ENDBLK
  5
1B
  8
0
  0
BLOCK
 67
     1
  8
0
  2
$PAPER_SPACE
 70
     0
 10
0.0
 20
0.0
 30
0.0
  3
$PAPER_SPACE
  1

  0
ENDBLK
  5
18
 67
     1
  8
0
  0
BLOCK
  8
0
  2
_OPEN
 70
     0
 10
0.0
 20
0.0
 30
0.0
  3
_OPEN
  1

  0
LINE
  5
7B68
  8
0
  6
BYBLOCK
 62
     0
 10
-1.0
 20
0.166667
 30
0.0
 11
0.0
 21
0.0
 31
0.0
  0
LINE
  5
7B69
  8
0
  6
BYBLOCK
 62
     0
 10
0.0
 20
0.0
 30
0.0
 11
-1.0
 21
-0.166667
 31
0.0
  0
LINE
  5
7B6A
  8
0
  6
BYBLOCK
 62
     0
 10
0.0
 20
0.0
 30
0.0
 11
-1.0
 21
0.0
 31
0.0
  0
ENDBLK
  5
7B6B
  8
0
  0
BLOCK
  8
0
  2
*D1
 70
     1
 10
0.0
 20
0.0
 30
0.0
  3
*D1
  1

  0
LINE
  5
7D9A
  8
3
  6
CONTINUOUS
 62
     0
 10
965.36531899999989
 20
2532.5667079999998
 30
0.0
 11
865.45345700000064
 21
2532.5667079999998
 31
0.0
  0
LINE
  5
7D9B
  8
3
  6
CONTINUOUS
 62
     0
 10
965.36531899999989
 20
1972.5667079999989
 30
0.0
 11
865.45345700000041
 21
1972.5667079999989
 31
0.0
  0
LINE
  5
7D9C
  8
3
  6
CONTINUOUS
 62
     0
 10
885.45345700000053
 20
2492.5667079999998
 30
0.0
 11
885.4534570000003
 21
2012.5667080000001
 31
0.0
  0
INSERT
  5
7D9D
  8
3
  6
CONTINUOUS
 62
     0
  2
_OPEN
 10
885.45345700000053
 20
2532.5667079999998
 30
0.0
 41
40.0
 42
40.0
 43
40.0
 50
90.0
  0
INSERT
  5
7D9E
  8
3
  6
CONTINUOUS
 62
     0
  2
_OPEN
 10
885.4534570000003
 20
1972.5667079999989
 30
0.0
 41
40.0
 42
40.0
 43
40.0
 50
270.0
  0
TEXT
  8
3
  40
60
  5
7E1C
  62
0
  72
0
  71
0
 10
715.453
 20
2146.81
 30
0.000000
  1
560
  0
POINT
  5
7DA0
  8
DEFPOINTS
  6
CONTINUOUS
 62
     0
 10
975.36531899999989
 20
2532.5667079999998
 30
0.0
  0
POINT
  5
7DA1
  8
DEFPOINTS
  6
CONTINUOUS
 62
     0
 10
975.36531899999989
 20
1972.5667079999989
 30
0.0
  0
POINT
  5
7DA2
  8
DEFPOINTS
  6
CONTINUOUS
 62
     0
 10
885.4534570000003
 20
1972.5667079999989
 30
0.0
  0
ENDBLK
  5
7B78
  8
0
  0
BLOCK
  8
0
  2
*D2
 70
     1
 10
0.0
 20
0.0
 30
0.0
  3
*D2
  1

  0
LINE
  5
7DA3
  8
3
  6
CONTINUOUS
 62
     0
 10
965.36531899999989
 20
2532.5667079999998
 30
0.0
 11
736.63419500000043
 21
2532.5667079999998
 31
0.0
  0
LINE
  5
7DA4
  8
3
  6
CONTINUOUS
 62
     0
 10
881.75531999999976
 20
1993.5667079999989
 30
0.0
 11
736.63419500000032
 21
1993.5667079999989
 31
0.0
  0
LINE
  5
7DA5
  8
3
  6
CONTINUOUS
 62
     0
 10
756.63419500000043
 20
2492.5667079999998
 30
0.0
 11
756.63419500000032
 21
2033.5667079999989
 31
0.0
  0
INSERT
  5
7DA6
  8
3
  6
CONTINUOUS
 62
     0
  2
_OPEN
 10
756.63419500000043
 20
2532.5667079999998
 30
0.0
 41
40.0
 42
40.0
 43
40.0
 50
90.0
  0
INSERT
  5
7DA7
  8
3
  6
CONTINUOUS
 62
     0
  2
_OPEN
 10
756.63419500000032
 20
1993.5667079999989
 30
0.0
 41
40.0
 42
40.0
 43
40.0
 50
270.0
  0
TEXT
  8
3
  40
60
  5
7E1D
  62
0
  72
0
  71
0
 10
586.634
 20
2146.81
 30
0.000000
  1
539
  0
POINT
  5
7DA9
  8
DEFPOINTS
  6
CONTINUOUS
 62
     0
 10
975.36531899999989
 20
2532.5667079999998
 30
0.0
  0
POINT
  5
7DAA
  8
DEFPOINTS
  6
CONTINUOUS
 62
     0
 10
891.75531999999976
 20
1993.5667079999989
 30
0.0
  0
POINT
  5
7DAB
  8
DEFPOINTS
  6
CONTINUOUS
 62
     0
 10
756.63419500000032
 20
1993.5667079999989
 30
0.0
  0
ENDBLK
  5
7B85
  8
0
  0
BLOCK
  8
0
  2
*D3
 70
     1
 10
0.0
 20
0.0
 30
0.0
  3
*D3
  1

  0
LINE
  5
7DAC
  8
3
  6
CONTINUOUS
 62
     0
 10
1025.365319
 20
1503.5667080000001
 30
0.0
 11
736.63419499999986
 21
1503.5667080000001
 31
0.0
  0
LINE
  5
7DAD
  8
3
  6
CONTINUOUS
 62
     0
 10
756.63419499999998
 20
1953.5667080000001
 30
0.0
 11
756.63419499999986
 21
1543.5667080000001
 31
0.0
  0
INSERT
  5
7DAE
  8
3
  6
CONTINUOUS
 62
     0
  2
_OPEN
 10
756.63419499999998
 20
1993.5667079999989
 30
0.0
 41
40.0
 42
40.0
 43
40.0
 50
90.0
  0
INSERT
  5
7DAF
  8
3
  6
CONTINUOUS
 62
     0
  2
_OPEN
 10
756.63419499999986
 20
1503.5667080000001
 30
0.0
 41
40.0
 42
40.0
 43
40.0
 50
270.0
  0
TEXT
  8
3
  40
60
  5
7E1E
  62
0
  72
0
  71
0
 10
586.634
 20
1642.37
 30
0.000000
  1
490
  0
POINT
  5
7DB1
  8
DEFPOINTS
  6
CONTINUOUS
 62
     0
 10
891.75531999999976
 20
1993.5667079999989
 30
0.0
  0
POINT
  5
7DB2
  8
DEFPOINTS
  6
CONTINUOUS
 62
     0
 10
1035.365319
 20
1503.5667080000001
 30
0.0
  0
POINT
  5
7DB3
  8
DEFPOINTS
  6
CONTINUOUS
 62
     0
 10
756.63419499999986
 20
1503.5667080000001
 30
0.0
  0
ENDBLK
  5
7B91
  8
0
  0
BLOCK
  8
0
  2
*D4
 70
     1
 10
0.0
 20
0.0
 30
0.0
  3
*D4
  1

  0
LINE
  5
7DB4
  8
3
  6
CONTINUOUS
 62
     0
 10
975.36531899999989
 20
2569.5667079999989
 30
0.0
 11
975.36531899999989
 21
2671.5671160000002
 31
0.0
  0
LINE
  5
7DB5
  8
3
  6
CONTINUOUS
 62
     0
 10
1380.365319
 20
2627.6579280000001
 30
0.0
 11
1380.365319
 21
2671.5671160000002
 31
0.0
  0
LINE
  5
7DB6
  8
3
  6
CONTINUOUS
 62
     0
 10
1015.365319
 20
2651.5671160000002
 30
0.0
 11
1340.3653189999991
 21
2651.5671160000002
 31
0.0
  0
INSERT
  5
7DB7
  8
3
  6
CONTINUOUS
 62
     0
  2
_OPEN
 10
975.36531899999989
 20
2651.5671160000002
 30
0.0
 41
40.0
 42
40.0
 43
40.0
 50
180.0
  0
INSERT
  5
7DB8
  8
3
  6
CONTINUOUS
 62
     0
  2
_OPEN
 10
1380.365319
 20
2651.5671160000002
 30
0.0
 41
40.0
 42
40.0
 43
40.0
  0
TEXT
  8
3
  40
60
  5
7E1F
  62
0
  72
0
  71
0
 10
1052.18
 20
2595.37
 30
0.000000
  1
405
  0
POINT
  5
7DBA
  8
DEFPOINTS
  6
CONTINUOUS
 62
     0
 10
975.36531899999989
 20
2559.5667079999998
 30
0.0
  0
POINT
  5
7DBB
  8
DEFPOINTS
  6
CONTINUOUS
 62
     0
 10
1380.365319
 20
2617.6579280000001
 30
0.0
  0
POINT
  5
7DBC
  8
DEFPOINTS
  6
CONTINUOUS
 62
     0
 10
1380.365319
 20
2651.5671160000002
 30
0.0
  0
ENDBLK
  5
7BAB
  8
0
  0
BLOCK
  8
0
  2
*D5
 70
     1
 10
0.0
 20
0.0
 30
0.0
  3
*D5
  1

  0
LINE
  5
7DBD
  8
3
  6
CONTINUOUS
 62
     0
 10
1855.365319
 20
2413.5667079999989
 30
0.0
 11
1855.365319
 21
2671.5671160000002
 31
0.0
  0
LINE
  5
7DBE
  8
3
  6
CONTINUOUS
 62
     0
 10
1420.365319
 20
2651.5671160000002
 30
0.0
 11
1815.365319
 21
2651.5671160000002
 31
0.0
  0
INSERT
  5
7DBF
  8
3
  6
CONTINUOUS
 62
     0
  2
_OPEN
 10
1380.365319
 20
2651.5671160000002
 30
0.0
 41
40.0
 42
40.0
 43
40.0
 50
180.0
  0
INSERT
  5
7DC0
  8
3
  6
CONTINUOUS
 62
     0
  2
_OPEN
 10
1855.365319
 20
2651.5671160000002
 30
0.0
 41
40.0
 42
40.0
 43
40.0
  0
TEXT
  8
3
  40
60
  5
7E20
  62
0
  72
0
  71
0
 10
1497.87
 20
2595.37
 30
0.000000
  1
475
  0
POINT
  5
7DC2
  8
DEFPOINTS
  6
CONTINUOUS
 62
     0
 10
1380.365319
 20
2617.6579280000001
 30
0.0
  0
POINT
  5
7DC3
  8
DEFPOINTS
  6
CONTINUOUS
 62
     0
 10
1855.365319
 20
2403.5667079999998
 30
0.0
  0
POINT
  5
7DC4
  8
DEFPOINTS
  6
CONTINUOUS
 62
     0
 10
1855.365319
 20
2651.5671160000002
 30
0.0
  0
ENDBLK
  5
7BB7
  8
0
  0
BLOCK
  8
0
  2
*D6
 70
     1
 10
0.0
 20
0.0
 30
0.0
  3
*D6
  1

  0
LINE
  5
7DC5
  8
3
  6
CONTINUOUS
 62
     0
 10
1035.365319
 20
1493.5667080000001
 30
0.0
 11
1035.365319
 21
1327.9596570000001
 31
0.0
  0
LINE
  5
7DC6
  8
3
  6
CONTINUOUS
 62
     0
 10
1380.365319
 20
1373.339786999999
 30
0.0
 11
1380.365319
 21
1327.9596570000001
 31
0.0
  0
LINE
  5
7DC7
  8
3
  6
CONTINUOUS
 62
     0
 10
1075.365319
 20
1347.9596570000001
 30
0.0
 11
1340.3653189999991
 21
1347.9596570000001
 31
0.0
  0
INSERT
  5
7DC8
  8
3
  6
CONTINUOUS
 62
     0
  2
_OPEN
 10
1035.365319
 20
1347.9596570000001
 30
0.0
 41
40.0
 42
40.0
 43
40.0
 50
180.0
  0
INSERT
  5
7DC9
  8
3
  6
CONTINUOUS
 62
     0
  2
_OPEN
 10
1380.365319
 20
1347.9596570000001
 30
0.0
 41
40.0
 42
40.0
 43
40.0
  0
TEXT
  8
3
  40
60
  5
7E21
  62
0
  72
0
  71
0
 10
1081.27
 20
1291.76
 30
0.000000
  1
345
  0
POINT
  5
7DCB
  8
DEFPOINTS
  6
CONTINUOUS
 62
     0
 10
1035.365319
 20
1503.5667080000001
 30
0.0
  0
POINT
  5
7DCC
  8
DEFPOINTS
  6
CONTINUOUS
 62
     0
 10
1380.365319
 20
1383.339786999999
 30
0.0
  0
POINT
  5
7DCD
  8
DEFPOINTS
  6
CONTINUOUS
 62
     0
 10
1380.365319
 20
1347.9596570000001
 30
0.0
  0
ENDBLK
  5
7D1F
  8
0
  0
BLOCK
  8
0
  2
*D7
 70
     1
 10
0.0
 20
0.0
 30
0.0
  3
*D7
  1

  0
LINE
  5
7DCE
  8
3
  6
CONTINUOUS
 62
     0
 10
2285.3653189999991
 20
1493.5667080000001
 30
0.0
 11
2285.3653189999991
 21
1327.9596570000001
 31
0.0
  0
LINE
  5
7DCF
  8
3
  6
CONTINUOUS
 62
     0
 10
1420.365319
 20
1347.9596570000001
 30
0.0
 11
2245.365319
 21
1347.9596570000001
 31
0.0
  0
INSERT
  5
7DD0
  8
3
  6
CONTINUOUS
 62
     0
  2
_OPEN
 10
1380.365319
 20
1347.9596570000001
 30
0.0
 41
40.0
 42
40.0
 43
40.0
 50
180.0
  0
INSERT
  5
7DD1
  8
3
  6
CONTINUOUS
 62
     0
  2
_OPEN
 10
2285.3653189999991
 20
1347.9596570000001
 30
0.0
 41
40.0
 42
40.0
 43
40.0
  0
TEXT
  8
3
  40
60
  5
7E22
  62
0
  72
0
  71
0
 10
1712.87
 20
1291.76
 30
0.000000
  1
905
  0
POINT
  5
7DD3
  8
DEFPOINTS
  6
CONTINUOUS
 62
     0
 10
1380.365319
 20
1383.339786999999
 30
0.0
  0
POINT
  5
7DD4
  8
DEFPOINTS
  6
CONTINUOUS
 62
     0
 10
2285.3653189999991
 20
1503.5667080000001
 30
0.0
  0
POINT
  5
7DD5
  8
DEFPOINTS
  6
CONTINUOUS
 62
     0
 10
2285.3653189999991
 20
1347.9596570000001
 30
0.0
  0
ENDBLK
  5
7D14
  8
0
  0
BLOCK
  8
0
  2
*D8
 70
     1
 10
0.0
 20
0.0
 30
0.0
  3
*D8
  1

  0
LINE
  5
7D4C
  8
0
  6
BYBLOCK
 62
     0
 10
3445.5377549999998
 20
2323.5667079999989
 30
0.0
 11
3445.5377549999998
 21
2813.4337739999992
 31
0.0
  0
LINE
  5
7D4D
  8
0
  6
BYBLOCK
 62
     0
 10
3233.5377549999998
 20
2767.1524559999989
 30
0.0
 11
3233.5377549999998
 21
2813.4337739999992
 31
0.0
  0
LINE
  5
7D4E
  8
0
  6
BYBLOCK
 62
     0
 10
3405.5377549999989
 20
2793.4337739999992
 30
0.0
 11
3273.5377549999998
 21
2793.4337739999992
 31
0.0
  0
TEXT
  5
7D4F
  8
3
 62
     0
 10
3268.1091835714292
 20
2815.7619371443052
 30
0.0
 40
60.0
  1
212
  0
INSERT
  5
7D50
  8
0
  6
BYBLOCK
 62
     0
  2
_OPEN
 10
3445.5377549999998
 20
2793.4337739999992
 30
0.0
 41
40.0
 42
40.0
 43
40.0
  0
INSERT
  5
7D51
  8
0
  6
BYBLOCK
 62
     0
  2
_OPEN
 10
3233.5377549999998
 20
2793.4337739999992
 30
0.0
 41
40.0
 42
40.0
 43
40.0
 50
180.0
  0
POINT
  5
7D52
  8
DEFPOINTS
  6
BYBLOCK
 62
     0
 10
3445.5377549999998
 20
2313.5667079999989
 30
0.0
  0
POINT
  5
7D53
  8
DEFPOINTS
  6
BYBLOCK
 62
     0
 10
3233.5377549999998
 20
2757.1524559999998
 30
0.0
  0
POINT
  5
7D54
  8
DEFPOINTS
  6
BYBLOCK
 62
     0
 10
3233.5377549999998
 20
2793.4337739999992
 30
0.0
  0
ENDBLK
  5
7D55
  8
0
  0
BLOCK
  8
0
  2
*D9
 70
     1
 10
0.0
 20
0.0
 30
0.0
  3
*D9
  1

  0
LINE
  5
7DD6
  8
3
  6
CONTINUOUS
 62
     0
 10
2823.5377549999998
 20
2428.5667079999989
 30
0.0
 11
2823.5377549999998
 21
2813.4337739999992
 31
0.0
  0
LINE
  5
7DD7
  8
3
  6
CONTINUOUS
 62
     0
 10
3193.5377549999998
 20
2793.4337739999992
 30
0.0
 11
2863.5377549999998
 21
2793.4337739999992
 31
0.0
  0
INSERT
  5
7DD8
  8
3
  6
CONTINUOUS
 62
     0
  2
_OPEN
 10
3233.5377549999998
 20
2793.4337739999992
 30
0.0
 41
40.0
 42
40.0
 43
40.0
  0
INSERT
  5
7DD9
  8
3
  6
CONTINUOUS
 62
     0
  2
_OPEN
 10
2823.5377549999998
 20
2793.4337739999992
 30
0.0
 41
40.0
 42
40.0
 43
40.0
 50
180.0
  0
TEXT
  8
3
  40
60
  5
7E23
  62
0
  72
0
  71
0
 10
2908.54
 20
2787.23
 30
0.000000
  1
MAX
  0
TEXT
  8
3
  40
60
  5
7E24
  62
0
  72
0
  71
0
 10
2908.54
 20
2709.23
 30
0.000000
  1
470
  0
POINT
  5
7DDB
  8
DEFPOINTS
  6
CONTINUOUS
 62
     0
 10
3233.5377549999998
 20
2757.1524559999998
 30
0.0
  0
POINT
  5
7DDC
  8
DEFPOINTS
  6
CONTINUOUS
 62
     0
 10
2823.5377549999998
 20
2418.5667079999998
 30
0.0
  0
POINT
  5
7DDD
  8
DEFPOINTS
  6
CONTINUOUS
 62
     0
 10
2823.5377549999998
 20
2793.4337739999992
 30
0.0
  0
ENDBLK
  5
7D77
  8
0
  0
BLOCK
  8
0
  2
*D10
 70
     1
 10
0.0
 20
0.0
 30
0.0
  3
*D10
  1

  0
LINE
  5
7D36
  8
0
  6
BYBLOCK
 62
     0
 10
2978.5377549999998
 20
1493.5667080000001
 30
0.0
 11
2978.5377549999998
 21
1317.1512700000001
 31
0.0
  0
LINE
  5
7D37
  8
0
  6
BYBLOCK
 62
     0
 10
3233.5377549999998
 20
1421.927621
 30
0.0
 11
3233.5377549999998
 21
1317.1512700000001
 31
0.0
  0
LINE
  5
7D38
  8
0
  6
BYBLOCK
 62
     0
 10
3018.5377549999998
 20
1337.1512699999989
 30
0.0
 11
3193.5377549999998
 21
1337.1512699999989
 31
0.0
  0
TEXT
  5
7D39
  8
3
 62
     0
 10
3028.894897857143
 20
1369.1832232724721
 30
0.0
 40
60.0
  1
255
  0
INSERT
  5
7D3A
  8
0
  6
BYBLOCK
 62
     0
  2
_OPEN
 10
2978.5377549999998
 20
1337.1512699999989
 30
0.0
 41
40.0
 42
40.0
 43
40.0
 50
180.0
  0
INSERT
  5
7D3B
  8
0
  6
BYBLOCK
 62
     0
  2
_OPEN
 10
3233.5377549999998
 20
1337.1512699999989
 30
0.0
 41
40.0
 42
40.0
 43
40.0
  0
POINT
  5
7D3C
  8
DEFPOINTS
  6
BYBLOCK
 62
     0
 10
2978.5377549999998
 20
1503.5667080000001
 30
0.0
  0
POINT
  5
7D3D
  8
DEFPOINTS
  6
BYBLOCK
 62
     0
 10
3233.5377549999998
 20
1431.9276209999989
 30
0.0
  0
POINT
  5
7D3E
  8
DEFPOINTS
  6
BYBLOCK
 62
     0
 10
3233.5377549999998
 20
1337.1512699999989
 30
0.0
  0
ENDBLK
  5
7D3F
  8
0
  0
BLOCK
  8
0
  2
*D11
 70
     1
 10
0.0
 20
0.0
 30
0.0
  3
*D11
  1

  0
LINE
  5
7DDE
  8
3
  6
CONTINUOUS
 62
     0
 10
3488.5377549999998
 20
1493.5667080000001
 30
0.0
 11
3488.5377549999998
 21
1317.1512700000001
 31
0.0
  0
LINE
  5
7DDF
  8
3
  6
CONTINUOUS
 62
     0
 10
3273.5377549999998
 20
1337.1512699999989
 30
0.0
 11
3448.5377549999998
 21
1337.1512699999989
 31
0.0
  0
TEXT
  8
3
  40
60
  5
7E25
  62
0
  72
0
  71
0
 10
3245.88
 20
1282.21
 30
0.000000
  1
255
  0
INSERT
  5
7DE1
  8
3
  6
CONTINUOUS
 62
     0
  2
_OPEN
 10
3233.5377549999998
 20
1337.1512699999989
 30
0.0
 41
40.0
 42
40.0
 43
40.0
 50
180.0
  0
INSERT
  5
7DE2
  8
3
  6
CONTINUOUS
 62
     0
  2
_OPEN
 10
3488.5377549999998
 20
1337.1512699999989
 30
0.0
 41
40.0
 42
40.0
 43
40.0
  0
POINT
  5
7DE3
  8
DEFPOINTS
  6
CONTINUOUS
 62
     0
 10
3233.5377549999998
 20
1431.9276209999989
 30
0.0
  0
POINT
  5
7DE4
  8
DEFPOINTS
  6
CONTINUOUS
 62
     0
 10
3488.5377549999998
 20
1503.5667080000001
 30
0.0
  0
POINT
  5
7DE5
  8
DEFPOINTS
  6
CONTINUOUS
 62
     0
 10
3488.5377549999998
 20
1337.1512699999989
 30
0.0
  0
ENDBLK
  5
7C97
  8
0
  0
BLOCK
  8
0
  2
*D12
 70
     1
 10
0.0
 20
0.0
 30
0.0
  3
*D12
  1

  0
LINE
  5
7DE6
  8
3
  6
CONTINUOUS
 62
     0
 10
1035.365319
 20
4085.3313919999991
 30
0.0
 11
1035.365319
 21
4231.3718079999999
 31
0.0
  0
LINE
  5
7DE7
  8
3
  6
CONTINUOUS
 62
     0
 10
2285.3653189999991
 20
4085.3313919999991
 30
0.0
 11
2285.3653189999991
 21
4231.3718079999999
 31
0.0
  0
LINE
  5
7DE8
  8
3
  6
CONTINUOUS
 62
     0
 10
1075.365319
 20
4211.371807999999
 30
0.0
 11
2245.365319
 21
4211.371807999999
 31
0.0
  0
INSERT
  5
7DE9
  8
3
  6
CONTINUOUS
 62
     0
  2
_OPEN
 10
1035.365319
 20
4211.371807999999
 30
0.0
 41
40.0
 42
40.0
 43
40.0
 50
180.0
  0
INSERT
  5
7DEA
  8
3
  6
CONTINUOUS
 62
     0
  2
_OPEN
 10
2285.3653189999991
 20
4211.371807999999
 30
0.0
 41
40.0
 42
40.0
 43
40.0
  0
TEXT
  8
3
  40
60
  5
7E26
  62
0
  72
0
  71
0
 10
1513.44
 20
4155.17
 30
0.000000
  1
1250
  0
POINT
  5
7DEC
  8
DEFPOINTS
  6
CONTINUOUS
 62
     0
 10
1035.365319
 20
4075.3313920000001
 30
0.0
  0
POINT
  5
7DED
  8
DEFPOINTS
  6
CONTINUOUS
 62
     0
 10
2285.3653189999991
 20
4075.3313920000001
 30
0.0
  0
POINT
  5
7DEE
  8
DEFPOINTS
  6
CONTINUOUS
 62
     0
 10
2285.3653189999991
 20
4211.371807999999
 30
0.0
  0
ENDBLK
  5
7C47
  8
0
  0
BLOCK
  8
0
  2
*D13
 70
     1
 10
0.0
 20
0.0
 30
0.0
  3
*D13
  1

  0
LINE
  5
7DEF
  8
3
  6
CONTINUOUS
 62
     0
 10
2295.365319
 20
4075.3313920000001
 30
0.0
 11
2496.994455
 21
4075.3313920000001
 31
0.0
  0
LINE
  5
7DF0
  8
3
  6
CONTINUOUS
 62
     0
 10
2295.365319
 20
3565.3313920000001
 30
0.0
 11
2496.994455
 21
3565.3313920000001
 31
0.0
  0
LINE
  5
7DF1
  8
3
  6
CONTINUOUS
 62
     0
 10
2476.994455
 20
4035.3313919999991
 30
0.0
 11
2476.994455
 21
3605.3313920000001
 31
0.0
  0
INSERT
  5
7DF2
  8
3
  6
CONTINUOUS
 62
     0
  2
_OPEN
 10
2476.994455
 20
4075.3313920000001
 30
0.0
 41
40.0
 42
40.0
 43
40.0
 50
90.0
  0
INSERT
  5
7DF3
  8
3
  6
CONTINUOUS
 62
     0
  2
_OPEN
 10
2476.994455
 20
3565.3313920000001
 30
0.0
 41
40.0
 42
40.0
 43
40.0
 50
270.0
  0
TEXT
  8
3
  40
60
  5
7E27
  62
0
  72
0
  71
0
 10
2306.99
 20
3719.07
 30
0.000000
  1
510
  0
POINT
  5
7DF5
  8
DEFPOINTS
  6
CONTINUOUS
 62
     0
 10
2285.3653189999991
 20
4075.3313920000001
 30
0.0
  0
POINT
  5
7DF6
  8
DEFPOINTS
  6
CONTINUOUS
 62
     0
 10
2285.3653189999991
 20
3565.3313920000001
 30
0.0
  0
POINT
  5
7DF7
  8
DEFPOINTS
  6
CONTINUOUS
 62
     0
 10
2476.994455
 20
3565.3313920000001
 30
0.0
  0
ENDBLK
  5
7C54
  8
0
  0
BLOCK
  8
0
  2
*D14
 70
     1
 10
0.0
 20
0.0
 30
0.0
  3
*D14
  1

  0
LINE
  5
7DF8
  8
3
  6
CONTINUOUS
 62
     0
 10
3455.5377549999989
 20
2288.5667079999989
 30
0.0
 11
3641.9169440000001
 21
2288.5667079999989
 31
0.0
  0
LINE
  5
7DF9
  8
3
  6
CONTINUOUS
 62
     0
 10
3455.5377549999989
 20
1698.5667079999989
 30
0.0
 11
3641.9169440000001
 21
1698.5667079999989
 31
0.0
  0
LINE
  5
7DFA
  8
3
  6
CONTINUOUS
 62
     0
 10
3621.9169440000001
 20
2248.5667079999989
 30
0.0
 11
3621.9169440000001
 21
1738.5667079999989
 31
0.0
  0
INSERT
  5
7DFB
  8
3
  6
CONTINUOUS
 62
     0
  2
_OPEN
 10
3621.9169440000001
 20
2288.5667079999989
 30
0.0
 41
40.0
 42
40.0
 43
40.0
 50
90.0
  0
INSERT
  5
7DFC
  8
3
  6
CONTINUOUS
 62
     0
  2
_OPEN
 10
3621.9169440000001
 20
1698.5667079999989
 30
0.0
 41
40.0
 42
40.0
 43
40.0
 50
270.0
  0
TEXT
  8
3
  40
60
  5
7E28
  62
0
  72
0
  71
0
 10
3451.92
 20
1872.64
 30
0.000000
  1
φ590
  0
POINT
  5
7DFE
  8
DEFPOINTS
  6
CONTINUOUS
 62
     0
 10
3445.5377549999998
 20
2288.5667079999989
 30
0.0
  0
POINT
  5
7DFF
  8
DEFPOINTS
  6
CONTINUOUS
 62
     0
 10
3445.5377549999998
 20
1698.5667079999989
 30
0.0
  0
POINT
  5
7E00
  8
DEFPOINTS
  6
CONTINUOUS
 62
     0
 10
3621.9169440000001
 20
1698.5667079999989
 30
0.0
  0
ENDBLK
  5
7D60
  8
0
  0
BLOCK
  8
0
  2
*D15
 70
     1
 10
0.0
 20
0.0
 30
0.0
  3
*D15
  1

  0
LINE
  5
7E01
  8
3
  6
CONTINUOUS
 62
     0
 10
965.36531899999989
 20
2559.5667079999998
 30
0.0
 11
605.28026000000045
 21
2559.5667079999998
 31
0.0
  0
LINE
  5
7E02
  8
3
  6
CONTINUOUS
 62
     0
 10
1025.365319
 20
1503.5667080000001
 30
0.0
 11
605.28026000000023
 21
1503.5667080000001
 31
0.0
  0
LINE
  5
7E03
  8
3
  6
CONTINUOUS
 62
     0
 10
625.28026000000045
 20
2519.5667079999998
 30
0.0
 11
625.28026000000023
 21
1543.5667080000001
 31
0.0
  0
INSERT
  5
7E04
  8
3
  6
CONTINUOUS
 62
     0
  2
_OPEN
 10
625.28026000000045
 20
2559.5667079999998
 30
0.0
 41
40.0
 42
40.0
 43
40.0
 50
90.0
  0
INSERT
  5
7E05
  8
3
  6
CONTINUOUS
 62
     0
  2
_OPEN
 10
625.28026000000023
 20
1503.5667080000001
 30
0.0
 41
40.0
 42
40.0
 43
40.0
 50
270.0
  0
TEXT
  8
3
  40
60
  5
7E29
  62
0
  72
0
  71
0
 10
455.280
 20
1918.91
 30
0.000000
  1
1056
  0
POINT
  5
7E07
  8
DEFPOINTS
  6
CONTINUOUS
 62
     0
 10
975.36531899999989
 20
2559.5667079999998
 30
0.0
  0
POINT
  5
7E08
  8
DEFPOINTS
  6
CONTINUOUS
 62
     0
 10
1035.365319
 20
1503.5667080000001
 30
0.0
  0
POINT
  5
7E09
  8
DEFPOINTS
  6
CONTINUOUS
 62
     0
 10
625.28026000000023
 20
1503.5667080000001
 30
0.0
  0
ENDBLK
  5
7C76
  8
0
  0
BLOCK
  8
0
  2
*D16
 70
     1
 10
0.0
 20
0.0
 30
0.0
  3
*D16
  1

  0
LINE
  5
7E0A
  8
3
  6
CONTINUOUS
 62
     0
 10
3023.5377549999998
 20
2542.5667079999998
 30
0.0
 11
3023.5377549999998
 21
2668.548659
 31
0.0
  0
LINE
  5
7E0B
  8
3
  6
CONTINUOUS
 62
     0
 10
3443.5377549999989
 20
2542.5667079999998
 30
0.0
 11
3443.5377549999989
 21
2668.548659
 31
0.0
  0
LINE
  5
7E0C
  8
3
  6
CONTINUOUS
 62
     0
 10
3063.5377549999998
 20
2648.548659
 30
0.0
 11
3403.5377549999998
 21
2648.548659
 31
0.0
  0
INSERT
  5
7E0D
  8
3
  6
CONTINUOUS
 62
     0
  2
_OPEN
 10
3023.5377549999998
 20
2648.548659
 30
0.0
 41
40.0
 42
40.0
 43
40.0
 50
180.0
  0
INSERT
  5
7E0E
  8
3
  6
CONTINUOUS
 62
     0
  2
_OPEN
 10
3443.5377549999989
 20
2648.548659
 30
0.0
 41
40.0
 42
40.0
 43
40.0
  0
TEXT
  8
3
  40
60
  5
7E2A
  62
0
  72
0
  71
0
 10
3102.87
 20
2592.35
 30
0.000000
  1
420
  0
POINT
  5
7E10
  8
DEFPOINTS
  6
CONTINUOUS
 62
     0
 10
3023.5377549999998
 20
2532.5667079999998
 30
0.0
  0
POINT
  5
7E11
  8
DEFPOINTS
  6
CONTINUOUS
 62
     0
 10
3443.5377549999989
 20
2532.5667079999998
 30
0.0
  0
POINT
  5
7E12
  8
DEFPOINTS
  6
CONTINUOUS
 62
     0
 10
3443.5377549999989
 20
2648.548659
 30
0.0
  0
ENDBLK
  5
7CDE
  8
0
  0
BLOCK
  8
0
  2
*D17
 70
     1
 10
0.0
 20
0.0
 30
0.0
  3
*D17
  1

  0
LINE
  5
7E13
  8
3
 62
     0
 10
975.36531899999989
 20
2569.5667079999989
 30
0.0
 11
975.36531899999989
 21
2816.0513296205522
 31
0.0
  0
LINE
  5
7E14
  8
3
 62
     0
 10
2285.3653189999991
 20
1593.5667080000001
 30
0.0
 11
2285.3653189999991
 21
2816.0513296205522
 31
0.0
  0
LINE
  5
7E15
  8
3
 62
     0
 10
1015.365319
 20
2796.0513296205522
 30
0.0
 11
2245.365319
 21
2796.0513296205522
 31
0.0
  0
INSERT
  5
7E16
  8
3
 62
     0
  2
_OPEN
 10
975.36531899999989
 20
2796.0513296205522
 30
0.0
 41
40.0
 42
40.0
 43
40.0
 50
180.0
  0
INSERT
  5
7E17
  8
3
 62
     0
  2
_OPEN
 10
2285.3653189999991
 20
2796.0513296205522
 30
0.0
 41
40.0
 42
40.0
 43
40.0
  0
TEXT
  8
3
  40
60
  5
7E2B
  62
0
  72
0
  71
0
 10
1492.87
 20
2739.85
 30
0.000000
  1
1310
  0
POINT
  5
7E19
  8
DEFPOINTS
 62
     0
 10
975.36531899999989
 20
2559.5667079999998
 30
0.0
  0
POINT
  5
7E1A
  8
DEFPOINTS
 62
     0
 10
2285.3653189999991
 20
1583.5667080000001
 30
0.0
  0
POINT
  5
7E1B
  8
DEFPOINTS
 62
     0
 10
2285.3653189999991
 20
2796.0513296205522
 30
0.0
  0
ENDBLK
  5
7D6C
  8
0
  0
ENDSEC
  0
SECTION
  2
ENTITIES
  0
LINE
  5
7AA4
  8
1
  6
CONTINUOUS
 10
1020.365319
 20
2403.5667079999998
 30
0.0
 11
1855.365319
 21
2403.5667079999998
 31
0.0
  0
LINE
  5
7AA5
  8
1
  6
CONTINUOUS
 10
1020.365319
 20
1583.5667080000001
 30
0.0
 11
2285.3653189999991
 21
1583.5667080000001
 31
0.0
  0
ARC
  5
7AA6
  8
1
  6
CONTINUOUS
 10
1411.365319
 20
2024.5667080000001
 30
0.0
 40
433.10293799999999
 50
262.74680499999999
 51
354.95754899999997
  0
ARC
  5
7AA7
  8
1
  6
CONTINUOUS
 10
1343.365319
 20
2030.5667079999989
 30
0.0
 40
501.36713099999992
 50
354.95754899999997
 51
85.767825999999985
  0
LINE
  5
7AA8
  8
1
  6
CONTINUOUS
 10
1035.365319
 20
1503.5667080000001
 30
0.0
 11
2285.3653189999991
 21
1503.5667080000001
 31
0.0
  0
LINE
  5
7AA9
  8
1
  6
CONTINUOUS
 10
1379.865319
 20
2418.5667079999998
 30
0.0
 11
2239.865319
 21
1813.5667079999989
 31
0.0
  0
LINE
  5
7AAA
  8
1
  6
CONTINUOUS
 10
1855.365319
 20
3610.3313919999991
 30
0.0
 11
975.36531899999989
 21
3610.3313919999991
 31
0.0
  0
LINE
  5
7AAB
  8
1
  6
CONTINUOUS
 10
1855.365319
 20
4030.3313919999991
 30
0.0
 11
975.36531899999989
 21
4030.3313919999991
 31
0.0
  0
LINE
  5
7AAC
  8
1
  6
CONTINUOUS
 10
1035.365319
 20
4075.3313920000001
 30
0.0
 11
2285.3653189999991
 21
4075.3313920000001
 31
0.0
  0
LINE
  5
7AAD
  8
1
  6
CONTINUOUS
 10
1109.865319
 20
3410.3313919999991
 30
0.0
 11
2239.865319
 21
3410.3313919999991
 31
0.0
  0
LINE
  5
7AAE
  8
1
  6
CONTINUOUS
 10
1109.865319
 20
3530.3313920000001
 30
0.0
 11
2239.865319
 21
3530.3313920000001
 31
0.0
  0
CIRCLE
  5
7AAF
  8
1
  6
CONTINUOUS
 10
1380.365319
 20
1993.5667079999989
 30
0.0
 40
295.0
  0
CIRCLE
  5
7AB0
  8
1
  6
CONTINUOUS
 10
1380.365319
 20
1993.5667079999989
 30
0.0
 40
320.0
  0
LINE
  5
7AB1
  8
1
  6
CONTINUOUS
 10
1396.365319
 20
3565.3313920000001
 30
0.0
 11
2061.365319
 21
3565.3313920000001
 31
0.0
  0
LINE
  5
7AB2
  8
1
  6
CONTINUOUS
 10
2104.738589
 20
1831.1863980000001
 30
0.0
 11
1415.1842770000001
 21
2087.3091219999992
 31
0.0
  0
LINE
  5
7AB3
  8
1
  6
CONTINUOUS
 10
2061.4165629999989
 20
1698.1801760000001
 30
0.0
 11
1353.295668
 21
1897.300234
 31
0.0
  0
LINE
  5
7AB4
  8
1
  6
CONTINUOUS
 10
1700.365319
 20
4032.3313920000001
 30
0.0
 11
1060.365319
 21
4032.3313920000001
 31
0.0
  0
ARC
  5
7AB5
  8
1
  6
CONTINUOUS
 10
1404.365319
 20
1969.5667080000001
 30
0.0
 40
377.65927299999993
 50
179.54485700000001
 51
262.74680499999999
  0
LINE
  5
7AB6
  8
1
  6
CONTINUOUS
 10
975.36531899999989
 20
2532.5667079999998
 30
0.0
 11
1380.365319
 21
2530.5667079999998
 31
0.0
  0
LINE
  5
7AB7
  8
1
  6
CONTINUOUS
 10
1026.717961999999
 20
1972.5667079999989
 30
0.0
 11
975.36531899999989
 21
1972.5667079999989
 31
0.0
  0
LINE
  5
7AB8
  8
1
  6
CONTINUOUS
 10
975.36531899999989
 20
1945.5667079999989
 30
0.0
 11
975.36531899999989
 21
2559.5667079999998
 31
0.0
  0
LINE
  5
7AB9
  8
1
  6
CONTINUOUS
 10
1020.365319
 20
2403.5667079999998
 30
0.0
 11
1020.365319
 21
1583.5667080000001
 31
0.0
  0
LINE
  5
7ABA
  8
1
  6
CONTINUOUS
 10
1000.365318999999
 20
1972.5667079999989
 30
0.0
 11
1000.365318999999
 21
2532.4432510000001
 31
0.0
  0
LINE
  5
7ABB
  8
1
  6
CONTINUOUS
 10
1109.865319
 20
1583.5667080000001
 30
0.0
 11
1109.865319
 21
2333.5667079999998
 31
0.0
  0
LINE
  5
7ABC
  8
2
  6
CENTER
 10
891.75531999999976
 20
1993.5667079999989
 30
0.0
 11
2192.503283
 21
1993.5667079999989
 31
0.0
  0
CIRCLE
  5
7ABD
  8
1
  6
CONTINUOUS
 10
1380.365319
 20
1993.5667079999989
 30
0.0
 40
100.0
  0
LINE
  5
7ABE
  8
1
  6
CONTINUOUS
 10
1035.365319
 20
1583.5667080000001
 30
0.0
 11
1035.365319
 21
1503.5667080000001
 31
0.0
  0
LINE
  5
7ABF
  8
2
  6
CENTER
 10
1380.365319
 20
4259.530401
 30
0.0
 11
1380.365319
 21
3304.0820359999998
 31
0.0
  0
LINE
  5
7AC0
  8
1
  6
CONTINUOUS
 10
1109.865319
 20
2333.5667079999998
 30
0.0
 11
1379.865319
 21
2418.5667079999998
 31
0.0
  0
LINE
  5
7AC1
  8
1
  6
CONTINUOUS
 10
975.36531899999989
 20
4057.3313920000001
 30
0.0
 11
975.36531899999989
 21
3583.3313920000001
 31
0.0
  0
LINE
  5
7AC2
  8
1
  6
CONTINUOUS
 10
1035.365319
 20
3565.3313920000001
 30
0.0
 11
1364.365319
 21
3565.3313920000001
 31
0.0
  0
LINE
  5
7AC3
  8
1
  6
CONTINUOUS
 10
1480.365319
 20
3440.3313920000001
 30
0.0
 11
1280.365319
 21
3440.3313920000001
 31
0.0
  0
LINE
  5
7AC4
  8
1
  6
CONTINUOUS
 10
1480.365319
 20
3500.3313920000001
 30
0.0
 11
1280.365319
 21
3500.3313920000001
 31
0.0
  0
LINE
  5
7AC5
  8
1
  6
CONTINUOUS
 10
1000.365318999999
 20
4030.3313919999991
 30
0.0
 11
1000.365318999999
 21
3610.3313919999991
 31
0.0
  0
LINE
  5
7AC6
  8
1
  6
CONTINUOUS
 10
1109.865319
 20
3410.3313919999991
 30
0.0
 11
1109.865319
 21
3530.3313920000001
 31
0.0
  0
LINE
  5
7AC7
  8
1
  6
CONTINUOUS
 10
1035.365319
 20
3610.3313919999991
 30
0.0
 11
1035.365319
 21
3565.3313920000001
 31
0.0
  0
LINE
  5
7AC8
  8
1
  6
CONTINUOUS
 10
1280.365319
 20
3440.3313920000001
 30
0.0
 11
1280.365319
 21
3500.3313920000001
 31
0.0
  0
LINE
  5
7AC9
  8
1
  6
CONTINUOUS
 10
1035.365319
 20
4075.3313920000001
 30
0.0
 11
1035.365319
 21
4030.3313919999991
 31
0.0
  0
LINE
  5
7ACA
  8
1
  6
CONTINUOUS
 10
1060.365319
 20
4030.3313919999991
 30
0.0
 11
1060.365319
 21
4032.3313920000001
 31
0.0
  0
LINE
  5
7ACB
  8
1
  6
CONTINUOUS
 10
1396.365319
 20
3610.3313919999991
 30
0.0
 11
1396.365319
 21
3500.3313920000001
 31
0.0
  0
LINE
  5
7ACC
  8
1
  6
CONTINUOUS
 10
1364.365319
 20
3610.3313919999991
 30
0.0
 11
1364.365319
 21
3500.3313920000001
 31
0.0
  0
LINE
  5
7ACD
  8
1
  6
CONTINUOUS
 10
1480.365319
 20
3440.3313920000001
 30
0.0
 11
1480.365319
 21
3500.3313920000001
 31
0.0
  0
ARC
  5
7AD2
  8
1
  6
CONTINUOUS
 10
2080.365319
 20
1765.5667079999989
 30
0.0
 40
142.0
 50
324.59875699999998
 51
215.40124299999999
  0
LINE
  5
7AD3
  8
1
  6
CONTINUOUS
 10
2210.365319
 20
1648.5667080000001
 30
0.0
 11
2196.1116820000002
 21
1683.3062709999999
 31
0.0
  0
LINE
  5
7AD4
  8
1
  6
CONTINUOUS
 10
2210.365319
 20
1583.5667080000001
 30
0.0
 11
1950.365319
 21
1583.5667080000001
 31
0.0
  0
LINE
  5
7AD5
  8
1
  6
CONTINUOUS
 10
1855.365319
 20
2403.5667079999998
 30
0.0
 11
1855.365319
 21
1583.5667080000001
 31
0.0
  0
LINE
  5
7AD6
  8
1
  6
CONTINUOUS
 10
1950.365319
 20
1648.5667080000001
 30
0.0
 11
1964.6189559999989
 21
1683.3062709999999
 31
0.0
  0
LINE
  5
7AD7
  8
1
  6
CONTINUOUS
 10
1950.365319
 20
1583.5667080000001
 30
0.0
 11
1950.365319
 21
1648.5667080000001
 31
0.0
  0
LINE
  5
7AD8
  8
2
  6
CENTER
 10
2150.365319
 20
1765.5667079999989
 30
0.0
 11
2010.365319
 21
1765.5667079999989
 31
0.0
  0
CIRCLE
  5
7AD9
  8
1
  6
CONTINUOUS
 10
2080.365319
 20
1765.5667079999989
 30
0.0
 40
70.0
  0
LINE
  5
7ADA
  8
2
  6
CENTER
 10
2080.365319
 20
1695.5667079999989
 30
0.0
 11
2080.365319
 21
1835.5667079999989
 31
0.0
  0
LINE
  5
7ADB
  8
1
  6
CONTINUOUS
 10
2239.865319
 20
1583.5667080000001
 30
0.0
 11
2239.865319
 21
1813.5667079999989
 31
0.0
  0
LINE
  5
7ADC
  8
1
  6
CONTINUOUS
 10
2285.3653189999991
 20
1583.5667080000001
 30
0.0
 11
2285.3653189999991
 21
1503.5667080000001
 31
0.0
  0
LINE
  5
7ADD
  8
1
  6
CONTINUOUS
 10
2210.365319
 20
1583.5667080000001
 30
0.0
 11
2210.365319
 21
1648.5667080000001
 31
0.0
  0
LINE
  5
7AFB
  8
1
  6
CONTINUOUS
 10
3023.5377549999998
 20
1972.5667079999989
 30
0.0
 11
3443.5377549999989
 21
2532.5667079999998
 31
0.0
  0
LINE
  5
7AFC
  8
1
  6
CONTINUOUS
 10
3023.5377549999998
 20
2532.5667079999998
 30
0.0
 11
3443.5377549999989
 21
1972.5667079999989
 31
0.0
  0
LINE
  5
7AFD
  8
1
  6
CONTINUOUS
 10
3023.5377549999998
 20
1972.5667079999989
 30
0.0
 11
3443.5377549999989
 21
1972.5667079999989
 31
0.0
  0
LINE
  5
7AFE
  8
1
  6
CONTINUOUS
 10
3023.5377549999998
 20
2532.5667079999998
 30
0.0
 11
3443.5377549999989
 21
2532.5667079999998
 31
0.0
  0
LINE
  5
7AFF
  8
1
  6
CONTINUOUS
 10
2823.5377549999998
 20
1583.5667080000001
 30
0.0
 11
3488.5377549999998
 21
1583.5667080000001
 31
0.0
  0
LINE
  5
7B00
  8
1
  6
CONTINUOUS
 10
2978.5377549999998
 20
1503.5667080000001
 30
0.0
 11
3488.5377549999998
 21
1503.5667080000001
 31
0.0
  0
LINE
  5
7B01
  8
1
  6
CONTINUOUS
 10
3023.5377549999998
 20
1583.5667080000001
 30
0.0
 11
3023.5377549999998
 21
2532.5667079999998
 31
0.0
  0
LINE
  5
7B02
  8
1
  6
CONTINUOUS
 10
2943.5377549999998
 20
1583.5667080000001
 30
0.0
 11
2943.5377549999998
 21
2418.5667079999998
 31
0.0
  0
LINE
  5
7B03
  8
1
  6
CONTINUOUS
 10
2823.5377549999998
 20
1583.5667080000001
 30
0.0
 11
2823.5377549999998
 21
2418.5667079999998
 31
0.0
  0
LINE
  5
7B04
  8
1
  6
CONTINUOUS
 10
2853.5377549999998
 20
1695.5667079999989
 30
0.0
 11
2913.5377549999998
 21
1695.5667079999989
 31
0.0
  0
LINE
  5
7B05
  8
1
  6
CONTINUOUS
 10
2853.5377549999998
 20
1835.5667079999989
 30
0.0
 11
2913.5377549999998
 21
1835.5667079999989
 31
0.0
  0
LINE
  5
7B06
  8
1
  6
CONTINUOUS
 10
2853.5377549999998
 20
1893.5667079999989
 30
0.0
 11
2913.5377549999998
 21
1893.5667079999989
 31
0.0
  0
LINE
  5
7B07
  8
1
  6
CONTINUOUS
 10
2853.5377549999998
 20
2093.5667079999989
 30
0.0
 11
2913.5377549999998
 21
2093.5667079999989
 31
0.0
  0
LINE
  5
7B08
  8
1
  6
CONTINUOUS
 10
2853.5377549999998
 20
1835.5667079999989
 30
0.0
 11
2853.5377549999998
 21
1695.5667079999989
 31
0.0
  0
LINE
  5
7B09
  8
1
  6
CONTINUOUS
 10
2853.5377549999998
 20
2093.5667079999989
 30
0.0
 11
2853.5377549999998
 21
1893.5667079999989
 31
0.0
  0
LINE
  5
7B0A
  8
1
  6
CONTINUOUS
 10
2978.5377549999998
 20
1503.5667080000001
 30
0.0
 11
2978.5377549999998
 21
1583.5667080000001
 31
0.0
  0
LINE
  5
7B0B
  8
1
  6
CONTINUOUS
 10
3023.5377549999998
 20
1977.5667079999989
 30
0.0
 11
2913.5377549999998
 21
1977.5667079999989
 31
0.0
  0
LINE
  5
7B0C
  8
1
  6
CONTINUOUS
 10
3023.5377549999998
 20
2009.5667079999989
 30
0.0
 11
2913.5377549999998
 21
2009.5667079999989
 31
0.0
  0
LINE
  5
7B0D
  8
1
  6
CONTINUOUS
 10
2913.5377549999998
 20
1749.5667080000001
 30
0.0
 11
3023.5377549999998
 21
1749.5667080000001
 31
0.0
  0
LINE
  5
7B0E
  8
1
  6
CONTINUOUS
 10
2913.5377549999998
 20
1781.5667079999989
 30
0.0
 11
3023.5377549999998
 21
1781.5667079999989
 31
0.0
  0
LINE
  5
7B0F
  8
1
  6
CONTINUOUS
 10
2913.5377549999998
 20
1835.5667079999989
 30
0.0
 11
2913.5377549999998
 21
1695.5667079999989
 31
0.0
  0
LINE
  5
7B10
  8
1
  6
CONTINUOUS
 10
2913.5377549999998
 20
2093.5667079999989
 30
0.0
 11
2913.5377549999998
 21
1893.5667079999989
 31
0.0
  0
LINE
  5
7B11
  8
1
  6
CONTINUOUS
 10
2823.5377549999998
 20
2418.5667079999998
 30
0.0
 11
2943.5377549999998
 21
2418.5667079999998
 31
0.0
  0
LINE
  5
7B12
  8
1
  6
CONTINUOUS
 10
3443.5377549999989
 20
1583.5667080000001
 30
0.0
 11
3443.5377549999989
 21
2532.5667079999998
 31
0.0
  0
LINE
  5
7B13
  8
1
  6
CONTINUOUS
 10
3445.5377549999998
 20
1673.5667080000001
 30
0.0
 11
3445.5377549999998
 21
2313.5667079999989
 31
0.0
  0
LINE
  5
7B14
  8
1
  6
CONTINUOUS
 10
3443.5377549999989
 20
1673.5667080000001
 30
0.0
 11
3445.5377549999998
 21
1673.5667080000001
 31
0.0
  0
LINE
  5
7B15
  8
1
  6
CONTINUOUS
 10
3488.5377549999998
 20
1503.5667080000001
 30
0.0
 11
3488.5377549999998
 21
1583.5667080000001
 31
0.0
  0
LINE
  5
7B16
  8
1
  6
CONTINUOUS
 10
3443.5377549999989
 20
2313.5667079999989
 30
0.0
 11
3445.5377549999998
 21
2313.5667079999989
 31
0.0
  0
LINE
  5
7B1B
  8
1
  6
CONTINUOUS
 10
2222.365319
 20
3584.0692250000002
 30
0.0
 11
1938.365319
 21
3584.0692250000002
 31
0.0
  0
LINE
  5
7B1C
  8
1
  6
CONTINUOUS
 10
2222.365319
 20
3984.0692250000002
 30
0.0
 11
1938.365319
 21
3984.0692250000002
 31
0.0
  0
LINE
  5
7B1D
  8
1
  6
CONTINUOUS
 10
2099.3653189999991
 20
3565.3313920000001
 30
0.0
 11
2285.3653189999991
 21
3565.3313920000001
 31
0.0
  0
LINE
  5
7B1E
  8
1
  6
CONTINUOUS
 10
1855.365319
 20
3610.3313919999991
 30
0.0
 11
1855.365319
 21
4030.3313919999991
 31
0.0
  0
LINE
  5
7B1F
  8
1
  6
CONTINUOUS
 10
1700.365319
 20
4030.3313919999991
 30
0.0
 11
1700.365319
 21
4032.3313920000001
 31
0.0
  0
LINE
  5
7B20
  8
1
  6
CONTINUOUS
 10
1938.365319
 20
3984.0692250000002
 30
0.0
 11
1938.365319
 21
3584.0692250000002
 31
0.0
  0
LINE
  5
7B21
  8
1
  6
CONTINUOUS
 10
2150.365319
 20
3500.3313920000001
 30
0.0
 11
2010.365319
 21
3500.3313920000001
 31
0.0
  0
LINE
  5
7B22
  8
1
  6
CONTINUOUS
 10
2150.365319
 20
3440.3313920000001
 30
0.0
 11
2010.365319
 21
3440.3313920000001
 31
0.0
  0
LINE
  5
7B23
  8
1
  6
CONTINUOUS
 10
2010.365319
 20
3440.3313920000001
 30
0.0
 11
2010.365319
 21
3500.3313920000001
 31
0.0
  0
LINE
  5
7B24
  8
1
  6
CONTINUOUS
 10
2099.3653189999991
 20
3500.3313920000001
 30
0.0
 11
2099.3653189999991
 21
3584.0692250000002
 31
0.0
  0
LINE
  5
7B25
  8
1
  6
CONTINUOUS
 10
2061.365319
 20
3500.3313920000001
 30
0.0
 11
2061.365319
 21
3584.0692250000002
 31
0.0
  0
LINE
  5
7B26
  8
1
  6
CONTINUOUS
 10
2150.365319
 20
3440.3313920000001
 30
0.0
 11
2150.365319
 21
3500.3313920000001
 31
0.0
  0
LINE
  5
7B27
  8
1
  6
CONTINUOUS
 10
2222.365319
 20
3984.0692250000002
 30
0.0
 11
2222.365319
 21
3584.0692250000002
 31
0.0
  0
LINE
  5
7B28
  8
1
  6
CONTINUOUS
 10
2285.3653189999991
 20
4075.3313920000001
 30
0.0
 11
2285.3653189999991
 21
3565.3313920000001
 31
0.0
  0
LINE
  5
7B29
  8
1
  6
CONTINUOUS
 10
2239.865319
 20
3410.3313919999991
 30
0.0
 11
2239.865319
 21
3530.3313920000001
 31
0.0
  0
LINE
  5
7B43
  8
2
  6
CENTER
 10
3233.5377549999998
 20
2594.9586949999989
 30
0.0
 11
3233.5377549999998
 21
1431.9276209999989
 31
0.0
  0
LINE
  5
7B44
  8
2
  6
CENTER
 10
2349.0050609999989
 20
3820.3313919999991
 30
0.0
 11
879.63163199999997
 21
3820.3313919999991
 31
0.0
  0
LINE
  5
7B45
  8
2
  6
CENTER
 10
1380.365319
 20
2617.6579280000001
 30
0.0
 11
1380.365319
 21
1373.339786999999
 31
0.0
  0
LINE
  5
7B46
  8
2
  6
CENTER
 10
2762.7495359999989
 20
1993.5667079999989
 30
0.0
 11
3529.466574
 21
1993.5667079999989
 31
0.0
  0
LINE
  5
7B47
  8
4
  6
CONTINUOUS
 10
3700.0
 20
1000.0
 30
0.0
 11
3700.0
 21
600.0
 31
0.0
  0
LINE
  5
7B48
  8
4
  6
CONTINUOUS
 10
2300.0
 20
1000.0
 30
0.0
 11
2300.0
 21
600.0
 31
0.0
  0
LINE
  5
7B49
  8
4
  6
CONTINUOUS
 10
1300.0
 20
1000.0
 30
0.0
 11
1300.0
 21
600.0
 31
0.0
  0
LINE
  5
7B4C
  8
4
  6
CONTINUOUS
 10
1300.0
 20
600.0
 30
0.0
 11
3700.0
 21
600.0
 31
0.0
  0
LINE
  5
7B4D
  8
4
  6
CONTINUOUS
 10
1300.0
 20
800.0
 30
0.0
 11
3700.0
 21
800.0
 31
0.0
  0
TEXT
  5
7B4E
  8
4
  6
CONTINUOUS
 10
1377.004162
 20
863.086052
 30
0.0
 40
100.0
  1
機器名称
  0
TEXT
  5
7B4F
  8
4
  6
CONTINUOUS
 10
1372.516212
 20
643.29031299999986
 30
0.0
 40
100.0
  1
機器型番
  0
TEXT
  5
7B50
  8
4
  6
CONTINUOUS
 10
2355.3574910000002
 20
845.14353800000015
 30
0.0
 40
100.0
  1
ミツヤ多翼送風機
  0
TEXT
  5
7B51
  8
4
  6
CONTINUOUS
 10
2373.3089909999999
 20
634.31916899999999
 30
0.0
 40
100.0
  1
MF#3 1/2-4
  0
TEXT
  5
7B53
  8
4
  6
CONTINUOUS
 10
1809.5715309999989
 20
4766.8576830000002
 30
0.0
 40
108.0
  1
床置ベット
  0
TEXT
  5
7B54
  8
4
  6
CONTINUOUS
 10
632.33518700000002
 20
5067.7619520000007
 30
0.0
 40
144.0
  1
ベルト駆動式片吸込両持多翼ファン
  0
LINE
  5
7B55
  8
4
  6
CONTINUOUS
 10
500.0
 20
4938.8175090000004
 30
0.0
 11
3700.0
 21
4938.8175090000004
 31
0.0
  0
LINE
  5
7B56
  8
4
  6
CONTINUOUS
 10
500.0
 20
5338.8175090000004
 30
0.0
 11
3700.0
 21
5338.8175090000004
 31
0.0
  0
LINE
  5
7B57
  8
4
  6
CONTINUOUS
 10
1300.0
 20
1000.0
 30
0.0
 11
3700.0
 21
1000.0
 31
0.0
  0
LINE
  5
7B58
  8
4
  6
CONTINUOUS
 10
500.0
 20
5338.8175090000004
 30
0.0
 11
500.0
 21
4938.8175090000004
 31
0.0
  0
TEXT
  5
7B59
  8
4
  6
CONTINUOUS
 10
937.85386600000004
 20
4764.6389549999994
 30
0.0
 40
108.0
  1
左回転左横向
  0
TEXT
  5
7B5A
  8
4
  6
CONTINUOUS
 10
2937.9391179999998
 20
5412.122163
 30
0.0
 40
112.0
  1
No.
  0
TEXT
  5
7B5B
  8
4
  6
CONTINUOUS
 10
2622.5921250000001
 20
4766.8576830000002
 30
0.0
 40
108.0
  1
縮尺：1/20
  0
LINE
  5
7B5C
  8
4
  6
CONTINUOUS
 10
3700.0
 20
5338.8175090000004
 30
0.0
 11
3700.0
 21
4938.8175090000004
 31
0.0
  0
LINE
  5
7B5E
  8
4
  6
CONTINUOUS
 10
2881.234845
 20
5362.5271659999999
 30
0.0
 11
2881.234845
 21
5573.3045229999998
 31
0.0
  0
LINE
  5
7B5F
  8
4
  6
CONTINUOUS
 10
2881.234845
 20
5573.3045229999998
 30
0.0
 11
3700.0
 21
5573.3045229999998
 31
0.0
  0
LINE
  5
7B60
  8
4
  6
CONTINUOUS
 10
3700.0
 20
5573.3045229999998
 30
0.0
 11
3700.0
 21
5362.5271659999999
 31
0.0
  0
LINE
  5
7B61
  8
4
  6
CONTINUOUS
 10
3700.0
 20
5362.5271659999999
 30
0.0
 11
2881.234845
 21
5362.5271659999999
 31
0.0
  0
DIMENSION
  5
7B79
  8
3
  6
CONTINUOUS
  2
*D1
 10
885.4534570000003
 20
1972.5667079999989
 30
0.0
 11
885.45345699999996
 21
2253.014639999999
 31
0.0
 70
   128
 13
975.36531899999989
 23
2532.5667079999998
 33
0.0
 14
975.36531899999989
 24
1972.5667079999989
 34
0.0
 50
90.0
1001
ACAD
1000
DSTYLE
1002
{
1070
   287
1070
     3
1070
    40
1040
20.0
1070
   143
1040
0.039
1070
   172
1070
     1
1070
   271
1070
     0
1070
   279
1070
     0
1070
   288
1070
     1
1002
}
  0
DIMENSION
  5
7B86
  8
3
  6
CONTINUOUS
  2
*D2
 10
756.63419500000032
 20
1993.5667079999989
 30
0.0
 11
756.63419499999986
 21
2253.014639999999
 31
0.0
 70
   128
 13
975.36531899999989
 23
2532.5667079999998
 33
0.0
 14
891.75531999999976
 24
1993.5667079999989
 34
0.0
 50
90.0
1001
ACAD
1000
DSTYLE
1002
{
1070
   287
1070
     3
1070
    40
1040
20.0
1070
   143
1040
0.039
1070
   172
1070
     1
1070
   271
1070
     0
1070
   279
1070
     0
1070
   288
1070
     1
1002
}
  0
DIMENSION
  5
7B92
  8
3
  6
CONTINUOUS
  2
*D3
 10
756.63419499999986
 20
1503.5667080000001
 30
0.0
 11
706.63419499999975
 21
1748.5667080000001
 31
0.0
 70
     0
 13
891.75531999999976
 23
1993.5667079999989
 33
0.0
 14
1035.365319
 24
1503.5667080000001
 34
0.0
 50
90.0
1001
ACAD
1000
DSTYLE
1002
{
1070
   287
1070
     4
1070
    40
1040
20.0
1070
    75
1070
     1
1070
   143
1040
0.039
1070
   172
1070
     1
1070
   271
1070
     0
1070
   279
1070
     1
1070
   288
1070
     1
1002
}
  0
DIMENSION
  5
7BAC
  8
3
  6
CONTINUOUS
  2
*D4
 10
1380.365319
 20
2651.5671160000002
 30
0.0
 11
1172.1801459999999
 21
2651.5671160000002
 31
0.0
 70
   128
 13
975.36531899999989
 23
2559.5667079999998
 33
0.0
 14
1380.365319
 24
2617.6579280000001
 34
0.0
1001
ACAD
1000
DSTYLE
1002
{
1070
   287
1070
     3
1070
    40
1040
20.0
1070
   143
1040
0.039
1070
   172
1070
     1
1070
   271
1070
     0
1070
   279
1070
     0
1070
   288
1070
     1
1002
}
  0
DIMENSION
  5
7BB8
  8
3
  6
CONTINUOUS
  2
*D5
 10
1855.365319
 20
2651.5671160000002
 30
0.0
 11
1617.8653189999991
 21
2701.5671160000002
 31
0.0
 70
     0
 13
1380.365319
 23
2617.6579280000001
 33
0.0
 14
1855.365319
 24
2403.5667079999998
 34
0.0
1001
ACAD
1000
DSTYLE
1002
{
1070
   287
1070
     4
1070
    40
1040
20.0
1070
    75
1070
     1
1070
   143
1040
0.039
1070
   172
1070
     1
1070
   271
1070
     0
1070
   279
1070
     1
1070
   288
1070
     1
1002
}
  0
DIMENSION
  5
7BDD
  8
3
  6
CONTINUOUS
  2
*D6
 10
1380.365319
 20
1347.9596570000001
 30
0.0
 11
1201.268362
 21
1347.9596570000001
 31
0.0
 70
   128
 13
1035.365319
 23
1503.5667080000001
 33
0.0
 14
1380.365319
 24
1383.339786999999
 34
0.0
1001
ACAD
1000
DSTYLE
1002
{
1070
   287
1070
     3
1070
    40
1040
20.0
1070
   143
1040
0.039
1070
   172
1070
     1
1070
   271
1070
     0
1070
   279
1070
     0
1070
   288
1070
     1
1002
}
  0
DIMENSION
  5
7BE9
  8
3
  6
CONTINUOUS
  2
*D7
 10
2285.3653189999991
 20
1347.9596570000001
 30
0.0
 11
1832.865319
 21
1397.9596570000001
 31
0.0
 70
     0
 13
1380.365319
 23
1383.339786999999
 33
0.0
 14
2285.3653189999991
 24
1503.5667080000001
 34
0.0
1001
ACAD
1000
DSTYLE
1002
{
1070
   287
1070
     4
1070
    40
1040
20.0
1070
    75
1070
     1
1070
   143
1040
0.039
1070
   172
1070
     1
1070
   271
1070
     0
1070
   279
1070
     1
1070
   288
1070
     1
1002
}
  0
DIMENSION
  5
7C05
  8
3
  6
CONTINUOUS
  2
*D8
 10
3233.5377549999998
 20
2793.4337739999992
 30
0.0
 11
3339.5377549999998
 21
2845.7619371443052
 31
0.0
 70
   128
 13
3445.5377549999998
 23
2313.5667079999989
 33
0.0
 14
3233.5377549999998
 24
2757.1524559999998
 34
0.0
1001
ACAD
1000
DSTYLE
1002
{
1070
   288
1070
     1
1070
   172
1070
     1
1070
    40
1040
20.0
1070
   271
1070
     0
1070
   143
1040
0.039
1002
}
  0
DIMENSION
  5
7C11
  8
3
  6
CONTINUOUS
  2
*D9
 10
2823.5377549999998
 20
2793.4337739999992
 30
0.0
 11
3028.5377549999998
 21
2893.4337740000001
 31
0.0
 70
     0
  1
MAX\P470
 13
3233.5377549999998
 23
2757.1524559999998
 33
0.0
 14
2823.5377549999998
 24
2418.5667079999998
 34
0.0
1001
ACAD
1000
DSTYLE
1002
{
1070
   287
1070
     4
1070
    40
1040
20.0
1070
    75
1070
     1
1070
   143
1040
0.039
1070
   172
1070
     1
1070
   271
1070
     0
1070
   279
1070
     1
1070
   288
1070
     1
1002
}
  0
DIMENSION
  5
7C2D
  8
3
  6
CONTINUOUS
  2
*D10
 10
3233.5377549999998
 20
1337.1512699999989
 30
0.0
 11
3106.0377549999998
 21
1399.183223272471
 31
0.0
 70
   128
 13
2978.5377549999998
 23
1503.5667080000001
 33
0.0
 14
3233.5377549999998
 24
1431.9276209999989
 34
0.0
1001
ACAD
1000
DSTYLE
1002
{
1070
   288
1070
     1
1070
   172
1070
     1
1070
    40
1040
20.0
1070
   271
1070
     0
1070
   143
1040
0.039
1002
}
  0
DIMENSION
  5
7C3B
  8
3
  6
CONTINUOUS
  2
*D11
 10
3488.5377549999998
 20
1337.1512699999989
 30
0.0
 11
3365.8784059999998
 21
1338.407238
 31
0.0
 70
   128
 13
3233.5377549999998
 23
1431.9276209999989
 33
0.0
 14
3488.5377549999998
 24
1503.5667080000001
 34
0.0
1001
ACAD
1000
DSTYLE
1002
{
1070
   287
1070
     4
1070
    40
1040
20.0
1070
    75
1070
     1
1070
   143
1040
0.039
1070
   172
1070
     1
1070
   271
1070
     0
1070
   279
1070
     1
1070
   288
1070
     1
1002
}
  0
DIMENSION
  5
7C48
  8
3
  6
CONTINUOUS
  2
*D12
 10
2285.3653189999991
 20
4211.371807999999
 30
0.0
 11
1633.4361539999991
 21
4211.371807999999
 31
0.0
 70
   128
 13
1035.365319
 23
4075.3313920000001
 33
0.0
 14
2285.3653189999991
 24
4075.3313920000001
 34
0.0
1001
ACAD
1000
DSTYLE
1002
{
1070
   287
1070
     3
1070
    40
1040
20.0
1070
   143
1040
0.039
1070
   172
1070
     1
1070
   271
1070
     0
1070
   279
1070
     0
1070
   288
1070
     1
1002
}
  0
DIMENSION
  5
7C55
  8
3
  6
CONTINUOUS
  2
*D13
 10
2476.994455
 20
3565.3313920000001
 30
0.0
 11
2476.994455
 21
3825.2740910000002
 31
0.0
 70
   128
 13
2285.3653189999991
 23
4075.3313920000001
 33
0.0
 14
2285.3653189999991
 24
3565.3313920000001
 34
0.0
 50
90.0
1001
ACAD
1000
DSTYLE
1002
{
1070
   287
1070
     3
1070
    40
1040
20.0
1070
   143
1040
0.039
1070
   172
1070
     1
1070
   271
1070
     0
1070
   279
1070
     0
1070
   288
1070
     1
1002
}
  0
DIMENSION
  5
7C65
  8
3
  6
CONTINUOUS
  2
*D14
 10
3621.9169440000001
 20
1698.5667079999989
 30
0.0
 11
3621.9169439999991
 21
1978.844742
 31
0.0
 70
   128
 13
3445.5377549999998
 23
2288.5667079999989
 33
0.0
 14
3445.5377549999998
 24
1698.5667079999989
 34
0.0
 50
90.0
1001
ACAD
1000
DSTYLE
1002
{
1070
   287
1070
     3
1070
     3
1000
φ<>
1070
    40
1040
20.0
1070
   143
1040
0.039
1070
   172
1070
     1
1070
   271
1070
     0
1070
   279
1070
     0
1070
   288
1070
     1
1002
}
  0
DIMENSION
  5
7C77
  8
3
  6
CONTINUOUS
  2
*D15
 10
625.28026000000023
 20
1503.5667080000001
 30
0.0
 11
625.28025999999988
 21
2025.1135499999989
 31
0.0
 70
   128
 13
975.36531899999989
 23
2559.5667079999998
 33
0.0
 14
1035.365319
 24
1503.5667080000001
 34
0.0
 50
90.0
1001
ACAD
1000
DSTYLE
1002
{
1070
   287
1070
     3
1070
    40
1040
20.0
1070
   143
1040
0.039
1070
   172
1070
     1
1070
   271
1070
     0
1070
   279
1070
     0
1070
   288
1070
     1
1002
}
  0
DIMENSION
  5
7CDF
  8
3
  6
CONTINUOUS
  2
*D16
 10
3443.5377549999989
 20
2648.548659
 30
0.0
 11
3222.8733980000002
 21
2648.548659
 31
0.0
 70
   128
 13
3023.5377549999998
 23
2532.5667079999998
 33
0.0
 14
3443.5377549999989
 24
2532.5667079999998
 34
0.0
1001
ACAD
1000
DSTYLE
1002
{
1070
   287
1070
     3
1070
    40
1040
20.0
1070
   143
1040
0.039
1070
   172
1070
     1
1070
   271
1070
     0
1070
   279
1070
     0
1070
   288
1070
     1
1002
}
  0
DIMENSION
  5
7D6D
  8
3
  2
*D17
 10
2285.3653189999991
 20
2796.0513296205522
 30
0.0
 11
1612.8661728398069
 21
2796.0513296205522
 31
0.0
 70
   128
 13
975.36531899999989
 23
2559.5667079999998
 33
0.0
 14
2285.3653189999991
 24
1583.5667080000001
 34
0.0
1001
ACAD
1000
DSTYLE
1002
{
1070
   287
1070
     3
1070
    40
1040
20.0
1070
   143
1040
0.039
1070
   172
1070
     1
1070
   271
1070
     0
1070
   279
1070
     0
1070
   288
1070
     1
1002
}
  0
ENDSEC
  0
EOF
