  0
SECTION
  2
HEADER
  9
$ACADVER
  1
AC1009
  9
$INSBASE
 10
0.0
 20
0.0
 30
0.0
  9
$EXTMIN
 10
500.0
 20
600.0
 30
0.0
  9
$EXTMAX
 10
3700.0
 20
5573.3045229999998
 30
0.0
  9
$LIMMIN
 10
0.0
 20
0.0
  9
$LIMMAX
 10
297.0
 20
210.0
  9
$ORTHOMODE
 70
     0
  9
$REGENMODE
 70
     1
  9
$FILLMODE
 70
     0
  9
$QTEXTMODE
 70
     0
  9
$MIRRTEXT
 70
     1
  9
$DRAGMODE
 70
     2
  9
$LTSCALE
 40
100.0
  9
$OSMODE
 70
    37
  9
$ATTMODE
 70
     1
  9
$TEXTSIZE
 40
180.0
  9
$TRACEWID
 40
0.05
  9
$TEXTSTYLE
  7
STANDARD
  9
$CLAYER
  8
3
  9
$CELTYPE
  6
BYLAYER
  9
$CECOLOR
 62
   256
  9
$DIMSCALE
 40
20.0
  9
$DIMASZ
 40
2.0
  9
$DIMEXO
 40
0.5
  9
$DIMDLI
 40
10.0
  9
$DIMRND
 40
0.0
  9
$DIMDLE
 40
0.0
  9
$DIMEXE
 40
1.0
  9
$DIMTP
 40
1.0
  9
$DIMTM
 40
1.0
  9
$DIMTXT
 40
3.0
  9
$DIMCEN
 40
0.0
  9
$DIMTSZ
 40
0.0
  9
$DIMTOL
 70
     0
  9
$DIMLIM
 70
     0
  9
$DIMTIH
 70
     0
  9
$DIMTOH
 70
     0
  9
$DIMSE1
 70
     0
  9
$DIMSE2
 70
     0
  9
$DIMTAD
 70
     1
  9
$DIMZIN
 70
     8
  9
$DIMBLK
  1

  9
$DIMASO
 70
     1
  9
$DIMSHO
 70
     1
  9
$DIMPOST
  1

  9
$DIMAPOST
  1

  9
$DIMALT
 70
     0
  9
$DIMALTD
 70
     2
  9
$DIMALTF
 40
0.039
  9
$DIMLFAC
 40
1.0
  9
$DIMTOFL
 70
     1
  9
$DIMTVP
 40
0.0
  9
$DIMTIX
 70
     0
  9
$DIMSOXD
 70
     0
  9
$DIMSAH
 70
     1
  9
$DIMBLK1
  1
OPEN
  9
$DIMBLK2
  1
OPEN
  9
$DIMSTYLE
  2
IGA
  9
$DIMCLRD
 70
     0
  9
$DIMCLRE
 70
     0
  9
$DIMCLRT
 70
     0
  9
$DIMTFAC
 40
10.0
  9
$DIMGAP
 40
1.0
  9
$LUNITS
 70
     2
  9
$LUPREC
 70
     3
  9
$SKETCHINC
 40
0.1
  9
$FILLETRAD
 40
50.0
  9
$AUNITS
 70
     0
  9
$AUPREC
 70
     0
  9
$MENU
  1
acad
  9
$ELEVATION
 40
0.0
  9
$PELEVATION
 40
0.0
  9
$THICKNESS
 40
0.0
  9
$LIMCHECK
 70
     0
  9
$BLIPMODE
 70
     0
  9
$CHAMFERA
 40
0.5
  9
$CHAMFERB
 40
0.5
  9
$SKPOLY
 70
     0
  9
$TDCREATE
 40
2450737.6611840278
  9
$TDUPDATE
 40
2454953.7693936229
  9
$TDINDWG
 40
0.0064995486
  9
$TDUSRTIMER
 40
0.0064995486
  9
$USRTIMER
 70
     1
  9
$ANGBASE
 50
0.0
  9
$ANGDIR
 70
     0
  9
$PDMODE
 70
     0
  9
$PDSIZE
 40
0.0
  9
$PLINEWID
 40
0.0
  9
$COORDS
 70
     1
  9
$SPLFRAME
 70
     0
  9
$SPLINETYPE
 70
     6
  9
$SPLINESEGS
 70
     8
  9
$ATTDIA
 70
     0
  9
$ATTREQ
 70
     1
  9
$HANDLING
 70
 10241
  9
$HANDSEED
  5
7ECF
  9
$SURFTAB1
 70
     6
  9
$SURFTAB2
 70
     6
  9
$SURFTYPE
 70
     6
  9
$SURFU
 70
     6
  9
$SURFV
 70
     6
  9
$UCSNAME
  2

  9
$UCSORG
 10
0.0
 20
0.0
 30
0.0
  9
$UCSXDIR
 10
1.0
 20
0.0
 30
0.0
  9
$UCSYDIR
 10
0.0
 20
1.0
 30
0.0
  9
$PUCSNAME
  2

  9
$PUCSORG
 10
0.0
 20
0.0
 30
0.0
  9
$PUCSXDIR
 10
1.0
 20
0.0
 30
0.0
  9
$PUCSYDIR
 10
0.0
 20
1.0
 30
0.0
  9
$USERI1
 70
     0
  9
$USERI2
 70
     0
  9
$USERI3
 70
     0
  9
$USERI4
 70
     0
  9
$USERI5
 70
     0
  9
$USERR1
 40
0.0
  9
$USERR2
 40
0.0
  9
$USERR3
 40
0.0
  9
$USERR4
 40
0.0
  9
$USERR5
 40
0.0
  9
$WORLDVIEW
 70
     1
  9
$SHADEDGE
 70
     3
  9
$SHADEDIF
 70
    70
  9
$TILEMODE
 70
     1
  9
$MAXACTVP
 70
    16
  9
$PLIMCHECK
 70
     0
  9
$PEXTMIN
 10
1.0000000000000000E+020
 20
1.0000000000000000E+020
 30
1.0000000000000000E+020
  9
$PEXTMAX
 10
-1.0000000000000000E+020
 20
-1.0000000000000000E+020
 30
-1.0000000000000000E+020
  9
$PLIMMIN
 10
0.0
 20
0.0
  9
$PLIMMAX
 10
12.0
 20
9.0
  9
$UNITMODE
 70
     0
  9
$VISRETAIN
 70
     0
  9
$PLINEGEN
 70
     0
  9
$PSLTSCALE
 70
     1
  0
ENDSEC
  0
SECTION
  2
TABLES
  0
TABLE
  2
VPORT
 70
     2
  0
VPORT
  2
*ACTIVE
 70
     0
 10
0.0
 20
0.0
 11
1.0
 21
1.0
 12
6292.1124769529506
 22
3086.6374998146398
 13
0.0
 23
0.0
 14
10.0
 24
10.0
 15
10.0
 25
10.0
 16
0.0
 26
0.0
 36
1.0
 17
0.0
 27
0.0
 37
0.0
 40
5011.4968576296578
 41
3.1666666666666661
 42
50.0
 43
0.0
 44
0.0
 50
0.0
 51
0.0
 71
     0
 72
   100
 73
     1
 74
     0
 75
     0
 76
     0
 77
     0
 78
     0
  0
ENDTAB
  0
TABLE
  2
LTYPE
 70
     2
  0
LTYPE
  2
CONTINUOUS
 70
     0
  3
Solid line
 72
    65
 73
     0
 40
0.0
  0
LTYPE
  2
CENTER
 70
     0
  3
____ _ ____ _ ____ _ ____ _ ____ _ ____ _ ____ 
 72
    65
 73
     4
 40
2.0
 49
1.25
 49
-0.25
 49
0.25
 49
-0.25
  0
ENDTAB
  0
TABLE
  2
LAYER
 70
     6
  0
LAYER
  2
0
 70
     0
 62
     7
  6
CONTINUOUS
  0
LAYER
  2
3
 70
     0
 62
     2
  6
CONTINUOUS
  0
LAYER
  2
2
 70
     0
 62
     3
  6
CENTER
  0
LAYER
  2
1
 70
     0
 62
     4
  6
CONTINUOUS
  0
LAYER
  2
4
 70
     0
 62
     7
  6
CONTINUOUS
  0
LAYER
  2
DEFPOINTS
 70
     0
 62
     7
  6
CONTINUOUS
  0
ENDTAB
  0
TABLE
  2
STYLE
 70
     1
  0
STYLE
  2
STANDARD
 70
     0
 40
0.0
 41
1.0
 50
0.0
 71
     0
 42
180.0
  3
simplex.shx
  4
extfont.shx
  0
ENDTAB
  0
TABLE
  2
VIEW
 70
     0
  0
ENDTAB
  0
TABLE
  2
UCS
 70
     0
  0
ENDTAB
  0
TABLE
  2
APPID
 70
     1
  0
APPID
  2
ACAD
 70
     0
  0
ENDTAB
  0
TABLE
  2
DIMSTYLE
 70
     1
  0
DIMSTYLE
  2
IGA
 70
     0
  3

  4

  5

  6
OPEN
  7
OPEN
 40
2.0
 41
2.0
 42
0.5
 43
10.0
 44
1.0
 45
0.0
 46
0.0
 47
1.0
 48
1.0
140
3.0
141
0.0
142
0.0
143
0.03937
144
1.0
145
0.0
146
10.0
147
1.0
 71
     0
 72
     0
 73
     0
 74
     0
 75
     0
 76
     0
 77
     1
 78
     8
170
     0
171
     2
172
     0
173
     1
174
     0
175
     0
176
     0
177
     0
178
     0
  0
ENDTAB
  0
ENDSEC
  0
SECTION
  2
BLOCKS
  0
BLOCK
  8
0
  2
$MODEL_SPACE
 70
     0
 10
0.0
 20
0.0
 30
0.0
  3
$MODEL_SPACE
  1

  0
ENDBLK
  5
1B
  8
0
  0
BLOCK
 67
     1
  8
0
  2
$PAPER_SPACE
 70
     0
 10
0.0
 20
0.0
 30
0.0
  3
$PAPER_SPACE
  1

  0
ENDBLK
  5
18
 67
     1
  8
0
  0
BLOCK
  8
0
  2
_OPEN
 70
     0
 10
0.0
 20
0.0
 30
0.0
  3
_OPEN
  1

  0
LINE
  5
7BCE
  8
0
  6
BYBLOCK
 62
     0
 10
-1.0
 20
0.166667
 30
0.0
 11
0.0
 21
0.0
 31
0.0
  0
LINE
  5
7BCF
  8
0
  6
BYBLOCK
 62
     0
 10
0.0
 20
0.0
 30
0.0
 11
-1.0
 21
-0.166667
 31
0.0
  0
LINE
  5
7BD0
  8
0
  6
BYBLOCK
 62
     0
 10
0.0
 20
0.0
 30
0.0
 11
-1.0
 21
0.0
 31
0.0
  0
ENDBLK
  5
7BD1
  8
0
  0
BLOCK
  8
0
  2
*D1
 70
     1
 10
0.0
 20
0.0
 30
0.0
  3
*D1
  1

  0
LINE
  5
7E31
  8
3
  6
CONTINUOUS
 62
     0
 10
950.98056099999985
 20
2291.6548550000002
 30
0.0
 11
826.41298500000028
 21
2291.6548550000002
 31
0.0
  0
LINE
  5
7E32
  8
3
  6
CONTINUOUS
 62
     0
 10
950.98056099999985
 20
1731.654855
 30
0.0
 11
826.41298500000005
 21
1731.654855
 31
0.0
  0
LINE
  5
7E33
  8
3
  6
CONTINUOUS
 62
     0
 10
846.41298500000016
 20
2251.6548550000002
 30
0.0
 11
846.41298500000016
 21
1771.6548549999991
 31
0.0
  0
INSERT
  5
7E34
  8
3
  6
CONTINUOUS
 62
     0
  2
_OPEN
 10
846.41298500000016
 20
2291.6548550000002
 30
0.0
 41
40.0
 42
40.0
 43
40.0
 50
90.0
  0
INSERT
  5
7E35
  8
3
  6
CONTINUOUS
 62
     0
  2
_OPEN
 10
846.41298500000016
 20
1731.654855
 30
0.0
 41
40.0
 42
40.0
 43
40.0
 50
270.0
  0
TEXT
  8
3
  40
60
  5
7EBF
  62
0
  72
0
  71
0
 10
676.413
 20
1890.40
 30
0.000000
  1
560
  0
POINT
  5
7E37
  8
DEFPOINTS
  6
CONTINUOUS
 62
     0
 10
960.98056099999997
 20
2291.6548550000002
 30
0.0
  0
POINT
  5
7E38
  8
DEFPOINTS
  6
CONTINUOUS
 62
     0
 10
960.98056099999997
 20
1731.654855
 30
0.0
  0
POINT
  5
7E39
  8
DEFPOINTS
  6
CONTINUOUS
 62
     0
 10
846.41298500000016
 20
1731.654855
 30
0.0
  0
ENDBLK
  5
7BE3
  8
0
  0
BLOCK
  8
0
  2
*D2
 70
     1
 10
0.0
 20
0.0
 30
0.0
  3
*D2
  1

  0
LINE
  5
7E3A
  8
3
  6
CONTINUOUS
 62
     0
 10
814.3282539999999
 20
2270.6548550000002
 30
0.0
 11
705.31101000000035
 21
2270.6548550000002
 31
0.0
  0
LINE
  5
7E3B
  8
3
  6
CONTINUOUS
 62
     0
 10
910.98056099999997
 20
1731.654855
 30
0.0
 11
705.31101000000024
 21
1731.654855
 31
0.0
  0
LINE
  5
7E3C
  8
3
  6
CONTINUOUS
 62
     0
 10
725.31101000000035
 20
2230.6548550000002
 30
0.0
 11
725.31101000000024
 21
1771.6548549999991
 31
0.0
  0
INSERT
  5
7E3D
  8
3
  6
CONTINUOUS
 62
     0
  2
_OPEN
 10
725.31101000000035
 20
2270.6548550000002
 30
0.0
 41
40.0
 42
40.0
 43
40.0
 50
90.0
  0
INSERT
  5
7E3E
  8
3
  6
CONTINUOUS
 62
     0
  2
_OPEN
 10
725.31101000000024
 20
1731.654855
 30
0.0
 41
40.0
 42
40.0
 43
40.0
 50
270.0
  0
TEXT
  8
3
  40
60
  5
7EC0
  62
0
  72
0
  71
0
 10
555.311
 20
1885.75
 30
0.000000
  1
539
  0
POINT
  5
7E40
  8
DEFPOINTS
  6
CONTINUOUS
 62
     0
 10
824.32825400000002
 20
2270.6548550000002
 30
0.0
  0
POINT
  5
7E41
  8
DEFPOINTS
  6
CONTINUOUS
 62
     0
 10
920.98056099999997
 20
1731.654855
 30
0.0
  0
POINT
  5
7E42
  8
DEFPOINTS
  6
CONTINUOUS
 62
     0
 10
725.31101000000024
 20
1731.654855
 30
0.0
  0
ENDBLK
  5
7BF0
  8
0
  0
BLOCK
  8
0
  2
*D3
 70
     1
 10
0.0
 20
0.0
 30
0.0
  3
*D3
  1

  0
LINE
  5
7E43
  8
3
  6
CONTINUOUS
 62
     0
 10
814.3282539999999
 20
2270.6548550000002
 30
0.0
 11
602.92057100000034
 21
2270.6548550000002
 31
0.0
  0
LINE
  5
7E44
  8
3
  6
CONTINUOUS
 62
     0
 10
1010.9805609999991
 20
1600.654855
 30
0.0
 11
602.92057100000022
 21
1600.654855
 31
0.0
  0
LINE
  5
7E45
  8
3
  6
CONTINUOUS
 62
     0
 10
622.92057100000034
 20
2230.6548550000002
 30
0.0
 11
622.92057100000022
 21
1640.654855
 31
0.0
  0
INSERT
  5
7E46
  8
3
  6
CONTINUOUS
 62
     0
  2
_OPEN
 10
622.92057100000034
 20
2270.6548550000002
 30
0.0
 41
40.0
 42
40.0
 43
40.0
 50
90.0
  0
INSERT
  5
7E47
  8
3
  6
CONTINUOUS
 62
     0
  2
_OPEN
 10
622.92057100000022
 20
1600.654855
 30
0.0
 41
40.0
 42
40.0
 43
40.0
 50
270.0
  0
TEXT
  8
3
  40
60
  5
7EC1
  62
0
  72
0
  71
0
 10
452.921
 20
1820.60
 30
0.000000
  1
670
  0
POINT
  5
7E49
  8
DEFPOINTS
  6
CONTINUOUS
 62
     0
 10
824.32825400000002
 20
2270.6548550000002
 30
0.0
  0
POINT
  5
7E4A
  8
DEFPOINTS
  6
CONTINUOUS
 62
     0
 10
1020.980561
 20
1600.654855
 30
0.0
  0
POINT
  5
7E4B
  8
DEFPOINTS
  6
CONTINUOUS
 62
     0
 10
622.92057100000022
 20
1600.654855
 30
0.0
  0
ENDBLK
  5
7D0C
  8
0
  0
BLOCK
  8
0
  2
*D4
 70
     1
 10
0.0
 20
0.0
 30
0.0
  3
*D4
  1

  0
LINE
  5
7E4C
  8
3
  6
CONTINUOUS
 62
     0
 10
1010.9805609999991
 20
1600.654855
 30
0.0
 11
604.20248300000026
 21
1600.654855
 31
0.0
  0
LINE
  5
7E4D
  8
3
  6
CONTINUOUS
 62
     0
 10
910.98056099999997
 20
1538.654855
 30
0.0
 11
604.20248300000026
 21
1538.654855
 31
0.0
  0
LINE
  5
7E4E
  8
3
  6
CONTINUOUS
 62
     0
 10
624.20248300000026
 20
1640.654855
 30
0.0
 11
624.20248300000026
 21
1680.654855
 31
0.0
  0
LINE
  5
7E4F
  8
3
  6
CONTINUOUS
 62
     0
 10
624.20248300000026
 20
1498.654855
 30
0.0
 11
624.20248300000026
 21
1321.5119978571429
 31
0.0
  0
LINE
  5
7E50
  8
3
  6
CONTINUOUS
 62
     0
 10
624.20248300000026
 20
1600.654855
 30
0.0
 11
624.20248300000026
 21
1538.654855
 31
0.0
  0
INSERT
  5
7E51
  8
3
  6
CONTINUOUS
 62
     0
  2
_OPEN
 10
624.20248300000026
 20
1600.654855
 30
0.0
 41
40.0
 42
40.0
 43
40.0
 50
270.0
  0
INSERT
  5
7E52
  8
3
  6
CONTINUOUS
 62
     0
  2
_OPEN
 10
624.20248300000026
 20
1538.654855
 30
0.0
 41
40.0
 42
40.0
 43
40.0
 50
90.0
  0
TEXT
  8
3
  40
60
  5
7EC2
  62
0
  72
0
  71
0
 10
454.202
 20
1283.88
 30
0.000000
  1
62
  0
POINT
  5
7E54
  8
DEFPOINTS
  6
CONTINUOUS
 62
     0
 10
1020.980561
 20
1600.654855
 30
0.0
  0
POINT
  5
7E55
  8
DEFPOINTS
  6
CONTINUOUS
 62
     0
 10
920.98056099999997
 20
1538.654855
 30
0.0
  0
POINT
  5
7E56
  8
DEFPOINTS
  6
CONTINUOUS
 62
     0
 10
624.20248300000026
 20
1538.654855
 30
0.0
  0
ENDBLK
  5
7D87
  8
0
  0
BLOCK
  8
0
  2
*D5
 70
     1
 10
0.0
 20
0.0
 30
0.0
  3
*D5
  1

  0
LINE
  5
7E57
  8
3
  6
CONTINUOUS
 62
     0
 10
920.98056099999997
 20
1528.654855
 30
0.0
 11
920.98056099999997
 21
1359.962692773481
 31
0.0
  0
LINE
  5
7E58
  8
3
  6
CONTINUOUS
 62
     0
 10
1365.9805609999989
 20
1459.169080014688
 30
0.0
 11
1365.9805609999989
 21
1359.962692773481
 31
0.0
  0
LINE
  5
7E59
  8
3
  6
CONTINUOUS
 62
     0
 10
960.98056099999997
 20
1379.962692773481
 30
0.0
 11
1325.9805609999989
 21
1379.962692773481
 31
0.0
  0
INSERT
  5
7E5A
  8
3
  6
CONTINUOUS
 62
     0
  2
_OPEN
 10
920.98056099999997
 20
1379.962692773481
 30
0.0
 41
40.0
 42
40.0
 43
40.0
 50
180.0
  0
INSERT
  5
7E5B
  8
3
  6
CONTINUOUS
 62
     0
  2
_OPEN
 10
1365.9805609999989
 20
1379.962692773481
 30
0.0
 41
40.0
 42
40.0
 43
40.0
  0
TEXT
  8
3
  40
60
  5
7EC3
  62
0
  72
0
  71
0
 10
1019.85
 20
1323.76
 30
0.000000
  1
445
  0
POINT
  5
7E5D
  8
DEFPOINTS
  6
CONTINUOUS
 62
     0
 10
920.98056099999997
 20
1538.654855
 30
0.0
  0
POINT
  5
7E5E
  8
DEFPOINTS
  6
CONTINUOUS
 62
     0
 10
1365.9805609999989
 20
1469.169080014688
 30
0.0
  0
POINT
  5
7E5F
  8
DEFPOINTS
  6
CONTINUOUS
 62
     0
 10
1365.9805609999989
 20
1379.962692773481
 30
0.0
  0
ENDBLK
  5
7DD3
  8
0
  0
BLOCK
  8
0
  2
*D6
 70
     1
 10
0.0
 20
0.0
 30
0.0
  3
*D6
  1

  0
LINE
  5
7E60
  8
3
  6
CONTINUOUS
 62
     0
 10
2370.9805609999999
 20
1528.654855
 30
0.0
 11
2370.9805609999999
 21
1359.962692773481
 31
0.0
  0
LINE
  5
7E61
  8
3
  6
CONTINUOUS
 62
     0
 10
1405.9805609999989
 20
1379.962692773481
 30
0.0
 11
2330.9805609999999
 21
1379.962692773481
 31
0.0
  0
INSERT
  5
7E62
  8
3
  6
CONTINUOUS
 62
     0
  2
_OPEN
 10
1365.9805609999989
 20
1379.962692773481
 30
0.0
 41
40.0
 42
40.0
 43
40.0
 50
180.0
  0
INSERT
  5
7E63
  8
3
  6
CONTINUOUS
 62
     0
  2
_OPEN
 10
2370.9805609999999
 20
1379.962692773481
 30
0.0
 41
40.0
 42
40.0
 43
40.0
  0
TEXT
  8
3
  40
60
  5
7EC4
  62
0
  72
0
  71
0
 10
1748.48
 20
1323.76
 30
0.000000
  1
1005
  0
POINT
  5
7E65
  8
DEFPOINTS
  6
CONTINUOUS
 62
     0
 10
1365.9805609999989
 20
1370.0351677734809
 30
0.0
  0
POINT
  5
7E66
  8
DEFPOINTS
  6
CONTINUOUS
 62
     0
 10
2370.9805609999999
 20
1538.654855
 30
0.0
  0
POINT
  5
7E67
  8
DEFPOINTS
  6
CONTINUOUS
 62
     0
 10
2370.9805609999999
 20
1379.962692773481
 30
0.0
  0
ENDBLK
  5
7DC8
  8
0
  0
BLOCK
  8
0
  2
*D7
 70
     1
 10
0.0
 20
0.0
 30
0.0
  3
*D7
  1

  0
LINE
  5
7E68
  8
3
  6
CONTINUOUS
 62
     0
 10
960.98056099999997
 20
2328.6548550000002
 30
0.0
 11
960.98056099999997
 21
2975.2084899999991
 31
0.0
  0
LINE
  5
7E69
  8
3
  6
CONTINUOUS
 62
     0
 10
1365.9805609999989
 20
2931.2121809999999
 30
0.0
 11
1365.9805609999989
 21
2975.2084899999991
 31
0.0
  0
LINE
  5
7E6A
  8
3
  6
CONTINUOUS
 62
     0
 10
1000.9805609999991
 20
2955.20849
 30
0.0
 11
1325.9805609999989
 21
2955.20849
 31
0.0
  0
INSERT
  5
7E6B
  8
3
  6
CONTINUOUS
 62
     0
  2
_OPEN
 10
960.98056099999997
 20
2955.20849
 30
0.0
 41
40.0
 42
40.0
 43
40.0
 50
180.0
  0
INSERT
  5
7E6C
  8
3
  6
CONTINUOUS
 62
     0
  2
_OPEN
 10
1365.9805609999989
 20
2955.20849
 30
0.0
 41
40.0
 42
40.0
 43
40.0
  0
TEXT
  8
3
  40
60
  5
7EC5
  62
0
  72
0
  71
0
 10
1038.48
 20
2899.01
 30
0.000000
  1
405
  0
POINT
  5
7E6E
  8
DEFPOINTS
  6
CONTINUOUS
 62
     0
 10
960.98056099999997
 20
2318.6548550000002
 30
0.0
  0
POINT
  5
7E6F
  8
DEFPOINTS
  6
CONTINUOUS
 62
     0
 10
1365.9805609999989
 20
2921.212180999999
 30
0.0
  0
POINT
  5
7E70
  8
DEFPOINTS
  6
CONTINUOUS
 62
     0
 10
1365.9805609999989
 20
2955.20849
 30
0.0
  0
ENDBLK
  5
7C33
  8
0
  0
BLOCK
  8
0
  2
*D8
 70
     1
 10
0.0
 20
0.0
 30
0.0
  3
*D8
  1

  0
LINE
  5
7E71
  8
3
  6
CONTINUOUS
 62
     0
 10
3368.708272103841
 20
2639.6548550000002
 30
0.0
 11
3368.708272103841
 21
2919.3673459999991
 31
0.0
  0
LINE
  5
7E72
  8
3
  6
CONTINUOUS
 62
     0
 10
2948.70827210384
 20
2639.6548550000002
 30
0.0
 11
2948.70827210384
 21
2919.3673459999991
 31
0.0
  0
LINE
  5
7E73
  8
3
  6
CONTINUOUS
 62
     0
 10
3328.70827210384
 20
2899.367346
 30
0.0
 11
2988.70827210384
 21
2899.367346
 31
0.0
  0
INSERT
  5
7E74
  8
3
  6
CONTINUOUS
 62
     0
  2
_OPEN
 10
3368.708272103841
 20
2899.367346
 30
0.0
 41
40.0
 42
40.0
 43
40.0
  0
INSERT
  5
7E75
  8
3
  6
CONTINUOUS
 62
     0
  2
_OPEN
 10
2948.70827210384
 20
2899.367346
 30
0.0
 41
40.0
 42
40.0
 43
40.0
 50
180.0
  0
TEXT
  8
3
  40
60
  5
7EC6
  62
0
  72
0
  71
0
 10
3023.31
 20
2843.17
 30
0.000000
  1
420
  0
POINT
  5
7E77
  8
DEFPOINTS
  6
CONTINUOUS
 62
     0
 10
3368.708272103841
 20
2629.6548550000002
 30
0.0
  0
POINT
  5
7E78
  8
DEFPOINTS
  6
CONTINUOUS
 62
     0
 10
2948.70827210384
 20
2629.6548550000002
 30
0.0
  0
POINT
  5
7E79
  8
DEFPOINTS
  6
CONTINUOUS
 62
     0
 10
2948.70827210384
 20
2899.367346
 30
0.0
  0
ENDBLK
  5
7C40
  8
0
  0
BLOCK
  8
0
  2
*D9
 70
     1
 10
0.0
 20
0.0
 30
0.0
  3
*D9
  1

  0
LINE
  5
7E7A
  8
3
  6
CONTINUOUS
 62
     0
 10
3380.70827210384
 20
2565.6548550000002
 30
0.0
 11
3670.5863781038411
 21
2565.6548550000002
 31
0.0
  0
LINE
  5
7E7B
  8
3
  6
CONTINUOUS
 62
     0
 10
3378.70827210384
 20
1975.654855
 30
0.0
 11
3670.5863781038411
 21
1975.6548549999991
 31
0.0
  0
LINE
  5
7E7C
  8
3
  6
CONTINUOUS
 62
     0
 10
3650.5863781038411
 20
2525.6548550000002
 30
0.0
 11
3650.5863781038411
 21
2015.6548549999991
 31
0.0
  0
INSERT
  5
7E7D
  8
3
  6
CONTINUOUS
 62
     0
  2
_OPEN
 10
3650.5863781038411
 20
2565.6548550000002
 30
0.0
 41
40.0
 42
40.0
 43
40.0
 50
90.0
  0
INSERT
  5
7E7E
  8
3
  6
CONTINUOUS
 62
     0
  2
_OPEN
 10
3650.5863781038411
 20
1975.6548549999991
 30
0.0
 41
40.0
 42
40.0
 43
40.0
 50
270.0
  0
TEXT
  8
3
  40
60
  5
7EC7
  62
0
  72
0
  71
0
 10
3480.59
 20
2155.65
 30
0.000000
  1
φ590
  0
POINT
  5
7E80
  8
DEFPOINTS
  6
CONTINUOUS
 62
     0
 10
3370.70827210384
 20
2565.6548550000002
 30
0.0
  0
POINT
  5
7E81
  8
DEFPOINTS
  6
CONTINUOUS
 62
     0
 10
3368.708272103841
 20
1975.654855
 30
0.0
  0
POINT
  5
7E82
  8
DEFPOINTS
  6
CONTINUOUS
 62
     0
 10
3650.5863781038411
 20
1975.6548549999991
 30
0.0
  0
ENDBLK
  5
7DA8
  8
0
  0
BLOCK
  8
0
  2
*D10
 70
     1
 10
0.0
 20
0.0
 30
0.0
  3
*D10
  1

  0
LINE
  5
7D94
  8
0
  6
BYBLOCK
 62
     0
 10
3370.70827210384
 20
2600.6548550000002
 30
0.0
 11
3370.70827210384
 21
3055.6434610000001
 31
0.0
  0
LINE
  5
7D95
  8
0
  6
BYBLOCK
 62
     0
 10
3158.70827210384
 20
3018.9625639999999
 30
0.0
 11
3158.70827210384
 21
3055.6434610000001
 31
0.0
  0
LINE
  5
7D96
  8
0
  6
BYBLOCK
 62
     0
 10
3330.70827210384
 20
3035.6434610000001
 30
0.0
 11
3198.70827210384
 21
3035.6434610000001
 31
0.0
  0
TEXT
  5
7D97
  8
3
 62
     0
 10
3193.2797006752689
 20
3057.536955749239
 30
0.0
 40
60.0
  1
212
  0
INSERT
  5
7D98
  8
0
  6
BYBLOCK
 62
     0
  2
_OPEN
 10
3370.70827210384
 20
3035.6434610000001
 30
0.0
 41
40.0
 42
40.0
 43
40.0
  0
INSERT
  5
7D99
  8
0
  6
BYBLOCK
 62
     0
  2
_OPEN
 10
3158.70827210384
 20
3035.6434610000001
 30
0.0
 41
40.0
 42
40.0
 43
40.0
 50
180.0
  0
POINT
  5
7D9A
  8
DEFPOINTS
  6
BYBLOCK
 62
     0
 10
3370.70827210384
 20
2590.6548550000002
 30
0.0
  0
POINT
  5
7D9B
  8
DEFPOINTS
  6
BYBLOCK
 62
     0
 10
3158.70827210384
 20
3008.9625639999999
 30
0.0
  0
POINT
  5
7D9C
  8
DEFPOINTS
  6
BYBLOCK
 62
     0
 10
3158.70827210384
 20
3035.6434610000001
 30
0.0
  0
ENDBLK
  5
7D9D
  8
0
  0
BLOCK
  8
0
  2
*D11
 70
     1
 10
0.0
 20
0.0
 30
0.0
  3
*D11
  1

  0
LINE
  5
7E83
  8
3
  6
CONTINUOUS
 62
     0
 10
2748.70827210384
 20
1528.654855
 30
0.0
 11
2748.70827210384
 21
1362.74638247709
 31
0.0
  0
LINE
  5
7E84
  8
3
  6
CONTINUOUS
 62
     0
 10
3158.70827210384
 20
1465.8174824770899
 30
0.0
 11
3158.70827210384
 21
1362.74638247709
 31
0.0
  0
LINE
  5
7E85
  8
3
  6
CONTINUOUS
 62
     0
 10
2788.70827210384
 20
1382.74638247709
 30
0.0
 11
3118.70827210384
 21
1382.74638247709
 31
0.0
  0
INSERT
  5
7E86
  8
3
  6
CONTINUOUS
 62
     0
  2
_OPEN
 10
2748.70827210384
 20
1382.74638247709
 30
0.0
 41
40.0
 42
40.0
 43
40.0
 50
180.0
  0
INSERT
  5
7E87
  8
3
  6
CONTINUOUS
 62
     0
  2
_OPEN
 10
3158.70827210384
 20
1382.74638247709
 30
0.0
 41
40.0
 42
40.0
 43
40.0
  0
TEXT
  8
3
  40
60
  5
7EC8
  62
0
  72
0
  71
0
 10
2837.00
 20
1326.55
 30
0.000000
  1
410
  0
POINT
  5
7E89
  8
DEFPOINTS
  6
CONTINUOUS
 62
     0
 10
2748.70827210384
 20
1538.654855
 30
0.0
  0
POINT
  5
7E8A
  8
DEFPOINTS
  6
CONTINUOUS
 62
     0
 10
3158.70827210384
 20
1475.8174824770899
 30
0.0
  0
POINT
  5
7E8B
  8
DEFPOINTS
  6
CONTINUOUS
 62
     0
 10
3158.70827210384
 20
1382.74638247709
 30
0.0
  0
ENDBLK
  5
7DDE
  8
0
  0
BLOCK
  8
0
  2
*D12
 70
     1
 10
0.0
 20
0.0
 30
0.0
  3
*D12
  1

  0
LINE
  5
7E8C
  8
3
  6
CONTINUOUS
 62
     0
 10
3498.70827210384
 20
1528.654855
 30
0.0
 11
3498.70827210384
 21
1362.74638247709
 31
0.0
  0
LINE
  5
7E8D
  8
3
  6
CONTINUOUS
 62
     0
 10
3198.70827210384
 20
1382.74638247709
 30
0.0
 11
3458.70827210384
 21
1382.74638247709
 31
0.0
  0
INSERT
  5
7E8E
  8
3
  6
CONTINUOUS
 62
     0
  2
_OPEN
 10
3158.70827210384
 20
1382.74638247709
 30
0.0
 41
40.0
 42
40.0
 43
40.0
 50
180.0
  0
INSERT
  5
7E8F
  8
3
  6
CONTINUOUS
 62
     0
  2
_OPEN
 10
3498.70827210384
 20
1382.74638247709
 30
0.0
 41
40.0
 42
40.0
 43
40.0
  0
TEXT
  8
3
  40
60
  5
7EC9
  62
0
  72
0
  71
0
 10
3208.71
 20
1326.55
 30
0.000000
  1
340
  0
POINT
  5
7E91
  8
DEFPOINTS
  6
CONTINUOUS
 62
     0
 10
3158.70827210384
 20
1475.8174824770899
 30
0.0
  0
POINT
  5
7E92
  8
DEFPOINTS
  6
CONTINUOUS
 62
     0
 10
3498.70827210384
 20
1538.654855
 30
0.0
  0
POINT
  5
7E93
  8
DEFPOINTS
  6
CONTINUOUS
 62
     0
 10
3498.70827210384
 20
1382.74638247709
 30
0.0
  0
ENDBLK
  5
7DE8
  8
0
  0
BLOCK
  8
0
  2
*D13
 70
     1
 10
0.0
 20
0.0
 30
0.0
  3
*D13
  1

  0
LINE
  5
7E94
  8
3
  6
CONTINUOUS
 62
     0
 10
2738.70827210384
 20
2838.6548550000002
 30
0.0
 11
2587.6693701038412
 21
2838.6548550000002
 31
0.0
  0
LINE
  5
7E95
  8
3
  6
CONTINUOUS
 62
     0
 10
2738.70827210384
 20
1538.654855
 30
0.0
 11
2587.6693701038412
 21
1538.654855
 31
0.0
  0
LINE
  5
7E96
  8
3
  6
CONTINUOUS
 62
     0
 10
2607.6693701038412
 20
2798.6548550000002
 30
0.0
 11
2607.6693701038412
 21
1578.654855
 31
0.0
  0
INSERT
  5
7E97
  8
3
  6
CONTINUOUS
 62
     0
  2
_OPEN
 10
2607.6693701038412
 20
2838.6548550000002
 30
0.0
 41
40.0
 42
40.0
 43
40.0
 50
90.0
  0
INSERT
  5
7E98
  8
3
  6
CONTINUOUS
 62
     0
  2
_OPEN
 10
2607.6693701038412
 20
1538.654855
 30
0.0
 41
40.0
 42
40.0
 43
40.0
 50
270.0
  0
TEXT
  8
3
  40
60
  5
7ECA
  62
0
  72
0
  71
0
 10
2437.67
 20
2043.97
 30
0.000000
  1
1300
  0
POINT
  5
7E9A
  8
DEFPOINTS
  6
CONTINUOUS
 62
     0
 10
2748.70827210384
 20
2838.6548550000002
 30
0.0
  0
POINT
  5
7E9B
  8
DEFPOINTS
  6
CONTINUOUS
 62
     0
 10
2748.70827210384
 20
1538.654855
 30
0.0
  0
POINT
  5
7E9C
  8
DEFPOINTS
  6
CONTINUOUS
 62
     0
 10
2607.6693701038412
 20
1538.654855
 30
0.0
  0
ENDBLK
  5
7C90
  8
0
  0
BLOCK
  8
0
  2
*D14
 70
     1
 10
0.0
 20
0.0
 30
0.0
  3
*D14
  1

  0
LINE
  5
7E9D
  8
3
  6
CONTINUOUS
 62
     0
 10
920.98056099999997
 20
4105.6548549999998
 30
0.0
 11
920.98056099999997
 21
4306.8056749999987
 31
0.0
  0
LINE
  5
7E9E
  8
3
  6
CONTINUOUS
 62
     0
 10
2370.9805609999999
 20
4105.6548549999998
 30
0.0
 11
2370.9805609999999
 21
4306.8056749999987
 31
0.0
  0
LINE
  5
7E9F
  8
3
  6
CONTINUOUS
 62
     0
 10
960.98056099999997
 20
4286.8056749999987
 30
0.0
 11
2330.9805609999999
 21
4286.8056749999987
 31
0.0
  0
INSERT
  5
7EA0
  8
3
  6
CONTINUOUS
 62
     0
  2
_OPEN
 10
920.98056099999997
 20
4286.8056749999987
 30
0.0
 41
40.0
 42
40.0
 43
40.0
 50
180.0
  0
INSERT
  5
7EA1
  8
3
  6
CONTINUOUS
 62
     0
  2
_OPEN
 10
2370.9805609999999
 20
4286.8056749999987
 30
0.0
 41
40.0
 42
40.0
 43
40.0
  0
TEXT
  8
3
  40
60
  5
7ECB
  62
0
  72
0
  71
0
 10
1536.86
 20
4230.61
 30
0.000000
  1
1450
  0
POINT
  5
7EA3
  8
DEFPOINTS
  6
CONTINUOUS
 62
     0
 10
920.98056099999997
 20
4095.6548550000002
 30
0.0
  0
POINT
  5
7EA4
  8
DEFPOINTS
  6
CONTINUOUS
 62
     0
 10
2370.9805609999999
 20
4095.6548550000002
 30
0.0
  0
POINT
  5
7EA5
  8
DEFPOINTS
  6
CONTINUOUS
 62
     0
 10
2370.9805609999999
 20
4286.8056749999987
 30
0.0
  0
ENDBLK
  5
7CEA
  8
0
  0
BLOCK
  8
0
  2
*D15
 70
     1
 10
0.0
 20
0.0
 30
0.0
  3
*D15
  1

  0
LINE
  5
7EA6
  8
3
  6
CONTINUOUS
 62
     0
 10
2380.9805609999989
 20
4095.6548550000002
 30
0.0
 11
2601.1721790000001
 21
4095.6548550000002
 31
0.0
  0
LINE
  5
7EA7
  8
3
  6
CONTINUOUS
 62
     0
 10
2380.9805609999989
 20
3345.6548550000002
 30
0.0
 11
2601.1721790000001
 21
3345.6548550000002
 31
0.0
  0
LINE
  5
7EA8
  8
3
  6
CONTINUOUS
 62
     0
 10
2581.1721790000001
 20
4055.6548549999989
 30
0.0
 11
2581.1721790000001
 21
3385.6548550000002
 31
0.0
  0
INSERT
  5
7EA9
  8
3
  6
CONTINUOUS
 62
     0
  2
_OPEN
 10
2581.1721790000001
 20
4095.6548550000002
 30
0.0
 41
40.0
 42
40.0
 43
40.0
 50
90.0
  0
INSERT
  5
7EAA
  8
3
  6
CONTINUOUS
 62
     0
  2
_OPEN
 10
2581.1721790000001
 20
3345.6548550000002
 30
0.0
 41
40.0
 42
40.0
 43
40.0
 50
270.0
  0
TEXT
  8
3
  40
60
  5
7ECC
  62
0
  72
0
  71
0
 10
2411.17
 20
3609.81
 30
0.000000
  1
750
  0
POINT
  5
7EAC
  8
DEFPOINTS
  6
CONTINUOUS
 62
     0
 10
2370.9805609999999
 20
4095.6548550000002
 30
0.0
  0
POINT
  5
7EAD
  8
DEFPOINTS
  6
CONTINUOUS
 62
     0
 10
2370.9805609999999
 20
3345.6548550000002
 30
0.0
  0
POINT
  5
7EAE
  8
DEFPOINTS
  6
CONTINUOUS
 62
     0
 10
2581.1721790000001
 20
3345.6548550000002
 30
0.0
  0
ENDBLK
  5
7CF5
  8
0
  0
BLOCK
  8
0
  2
*D16
 70
     1
 10
0.0
 20
0.0
 30
0.0
  3
*D16
  1

  0
LINE
  5
7EAF
  8
3
 62
     0
 10
995.98056099999997
 20
2680.6548550000002
 30
0.0
 11
602.920571
 21
2680.6548550000002
 31
0.0
  0
LINE
  5
7EB0
  8
3
 62
     0
 10
622.920571
 20
2310.6548550000002
 30
0.0
 11
622.920571
 21
2640.6548550000002
 31
0.0
  0
INSERT
  5
7EB1
  8
3
 62
     0
  2
_OPEN
 10
622.92057099999977
 20
2270.6548550000002
 30
0.0
 41
40.0
 42
40.0
 43
40.0
 50
270.0
  0
INSERT
  5
7EB2
  8
3
 62
     0
  2
_OPEN
 10
622.920571
 20
2680.6548550000002
 30
0.0
 41
40.0
 42
40.0
 43
40.0
 50
90.0
  0
TEXT
  8
3
  40
60
  5
7ECD
  62
0
  72
0
  71
0
 10
452.921
 20
2369.45
 30
0.000000
  1
410
  0
POINT
  5
7EB4
  8
DEFPOINTS
 62
     0
 10
824.32825400000002
 20
2270.6548550000002
 30
0.0
  0
POINT
  5
7EB5
  8
DEFPOINTS
 62
     0
 10
1005.980561
 20
2680.6548550000002
 30
0.0
  0
POINT
  5
7EB6
  8
DEFPOINTS
 62
     0
 10
622.920571
 20
2680.6548550000002
 30
0.0
  0
ENDBLK
  5
7D79
  8
0
  0
BLOCK
  8
0
  2
*D17
 70
     1
 10
0.0
 20
0.0
 30
0.0
  3
*D17
  1

  0
LINE
  5
7EB7
  8
3
 62
     0
 10
1840.9805610000001
 20
2287.7219218980058
 30
0.0
 11
1840.9805610000001
 21
2975.2084899999991
 31
0.0
  0
LINE
  5
7EB8
  8
3
 62
     0
 10
1405.9805609999989
 20
2955.20849
 30
0.0
 11
1800.9805609999989
 21
2955.20849
 31
0.0
  0
INSERT
  5
7EB9
  8
3
 62
     0
  2
_OPEN
 10
1365.9805609999989
 20
2955.20849
 30
0.0
 41
40.0
 42
40.0
 43
40.0
 50
180.0
  0
INSERT
  5
7EBA
  8
3
 62
     0
  2
_OPEN
 10
1840.9805610000001
 20
2955.20849
 30
0.0
 41
40.0
 42
40.0
 43
40.0
  0
TEXT
  8
3
  40
60
  5
7ECE
  62
0
  72
0
  71
0
 10
1483.48
 20
2899.01
 30
0.000000
  1
475
  0
POINT
  5
7EBC
  8
DEFPOINTS
 62
     0
 10
1365.9805609999989
 20
2921.212180999999
 30
0.0
  0
POINT
  5
7EBD
  8
DEFPOINTS
 62
     0
 10
1840.9805610000001
 20
2277.7219218980058
 30
0.0
  0
POINT
  5
7EBE
  8
DEFPOINTS
 62
     0
 10
1840.9805610000001
 20
2955.20849
 30
0.0
  0
ENDBLK
  5
7E0E
  8
0
  0
ENDSEC
  0
SECTION
  2
ENTITIES
  0
LINE
  5
7AD7
  8
1
  6
CONTINUOUS
 10
2330.9805609999999
 20
3385.6548550000002
 30
0.0
 11
960.98056099999997
 21
3385.6548550000002
 31
0.0
  0
LINE
  5
7AD8
  8
1
  6
CONTINUOUS
 10
960.98056099999997
 20
4055.6548549999989
 30
0.0
 11
2330.9805609999999
 21
4055.6548549999989
 31
0.0
  0
LINE
  5
7AD9
  8
1
  6
CONTINUOUS
 10
2330.9805609999999
 20
1578.654855
 30
0.0
 11
960.98056099999997
 21
1578.654855
 31
0.0
  0
LINE
  5
7ADA
  8
1
  6
CONTINUOUS
 10
960.98056099999997
 20
2798.6548550000002
 30
0.0
 11
2330.9805609999999
 21
2798.6548550000002
 31
0.0
  0
LINE
  5
7ADB
  8
1
  6
CONTINUOUS
 10
1020.980561
 20
1600.654855
 30
0.0
 11
2270.9805609999999
 21
1600.654855
 31
0.0
  0
LINE
  5
7ADC
  8
1
  6
CONTINUOUS
 10
1005.980561
 20
1680.654855
 30
0.0
 11
2270.9805609999999
 21
1680.654855
 31
0.0
  0
LINE
  5
7ADD
  8
1
  6
CONTINUOUS
 10
1020.980561
 20
4010.6548550000002
 30
0.0
 11
2270.9805609999999
 21
4010.6548550000002
 31
0.0
  0
LINE
  5
7ADE
  8
1
  6
CONTINUOUS
 10
2084.9805609999999
 20
3500.6548550000002
 30
0.0
 11
2270.9805609999999
 21
3500.6548550000002
 31
0.0
  0
LINE
  5
7ADF
  8
1
  6
CONTINUOUS
 10
2370.9805609999999
 20
4095.6548550000002
 30
0.0
 11
920.98056099999997
 21
4095.6548550000002
 31
0.0
  0
LINE
  5
7AE0
  8
1
  6
CONTINUOUS
 10
2370.9805609999999
 20
3345.6548550000002
 30
0.0
 11
920.98056099999997
 21
3345.6548550000002
 31
0.0
  0
LINE
  5
7AE1
  8
1
  6
CONTINUOUS
 10
920.98056099999997
 20
2838.6548550000002
 30
0.0
 11
2370.9805609999999
 21
2838.6548550000002
 31
0.0
  0
LINE
  5
7AE2
  8
1
  6
CONTINUOUS
 10
920.98056099999997
 20
1538.654855
 30
0.0
 11
2370.9805609999999
 21
1538.654855
 31
0.0
  0
LINE
  5
7AE3
  8
1
  6
CONTINUOUS
 10
960.98056099999997
 20
1578.654855
 30
0.0
 11
960.98056099999997
 21
2798.6548550000002
 31
0.0
  0
ARC
  5
7AE4
  8
1
  6
CONTINUOUS
 10
1390.7629683442831
 20
2217.6816033101231
 30
0.0
 40
454.20339122374412
 50
7.5960570962559224
 51
96.125120685651567
  0
LINE
  5
7AE5
  8
1
  6
CONTINUOUS
 10
920.98056099999997
 20
2838.6548550000002
 30
0.0
 11
920.98056099999997
 21
1538.654855
 31
0.0
  0
ARC
  5
7AE6
  8
1
  6
CONTINUOUS
 10
1389.9805609999989
 20
2294.6548550000002
 30
0.0
 40
377.65927299999993
 50
97.253195000000005
 51
180.45514299999991
  0
LINE
  5
7AE7
  8
1
  6
CONTINUOUS
 10
960.98056099999997
 20
1731.654855
 30
0.0
 11
1365.9805609999989
 21
1733.654855
 31
0.0
  0
LINE
  5
7AE8
  8
1
  6
CONTINUOUS
 10
1005.980561
 20
2680.6548550000002
 30
0.0
 11
1725.9805609999989
 21
2680.6548550000002
 31
0.0
  0
LINE
  5
7AE9
  8
1
  6
CONTINUOUS
 10
1005.980561
 20
1680.654855
 30
0.0
 11
1725.9805609999989
 21
1680.654855
 31
0.0
  0
CIRCLE
  5
7AEA
  8
1
  6
CONTINUOUS
 10
1365.9805609999989
 20
2270.6548550000002
 30
0.0
 40
320.0
  0
LINE
  5
7AEB
  8
1
  6
CONTINUOUS
 10
960.98056099999997
 20
2318.6548550000002
 30
0.0
 11
960.98056099999997
 21
1704.654855
 31
0.0
  0
LINE
  5
7AEC
  8
1
  6
CONTINUOUS
 10
1005.980561
 20
1680.654855
 30
0.0
 11
1005.980561
 21
2680.6548550000002
 31
0.0
  0
LINE
  5
7AED
  8
1
  6
CONTINUOUS
 10
985.98056099999997
 20
2291.6548550000002
 30
0.0
 11
985.98056099999997
 21
1731.7783119999999
 31
0.0
  0
LINE
  5
7AEE
  8
1
  6
CONTINUOUS
 10
1020.980561
 20
1680.654855
 30
0.0
 11
1020.980561
 21
1600.654855
 31
0.0
  0
LINE
  5
7AEF
  8
1
  6
CONTINUOUS
 10
1012.333203999999
 20
2291.6548550000002
 30
0.0
 11
960.98056099999997
 21
2291.6548550000002
 31
0.0
  0
ARC
  5
7AF0
  8
1
  6
CONTINUOUS
 10
1318.3085234215339
 20
2254.6590136734212
 30
0.0
 40
523.18061565983169
 50
275.2280235147627
 51
2.526537885186821
  0
LINE
  5
7AF1
  8
1
  6
CONTINUOUS
 10
1365.4805610000001
 20
2515.6548550000002
 30
0.0
 11
2225.4805609999989
 21
1910.6548549999991
 31
0.0
  0
LINE
  5
7AF2
  8
1
  6
CONTINUOUS
 10
2103.4451419999991
 20
1921.785263
 30
0.0
 11
1419.501391
 21
2355.1268669999999
 31
0.0
  0
LINE
  5
7AF3
  8
1
  6
CONTINUOUS
 10
2032.99452
 20
1800.914098
 30
0.0
 11
1318.857645
 21
2182.4537730000002
 31
0.0
  0
LINE
  5
7AF4
  8
1
  6
CONTINUOUS
 10
1095.4805610000001
 20
1680.654855
 30
0.0
 11
1095.4805610000001
 21
2430.6548550000002
 31
0.0
  0
CIRCLE
  5
7AF5
  8
1
  6
CONTINUOUS
 10
1365.9805609999989
 20
2270.6548550000002
 30
0.0
 40
100.0
  0
LINE
  5
7AF6
  8
2
  6
CENTER
 10
824.32825400000002
 20
2270.6548550000002
 30
0.0
 11
2071.781334486735
 21
2270.6548550000002
 31
0.0
  0
CIRCLE
  5
7AF7
  8
1
  6
CONTINUOUS
 10
1365.9805609999989
 20
2270.6548550000002
 30
0.0
 40
295.0
  0
LINE
  5
7AF8
  8
1
  6
CONTINUOUS
 10
1095.4805610000001
 20
2430.6548550000002
 30
0.0
 11
1365.4805610000001
 21
2515.6548550000002
 31
0.0
  0
LINE
  5
7AF9
  8
2
  6
CENTER
 10
1365.9805609999989
 20
4167.029826
 30
0.0
 11
1365.9805609999989
 21
3245.6438599999992
 31
0.0
  0
LINE
  5
7AFA
  8
1
  6
CONTINUOUS
 10
1725.9805609999989
 20
1680.654855
 30
0.0
 11
1725.9805609999989
 21
2680.6548550000002
 31
0.0
  0
CIRCLE
  5
7AFB
  8
1
  6
CONTINUOUS
 10
2065.9805609999989
 20
1862.6548549999991
 30
0.0
 40
70.0
  0
LINE
  5
7AFC
  8
1
  6
CONTINUOUS
 10
2225.4805609999989
 20
1680.654855
 30
0.0
 11
2225.4805609999989
 21
1910.6548549999991
 31
0.0
  0
ARC
  5
7AFD
  8
1
  6
CONTINUOUS
 10
2065.9805609999989
 20
1862.6548549999991
 30
0.0
 40
142.0
 50
324.59875699999998
 51
215.40124299999999
  0
LINE
  5
7AFE
  8
2
  6
CENTER
 10
2065.9805609999989
 20
1792.654855
 30
0.0
 11
2065.9805609999989
 21
1932.654855
 31
0.0
  0
LINE
  5
7AFF
  8
1
  6
CONTINUOUS
 10
2195.9805609999999
 20
1680.654855
 30
0.0
 11
1935.9805610000001
 21
1680.654855
 31
0.0
  0
LINE
  5
7B00
  8
1
  6
CONTINUOUS
 10
1935.9805610000001
 20
1745.654855
 30
0.0
 11
1950.2341980000001
 21
1780.3944180000001
 31
0.0
  0
LINE
  5
7B01
  8
1
  6
CONTINUOUS
 10
1935.9805610000001
 20
1680.654855
 30
0.0
 11
1935.9805610000001
 21
1745.654855
 31
0.0
  0
LINE
  5
7B02
  8
2
  6
CENTER
 10
2135.9805609999989
 20
1862.6548549999991
 30
0.0
 11
1995.9805610000001
 21
1862.6548549999991
 31
0.0
  0
LINE
  5
7B03
  8
1
  6
CONTINUOUS
 10
2195.9805609999999
 20
1680.654855
 30
0.0
 11
2195.9805609999999
 21
1745.654855
 31
0.0
  0
LINE
  5
7B04
  8
1
  6
CONTINUOUS
 10
2195.9805609999999
 20
1745.654855
 30
0.0
 11
2181.7269240000001
 21
1780.3944180000001
 31
0.0
  0
LINE
  5
7B05
  8
1
  6
CONTINUOUS
 10
1830.3476920000001
 20
3965.6548550000002
 30
0.0
 11
960.98056099999997
 21
3965.6548550000002
 31
0.0
  0
LINE
  5
7B06
  8
1
  6
CONTINUOUS
 10
1830.3476920000001
 20
3545.6548550000002
 30
0.0
 11
960.98056099999997
 21
3545.6548550000002
 31
0.0
  0
LINE
  5
7B07
  8
1
  6
CONTINUOUS
 10
1020.980561
 20
3500.6548550000002
 30
0.0
 11
1349.9805609999989
 21
3500.6548550000002
 31
0.0
  0
LINE
  5
7B08
  8
1
  6
CONTINUOUS
 10
1045.9805609999989
 20
3967.6548550000002
 30
0.0
 11
1685.9805610000001
 21
3967.6548550000002
 31
0.0
  0
LINE
  5
7B09
  8
1
  6
CONTINUOUS
 10
960.98056099999997
 20
3385.6548550000002
 30
0.0
 11
960.98056099999997
 21
4055.6548549999989
 31
0.0
  0
LINE
  5
7B0A
  8
1
  6
CONTINUOUS
 10
985.98056099999997
 20
3965.6548550000002
 30
0.0
 11
985.98056099999997
 21
3545.6548550000002
 31
0.0
  0
LINE
  5
7B0B
  8
1
  6
CONTINUOUS
 10
960.98056099999997
 20
3992.6548549999989
 30
0.0
 11
960.98056099999997
 21
3518.6548549999989
 31
0.0
  0
LINE
  5
7B0C
  8
1
  6
CONTINUOUS
 10
920.98056099999997
 20
4095.6548550000002
 30
0.0
 11
920.98056099999997
 21
3345.6548550000002
 31
0.0
  0
LINE
  5
7B0D
  8
1
  6
CONTINUOUS
 10
1020.980561
 20
3545.6548550000002
 30
0.0
 11
1020.980561
 21
3500.6548550000002
 31
0.0
  0
LINE
  5
7B0E
  8
1
  6
CONTINUOUS
 10
1020.980561
 20
4010.6548550000002
 30
0.0
 11
1020.980561
 21
3965.6548550000002
 31
0.0
  0
LINE
  5
7B0F
  8
1
  6
CONTINUOUS
 10
1045.9805609999989
 20
3965.6548550000002
 30
0.0
 11
1045.9805609999989
 21
3967.6548550000002
 31
0.0
  0
LINE
  5
7B10
  8
1
  6
CONTINUOUS
 10
1095.4805610000001
 20
3465.6548549999989
 30
0.0
 11
2225.4805609999989
 21
3465.6548549999989
 31
0.0
  0
LINE
  5
7B11
  8
1
  6
CONTINUOUS
 10
1381.9805609999989
 20
3500.6548550000002
 30
0.0
 11
2046.9805609999989
 21
3500.6548550000002
 31
0.0
  0
LINE
  5
7B12
  8
1
  6
CONTINUOUS
 10
1465.9805610000001
 20
3435.6548550000002
 30
0.0
 11
1265.9805610000001
 21
3435.6548550000002
 31
0.0
  0
LINE
  5
7B13
  8
1
  6
CONTINUOUS
 10
1465.9805610000001
 20
3375.6548550000002
 30
0.0
 11
1265.9805610000001
 21
3375.6548550000002
 31
0.0
  0
LINE
  5
7B14
  8
1
  6
CONTINUOUS
 10
1095.4805610000001
 20
3345.6548550000002
 30
0.0
 11
1095.4805610000001
 21
3465.6548549999989
 31
0.0
  0
LINE
  5
7B15
  8
1
  6
CONTINUOUS
 10
1265.9805610000001
 20
3375.6548550000002
 30
0.0
 11
1265.9805610000001
 21
3435.6548550000002
 31
0.0
  0
LINE
  5
7B16
  8
1
  6
CONTINUOUS
 10
1349.9805609999989
 20
3545.6548550000002
 30
0.0
 11
1349.9805609999989
 21
3435.6548550000002
 31
0.0
  0
LINE
  5
7B17
  8
1
  6
CONTINUOUS
 10
1381.9805609999989
 20
3545.6548550000002
 30
0.0
 11
1381.9805609999989
 21
3435.6548550000002
 31
0.0
  0
LINE
  5
7B18
  8
1
  6
CONTINUOUS
 10
1465.9805610000001
 20
3375.6548550000002
 30
0.0
 11
1465.9805610000001
 21
3435.6548550000002
 31
0.0
  0
LINE
  5
7B19
  8
1
  6
CONTINUOUS
 10
1830.3476920000001
 20
3545.6548550000002
 30
0.0
 11
1830.3476920000001
 21
3965.6548550000002
 31
0.0
  0
LINE
  5
7B1A
  8
1
  6
CONTINUOUS
 10
2207.9805609999989
 20
3919.3926879999999
 30
0.0
 11
2207.9805609999989
 21
3519.3926879999999
 31
0.0
  0
LINE
  5
7B1B
  8
1
  6
CONTINUOUS
 10
1923.9805609999989
 20
3919.3926879999999
 30
0.0
 11
1923.9805609999989
 21
3519.3926879999999
 31
0.0
  0
LINE
  5
7B1C
  8
1
  6
CONTINUOUS
 10
2207.9805609999989
 20
3519.3926879999999
 30
0.0
 11
1923.9805609999989
 21
3519.3926879999999
 31
0.0
  0
LINE
  5
7B1D
  8
1
  6
CONTINUOUS
 10
2135.9805609999989
 20
3375.6548550000002
 30
0.0
 11
1995.9805610000001
 21
3375.6548550000002
 31
0.0
  0
LINE
  5
7B1E
  8
1
  6
CONTINUOUS
 10
2135.9805609999989
 20
3435.6548550000002
 30
0.0
 11
1995.9805610000001
 21
3435.6548550000002
 31
0.0
  0
LINE
  5
7B1F
  8
1
  6
CONTINUOUS
 10
1995.9805610000001
 20
3375.6548550000002
 30
0.0
 11
1995.9805610000001
 21
3435.6548550000002
 31
0.0
  0
LINE
  5
7B20
  8
1
  6
CONTINUOUS
 10
2046.9805609999989
 20
3435.6548550000002
 30
0.0
 11
2046.9805609999989
 21
3519.3926879999999
 31
0.0
  0
LINE
  5
7B21
  8
1
  6
CONTINUOUS
 10
2084.9805609999999
 20
3435.6548550000002
 30
0.0
 11
2084.9805609999999
 21
3519.3926879999999
 31
0.0
  0
LINE
  5
7B22
  8
1
  6
CONTINUOUS
 10
2135.9805609999989
 20
3375.6548550000002
 30
0.0
 11
2135.9805609999989
 21
3435.6548550000002
 31
0.0
  0
LINE
  5
7B23
  8
1
  6
CONTINUOUS
 10
2225.4805609999989
 20
3345.6548550000002
 30
0.0
 11
2225.4805609999989
 21
3465.6548549999989
 31
0.0
  0
LINE
  5
7B24
  8
1
  6
CONTINUOUS
 10
2207.9805609999989
 20
3919.3926879999999
 30
0.0
 11
1923.9805609999989
 21
3919.3926879999999
 31
0.0
  0
LINE
  5
7B25
  8
1
  6
CONTINUOUS
 10
1685.9805610000001
 20
3965.6548550000002
 30
0.0
 11
1685.9805610000001
 21
3967.6548550000002
 31
0.0
  0
LINE
  5
7B26
  8
1
  6
CONTINUOUS
 10
3458.70827210384
 20
1578.654855
 30
0.0
 11
3458.70827210384
 21
2798.6548550000002
 31
0.0
  0
LINE
  5
7B27
  8
1
  6
CONTINUOUS
 10
2788.70827210384
 20
2798.6548550000002
 30
0.0
 11
2788.70827210384
 21
1578.654855
 31
0.0
  0
LINE
  5
7B2A
  8
1
  6
CONTINUOUS
 10
2330.9805609999999
 20
2798.6548550000002
 30
0.0
 11
2330.9805609999999
 21
1578.654855
 31
0.0
  0
LINE
  5
7B2B
  8
1
  6
CONTINUOUS
 10
2370.9805609999999
 20
2838.6548550000002
 30
0.0
 11
2370.9805609999999
 21
1538.654855
 31
0.0
  0
LINE
  5
7B2C
  8
1
  6
CONTINUOUS
 10
3498.70827210384
 20
2838.6548550000002
 30
0.0
 11
3498.70827210384
 21
1538.654855
 31
0.0
  0
LINE
  5
7B2D
  8
1
  6
CONTINUOUS
 10
2748.70827210384
 20
2838.6548550000002
 30
0.0
 11
2748.70827210384
 21
1538.654855
 31
0.0
  0
LINE
  5
7B31
  8
1
  6
CONTINUOUS
 10
2788.70827210384
 20
1578.654855
 30
0.0
 11
3458.70827210384
 21
1578.654855
 31
0.0
  0
LINE
  5
7B32
  8
1
  6
CONTINUOUS
 10
3498.70827210384
 20
1538.654855
 30
0.0
 11
2748.70827210384
 21
1538.654855
 31
0.0
  0
LINE
  5
7B33
  8
1
  6
CONTINUOUS
 10
2948.70827210384
 20
2291.6548550000002
 30
0.0
 11
3368.708272103841
 21
2291.6548550000002
 31
0.0
  0
LINE
  5
7B34
  8
1
  6
CONTINUOUS
 10
2948.70827210384
 20
1731.654855
 30
0.0
 11
3368.708272103841
 21
1731.654855
 31
0.0
  0
LINE
  5
7B35
  8
1
  6
CONTINUOUS
 10
3413.70827210384
 20
1600.654855
 30
0.0
 11
2903.70827210384
 21
1600.654855
 31
0.0
  0
LINE
  5
7B36
  8
1
  6
CONTINUOUS
 10
3413.70827210384
 20
1680.654855
 30
0.0
 11
2748.70827210384
 21
1680.654855
 31
0.0
  0
LINE
  5
7B37
  8
1
  6
CONTINUOUS
 10
2948.70827210384
 20
2629.6548550000002
 30
0.0
 11
3368.708272103841
 21
2629.6548550000002
 31
0.0
  0
LINE
  5
7B38
  8
1
  6
CONTINUOUS
 10
2948.70827210384
 20
2291.6548550000002
 30
0.0
 11
3368.708272103841
 21
1731.654855
 31
0.0
  0
LINE
  5
7B39
  8
1
  6
CONTINUOUS
 10
2948.70827210384
 20
1731.654855
 30
0.0
 11
3368.708272103841
 21
2291.6548550000002
 31
0.0
  0
LINE
  5
7B4D
  8
1
  6
CONTINUOUS
 10
2270.9805609999999
 20
1680.654855
 30
0.0
 11
2270.9805609999999
 21
1600.654855
 31
0.0
  0
LINE
  5
7B60
  8
1
  6
CONTINUOUS
 10
2868.70827210384
 20
1680.654855
 30
0.0
 11
2868.70827210384
 21
2515.6548550000002
 31
0.0
  0
LINE
  5
7B61
  8
1
  6
CONTINUOUS
 10
2778.70827210384
 20
1932.654855
 30
0.0
 11
2778.70827210384
 21
1792.654855
 31
0.0
  0
LINE
  5
7B62
  8
1
  6
CONTINUOUS
 10
2838.70827210384
 20
1932.654855
 30
0.0
 11
2838.70827210384
 21
1792.654855
 31
0.0
  0
LINE
  5
7B63
  8
1
  6
CONTINUOUS
 10
2948.70827210384
 20
1680.654855
 30
0.0
 11
2948.70827210384
 21
2629.6548550000002
 31
0.0
  0
LINE
  5
7B66
  8
1
  6
CONTINUOUS
 10
2838.70827210384
 20
1846.6548549999991
 30
0.0
 11
2948.70827210384
 21
1846.6548549999991
 31
0.0
  0
LINE
  5
7B68
  8
1
  6
CONTINUOUS
 10
2778.70827210384
 20
1792.654855
 30
0.0
 11
2838.70827210384
 21
1792.654855
 31
0.0
  0
LINE
  5
7B69
  8
1
  6
CONTINUOUS
 10
2903.70827210384
 20
1600.654855
 30
0.0
 11
2903.70827210384
 21
1680.654855
 31
0.0
  0
LINE
  5
7B6A
  8
1
  6
CONTINUOUS
 10
2838.70827210384
 20
1878.6548549999991
 30
0.0
 11
2948.70827210384
 21
1878.6548549999991
 31
0.0
  0
LINE
  5
7B6B
  8
1
  6
CONTINUOUS
 10
2948.70827210384
 20
2286.6548550000002
 30
0.0
 11
2838.70827210384
 21
2286.6548550000002
 31
0.0
  0
LINE
  5
7B6C
  8
1
  6
CONTINUOUS
 10
2948.70827210384
 20
2254.6548550000002
 30
0.0
 11
2838.70827210384
 21
2254.6548550000002
 31
0.0
  0
LINE
  5
7B6D
  8
1
  6
CONTINUOUS
 10
2778.70827210384
 20
2370.6548550000002
 30
0.0
 11
2778.70827210384
 21
2170.6548550000002
 31
0.0
  0
LINE
  5
7B6E
  8
1
  6
CONTINUOUS
 10
2838.70827210384
 20
2370.6548550000002
 30
0.0
 11
2838.70827210384
 21
2170.6548550000002
 31
0.0
  0
LINE
  5
7B6F
  8
1
  6
CONTINUOUS
 10
2778.70827210384
 20
2170.6548550000002
 30
0.0
 11
2838.70827210384
 21
2170.6548550000002
 31
0.0
  0
LINE
  5
7B70
  8
1
  6
CONTINUOUS
 10
2778.70827210384
 20
1932.654855
 30
0.0
 11
2838.70827210384
 21
1932.654855
 31
0.0
  0
LINE
  5
7B71
  8
1
  6
CONTINUOUS
 10
2748.70827210384
 20
2515.6548550000002
 30
0.0
 11
2868.70827210384
 21
2515.6548550000002
 31
0.0
  0
LINE
  5
7B72
  8
1
  6
CONTINUOUS
 10
2778.70827210384
 20
2370.6548550000002
 30
0.0
 11
2838.70827210384
 21
2370.6548550000002
 31
0.0
  0
LINE
  5
7B73
  8
1
  6
CONTINUOUS
 10
3368.708272103841
 20
1680.654855
 30
0.0
 11
3368.708272103841
 21
2629.6548550000002
 31
0.0
  0
LINE
  5
7B74
  8
1
  6
CONTINUOUS
 10
3413.70827210384
 20
1600.654855
 30
0.0
 11
3413.70827210384
 21
1680.654855
 31
0.0
  0
LINE
  5
7B75
  8
1
  6
CONTINUOUS
 10
3370.70827210384
 20
1950.654855
 30
0.0
 11
3370.70827210384
 21
2590.6548550000002
 31
0.0
  0
LINE
  5
7B76
  8
1
  6
CONTINUOUS
 10
3368.708272103841
 20
1950.654855
 30
0.0
 11
3370.70827210384
 21
1950.654855
 31
0.0
  0
LINE
  5
7B77
  8
1
  6
CONTINUOUS
 10
3368.708272103841
 20
2590.6548550000002
 30
0.0
 11
3370.70827210384
 21
2590.6548550000002
 31
0.0
  0
LINE
  5
7B78
  8
1
  6
CONTINUOUS
 10
3458.70827210384
 20
2798.6548550000002
 30
0.0
 11
2788.70827210384
 21
2798.6548550000002
 31
0.0
  0
LINE
  5
7B79
  8
1
  6
CONTINUOUS
 10
3498.70827210384
 20
2838.6548550000002
 30
0.0
 11
2748.70827210384
 21
2838.6548550000002
 31
0.0
  0
LINE
  5
7B8D
  8
1
  6
CONTINUOUS
 10
2330.9805609999999
 20
4055.6548549999989
 30
0.0
 11
2330.9805609999999
 21
3385.6548550000002
 31
0.0
  0
LINE
  5
7B8E
  8
1
  6
CONTINUOUS
 10
2270.9805609999999
 20
4010.6548550000002
 30
0.0
 11
2270.9805609999999
 21
3500.6548550000002
 31
0.0
  0
LINE
  5
7B8F
  8
1
  6
CONTINUOUS
 10
2370.9805609999999
 20
4095.6548550000002
 30
0.0
 11
2370.9805609999999
 21
3345.6548550000002
 31
0.0
  0
LINE
  5
7BA9
  8
2
  6
CENTER
 10
3158.70827210384
 20
2870.2403949999989
 30
0.0
 11
3158.70827210384
 21
1475.8174824770899
 31
0.0
  0
LINE
  5
7BAA
  8
2
  6
CENTER
 10
1976.8319245989951
 20
3755.6548550000002
 30
0.0
 11
833.72181399999999
 21
3755.6548549999989
 31
0.0
  0
LINE
  5
7BAB
  8
2
  6
CENTER
 10
1365.9805609999989
 20
2921.212180999999
 30
0.0
 11
1365.9805609999989
 21
1469.169080014688
 31
0.0
  0
LINE
  5
7BAC
  8
2
  6
CENTER
 10
2641.8315671038408
 20
2270.6548550000002
 30
0.0
 11
3538.8801931038411
 21
2270.6548550000002
 31
0.0
  0
LINE
  5
7BAD
  8
4
  6
CONTINUOUS
 10
3700.0
 20
1000.0
 30
0.0
 11
3700.0
 21
600.0
 31
0.0
  0
LINE
  5
7BAE
  8
4
  6
CONTINUOUS
 10
2300.0
 20
1000.0
 30
0.0
 11
2300.0
 21
600.0
 31
0.0
  0
LINE
  5
7BAF
  8
4
  6
CONTINUOUS
 10
1300.0
 20
1000.0
 30
0.0
 11
1300.0
 21
600.0
 31
0.0
  0
LINE
  5
7BB2
  8
4
  6
CONTINUOUS
 10
1300.0
 20
600.0
 30
0.0
 11
3700.0
 21
600.0
 31
0.0
  0
LINE
  5
7BB3
  8
4
  6
CONTINUOUS
 10
1300.0
 20
800.0
 30
0.0
 11
3700.0
 21
800.0
 31
0.0
  0
TEXT
  5
7BB4
  8
4
  6
CONTINUOUS
 10
1377.004162
 20
863.086052
 30
0.0
 40
100.0
  1
機器名称
  0
TEXT
  5
7BB5
  8
4
  6
CONTINUOUS
 10
1372.516212
 20
643.29031299999986
 30
0.0
 40
100.0
  1
機器型番
  0
TEXT
  5
7BB6
  8
4
  6
CONTINUOUS
 10
2355.3574910000002
 20
845.14353800000015
 30
0.0
 40
100.0
  1
ミツヤ多翼送風機
  0
TEXT
  5
7BB7
  8
4
  6
CONTINUOUS
 10
2373.3089909999999
 20
634.31916899999999
 30
0.0
 40
100.0
  1
MF#3 1/2-4
  0
TEXT
  5
7BB9
  8
4
  6
CONTINUOUS
 10
1443.6323339999999
 20
4766.8576830000002
 30
0.0
 40
108.0
  1
天井吊枠防振ベット
  0
TEXT
  5
7BBA
  8
4
  6
CONTINUOUS
 10
632.33518700000002
 20
5067.7619520000007
 30
0.0
 40
144.0
  1
ベルト駆動式片吸込両持多翼ファン
  0
LINE
  5
7BBB
  8
4
  6
CONTINUOUS
 10
500.0
 20
4938.8175090000004
 30
0.0
 11
3700.0
 21
4938.8175090000004
 31
0.0
  0
LINE
  5
7BBC
  8
4
  6
CONTINUOUS
 10
500.0
 20
5338.8175090000004
 30
0.0
 11
3700.0
 21
5338.8175090000004
 31
0.0
  0
LINE
  5
7BBD
  8
4
  6
CONTINUOUS
 10
1300.0
 20
1000.0
 30
0.0
 11
3700.0
 21
1000.0
 31
0.0
  0
LINE
  5
7BBE
  8
4
  6
CONTINUOUS
 10
500.0
 20
5338.8175090000004
 30
0.0
 11
500.0
 21
4938.8175090000004
 31
0.0
  0
TEXT
  5
7BBF
  8
4
  6
CONTINUOUS
 10
571.914669
 20
4764.6389549999994
 30
0.0
 40
108.0
  1
右回転左横向
  0
TEXT
  5
7BC0
  8
4
  6
CONTINUOUS
 10
2937.9391179999998
 20
5412.122163
 30
0.0
 40
112.0
  1
No.
  0
TEXT
  5
7BC1
  8
4
  6
CONTINUOUS
 10
2824.4896079999999
 20
4766.8576830000002
 30
0.0
 40
108.0
  1
縮尺：1/20
  0
LINE
  5
7BC2
  8
4
  6
CONTINUOUS
 10
3700.0
 20
5338.8175090000004
 30
0.0
 11
3700.0
 21
4938.8175090000004
 31
0.0
  0
LINE
  5
7BC4
  8
4
  6
CONTINUOUS
 10
2881.234845
 20
5362.5271659999999
 30
0.0
 11
2881.234845
 21
5573.3045229999998
 31
0.0
  0
LINE
  5
7BC5
  8
4
  6
CONTINUOUS
 10
2881.234845
 20
5573.3045229999998
 30
0.0
 11
3700.0
 21
5573.3045229999998
 31
0.0
  0
LINE
  5
7BC6
  8
4
  6
CONTINUOUS
 10
3700.0
 20
5573.3045229999998
 30
0.0
 11
3700.0
 21
5362.5271659999999
 31
0.0
  0
LINE
  5
7BC7
  8
4
  6
CONTINUOUS
 10
3700.0
 20
5362.5271659999999
 30
0.0
 11
2881.234845
 21
5362.5271659999999
 31
0.0
  0
DIMENSION
  5
7BE4
  8
3
  6
CONTINUOUS
  2
*D1
 10
846.41298500000016
 20
1731.654855
 30
0.0
 11
846.41298499999994
 21
1996.602198999999
 31
0.0
 70
   128
 13
960.98056099999997
 23
2291.6548550000002
 33
0.0
 14
960.98056099999997
 24
1731.654855
 34
0.0
 50
90.0
1001
ACAD
1000
DSTYLE
1002
{
1070
   287
1070
     3
1070
    40
1040
20.0
1070
   143
1040
0.039
1070
   172
1070
     1
1070
   271
1070
     0
1070
   279
1070
     0
1070
   288
1070
     1
1002
}
  0
DIMENSION
  5
7BF1
  8
3
  6
CONTINUOUS
  2
*D2
 10
725.31101000000024
 20
1731.654855
 30
0.0
 11
725.31101000000001
 21
1991.948773999999
 31
0.0
 70
   128
 13
824.32825400000002
 23
2270.6548550000002
 33
0.0
 14
920.98056099999997
 24
1731.654855
 34
0.0
 50
90.0
1001
ACAD
1000
DSTYLE
1002
{
1070
   287
1070
     3
1070
    40
1040
20.0
1070
   143
1040
0.039
1070
   172
1070
     1
1070
   271
1070
     0
1070
   279
1070
     0
1070
   288
1070
     1
1002
}
  0
DIMENSION
  5
7BFE
  8
3
  6
CONTINUOUS
  2
*D3
 10
622.92057100000022
 20
1600.654855
 30
0.0
 11
622.920571
 21
1926.8007660000001
 31
0.0
 70
   128
 13
824.32825400000002
 23
2270.6548550000002
 33
0.0
 14
1020.980561
 24
1600.654855
 34
0.0
 50
90.0
1001
ACAD
1000
DSTYLE
1002
{
1070
   287
1070
     3
1070
    40
1040
20.0
1070
   143
1040
0.039
1070
   172
1070
     1
1070
   271
1070
     0
1070
   279
1070
     0
1070
   288
1070
     1
1002
}
  0
DIMENSION
  5
7C0E
  8
3
  6
CONTINUOUS
  2
*D4
 10
624.20248300000026
 20
1538.654855
 30
0.0
 11
624.20248300000003
 21
1390.0834264285711
 31
0.0
 70
   128
 13
1020.980561
 23
1600.654855
 33
0.0
 14
920.98056099999997
 24
1538.654855
 34
0.0
 50
90.0
1001
ACAD
1000
DSTYLE
1002
{
1070
   287
1070
     3
1070
    40
1040
20.0
1070
   143
1040
0.039
1070
   172
1070
     1
1070
   271
1070
     0
1070
   279
1070
     0
1070
   288
1070
     1
1002
}
  0
DIMENSION
  5
7C1B
  8
3
  6
CONTINUOUS
  2
*D5
 10
1365.9805609999989
 20
1379.962692773481
 30
0.0
 11
1139.852345
 21
1379.962692773481
 31
0.0
 70
   128
 13
920.98056099999997
 23
1538.654855
 33
0.0
 14
1365.9805609999989
 24
1469.169080014688
 34
0.0
1001
ACAD
1000
DSTYLE
1002
{
1070
   287
1070
     3
1070
    40
1040
20.0
1070
   143
1040
0.039
1070
   172
1070
     1
1070
   271
1070
     0
1070
   279
1070
     0
1070
   288
1070
     1
1002
}
  0
DIMENSION
  5
7C27
  8
3
  6
CONTINUOUS
  2
*D6
 10
2370.9805609999999
 20
1379.962692773481
 30
0.0
 11
1868.4805609999989
 21
1429.962692773481
 31
0.0
 70
     0
 13
1365.9805609999989
 23
1370.0351677734809
 33
0.0
 14
2370.9805609999999
 24
1538.654855
 34
0.0
1001
ACAD
1000
DSTYLE
1002
{
1070
   287
1070
     4
1070
    40
1040
20.0
1070
    75
1070
     1
1070
   143
1040
0.039
1070
   172
1070
     1
1070
   271
1070
     0
1070
   279
1070
     1
1070
   288
1070
     1
1002
}
  0
DIMENSION
  5
7C34
  8
3
  6
CONTINUOUS
  2
*D7
 10
1365.9805609999989
 20
2955.20849
 30
0.0
 11
1158.483428
 21
2955.20849
 31
0.0
 70
   128
 13
960.98056099999997
 23
2318.6548550000002
 33
0.0
 14
1365.9805609999989
 24
2921.212180999999
 34
0.0
1001
ACAD
1000
DSTYLE
1002
{
1070
   287
1070
     3
1070
    40
1040
20.0
1070
   143
1040
0.039
1070
   172
1070
     1
1070
   271
1070
     0
1070
   279
1070
     0
1070
   288
1070
     1
1002
}
  0
DIMENSION
  5
7C41
  8
3
  6
CONTINUOUS
  2
*D8
 10
2948.70827210384
 20
2899.367346
 30
0.0
 11
3143.312681103841
 21
2899.367346
 31
0.0
 70
   128
 13
3368.708272103841
 23
2629.6548550000002
 33
0.0
 14
2948.70827210384
 24
2629.6548550000002
 34
0.0
1001
ACAD
1000
DSTYLE
1002
{
1070
   287
1070
     3
1070
    40
1040
20.0
1070
   143
1040
0.039
1070
   172
1070
     1
1070
   271
1070
     0
1070
   279
1070
     0
1070
   288
1070
     1
1002
}
  0
DIMENSION
  5
7C50
  8
3
  6
CONTINUOUS
  2
*D9
 10
3650.5863781038411
 20
1975.6548549999991
 30
0.0
 11
3650.5863781038402
 21
2261.8476279999991
 31
0.0
 70
   128
 13
3370.70827210384
 23
2565.6548550000002
 33
0.0
 14
3368.708272103841
 24
1975.654855
 34
0.0
 50
90.0
1001
ACAD
1000
DSTYLE
1002
{
1070
   287
1070
     3
1070
     3
1000
φ<>
1070
    40
1040
20.0
1070
   143
1040
0.039
1070
   172
1070
     1
1070
   271
1070
     0
1070
   279
1070
     0
1070
   288
1070
     1
1002
}
  0
DIMENSION
  5
7C5F
  8
3
  6
CONTINUOUS
  2
*D10
 10
3158.70827210384
 20
3035.6434610000001
 30
0.0
 11
3264.70827210384
 21
3087.536955749239
 31
0.0
 70
   128
 13
3370.70827210384
 23
2590.6548550000002
 33
0.0
 14
3158.70827210384
 24
3008.9625639999999
 34
0.0
1001
ACAD
1000
DSTYLE
1002
{
1070
   288
1070
     1
1070
   172
1070
     1
1070
    40
1040
20.0
1070
   271
1070
     0
1070
   143
1040
0.039
1002
}
  0
DIMENSION
  5
7C78
  8
3
  6
CONTINUOUS
  2
*D11
 10
3158.70827210384
 20
1382.74638247709
 30
0.0
 11
2957.0019531038411
 21
1382.74638247709
 31
0.0
 70
   128
 13
2748.70827210384
 23
1538.654855
 33
0.0
 14
3158.70827210384
 24
1475.8174824770899
 34
0.0
1001
ACAD
1000
DSTYLE
1002
{
1070
   287
1070
     3
1070
    40
1040
20.0
1070
   143
1040
0.039
1070
   172
1070
     1
1070
   271
1070
     0
1070
   279
1070
     0
1070
   288
1070
     1
1002
}
  0
DIMENSION
  5
7C84
  8
3
  6
CONTINUOUS
  2
*D12
 10
3498.70827210384
 20
1382.74638247709
 30
0.0
 11
3328.70827210384
 21
1432.74638247709
 31
0.0
 70
     0
 13
3158.70827210384
 23
1475.8174824770899
 33
0.0
 14
3498.70827210384
 24
1538.654855
 34
0.0
1001
ACAD
1000
DSTYLE
1002
{
1070
   287
1070
     4
1070
    40
1040
20.0
1070
    75
1070
     1
1070
   143
1040
0.039
1070
   172
1070
     1
1070
   271
1070
     0
1070
   279
1070
     1
1070
   288
1070
     1
1002
}
  0
DIMENSION
  5
7C91
  8
3
  6
CONTINUOUS
  2
*D13
 10
2607.6693701038412
 20
1538.654855
 30
0.0
 11
2607.6693701038398
 21
2150.1653409999999
 31
0.0
 70
   128
 13
2748.70827210384
 23
2838.6548550000002
 33
0.0
 14
2748.70827210384
 24
1538.654855
 34
0.0
 50
90.0
1001
ACAD
1000
DSTYLE
1002
{
1070
   287
1070
     3
1070
    40
1040
20.0
1070
   143
1040
0.039
1070
   172
1070
     1
1070
   271
1070
     0
1070
   279
1070
     0
1070
   288
1070
     1
1002
}
  0
DIMENSION
  5
7C9E
  8
3
  6
CONTINUOUS
  2
*D14
 10
2370.9805609999999
 20
4286.8056749999987
 30
0.0
 11
1656.8645979999999
 21
4286.8056749999987
 31
0.0
 70
   128
 13
920.98056099999997
 23
4095.6548550000002
 33
0.0
 14
2370.9805609999999
 24
4095.6548550000002
 34
0.0
1001
ACAD
1000
DSTYLE
1002
{
1070
   287
1070
     3
1070
    40
1040
20.0
1070
   143
1040
0.039
1070
   172
1070
     1
1070
   271
1070
     0
1070
   279
1070
     0
1070
   288
1070
     1
1002
}
  0
DIMENSION
  5
7CAB
  8
3
  6
CONTINUOUS
  2
*D15
 10
2581.1721790000001
 20
3345.6548550000002
 30
0.0
 11
2581.1721789999988
 21
3716.0092
 31
0.0
 70
   128
 13
2370.9805609999999
 23
4095.6548550000002
 33
0.0
 14
2370.9805609999999
 24
3345.6548550000002
 34
0.0
 50
90.0
1001
ACAD
1000
DSTYLE
1002
{
1070
   287
1070
     3
1070
    40
1040
20.0
1070
   143
1040
0.039
1070
   172
1070
     1
1070
   271
1070
     0
1070
   279
1070
     0
1070
   288
1070
     1
1002
}
  0
DIMENSION
  5
7D7A
  8
3
  2
*D16
 10
622.920571
 20
2680.6548550000002
 30
0.0
 11
572.92057099999954
 21
2475.6548550000002
 31
0.0
 70
     0
 13
824.32825400000002
 23
2270.6548550000002
 33
0.0
 14
1005.980561
 24
2680.6548550000002
 34
0.0
 50
90.0
1001
ACAD
1000
DSTYLE
1002
{
1070
   287
1070
     4
1070
    40
1040
20.0
1070
    75
1070
     1
1070
   143
1040
0.039
1070
   172
1070
     1
1070
   271
1070
     0
1070
   279
1070
     1
1070
   288
1070
     1
1002
}
  0
DIMENSION
  5
7DF4
  8
3
  2
*D17
 10
1840.9805610000001
 20
2955.20849
 30
0.0
 11
1603.4805610000001
 21
3005.20849
 31
0.0
 70
     0
 13
1365.9805609999989
 23
2921.212180999999
 33
0.0
 14
1840.9805610000001
 24
2277.7219218980058
 34
0.0
1001
ACAD
1000
DSTYLE
1002
{
1070
   287
1070
     4
1070
    40
1040
20.0
1070
    75
1070
     1
1070
   143
1040
0.039
1070
   172
1070
     1
1070
   271
1070
     0
1070
   279
1070
     1
1070
   288
1070
     1
1002
}
  0
ENDSEC
  0
EOF
