  0
SECTION
  2
HEADER
  9
$ACADVER
  1
AC1009
  9
$INSBASE
 10
0.0
 20
0.0
 30
0.0
  9
$EXTMIN
 10
500.0
 20
600.0
 30
0.0
  9
$EXTMAX
 10
3700.0
 20
5573.3045229999998
 30
0.0
  9
$LIMMIN
 10
0.0
 20
0.0
  9
$LIMMAX
 10
297.0
 20
210.0
  9
$ORTHOMODE
 70
     0
  9
$REGENMODE
 70
     1
  9
$FILLMODE
 70
     0
  9
$QTEXTMODE
 70
     0
  9
$MIRRTEXT
 70
     1
  9
$DRAGMODE
 70
     2
  9
$LTSCALE
 40
100.0
  9
$OSMODE
 70
    37
  9
$ATTMODE
 70
     1
  9
$TEXTSIZE
 40
180.0
  9
$TRACEWID
 40
0.05
  9
$TEXTSTYLE
  7
STANDARD
  9
$CLAYER
  8
3
  9
$CELTYPE
  6
BYLAYER
  9
$CECOLOR
 62
   256
  9
$DIMSCALE
 40
20.0
  9
$DIMASZ
 40
2.0
  9
$DIMEXO
 40
0.5
  9
$DIMDLI
 40
10.0
  9
$DIMRND
 40
0.0
  9
$DIMDLE
 40
0.0
  9
$DIMEXE
 40
1.0
  9
$DIMTP
 40
1.0
  9
$DIMTM
 40
1.0
  9
$DIMTXT
 40
3.0
  9
$DIMCEN
 40
0.0
  9
$DIMTSZ
 40
0.0
  9
$DIMTOL
 70
     0
  9
$DIMLIM
 70
     0
  9
$DIMTIH
 70
     0
  9
$DIMTOH
 70
     0
  9
$DIMSE1
 70
     0
  9
$DIMSE2
 70
     0
  9
$DIMTAD
 70
     1
  9
$DIMZIN
 70
     8
  9
$DIMBLK
  1

  9
$DIMASO
 70
     1
  9
$DIMSHO
 70
     1
  9
$DIMPOST
  1

  9
$DIMAPOST
  1

  9
$DIMALT
 70
     0
  9
$DIMALTD
 70
     2
  9
$DIMALTF
 40
0.039
  9
$DIMLFAC
 40
1.0
  9
$DIMTOFL
 70
     1
  9
$DIMTVP
 40
0.0
  9
$DIMTIX
 70
     0
  9
$DIMSOXD
 70
     0
  9
$DIMSAH
 70
     1
  9
$DIMBLK1
  1
OPEN
  9
$DIMBLK2
  1
OPEN
  9
$DIMSTYLE
  2
IGA
  9
$DIMCLRD
 70
     0
  9
$DIMCLRE
 70
     0
  9
$DIMCLRT
 70
     0
  9
$DIMTFAC
 40
10.0
  9
$DIMGAP
 40
1.0
  9
$LUNITS
 70
     2
  9
$LUPREC
 70
     3
  9
$SKETCHINC
 40
0.1
  9
$FILLETRAD
 40
50.0
  9
$AUNITS
 70
     0
  9
$AUPREC
 70
     0
  9
$MENU
  1
acad
  9
$ELEVATION
 40
0.0
  9
$PELEVATION
 40
0.0
  9
$THICKNESS
 40
0.0
  9
$LIMCHECK
 70
     0
  9
$BLIPMODE
 70
     0
  9
$CHAMFERA
 40
0.5
  9
$CHAMFERB
 40
0.5
  9
$SKPOLY
 70
     0
  9
$TDCREATE
 40
2450737.6474271989
  9
$TDUPDATE
 40
2454953.7693442479
  9
$TDINDWG
 40
0.0054940278
  9
$TDUSRTIMER
 40
0.0054940278
  9
$USRTIMER
 70
     1
  9
$ANGBASE
 50
0.0
  9
$ANGDIR
 70
     0
  9
$PDMODE
 70
     0
  9
$PDSIZE
 40
0.0
  9
$PLINEWID
 40
0.0
  9
$COORDS
 70
     1
  9
$SPLFRAME
 70
     0
  9
$SPLINETYPE
 70
     6
  9
$SPLINESEGS
 70
     8
  9
$ATTDIA
 70
     0
  9
$ATTREQ
 70
     1
  9
$HANDLING
 70
 10241
  9
$HANDSEED
  5
7DEB
  9
$SURFTAB1
 70
     6
  9
$SURFTAB2
 70
     6
  9
$SURFTYPE
 70
     6
  9
$SURFU
 70
     6
  9
$SURFV
 70
     6
  9
$UCSNAME
  2

  9
$UCSORG
 10
0.0
 20
0.0
 30
0.0
  9
$UCSXDIR
 10
1.0
 20
0.0
 30
0.0
  9
$UCSYDIR
 10
0.0
 20
1.0
 30
0.0
  9
$PUCSNAME
  2

  9
$PUCSORG
 10
0.0
 20
0.0
 30
0.0
  9
$PUCSXDIR
 10
1.0
 20
0.0
 30
0.0
  9
$PUCSYDIR
 10
0.0
 20
1.0
 30
0.0
  9
$USERI1
 70
     0
  9
$USERI2
 70
     0
  9
$USERI3
 70
     0
  9
$USERI4
 70
     0
  9
$USERI5
 70
     0
  9
$USERR1
 40
0.0
  9
$USERR2
 40
0.0
  9
$USERR3
 40
0.0
  9
$USERR4
 40
0.0
  9
$USERR5
 40
0.0
  9
$WORLDVIEW
 70
     1
  9
$SHADEDGE
 70
     3
  9
$SHADEDIF
 70
    70
  9
$TILEMODE
 70
     1
  9
$MAXACTVP
 70
    16
  9
$PLIMCHECK
 70
     0
  9
$PEXTMIN
 10
1.0000000000000000E+020
 20
1.0000000000000000E+020
 30
1.0000000000000000E+020
  9
$PEXTMAX
 10
-1.0000000000000000E+020
 20
-1.0000000000000000E+020
 30
-1.0000000000000000E+020
  9
$PLIMMIN
 10
0.0
 20
0.0
  9
$PLIMMAX
 10
12.0
 20
9.0
  9
$UNITMODE
 70
     0
  9
$VISRETAIN
 70
     0
  9
$PLINEGEN
 70
     0
  9
$PSLTSCALE
 70
     1
  0
ENDSEC
  0
SECTION
  2
TABLES
  0
TABLE
  2
VPORT
 70
     2
  0
VPORT
  2
*ACTIVE
 70
     0
 10
0.0
 20
0.0
 11
1.0
 21
1.0
 12
6292.1124769529506
 22
3086.6374998146398
 13
0.0
 23
0.0
 14
10.0
 24
10.0
 15
10.0
 25
10.0
 16
0.0
 26
0.0
 36
1.0
 17
0.0
 27
0.0
 37
0.0
 40
5011.4968576296578
 41
3.1666666666666661
 42
50.0
 43
0.0
 44
0.0
 50
0.0
 51
0.0
 71
     0
 72
   100
 73
     1
 74
     0
 75
     0
 76
     0
 77
     0
 78
     0
  0
ENDTAB
  0
TABLE
  2
LTYPE
 70
     2
  0
LTYPE
  2
CONTINUOUS
 70
     0
  3
Solid line
 72
    65
 73
     0
 40
0.0
  0
LTYPE
  2
CENTER
 70
     0
  3
____ _ ____ _ ____ _ ____ _ ____ _ ____ _ ____ 
 72
    65
 73
     4
 40
2.0
 49
1.25
 49
-0.25
 49
0.25
 49
-0.25
  0
ENDTAB
  0
TABLE
  2
LAYER
 70
     6
  0
LAYER
  2
0
 70
     0
 62
     7
  6
CONTINUOUS
  0
LAYER
  2
3
 70
     0
 62
     2
  6
CONTINUOUS
  0
LAYER
  2
2
 70
     0
 62
     3
  6
CENTER
  0
LAYER
  2
1
 70
     0
 62
     4
  6
CONTINUOUS
  0
LAYER
  2
4
 70
     0
 62
     7
  6
CONTINUOUS
  0
LAYER
  2
DEFPOINTS
 70
     0
 62
     7
  6
CONTINUOUS
  0
ENDTAB
  0
TABLE
  2
STYLE
 70
     1
  0
STYLE
  2
STANDARD
 70
     0
 40
0.0
 41
1.0
 50
0.0
 71
     0
 42
180.0
  3
simplex.shx
  4
extfont.shx
  0
ENDTAB
  0
TABLE
  2
VIEW
 70
     0
  0
ENDTAB
  0
TABLE
  2
UCS
 70
     0
  0
ENDTAB
  0
TABLE
  2
APPID
 70
     1
  0
APPID
  2
ACAD
 70
     0
  0
ENDTAB
  0
TABLE
  2
DIMSTYLE
 70
     1
  0
DIMSTYLE
  2
IGA
 70
     0
  3

  4

  5

  6
OPEN
  7
OPEN
 40
2.0
 41
2.0
 42
0.5
 43
10.0
 44
1.0
 45
0.0
 46
0.0
 47
1.0
 48
1.0
140
3.0
141
0.0
142
0.0
143
0.03937
144
1.0
145
0.0
146
10.0
147
1.0
 71
     0
 72
     0
 73
     0
 74
     0
 75
     0
 76
     0
 77
     1
 78
     8
170
     0
171
     2
172
     0
173
     1
174
     0
175
     0
176
     0
177
     0
178
     0
  0
ENDTAB
  0
ENDSEC
  0
SECTION
  2
BLOCKS
  0
BLOCK
  8
0
  2
$MODEL_SPACE
 70
     0
 10
0.0
 20
0.0
 30
0.0
  3
$MODEL_SPACE
  1

  0
ENDBLK
  5
1B
  8
0
  0
BLOCK
 67
     1
  8
0
  2
$PAPER_SPACE
 70
     0
 10
0.0
 20
0.0
 30
0.0
  3
$PAPER_SPACE
  1

  0
ENDBLK
  5
18
 67
     1
  8
0
  0
BLOCK
  8
0
  2
_OPEN
 70
     0
 10
0.0
 20
0.0
 30
0.0
  3
_OPEN
  1

  0
LINE
  5
7B03
  8
0
  6
BYBLOCK
 62
     0
 10
-1.0
 20
0.166667
 30
0.0
 11
0.0
 21
0.0
 31
0.0
  0
LINE
  5
7B04
  8
0
  6
BYBLOCK
 62
     0
 10
0.0
 20
0.0
 30
0.0
 11
-1.0
 21
-0.166667
 31
0.0
  0
LINE
  5
7B05
  8
0
  6
BYBLOCK
 62
     0
 10
0.0
 20
0.0
 30
0.0
 11
-1.0
 21
0.0
 31
0.0
  0
ENDBLK
  5
7B06
  8
0
  0
BLOCK
  8
0
  2
*D1
 70
     1
 10
0.0
 20
0.0
 30
0.0
  3
*D1
  1

  0
LINE
  5
7D57
  8
3
  6
CONTINUOUS
 62
     0
 10
995.70903699999985
 20
2432.8383279999998
 30
0.0
 11
995.70903699999985
 21
2550.1222789999988
 31
0.0
  0
LINE
  5
7D58
  8
3
  6
CONTINUOUS
 62
     0
 10
1555.7090369999989
 20
2432.8383279999998
 30
0.0
 11
1555.7090369999989
 21
2550.1222789999988
 31
0.0
  0
LINE
  5
7D59
  8
3
  6
CONTINUOUS
 62
     0
 10
1035.7090370000001
 20
2530.1222789999988
 30
0.0
 11
1515.7090369999989
 21
2530.1222789999988
 31
0.0
  0
INSERT
  5
7D5A
  8
3
  6
CONTINUOUS
 62
     0
  2
_OPEN
 10
995.70903699999985
 20
2530.1222789999988
 30
0.0
 41
40.0
 42
40.0
 43
40.0
 50
180.0
  0
INSERT
  5
7D5B
  8
3
  6
CONTINUOUS
 62
     0
  2
_OPEN
 10
1555.7090369999989
 20
2530.1222789999988
 30
0.0
 41
40.0
 42
40.0
 43
40.0
  0
TEXT
  8
3
  40
60
  5
7DDC
  62
0
  72
0
  71
0
 10
1161.77
 20
2473.92
 30
0.000000
  1
560
  0
POINT
  5
7D5D
  8
DEFPOINTS
  6
CONTINUOUS
 62
     0
 10
995.70903699999985
 20
2422.8383279999998
 30
0.0
  0
POINT
  5
7D5E
  8
DEFPOINTS
  6
CONTINUOUS
 62
     0
 10
1555.7090369999989
 20
2422.8383279999998
 30
0.0
  0
POINT
  5
7D5F
  8
DEFPOINTS
  6
CONTINUOUS
 62
     0
 10
1555.7090369999989
 20
2530.1222789999988
 30
0.0
  0
ENDBLK
  5
7B13
  8
0
  0
BLOCK
  8
0
  2
*D2
 70
     1
 10
0.0
 20
0.0
 30
0.0
  3
*D2
  1

  0
LINE
  5
7D60
  8
3
  6
CONTINUOUS
 62
     0
 10
995.70903699999985
 20
2432.8383279999998
 30
0.0
 11
995.70903699999985
 21
2794.6625939999999
 31
0.0
  0
LINE
  5
7D61
  8
3
  6
CONTINUOUS
 62
     0
 10
1534.7090369999989
 20
2737.3321445013298
 30
0.0
 11
1534.7090369999989
 21
2794.6625939999999
 31
0.0
  0
LINE
  5
7D62
  8
3
  6
CONTINUOUS
 62
     0
 10
1035.7090370000001
 20
2774.6625939999999
 30
0.0
 11
1494.7090369999989
 21
2774.6625939999999
 31
0.0
  0
INSERT
  5
7D63
  8
3
  6
CONTINUOUS
 62
     0
  2
_OPEN
 10
995.70903699999985
 20
2774.6625939999999
 30
0.0
 41
40.0
 42
40.0
 43
40.0
 50
180.0
  0
INSERT
  5
7D64
  8
3
  6
CONTINUOUS
 62
     0
  2
_OPEN
 10
1534.7090369999989
 20
2774.6625939999999
 30
0.0
 41
40.0
 42
40.0
 43
40.0
  0
TEXT
  8
3
  40
60
  5
7DDD
  62
0
  72
0
  71
0
 10
1156.97
 20
2718.46
 30
0.000000
  1
539
  0
POINT
  5
7D66
  8
DEFPOINTS
  6
CONTINUOUS
 62
     0
 10
995.70903699999985
 20
2422.8383279999998
 30
0.0
  0
POINT
  5
7D67
  8
DEFPOINTS
  6
CONTINUOUS
 62
     0
 10
1534.7090369999989
 20
2727.3321445013298
 30
0.0
  0
POINT
  5
7D68
  8
DEFPOINTS
  6
CONTINUOUS
 62
     0
 10
1534.7090369999989
 20
2774.6625939999999
 30
0.0
  0
ENDBLK
  5
7D00
  8
0
  0
BLOCK
  8
0
  2
*D3
 70
     1
 10
0.0
 20
0.0
 30
0.0
  3
*D3
  1

  0
LINE
  5
7D69
  8
3
  6
CONTINUOUS
 62
     0
 10
1944.7090370000001
 20
2387.8383279999998
 30
0.0
 11
1944.7090370000001
 21
2794.6625939999999
 31
0.0
  0
LINE
  5
7D6A
  8
3
  6
CONTINUOUS
 62
     0
 10
1574.7090369999989
 20
2774.6625939999999
 30
0.0
 11
1904.7090370000001
 21
2774.6625939999999
 31
0.0
  0
INSERT
  5
7D6B
  8
3
  6
CONTINUOUS
 62
     0
  2
_OPEN
 10
1534.7090369999989
 20
2774.6625939999999
 30
0.0
 41
40.0
 42
40.0
 43
40.0
 50
180.0
  0
INSERT
  5
7D6C
  8
3
  6
CONTINUOUS
 62
     0
  2
_OPEN
 10
1944.7090370000001
 20
2774.6625939999999
 30
0.0
 41
40.0
 42
40.0
 43
40.0
  0
TEXT
  8
3
  40
60
  5
7DDE
  62
0
  72
0
  71
0
 10
1619.71
 20
2718.46
 30
0.000000
  1
410
  0
POINT
  5
7D6E
  8
DEFPOINTS
  6
CONTINUOUS
 62
     0
 10
1534.7090369999989
 20
2727.3321445013298
 30
0.0
  0
POINT
  5
7D6F
  8
DEFPOINTS
  6
CONTINUOUS
 62
     0
 10
1944.7090370000001
 20
2377.8383279999998
 30
0.0
  0
POINT
  5
7D70
  8
DEFPOINTS
  6
CONTINUOUS
 62
     0
 10
1944.7090370000001
 20
2774.6625939999999
 30
0.0
  0
ENDBLK
  5
7CF5
  8
0
  0
BLOCK
  8
0
  2
*D4
 70
     1
 10
0.0
 20
0.0
 30
0.0
  3
*D4
  1

  0
LINE
  5
7D71
  8
3
  6
CONTINUOUS
 62
     0
 10
1592.7090369999989
 20
2422.8383279999998
 30
0.0
 11
2229.5635980000002
 21
2422.8383279999998
 31
0.0
  0
LINE
  5
7D72
  8
3
  6
CONTINUOUS
 62
     0
 10
2048.8462129999998
 20
2017.838328
 30
0.0
 11
2229.5635980000002
 21
2017.838328
 31
0.0
  0
LINE
  5
7D73
  8
3
  6
CONTINUOUS
 62
     0
 10
2209.5635980000002
 20
2382.8383279999998
 30
0.0
 11
2209.5635980000002
 21
2057.8383279999998
 31
0.0
  0
INSERT
  5
7D74
  8
3
  6
CONTINUOUS
 62
     0
  2
_OPEN
 10
2209.5635980000002
 20
2422.8383279999998
 30
0.0
 41
40.0
 42
40.0
 43
40.0
 50
90.0
  0
INSERT
  5
7D75
  8
3
  6
CONTINUOUS
 62
     0
  2
_OPEN
 10
2209.5635980000002
 20
2017.838328
 30
0.0
 41
40.0
 42
40.0
 43
40.0
 50
270.0
  0
TEXT
  8
3
  40
60
  5
7DDF
  62
0
  72
0
  71
0
 10
2039.56
 20
2112.25
 30
0.000000
  1
405
  0
POINT
  5
7D77
  8
DEFPOINTS
  6
CONTINUOUS
 62
     0
 10
1582.7090369999989
 20
2422.8383279999998
 30
0.0
  0
POINT
  5
7D78
  8
DEFPOINTS
  6
CONTINUOUS
 62
     0
 10
2038.8462129999989
 20
2017.838328
 30
0.0
  0
POINT
  5
7D79
  8
DEFPOINTS
  6
CONTINUOUS
 62
     0
 10
2209.5635980000002
 20
2017.838328
 30
0.0
  0
ENDBLK
  5
7C86
  8
0
  0
BLOCK
  8
0
  2
*D5
 70
     1
 10
0.0
 20
0.0
 30
0.0
  3
*D5
  1

  0
LINE
  5
7D7A
  8
3
  6
CONTINUOUS
 62
     0
 10
1889.7090370000001
 20
1462.8383279999989
 30
0.0
 11
2229.5635980000002
 21
1462.8383279999989
 31
0.0
  0
LINE
  5
7D7B
  8
3
  6
CONTINUOUS
 62
     0
 10
2209.5635980000002
 20
1977.8383279999989
 30
0.0
 11
2209.5635980000002
 21
1502.8383279999989
 31
0.0
  0
INSERT
  5
7D7C
  8
3
  6
CONTINUOUS
 62
     0
  2
_OPEN
 10
2209.5635980000002
 20
2017.838328
 30
0.0
 41
40.0
 42
40.0
 43
40.0
 50
90.0
  0
INSERT
  5
7D7D
  8
3
  6
CONTINUOUS
 62
     0
  2
_OPEN
 10
2209.5635980000002
 20
1462.8383279999989
 30
0.0
 41
40.0
 42
40.0
 43
40.0
 50
270.0
  0
TEXT
  8
3
  40
60
  5
7DE0
  62
0
  72
0
  71
0
 10
2039.56
 20
1634.14
 30
0.000000
  1
555
  0
POINT
  5
7D7F
  8
DEFPOINTS
  6
CONTINUOUS
 62
     0
 10
2038.8462129999989
 20
2017.838328
 30
0.0
  0
POINT
  5
7D80
  8
DEFPOINTS
  6
CONTINUOUS
 62
     0
 10
1879.7090370000001
 20
1462.8383279999989
 30
0.0
  0
POINT
  5
7D81
  8
DEFPOINTS
  6
CONTINUOUS
 62
     0
 10
2209.5635980000002
 20
1462.8383279999989
 30
0.0
  0
ENDBLK
  5
7C7B
  8
0
  0
BLOCK
  8
0
  2
*D6
 70
     1
 10
0.0
 20
0.0
 30
0.0
  3
*D6
  1

  0
LINE
  5
7D82
  8
3
  6
CONTINUOUS
 62
     0
 10
1889.7090370000001
 20
1462.8383279999989
 30
0.0
 11
2230.6055580000002
 21
1462.8383279999989
 31
0.0
  0
LINE
  5
7D83
  8
3
  6
CONTINUOUS
 62
     0
 10
1989.7090370000001
 20
1400.8383279999989
 30
0.0
 11
2230.6055580000002
 21
1400.8383279999989
 31
0.0
  0
LINE
  5
7D84
  8
3
  6
CONTINUOUS
 62
     0
 10
2210.6055580000002
 20
1502.8383279999989
 30
0.0
 11
2210.6055580000002
 21
1542.838328
 31
0.0
  0
LINE
  5
7D85
  8
3
  6
CONTINUOUS
 62
     0
 10
2210.6055580000002
 20
1360.8383279999989
 30
0.0
 11
2210.6055580000002
 21
1183.695470857142
 31
0.0
  0
LINE
  5
7D86
  8
3
  6
CONTINUOUS
 62
     0
 10
2210.6055580000002
 20
1462.8383279999989
 30
0.0
 11
2210.6055580000002
 21
1400.8383279999989
 31
0.0
  0
INSERT
  5
7D87
  8
3
  6
CONTINUOUS
 62
     0
  2
_OPEN
 10
2210.6055580000002
 20
1462.8383279999989
 30
0.0
 41
40.0
 42
40.0
 43
40.0
 50
270.0
  0
INSERT
  5
7D88
  8
3
  6
CONTINUOUS
 62
     0
  2
_OPEN
 10
2210.6055580000002
 20
1400.8383279999989
 30
0.0
 41
40.0
 42
40.0
 43
40.0
 50
90.0
  0
TEXT
  8
3
  40
60
  5
7DE1
  62
0
  72
0
  71
0
 10
2040.61
 20
1146.07
 30
0.000000
  1
62
  0
POINT
  5
7D8A
  8
DEFPOINTS
  6
CONTINUOUS
 62
     0
 10
1879.7090370000001
 20
1462.8383279999989
 30
0.0
  0
POINT
  5
7D8B
  8
DEFPOINTS
  6
CONTINUOUS
 62
     0
 10
1979.7090370000001
 20
1400.8383279999989
 30
0.0
  0
POINT
  5
7D8C
  8
DEFPOINTS
  6
CONTINUOUS
 62
     0
 10
2210.6055580000002
 20
1400.8383279999989
 30
0.0
  0
ENDBLK
  5
7C9F
  8
0
  0
BLOCK
  8
0
  2
*D7
 70
     1
 10
0.0
 20
0.0
 30
0.0
  3
*D7
  1

  0
LINE
  5
7D8D
  8
3
  6
CONTINUOUS
 62
     0
 10
1979.7090370000001
 20
1390.838328
 30
0.0
 11
1979.7090370000001
 21
1171.2244710821931
 31
0.0
  0
LINE
  5
7D8E
  8
3
  6
CONTINUOUS
 62
     0
 10
1534.7090369999989
 20
1213.9276793205081
 30
0.0
 11
1534.7090369999989
 21
1171.2244710821931
 31
0.0
  0
LINE
  5
7D8F
  8
3
  6
CONTINUOUS
 62
     0
 10
1939.7090370000001
 20
1191.2244710821931
 30
0.0
 11
1574.7090369999989
 21
1191.2244710821931
 31
0.0
  0
INSERT
  5
7D90
  8
3
  6
CONTINUOUS
 62
     0
  2
_OPEN
 10
1979.7090370000001
 20
1191.2244710821931
 30
0.0
 41
40.0
 42
40.0
 43
40.0
  0
INSERT
  5
7D91
  8
3
  6
CONTINUOUS
 62
     0
  2
_OPEN
 10
1534.7090369999989
 20
1191.2244710821931
 30
0.0
 41
40.0
 42
40.0
 43
40.0
 50
180.0
  0
TEXT
  8
3
  40
60
  5
7DE2
  62
0
  72
0
  71
0
 10
1641.72
 20
1135.02
 30
0.000000
  1
445
  0
POINT
  5
7D93
  8
DEFPOINTS
  6
CONTINUOUS
 62
     0
 10
1979.7090370000001
 20
1400.8383279999989
 30
0.0
  0
POINT
  5
7D94
  8
DEFPOINTS
  6
CONTINUOUS
 62
     0
 10
1534.7090369999989
 20
1223.9276793205081
 30
0.0
  0
POINT
  5
7D95
  8
DEFPOINTS
  6
CONTINUOUS
 62
     0
 10
1534.7090369999989
 20
1191.2244710821931
 30
0.0
  0
ENDBLK
  5
7D20
  8
0
  0
BLOCK
  8
0
  2
*D8
 70
     1
 10
0.0
 20
0.0
 30
0.0
  3
*D8
  1

  0
LINE
  5
7D96
  8
3
  6
CONTINUOUS
 62
     0
 10
529.70903699999985
 20
1390.838328
 30
0.0
 11
529.70903699999985
 21
1171.2244710821931
 31
0.0
  0
LINE
  5
7D97
  8
3
  6
CONTINUOUS
 62
     0
 10
1494.7090369999989
 20
1191.2244710821931
 30
0.0
 11
569.70903699999985
 21
1191.2244710821931
 31
0.0
  0
INSERT
  5
7D98
  8
3
  6
CONTINUOUS
 62
     0
  2
_OPEN
 10
1534.7090369999989
 20
1191.2244710821931
 30
0.0
 41
40.0
 42
40.0
 43
40.0
  0
INSERT
  5
7D99
  8
3
  6
CONTINUOUS
 62
     0
  2
_OPEN
 10
529.70903699999985
 20
1191.2244710821931
 30
0.0
 41
40.0
 42
40.0
 43
40.0
 50
180.0
  0
TEXT
  8
3
  40
60
  5
7DE3
  62
0
  72
0
  71
0
 10
912.209
 20
1135.02
 30
0.000000
  1
1005
  0
POINT
  5
7D9B
  8
DEFPOINTS
  6
CONTINUOUS
 62
     0
 10
1534.7090369999989
 20
1223.9276793205081
 30
0.0
  0
POINT
  5
7D9C
  8
DEFPOINTS
  6
CONTINUOUS
 62
     0
 10
529.70903699999985
 20
1400.8383279999989
 30
0.0
  0
POINT
  5
7D9D
  8
DEFPOINTS
  6
CONTINUOUS
 62
     0
 10
529.70903699999985
 20
1191.2244710821931
 30
0.0
  0
ENDBLK
  5
7D2A
  8
0
  0
BLOCK
  8
0
  2
*D9
 70
     1
 10
0.0
 20
0.0
 30
0.0
  3
*D9
  1

  0
LINE
  5
7D9E
  8
3
  6
CONTINUOUS
 62
     0
 10
3248.5166380000001
 20
2432.8383279999998
 30
0.0
 11
3248.5166380000001
 21
2738.6523654968751
 31
0.0
  0
LINE
  5
7D9F
  8
3
  6
CONTINUOUS
 62
     0
 10
2828.5166379999991
 20
2432.8383279999998
 30
0.0
 11
2828.5166379999991
 21
2738.6523654968751
 31
0.0
  0
LINE
  5
7DA0
  8
3
  6
CONTINUOUS
 62
     0
 10
3208.5166380000001
 20
2718.6523654968751
 30
0.0
 11
2868.5166380000001
 21
2718.6523654968751
 31
0.0
  0
INSERT
  5
7DA1
  8
3
  6
CONTINUOUS
 62
     0
  2
_OPEN
 10
3248.5166380000001
 20
2718.6523654968751
 30
0.0
 41
40.0
 42
40.0
 43
40.0
  0
INSERT
  5
7DA2
  8
3
  6
CONTINUOUS
 62
     0
  2
_OPEN
 10
2828.5166379999991
 20
2718.6523654968751
 30
0.0
 41
40.0
 42
40.0
 43
40.0
 50
180.0
  0
TEXT
  8
3
  40
60
  5
7DE4
  62
0
  72
0
  71
0
 10
2913.60
 20
2662.45
 30
0.000000
  1
420
  0
POINT
  5
7DA4
  8
DEFPOINTS
  6
CONTINUOUS
 62
     0
 10
3248.5166380000001
 20
2422.8383279999998
 30
0.0
  0
POINT
  5
7DA5
  8
DEFPOINTS
  6
CONTINUOUS
 62
     0
 10
2828.5166379999991
 20
2422.8383279999998
 30
0.0
  0
POINT
  5
7DA6
  8
DEFPOINTS
  6
CONTINUOUS
 62
     0
 10
2828.5166379999991
 20
2718.6523654968751
 30
0.0
  0
ENDBLK
  5
7CCB
  8
0
  0
BLOCK
  8
0
  2
*D10
 70
     1
 10
0.0
 20
0.0
 30
0.0
  3
*D10
  1

  0
LINE
  5
7DA7
  8
3
  6
CONTINUOUS
 62
     0
 10
3258.5166380000001
 20
2312.8383279999998
 30
0.0
 11
3605.5449749999998
 21
2312.8383279999998
 31
0.0
  0
LINE
  5
7DA8
  8
3
  6
CONTINUOUS
 62
     0
 10
3258.5166380000001
 20
1722.8383279999989
 30
0.0
 11
3605.5449749999998
 21
1722.8383279999989
 31
0.0
  0
LINE
  5
7DA9
  8
3
  6
CONTINUOUS
 62
     0
 10
3585.5449749999998
 20
2272.8383279999998
 30
0.0
 11
3585.5449749999998
 21
1762.8383279999989
 31
0.0
  0
INSERT
  5
7DAA
  8
3
  6
CONTINUOUS
 62
     0
  2
_OPEN
 10
3585.5449749999998
 20
2312.8383279999998
 30
0.0
 41
40.0
 42
40.0
 43
40.0
 50
90.0
  0
INSERT
  5
7DAB
  8
3
  6
CONTINUOUS
 62
     0
  2
_OPEN
 10
3585.5449749999998
 20
1722.8383279999989
 30
0.0
 41
40.0
 42
40.0
 43
40.0
 50
270.0
  0
TEXT
  8
3
  40
60
  5
7DE5
  62
0
  72
0
  71
0
 10
3415.54
 20
1925.25
 30
0.000000
  1
φ590
  0
POINT
  5
7DAD
  8
DEFPOINTS
  6
CONTINUOUS
 62
     0
 10
3248.5166380000001
 20
2312.8383279999998
 30
0.0
  0
POINT
  5
7DAE
  8
DEFPOINTS
  6
CONTINUOUS
 62
     0
 10
3248.5166380000001
 20
1722.8383279999989
 30
0.0
  0
POINT
  5
7DAF
  8
DEFPOINTS
  6
CONTINUOUS
 62
     0
 10
3585.5449749999998
 20
1722.8383279999989
 30
0.0
  0
ENDBLK
  5
7CAA
  8
0
  0
BLOCK
  8
0
  2
*D11
 70
     1
 10
0.0
 20
0.0
 30
0.0
  3
*D11
  1

  0
LINE
  5
7CCD
  8
0
  6
BYBLOCK
 62
     0
 10
3250.5166380000001
 20
2347.8383279999998
 30
0.0
 11
3250.5166380000001
 21
2889.696236542462
 31
0.0
  0
LINE
  5
7CCE
  8
0
  6
BYBLOCK
 62
     0
 10
3038.5166380000001
 20
2817.4236999999989
 30
0.0
 11
3038.5166380000001
 21
2889.696236542462
 31
0.0
  0
LINE
  5
7CCF
  8
0
  6
BYBLOCK
 62
     0
 10
3210.5166380000001
 20
2869.6962365424629
 30
0.0
 11
3078.5166379999991
 21
2869.6962365424629
 31
0.0
  0
TEXT
  5
7CD0
  8
3
 62
     0
 10
3073.088066571428
 20
2895.1216087206549
 30
0.0
 40
60.0
  1
212
  0
INSERT
  5
7CD1
  8
0
  6
BYBLOCK
 62
     0
  2
_OPEN
 10
3250.5166380000001
 20
2869.6962365424629
 30
0.0
 41
40.0
 42
40.0
 43
40.0
  0
INSERT
  5
7CD2
  8
0
  6
BYBLOCK
 62
     0
  2
_OPEN
 10
3038.5166380000001
 20
2869.6962365424629
 30
0.0
 41
40.0
 42
40.0
 43
40.0
 50
180.0
  0
POINT
  5
7CD3
  8
DEFPOINTS
  6
BYBLOCK
 62
     0
 10
3250.5166380000001
 20
2337.8383279999998
 30
0.0
  0
POINT
  5
7CD4
  8
DEFPOINTS
  6
BYBLOCK
 62
     0
 10
3038.5166380000001
 20
2807.4236999999998
 30
0.0
  0
POINT
  5
7CD5
  8
DEFPOINTS
  6
BYBLOCK
 62
     0
 10
3038.5166380000001
 20
2869.6962365424629
 30
0.0
  0
ENDBLK
  5
7CD6
  8
0
  0
BLOCK
  8
0
  2
*D12
 70
     1
 10
0.0
 20
0.0
 30
0.0
  3
*D12
  1

  0
LINE
  5
7DB0
  8
3
  6
CONTINUOUS
 62
     0
 10
2628.5166380000001
 20
1390.838328
 30
0.0
 11
2628.5166380000001
 21
1169.3144050000001
 31
0.0
  0
LINE
  5
7DB1
  8
3
  6
CONTINUOUS
 62
     0
 10
3038.5166380000001
 20
1210.331717
 30
0.0
 11
3038.5166380000001
 21
1169.3144050000001
 31
0.0
  0
LINE
  5
7DB2
  8
3
  6
CONTINUOUS
 62
     0
 10
2668.5166380000001
 20
1189.3144050000001
 30
0.0
 11
2998.5166380000001
 21
1189.3144050000001
 31
0.0
  0
INSERT
  5
7DB3
  8
3
  6
CONTINUOUS
 62
     0
  2
_OPEN
 10
2628.5166380000001
 20
1189.3144050000001
 30
0.0
 41
40.0
 42
40.0
 43
40.0
 50
180.0
  0
INSERT
  5
7DB4
  8
3
  6
CONTINUOUS
 62
     0
  2
_OPEN
 10
3038.5166380000001
 20
1189.3144050000001
 30
0.0
 41
40.0
 42
40.0
 43
40.0
  0
TEXT
  8
3
  40
60
  5
7DE6
  62
0
  72
0
  71
0
 10
2702.42
 20
1133.11
 30
0.000000
  1
410
  0
POINT
  5
7DB6
  8
DEFPOINTS
  6
CONTINUOUS
 62
     0
 10
2628.5166380000001
 20
1400.8383279999989
 30
0.0
  0
POINT
  5
7DB7
  8
DEFPOINTS
  6
CONTINUOUS
 62
     0
 10
3038.5166380000001
 20
1220.331717
 30
0.0
  0
POINT
  5
7DB8
  8
DEFPOINTS
  6
CONTINUOUS
 62
     0
 10
3038.5166380000001
 20
1189.3144050000001
 30
0.0
  0
ENDBLK
  5
7C45
  8
0
  0
BLOCK
  8
0
  2
*D13
 70
     1
 10
0.0
 20
0.0
 30
0.0
  3
*D13
  1

  0
LINE
  5
7DB9
  8
3
  6
CONTINUOUS
 62
     0
 10
3378.5166380000001
 20
1390.838328
 30
0.0
 11
3378.5166380000001
 21
1169.3144050000001
 31
0.0
  0
LINE
  5
7DBA
  8
3
  6
CONTINUOUS
 62
     0
 10
3078.5166379999991
 20
1189.3144050000001
 30
0.0
 11
3338.5166380000001
 21
1189.3144050000001
 31
0.0
  0
INSERT
  5
7DBB
  8
3
  6
CONTINUOUS
 62
     0
  2
_OPEN
 10
3038.5166380000001
 20
1189.3144050000001
 30
0.0
 41
40.0
 42
40.0
 43
40.0
 50
180.0
  0
INSERT
  5
7DBC
  8
3
  6
CONTINUOUS
 62
     0
  2
_OPEN
 10
3378.5166380000001
 20
1189.3144050000001
 30
0.0
 41
40.0
 42
40.0
 43
40.0
  0
TEXT
  8
3
  40
60
  5
7DE7
  62
0
  72
0
  71
0
 10
3088.52
 20
1133.11
 30
0.000000
  1
340
  0
POINT
  5
7DBE
  8
DEFPOINTS
  6
CONTINUOUS
 62
     0
 10
3038.5166380000001
 20
1220.331717
 30
0.0
  0
POINT
  5
7DBF
  8
DEFPOINTS
  6
CONTINUOUS
 62
     0
 10
3378.5166380000001
 20
1400.8383279999989
 30
0.0
  0
POINT
  5
7DC0
  8
DEFPOINTS
  6
CONTINUOUS
 62
     0
 10
3378.5166380000001
 20
1189.3144050000001
 30
0.0
  0
ENDBLK
  5
7C4F
  8
0
  0
BLOCK
  8
0
  2
*D14
 70
     1
 10
0.0
 20
0.0
 30
0.0
  3
*D14
  1

  0
LINE
  5
7DC1
  8
3
  6
CONTINUOUS
 62
     0
 10
2618.5166380000001
 20
2700.8383279999998
 30
0.0
 11
2456.853717
 21
2700.8383279999998
 31
0.0
  0
LINE
  5
7DC2
  8
3
  6
CONTINUOUS
 62
     0
 10
2618.5166380000001
 20
1400.8383279999989
 30
0.0
 11
2456.853717
 21
1400.838328
 31
0.0
  0
LINE
  5
7DC3
  8
3
  6
CONTINUOUS
 62
     0
 10
2476.853717
 20
2660.8383279999998
 30
0.0
 11
2476.853717
 21
1440.838328
 31
0.0
  0
INSERT
  5
7DC4
  8
3
  6
CONTINUOUS
 62
     0
  2
_OPEN
 10
2476.853717
 20
2700.8383279999998
 30
0.0
 41
40.0
 42
40.0
 43
40.0
 50
90.0
  0
INSERT
  5
7DC5
  8
3
  6
CONTINUOUS
 62
     0
  2
_OPEN
 10
2476.853717
 20
1400.838328
 30
0.0
 41
40.0
 42
40.0
 43
40.0
 50
270.0
  0
TEXT
  8
3
  40
60
  5
7DE8
  62
0
  72
0
  71
0
 10
2306.85
 20
1949.23
 30
0.000000
  1
1300
  0
POINT
  5
7DC7
  8
DEFPOINTS
  6
CONTINUOUS
 62
     0
 10
2628.5166380000001
 20
2700.8383279999998
 30
0.0
  0
POINT
  5
7DC8
  8
DEFPOINTS
  6
CONTINUOUS
 62
     0
 10
2628.5166380000001
 20
1400.8383279999989
 30
0.0
  0
POINT
  5
7DC9
  8
DEFPOINTS
  6
CONTINUOUS
 62
     0
 10
2476.853717
 20
1400.838328
 30
0.0
  0
ENDBLK
  5
7BCB
  8
0
  0
BLOCK
  8
0
  2
*D15
 70
     1
 10
0.0
 20
0.0
 30
0.0
  3
*D15
  1

  0
LINE
  5
7DCA
  8
3
  6
CONTINUOUS
 62
     0
 10
529.70903699999985
 20
3967.8383279999998
 30
0.0
 11
529.70903699999985
 21
4153.3897930000003
 31
0.0
  0
LINE
  5
7DCB
  8
3
  6
CONTINUOUS
 62
     0
 10
1979.7090370000001
 20
3967.8383279999998
 30
0.0
 11
1979.7090370000001
 21
4153.3897930000003
 31
0.0
  0
LINE
  5
7DCC
  8
3
  6
CONTINUOUS
 62
     0
 10
569.70903699999985
 20
4133.3897930000003
 30
0.0
 11
1939.7090370000001
 21
4133.3897930000003
 31
0.0
  0
INSERT
  5
7DCD
  8
3
  6
CONTINUOUS
 62
     0
  2
_OPEN
 10
529.70903699999985
 20
4133.3897930000003
 30
0.0
 41
40.0
 42
40.0
 43
40.0
 50
180.0
  0
INSERT
  5
7DCE
  8
3
  6
CONTINUOUS
 62
     0
  2
_OPEN
 10
1979.7090370000001
 20
4133.3897930000003
 30
0.0
 41
40.0
 42
40.0
 43
40.0
  0
TEXT
  8
3
  40
60
  5
7DE9
  62
0
  72
0
  71
0
 10
1118.58
 20
4077.19
 30
0.000000
  1
1450
  0
POINT
  5
7DD0
  8
DEFPOINTS
  6
CONTINUOUS
 62
     0
 10
529.70903699999985
 20
3957.8383279999998
 30
0.0
  0
POINT
  5
7DD1
  8
DEFPOINTS
  6
CONTINUOUS
 62
     0
 10
1979.7090370000001
 20
3957.8383279999998
 30
0.0
  0
POINT
  5
7DD2
  8
DEFPOINTS
  6
CONTINUOUS
 62
     0
 10
1979.7090370000001
 20
4133.3897930000003
 30
0.0
  0
ENDBLK
  5
7C2F
  8
0
  0
BLOCK
  8
0
  2
*D16
 70
     1
 10
0.0
 20
0.0
 30
0.0
  3
*D16
  1

  0
LINE
  5
7DD3
  8
3
  6
CONTINUOUS
 62
     0
 10
1989.7090370000001
 20
3957.8383279999998
 30
0.0
 11
2239.1724260000001
 21
3957.8383279999998
 31
0.0
  0
LINE
  5
7DD4
  8
3
  6
CONTINUOUS
 62
     0
 10
1989.7090370000001
 20
3207.8383279999998
 30
0.0
 11
2239.1724260000001
 21
3207.8383279999998
 31
0.0
  0
LINE
  5
7DD5
  8
3
  6
CONTINUOUS
 62
     0
 10
2219.172426000001
 20
3917.8383279999998
 30
0.0
 11
2219.172426000001
 21
3247.8383279999998
 31
0.0
  0
INSERT
  5
7DD6
  8
3
  6
CONTINUOUS
 62
     0
  2
_OPEN
 10
2219.172426000001
 20
3957.8383279999998
 30
0.0
 41
40.0
 42
40.0
 43
40.0
 50
90.0
  0
INSERT
  5
7DD7
  8
3
  6
CONTINUOUS
 62
     0
  2
_OPEN
 10
2219.172426000001
 20
3207.8383279999998
 30
0.0
 41
40.0
 42
40.0
 43
40.0
 50
270.0
  0
TEXT
  8
3
  40
60
  5
7DEA
  62
0
  72
0
  71
0
 10
2049.17
 20
3451.92
 30
0.000000
  1
750
  0
POINT
  5
7DD9
  8
DEFPOINTS
  6
CONTINUOUS
 62
     0
 10
1979.7090370000001
 20
3957.8383279999998
 30
0.0
  0
POINT
  5
7DDA
  8
DEFPOINTS
  6
CONTINUOUS
 62
     0
 10
1979.7090370000001
 20
3207.8383279999998
 30
0.0
  0
POINT
  5
7DDB
  8
DEFPOINTS
  6
CONTINUOUS
 62
     0
 10
2219.172426000001
 20
3207.8383279999998
 30
0.0
  0
ENDBLK
  5
7C3A
  8
0
  0
ENDSEC
  0
SECTION
  2
ENTITIES
  0
LINE
  5
7A81
  8
1
  6
CONTINUOUS
 10
3338.5166380000001
 20
1440.8383279999989
 30
0.0
 11
3338.5166380000001
 21
2660.8383279999998
 31
0.0
  0
LINE
  5
7A82
  8
1
  6
CONTINUOUS
 10
2668.5166380000001
 20
2660.8383279999998
 30
0.0
 11
2668.5166380000001
 21
1440.8383279999989
 31
0.0
  0
LINE
  5
7A83
  8
1
  6
CONTINUOUS
 10
1939.7090370000001
 20
2660.8383279999998
 30
0.0
 11
1939.7090370000001
 21
1440.8383279999989
 31
0.0
  0
LINE
  5
7A84
  8
1
  6
CONTINUOUS
 10
569.70903699999985
 20
1440.8383279999989
 30
0.0
 11
569.70903699999985
 21
2660.8383279999998
 31
0.0
  0
LINE
  5
7A85
  8
1
  6
CONTINUOUS
 10
3378.5166380000001
 20
2700.8383279999998
 30
0.0
 11
3378.5166380000001
 21
1400.8383279999989
 31
0.0
  0
LINE
  5
7A86
  8
1
  6
CONTINUOUS
 10
2628.5166380000001
 20
2700.8383279999998
 30
0.0
 11
2628.5166380000001
 21
1400.8383279999989
 31
0.0
  0
LINE
  5
7A87
  8
1
  6
CONTINUOUS
 10
1979.7090370000001
 20
2700.8383279999998
 30
0.0
 11
1979.7090370000001
 21
1400.8383279999989
 31
0.0
  0
LINE
  5
7A88
  8
1
  6
CONTINUOUS
 10
529.70903699999985
 20
2700.8383279999998
 30
0.0
 11
529.70903699999985
 21
1400.8383279999989
 31
0.0
  0
LINE
  5
7A8B
  8
1
  6
CONTINUOUS
 10
2668.5166380000001
 20
1440.8383279999989
 30
0.0
 11
3338.5166380000001
 21
1440.8383279999989
 31
0.0
  0
LINE
  5
7A8C
  8
1
  6
CONTINUOUS
 10
3378.5166380000001
 20
1400.8383279999989
 30
0.0
 11
2628.5166380000001
 21
1400.8383279999989
 31
0.0
  0
LINE
  5
7A8D
  8
1
  6
CONTINUOUS
 10
2628.5166380000001
 20
2377.8383279999998
 30
0.0
 11
2748.5166380000001
 21
2377.8383279999998
 31
0.0
  0
LINE
  5
7A8E
  8
1
  6
CONTINUOUS
 10
2658.5166380000001
 20
2117.8383279999998
 30
0.0
 11
2718.5166380000001
 21
2117.8383279999998
 31
0.0
  0
LINE
  5
7A8F
  8
1
  6
CONTINUOUS
 10
2658.5166380000001
 20
1917.838328
 30
0.0
 11
2718.5166380000001
 21
1917.838328
 31
0.0
  0
LINE
  5
7A90
  8
1
  6
CONTINUOUS
 10
2658.5166380000001
 20
1794.838328
 30
0.0
 11
2718.5166380000001
 21
1794.838328
 31
0.0
  0
LINE
  5
7A91
  8
1
  6
CONTINUOUS
 10
2658.5166380000001
 20
1654.838328
 30
0.0
 11
2718.5166380000001
 21
1654.838328
 31
0.0
  0
LINE
  5
7A92
  8
1
  6
CONTINUOUS
 10
3293.5166379999991
 20
1542.838328
 30
0.0
 11
2628.5166380000001
 21
1542.838328
 31
0.0
  0
LINE
  5
7A93
  8
1
  6
CONTINUOUS
 10
1939.7090370000001
 20
1440.8383279999989
 30
0.0
 11
569.70903699999985
 21
1440.8383279999989
 31
0.0
  0
LINE
  5
7A94
  8
1
  6
CONTINUOUS
 10
1979.7090370000001
 20
1400.8383279999989
 30
0.0
 11
529.70903699999985
 21
1400.8383279999989
 31
0.0
  0
LINE
  5
7A95
  8
1
  6
CONTINUOUS
 10
859.16299600000025
 20
1659.2486650000001
 30
0.0
 11
1569.643264
 21
1924.138809
 31
0.0
  0
LINE
  5
7A96
  8
1
  6
CONTINUOUS
 10
805.14957300000003
 20
1788.2909719999991
 30
0.0
 11
1492.481231
 21
2108.484962999999
 31
0.0
  0
LINE
  5
7A97
  8
1
  6
CONTINUOUS
 10
1894.7090370000001
 20
1542.838328
 30
0.0
 11
629.70903699999985
 21
1542.838328
 31
0.0
  0
LINE
  5
7A98
  8
1
  6
CONTINUOUS
 10
1535.2090369999989
 20
2377.8383279999998
 30
0.0
 11
675.20903699999985
 21
1772.8383279999989
 31
0.0
  0
LINE
  5
7A99
  8
1
  6
CONTINUOUS
 10
1879.7090370000001
 20
1462.8383279999989
 30
0.0
 11
629.70903699999985
 21
1462.8383279999989
 31
0.0
  0
LINE
  5
7A9A
  8
1
  6
CONTINUOUS
 10
1555.7090369999989
 20
2397.8383279999998
 30
0.0
 11
995.832494
 21
2397.8383279999998
 31
0.0
  0
ARC
  5
7A9B
  8
1
  6
CONTINUOUS
 10
1497.7090369999989
 20
2054.8383279999998
 30
0.0
 40
501.36713099999992
 50
184.2321739999999
 51
275.04245099999991
  0
LINE
  5
7A9C
  8
1
  6
CONTINUOUS
 10
1582.7090369999989
 20
2422.8383279999998
 30
0.0
 11
968.70903699999985
 21
2422.8383279999998
 31
0.0
  0
LINE
  5
7A9D
  8
2
  6
CENTER
 10
834.70903699999997
 20
1654.838328
 30
0.0
 11
834.70903699999997
 21
1794.838328
 31
0.0
  0
ARC
  5
7A9E
  8
1
  6
CONTINUOUS
 10
834.70903699999997
 20
1724.838328
 30
0.0
 40
142.0
 50
324.59875699999998
 51
215.40124299999999
  0
LINE
  5
7A9F
  8
1
  6
CONTINUOUS
 10
675.20903699999985
 20
1542.838328
 30
0.0
 11
675.20903699999985
 21
1772.8383279999989
 31
0.0
  0
CIRCLE
  5
7AA0
  8
1
  6
CONTINUOUS
 10
834.70903699999997
 20
1724.838328
 30
0.0
 40
70.0
  0
LINE
  5
7AA1
  8
2
  6
CENTER
 10
764.70903699999985
 20
1724.838328
 30
0.0
 11
904.70903699999985
 21
1724.838328
 31
0.0
  0
LINE
  5
7AA2
  8
1
  6
CONTINUOUS
 10
704.70903699999985
 20
1542.838328
 30
0.0
 11
964.70903699999985
 21
1542.838328
 31
0.0
  0
LINE
  5
7AA3
  8
1
  6
CONTINUOUS
 10
629.70903699999985
 20
1542.838328
 30
0.0
 11
629.70903699999985
 21
1462.8383279999989
 31
0.0
  0
LINE
  5
7AA4
  8
1
  6
CONTINUOUS
 10
704.70903699999985
 20
1607.8383279999989
 30
0.0
 11
718.96267399999999
 21
1642.5778909999999
 31
0.0
  0
LINE
  5
7AA5
  8
1
  6
CONTINUOUS
 10
704.70903699999985
 20
1542.838328
 30
0.0
 11
704.70903699999985
 21
1607.8383279999989
 31
0.0
  0
LINE
  5
7AA6
  8
1
  6
CONTINUOUS
 10
964.70903699999985
 20
1542.838328
 30
0.0
 11
964.70903699999985
 21
1607.8383279999989
 31
0.0
  0
LINE
  5
7AA7
  8
1
  6
CONTINUOUS
 10
964.70903699999985
 20
1607.8383279999989
 30
0.0
 11
950.45540000000005
 21
1642.5778909999999
 31
0.0
  0
LINE
  5
7AA8
  8
1
  6
CONTINUOUS
 10
995.70903699999985
 20
2422.8383279999998
 30
0.0
 11
997.70903699999985
 21
2017.838328
 31
0.0
  0
LINE
  5
7AA9
  8
1
  6
CONTINUOUS
 10
1805.2090370000001
 20
2292.8383279999998
 30
0.0
 11
1535.2090369999989
 21
2377.8383279999998
 31
0.0
  0
CIRCLE
  5
7AAA
  8
1
  6
CONTINUOUS
 10
1534.7090369999989
 20
2017.838328
 30
0.0
 40
295.0
  0
CIRCLE
  5
7AAB
  8
1
  6
CONTINUOUS
 10
1534.7090369999989
 20
2017.838328
 30
0.0
 40
320.0
  0
LINE
  5
7AAC
  8
1
  6
CONTINUOUS
 10
1124.7090369999989
 20
1542.838328
 30
0.0
 11
1944.7090370000001
 21
1542.838328
 31
0.0
  0
LINE
  5
7AAD
  8
1
  6
CONTINUOUS
 10
1124.7090369999989
 20
2377.8383279999998
 30
0.0
 11
1944.7090370000001
 21
2377.8383279999998
 31
0.0
  0
ARC
  5
7AAE
  8
1
  6
CONTINUOUS
 10
1558.7090369999989
 20
1993.838328
 30
0.0
 40
377.65927299999993
 50
7.2531949999999998
 51
90.455143000000007
  0
ARC
  5
7AAF
  8
1
  6
CONTINUOUS
 10
1503.7090370000001
 20
1986.838328
 30
0.0
 40
433.10293799999999
 50
275.04245099999991
 51
7.2531949999999998
  0
LINE
  5
7AB0
  8
1
  6
CONTINUOUS
 10
1124.7090369999989
 20
2377.8383279999998
 30
0.0
 11
1124.7090369999989
 21
1542.838328
 31
0.0
  0
LINE
  5
7AB1
  8
2
  6
CENTER
 10
3460.037546
 20
2017.838328
 30
0.0
 11
2593.8865369999999
 21
2017.838328
 31
0.0
  0
CIRCLE
  5
7AB2
  8
1
  6
CONTINUOUS
 10
1534.7090369999989
 20
2017.838328
 30
0.0
 40
100.0
  0
LINE
  5
7AB3
  8
2
  6
CENTER
 10
1534.7090369999989
 20
4033.3818879999999
 30
0.0
 11
1534.7090369999989
 21
3126.8592250000002
 31
0.0
  0
LINE
  5
7AB4
  8
1
  6
CONTINUOUS
 10
1555.7090369999989
 20
2371.4856850000001
 30
0.0
 11
1555.7090369999989
 21
2422.8383279999998
 31
0.0
  0
LINE
  5
7AB5
  8
1
  6
CONTINUOUS
 10
2658.5166380000001
 20
1794.838328
 30
0.0
 11
2658.5166380000001
 21
1654.838328
 31
0.0
  0
LINE
  5
7AB6
  8
1
  6
CONTINUOUS
 10
1805.2090370000001
 20
1542.838328
 30
0.0
 11
1805.2090370000001
 21
2292.8383279999998
 31
0.0
  0
LINE
  5
7AB7
  8
1
  6
CONTINUOUS
 10
1944.7090370000001
 20
2377.8383279999998
 30
0.0
 11
1944.7090370000001
 21
1542.838328
 31
0.0
  0
LINE
  5
7AB8
  8
1
  6
CONTINUOUS
 10
1879.7090370000001
 20
1542.838328
 30
0.0
 11
1879.7090370000001
 21
1462.8383279999989
 31
0.0
  0
LINE
  5
7AB9
  8
1
  6
CONTINUOUS
 10
2658.5166380000001
 20
2117.8383279999998
 30
0.0
 11
2658.5166380000001
 21
1917.838328
 31
0.0
  0
LINE
  5
7ABA
  8
1
  6
CONTINUOUS
 10
3250.5166380000001
 20
1697.838328
 30
0.0
 11
3250.5166380000001
 21
2337.8383279999998
 31
0.0
  0
LINE
  5
7ABB
  8
1
  6
CONTINUOUS
 10
2748.5166380000001
 20
1542.838328
 30
0.0
 11
2748.5166380000001
 21
2377.8383279999998
 31
0.0
  0
LINE
  5
7ABC
  8
1
  6
CONTINUOUS
 10
2718.5166380000001
 20
1794.838328
 30
0.0
 11
2718.5166380000001
 21
1654.838328
 31
0.0
  0
LINE
  5
7ABD
  8
1
  6
CONTINUOUS
 10
2828.5166379999991
 20
1542.838328
 30
0.0
 11
2828.5166379999991
 21
2422.8383279999998
 31
0.0
  0
LINE
  5
7ABE
  8
1
  6
CONTINUOUS
 10
3248.5166380000001
 20
1542.838328
 30
0.0
 11
3248.5166380000001
 21
2422.8383279999998
 31
0.0
  0
LINE
  5
7ABF
  8
1
  6
CONTINUOUS
 10
3293.5166379999991
 20
1462.8383279999989
 30
0.0
 11
2783.5166380000001
 21
1462.8383279999989
 31
0.0
  0
LINE
  5
7AC0
  8
1
  6
CONTINUOUS
 10
2718.5166380000001
 20
1708.838328
 30
0.0
 11
2828.5166379999991
 21
1708.838328
 31
0.0
  0
LINE
  5
7AC1
  8
1
  6
CONTINUOUS
 10
2783.5166380000001
 20
1462.8383279999989
 30
0.0
 11
2783.5166380000001
 21
1542.838328
 31
0.0
  0
LINE
  5
7AC2
  8
1
  6
CONTINUOUS
 10
3248.5166380000001
 20
1697.838328
 30
0.0
 11
3250.5166380000001
 21
1697.838328
 31
0.0
  0
LINE
  5
7AC3
  8
1
  6
CONTINUOUS
 10
3293.5166379999991
 20
1462.8383279999989
 30
0.0
 11
3293.5166379999991
 21
1542.838328
 31
0.0
  0
LINE
  5
7AC4
  8
1
  6
CONTINUOUS
 10
2828.5166379999991
 20
2397.8383279999998
 30
0.0
 11
3248.5166380000001
 21
2397.8383279999998
 31
0.0
  0
LINE
  5
7AC5
  8
1
  6
CONTINUOUS
 10
2801.5166380000001
 20
2422.8383279999998
 30
0.0
 11
3275.5166380000001
 21
2422.8383279999998
 31
0.0
  0
LINE
  5
7AC6
  8
1
  6
CONTINUOUS
 10
2718.5166380000001
 20
2117.8383279999998
 30
0.0
 11
2718.5166380000001
 21
1917.838328
 31
0.0
  0
LINE
  5
7AC7
  8
1
  6
CONTINUOUS
 10
2718.5166380000001
 20
1740.838328
 30
0.0
 11
2828.5166379999991
 21
1740.838328
 31
0.0
  0
LINE
  5
7AC8
  8
1
  6
CONTINUOUS
 10
2828.5166379999991
 20
2033.838328
 30
0.0
 11
2718.5166380000001
 21
2033.838328
 31
0.0
  0
LINE
  5
7AC9
  8
1
  6
CONTINUOUS
 10
2828.5166379999991
 20
2001.838328
 30
0.0
 11
2718.5166380000001
 21
2001.838328
 31
0.0
  0
LINE
  5
7ACA
  8
1
  6
CONTINUOUS
 10
3248.5166380000001
 20
2337.8383279999998
 30
0.0
 11
3250.5166380000001
 21
2337.8383279999998
 31
0.0
  0
LINE
  5
7ACB
  8
1
  6
CONTINUOUS
 10
3338.5166380000001
 20
2660.8383279999998
 30
0.0
 11
2668.5166380000001
 21
2660.8383279999998
 31
0.0
  0
LINE
  5
7ACC
  8
1
  6
CONTINUOUS
 10
3378.5166380000001
 20
2700.8383279999998
 30
0.0
 11
2628.5166380000001
 21
2700.8383279999998
 31
0.0
  0
LINE
  5
7ACD
  8
1
  6
CONTINUOUS
 10
569.70903699999985
 20
2660.8383279999998
 30
0.0
 11
1939.7090370000001
 21
2660.8383279999998
 31
0.0
  0
POLYLINE
  5
7ACE
  8
1
  6
CONTINUOUS
 66
     1
 10
0.0
 20
0.0
 30
0.0
 70
     1
  0
VERTEX
  5
7D52
  8
1
  6
CONTINUOUS
 10
569.70903699999985
 20
3917.8383279999998
 30
0.0
  0
VERTEX
  5
7D53
  8
1
  6
CONTINUOUS
 10
1939.7090370000001
 20
3917.8383279999998
 30
0.0
  0
VERTEX
  5
7D54
  8
1
  6
CONTINUOUS
 10
1939.7090370000001
 20
3247.8383279999998
 30
0.0
  0
VERTEX
  5
7D55
  8
1
  6
CONTINUOUS
 10
569.70903699999985
 20
3247.8383279999998
 30
0.0
  0
SEQEND
  5
7D56
  8
1
  6
CONTINUOUS
  0
LINE
  5
7AD4
  8
1
  6
CONTINUOUS
 10
1979.7090370000001
 20
2700.8383279999998
 30
0.0
 11
529.70903699999985
 21
2700.8383279999998
 31
0.0
  0
LINE
  5
7AD5
  8
1
  6
CONTINUOUS
 10
529.70903699999985
 20
3207.8383279999998
 30
0.0
 11
1979.7090370000001
 21
3207.8383279999998
 31
0.0
  0
LINE
  5
7AD6
  8
1
  6
CONTINUOUS
 10
529.70903699999985
 20
3957.8383279999998
 30
0.0
 11
1979.7090370000001
 21
3957.8383279999998
 31
0.0
  0
LINE
  5
7AD7
  8
1
  6
CONTINUOUS
 10
1518.7090369999989
 20
3362.8383279999998
 30
0.0
 11
853.70903699999985
 21
3362.8383279999998
 31
0.0
  0
LINE
  5
7AD8
  8
1
  6
CONTINUOUS
 10
1879.7090370000001
 20
3872.8383279999998
 30
0.0
 11
629.70903699999985
 21
3872.8383279999998
 31
0.0
  0
LINE
  5
7AD9
  8
1
  6
CONTINUOUS
 10
1805.2090370000001
 20
3327.8383279999998
 30
0.0
 11
675.20903699999985
 21
3327.8383279999998
 31
0.0
  0
LINE
  5
7ADA
  8
1
  6
CONTINUOUS
 10
1944.7090370000001
 20
3827.8383279999998
 30
0.0
 11
995.70903699999985
 21
3827.8383279999998
 31
0.0
  0
LINE
  5
7ADB
  8
1
  6
CONTINUOUS
 10
1944.7090370000001
 20
3407.8383279999998
 30
0.0
 11
995.70903699999985
 21
3407.8383279999998
 31
0.0
  0
LINE
  5
7ADC
  8
1
  6
CONTINUOUS
 10
995.70903699999985
 20
3827.8383279999998
 30
0.0
 11
1555.7090369999989
 21
3407.8383279999998
 31
0.0
  0
LINE
  5
7ADD
  8
1
  6
CONTINUOUS
 10
1555.7090369999989
 20
3827.8383279999998
 30
0.0
 11
995.70903699999985
 21
3407.8383279999998
 31
0.0
  0
LINE
  5
7ADE
  8
1
  6
CONTINUOUS
 10
529.70903699999985
 20
3957.8383279999998
 30
0.0
 11
529.70903699999985
 21
3207.8383279999998
 31
0.0
  0
LINE
  5
7ADF
  8
1
  6
CONTINUOUS
 10
976.70903699999997
 20
3781.576161
 30
0.0
 11
976.70903699999997
 21
3381.576161
 31
0.0
  0
LINE
  5
7AE0
  8
1
  6
CONTINUOUS
 10
692.70903699999997
 20
3781.576161
 30
0.0
 11
692.70903699999997
 21
3381.576161
 31
0.0
  0
LINE
  5
7AE1
  8
1
  6
CONTINUOUS
 10
629.70903699999985
 20
3872.8383279999998
 30
0.0
 11
629.70903699999985
 21
3362.8383279999998
 31
0.0
  0
LINE
  5
7AE2
  8
1
  6
CONTINUOUS
 10
995.70903699999985
 20
3827.8383279999998
 30
0.0
 11
995.70903699999985
 21
3407.8383279999998
 31
0.0
  0
LINE
  5
7AE3
  8
1
  6
CONTINUOUS
 10
815.70903699999997
 20
3362.8383279999998
 30
0.0
 11
629.70903699999985
 21
3362.8383279999998
 31
0.0
  0
LINE
  5
7AE4
  8
1
  6
CONTINUOUS
 10
692.70903699999997
 20
3381.576161
 30
0.0
 11
976.70903699999997
 21
3381.576161
 31
0.0
  0
LINE
  5
7AE5
  8
1
  6
CONTINUOUS
 10
764.70903699999985
 20
3297.8383279999998
 30
0.0
 11
904.70903699999985
 21
3297.8383279999998
 31
0.0
  0
LINE
  5
7AE6
  8
1
  6
CONTINUOUS
 10
764.70903699999985
 20
3237.8383279999998
 30
0.0
 11
904.70903699999985
 21
3237.8383279999998
 31
0.0
  0
LINE
  5
7AE7
  8
1
  6
CONTINUOUS
 10
675.20903699999985
 20
3207.8383279999998
 30
0.0
 11
675.20903699999985
 21
3327.8383279999998
 31
0.0
  0
LINE
  5
7AE8
  8
1
  6
CONTINUOUS
 10
764.70903699999985
 20
3237.8383279999998
 30
0.0
 11
764.70903699999985
 21
3297.8383279999998
 31
0.0
  0
LINE
  5
7AE9
  8
1
  6
CONTINUOUS
 10
815.70903699999997
 20
3297.8383279999998
 30
0.0
 11
815.70903699999997
 21
3381.576161
 31
0.0
  0
LINE
  5
7AEA
  8
1
  6
CONTINUOUS
 10
853.70903699999985
 20
3297.8383279999998
 30
0.0
 11
853.70903699999985
 21
3381.576161
 31
0.0
  0
LINE
  5
7AEB
  8
1
  6
CONTINUOUS
 10
904.70903699999985
 20
3237.8383279999998
 30
0.0
 11
904.70903699999985
 21
3297.8383279999998
 31
0.0
  0
LINE
  5
7AEC
  8
1
  6
CONTINUOUS
 10
692.70903699999997
 20
3781.576161
 30
0.0
 11
976.70903699999997
 21
3781.576161
 31
0.0
  0
LINE
  5
7AED
  8
1
  6
CONTINUOUS
 10
1854.7090370000001
 20
3829.8383279999998
 30
0.0
 11
1214.7090369999989
 21
3829.8383279999998
 31
0.0
  0
LINE
  5
7AEE
  8
1
  6
CONTINUOUS
 10
1879.7090370000001
 20
3362.8383279999998
 30
0.0
 11
1550.7090369999989
 21
3362.8383279999998
 31
0.0
  0
LINE
  5
7AEF
  8
1
  6
CONTINUOUS
 10
1555.7090369999989
 20
3827.8383279999998
 30
0.0
 11
1555.7090369999989
 21
3407.8383279999998
 31
0.0
  0
LINE
  5
7AF0
  8
1
  6
CONTINUOUS
 10
1434.7090370000001
 20
3237.8383279999998
 30
0.0
 11
1634.7090370000001
 21
3237.8383279999998
 31
0.0
  0
LINE
  5
7AF1
  8
1
  6
CONTINUOUS
 10
1434.7090370000001
 20
3297.8383279999998
 30
0.0
 11
1634.7090370000001
 21
3297.8383279999998
 31
0.0
  0
LINE
  5
7AF2
  8
1
  6
CONTINUOUS
 10
1434.7090370000001
 20
3237.8383279999998
 30
0.0
 11
1434.7090370000001
 21
3297.8383279999998
 31
0.0
  0
LINE
  5
7AF3
  8
1
  6
CONTINUOUS
 10
1518.7090369999989
 20
3407.8383279999998
 30
0.0
 11
1518.7090369999989
 21
3297.8383279999998
 31
0.0
  0
LINE
  5
7AF4
  8
1
  6
CONTINUOUS
 10
1550.7090369999989
 20
3407.8383279999998
 30
0.0
 11
1550.7090369999989
 21
3297.8383279999998
 31
0.0
  0
LINE
  5
7AF5
  8
1
  6
CONTINUOUS
 10
1634.7090370000001
 20
3237.8383279999998
 30
0.0
 11
1634.7090370000001
 21
3297.8383279999998
 31
0.0
  0
LINE
  5
7AF6
  8
1
  6
CONTINUOUS
 10
1214.7090369999989
 20
3827.8383279999998
 30
0.0
 11
1214.7090369999989
 21
3829.8383279999998
 31
0.0
  0
LINE
  5
7AF7
  8
1
  6
CONTINUOUS
 10
1979.7090370000001
 20
3957.8383279999998
 30
0.0
 11
1979.7090370000001
 21
3207.8383279999998
 31
0.0
  0
LINE
  5
7AF8
  8
1
  6
CONTINUOUS
 10
1944.7090370000001
 20
3407.8383279999998
 30
0.0
 11
1944.7090370000001
 21
3827.8383279999998
 31
0.0
  0
LINE
  5
7AF9
  8
1
  6
CONTINUOUS
 10
1805.2090370000001
 20
3207.8383279999998
 30
0.0
 11
1805.2090370000001
 21
3327.8383279999998
 31
0.0
  0
LINE
  5
7AFA
  8
1
  6
CONTINUOUS
 10
1879.7090370000001
 20
3407.8383279999998
 30
0.0
 11
1879.7090370000001
 21
3362.8383279999998
 31
0.0
  0
LINE
  5
7AFB
  8
1
  6
CONTINUOUS
 10
1854.7090370000001
 20
3827.8383279999998
 30
0.0
 11
1854.7090370000001
 21
3829.8383279999998
 31
0.0
  0
LINE
  5
7AFC
  8
1
  6
CONTINUOUS
 10
1879.7090370000001
 20
3872.8383279999998
 30
0.0
 11
1879.7090370000001
 21
3827.8383279999998
 31
0.0
  0
LINE
  5
7AFD
  8
2
  6
CENTER
 10
3038.5166380000001
 20
2708.3652340859921
 30
0.0
 11
3038.5166380000001
 21
1220.331717
 31
0.0
  0
LINE
  5
7AFE
  8
2
  6
CENTER
 10
2095.941761
 20
3617.8383279999998
 30
0.0
 11
892.19183672683357
 21
3617.8383279999998
 31
0.0
  0
LINE
  5
7AFF
  8
2
  6
CENTER
 10
1534.7090369999989
 20
2727.3321445013298
 30
0.0
 11
1534.7090369999989
 21
1223.9276793205081
 31
0.0
  0
LINE
  5
7B00
  8
2
  6
CENTER
 10
2038.8462129999989
 20
2017.838328
 30
0.0
 11
850.32190794266353
 21
2017.838328
 31
0.0
  0
DIMENSION
  5
7B14
  8
3
  6
CONTINUOUS
  2
*D1
 10
1555.7090369999989
 20
2530.1222789999988
 30
0.0
 11
1281.7709010000001
 21
2530.1222789999988
 31
0.0
 70
   128
 13
995.70903699999985
 23
2422.8383279999998
 33
0.0
 14
1555.7090369999989
 24
2422.8383279999998
 34
0.0
1001
ACAD
1000
DSTYLE
1002
{
1070
   287
1070
     3
1070
    40
1040
20.0
1070
   143
1040
0.039
1070
   172
1070
     1
1070
   271
1070
     0
1070
   279
1070
     0
1070
   288
1070
     1
1002
}
  0
DIMENSION
  5
7B21
  8
3
  6
CONTINUOUS
  2
*D2
 10
1534.7090369999989
 20
2774.6625939999999
 30
0.0
 11
1276.971362
 21
2774.6625939999999
 31
0.0
 70
   128
 13
995.70903699999985
 23
2422.8383279999998
 33
0.0
 14
1534.7090369999989
 24
2727.3321445013298
 34
0.0
1001
ACAD
1000
DSTYLE
1002
{
1070
   287
1070
     3
1070
    40
1040
20.0
1070
   143
1040
0.039
1070
   172
1070
     1
1070
   271
1070
     0
1070
   279
1070
     0
1070
   288
1070
     1
1002
}
  0
DIMENSION
  5
7B2D
  8
3
  6
CONTINUOUS
  2
*D3
 10
1944.7090370000001
 20
2774.6625939999999
 30
0.0
 11
1739.7090370000001
 21
2824.6625939999999
 31
0.0
 70
     0
 13
1534.7090369999989
 23
2727.3321445013298
 33
0.0
 14
1944.7090370000001
 24
2377.8383279999998
 34
0.0
1001
ACAD
1000
DSTYLE
1002
{
1070
   287
1070
     4
1070
    40
1040
20.0
1070
    75
1070
     1
1070
   143
1040
0.039
1070
   172
1070
     1
1070
   271
1070
     0
1070
   279
1070
     1
1070
   288
1070
     1
1002
}
  0
DIMENSION
  5
7B3A
  8
3
  6
CONTINUOUS
  2
*D4
 10
2209.5635980000002
 20
2017.838328
 30
0.0
 11
2209.5635980000002
 21
2218.4532239999999
 31
0.0
 70
   128
 13
1582.7090369999989
 23
2422.8383279999998
 33
0.0
 14
2038.8462129999989
 24
2017.838328
 34
0.0
 50
90.0
1001
ACAD
1000
DSTYLE
1002
{
1070
   287
1070
     3
1070
    40
1040
20.0
1070
   143
1040
0.039
1070
   172
1070
     1
1070
   271
1070
     0
1070
   279
1070
     0
1070
   288
1070
     1
1002
}
  0
DIMENSION
  5
7B46
  8
3
  6
CONTINUOUS
  2
*D5
 10
2209.5635980000002
 20
1462.8383279999989
 30
0.0
 11
2159.5635979999988
 21
1740.3383279999989
 31
0.0
 70
     0
 13
2038.8462129999989
 23
2017.838328
 33
0.0
 14
1879.7090370000001
 24
1462.8383279999989
 34
0.0
 50
90.0
1001
ACAD
1000
DSTYLE
1002
{
1070
   287
1070
     4
1070
    40
1040
20.0
1070
    75
1070
     1
1070
   143
1040
0.039
1070
   172
1070
     1
1070
   271
1070
     0
1070
   279
1070
     1
1070
   288
1070
     1
1002
}
  0
DIMENSION
  5
7B56
  8
3
  6
CONTINUOUS
  2
*D6
 10
2210.6055580000002
 20
1400.8383279999989
 30
0.0
 11
2210.6055580000002
 21
1252.2668994285709
 31
0.0
 70
   128
 13
1879.7090370000001
 23
1462.8383279999989
 33
0.0
 14
1979.7090370000001
 24
1400.8383279999989
 34
0.0
 50
90.0
1001
ACAD
1000
DSTYLE
1002
{
1070
   287
1070
     3
1070
    40
1040
20.0
1070
   143
1040
0.039
1070
   172
1070
     1
1070
   271
1070
     0
1070
   279
1070
     0
1070
   288
1070
     1
1002
}
  0
DIMENSION
  5
7B63
  8
3
  6
CONTINUOUS
  2
*D7
 10
1534.7090369999989
 20
1191.2244710821931
 30
0.0
 11
1761.723849
 21
1191.2244710821931
 31
0.0
 70
   128
 13
1979.7090370000001
 23
1400.8383279999989
 33
0.0
 14
1534.7090369999989
 24
1223.9276793205081
 34
0.0
1001
ACAD
1000
DSTYLE
1002
{
1070
   287
1070
     3
1070
    40
1040
20.0
1070
   143
1040
0.039
1070
   172
1070
     1
1070
   271
1070
     0
1070
   279
1070
     0
1070
   288
1070
     1
1002
}
  0
DIMENSION
  5
7B6F
  8
3
  6
CONTINUOUS
  2
*D8
 10
529.70903699999985
 20
1191.2244710821931
 30
0.0
 11
1032.2090369999989
 21
1241.2244710821931
 31
0.0
 70
     0
 13
1534.7090369999989
 23
1223.9276793205081
 33
0.0
 14
529.70903699999985
 24
1400.8383279999989
 34
0.0
1001
ACAD
1000
DSTYLE
1002
{
1070
   287
1070
     4
1070
    40
1040
20.0
1070
    75
1070
     1
1070
   143
1040
0.039
1070
   172
1070
     1
1070
   271
1070
     0
1070
   279
1070
     1
1070
   288
1070
     1
1002
}
  0
DIMENSION
  5
7B7C
  8
3
  6
CONTINUOUS
  2
*D9
 10
2828.5166379999991
 20
2718.6523654968751
 30
0.0
 11
3033.599115999999
 21
2718.6523654968751
 31
0.0
 70
   128
 13
3248.5166380000001
 23
2422.8383279999998
 33
0.0
 14
2828.5166379999991
 24
2422.8383279999998
 34
0.0
1001
ACAD
1000
DSTYLE
1002
{
1070
   287
1070
     3
1070
    40
1040
20.0
1070
   143
1040
0.039
1070
   172
1070
     1
1070
   271
1070
     0
1070
   279
1070
     0
1070
   288
1070
     1
1002
}
  0
DIMENSION
  5
7B8B
  8
3
  6
CONTINUOUS
  2
*D10
 10
3585.5449749999998
 20
1722.8383279999989
 30
0.0
 11
3585.5449749999989
 21
2031.4518049999999
 31
0.0
 70
   128
 13
3248.5166380000001
 23
2312.8383279999998
 33
0.0
 14
3248.5166380000001
 24
1722.8383279999989
 34
0.0
 50
90.0
1001
ACAD
1000
DSTYLE
1002
{
1070
   287
1070
     3
1070
     3
1000
φ<>
1070
    40
1040
20.0
1070
   143
1040
0.039
1070
   172
1070
     1
1070
   271
1070
     0
1070
   279
1070
     0
1070
   288
1070
     1
1002
}
  0
DIMENSION
  5
7B9A
  8
3
  6
CONTINUOUS
  2
*D11
 10
3038.5166380000001
 20
2869.6962365424629
 30
0.0
 11
3144.5166380000001
 21
2925.1216087206549
 31
0.0
 70
   128
 13
3250.5166380000001
 23
2337.8383279999998
 33
0.0
 14
3038.5166380000001
 24
2807.4236999999998
 34
0.0
1001
ACAD
1000
DSTYLE
1002
{
1070
   288
1070
     1
1070
   172
1070
     1
1070
    40
1040
20.0
1070
   271
1070
     0
1070
   143
1040
0.039
1002
}
  0
DIMENSION
  5
7BB3
  8
3
  6
CONTINUOUS
  2
*D12
 10
3038.5166380000001
 20
1189.3144050000001
 30
0.0
 11
2822.4198329999999
 21
1189.3144050000001
 31
0.0
 70
   128
 13
2628.5166380000001
 23
1400.8383279999989
 33
0.0
 14
3038.5166380000001
 24
1220.331717
 34
0.0
1001
ACAD
1000
DSTYLE
1002
{
1070
   287
1070
     3
1070
    40
1040
20.0
1070
   143
1040
0.039
1070
   172
1070
     1
1070
   271
1070
     0
1070
   279
1070
     0
1070
   288
1070
     1
1002
}
  0
DIMENSION
  5
7BBF
  8
3
  6
CONTINUOUS
  2
*D13
 10
3378.5166380000001
 20
1189.3144050000001
 30
0.0
 11
3208.5166380000001
 21
1239.3144050000001
 31
0.0
 70
     0
 13
3038.5166380000001
 23
1220.331717
 33
0.0
 14
3378.5166380000001
 24
1400.8383279999989
 34
0.0
1001
ACAD
1000
DSTYLE
1002
{
1070
   287
1070
     4
1070
    40
1040
20.0
1070
    75
1070
     1
1070
   143
1040
0.039
1070
   172
1070
     1
1070
   271
1070
     0
1070
   279
1070
     1
1070
   288
1070
     1
1002
}
  0
DIMENSION
  5
7BCC
  8
3
  6
CONTINUOUS
  2
*D14
 10
2476.853717
 20
1400.838328
 30
0.0
 11
2476.853717
 21
2055.4263470000001
 31
0.0
 70
   128
 13
2628.5166380000001
 23
2700.8383279999998
 33
0.0
 14
2628.5166380000001
 24
1400.8383279999989
 34
0.0
 50
90.0
1001
ACAD
1000
DSTYLE
1002
{
1070
   287
1070
     3
1070
    40
1040
20.0
1070
   143
1040
0.039
1070
   172
1070
     1
1070
   271
1070
     0
1070
   279
1070
     0
1070
   288
1070
     1
1002
}
  0
DIMENSION
  5
7BD9
  8
3
  6
CONTINUOUS
  2
*D15
 10
1979.7090370000001
 20
4133.3897930000003
 30
0.0
 11
1238.5751369999989
 21
4133.3897930000003
 31
0.0
 70
   128
 13
529.70903699999985
 23
3957.8383279999998
 33
0.0
 14
1979.7090370000001
 24
3957.8383279999998
 34
0.0
1001
ACAD
1000
DSTYLE
1002
{
1070
   287
1070
     3
1070
    40
1040
20.0
1070
   143
1040
0.039
1070
   172
1070
     1
1070
   271
1070
     0
1070
   279
1070
     0
1070
   288
1070
     1
1002
}
  0
DIMENSION
  5
7BE6
  8
3
  6
CONTINUOUS
  2
*D16
 10
2219.172426000001
 20
3207.8383279999998
 30
0.0
 11
2219.1724260000001
 21
3558.1218599999988
 31
0.0
 70
   128
 13
1979.7090370000001
 23
3957.8383279999998
 33
0.0
 14
1979.7090370000001
 24
3207.8383279999998
 34
0.0
 50
90.0
1001
ACAD
1000
DSTYLE
1002
{
1070
   287
1070
     3
1070
    40
1040
20.0
1070
   143
1040
0.039
1070
   172
1070
     1
1070
   271
1070
     0
1070
   279
1070
     0
1070
   288
1070
     1
1002
}
  0
LINE
  5
7BE7
  8
4
  6
CONTINUOUS
 10
3700.0
 20
1000.0
 30
0.0
 11
3700.0
 21
600.0
 31
0.0
  0
LINE
  5
7BE8
  8
4
  6
CONTINUOUS
 10
2300.0
 20
1000.0
 30
0.0
 11
2300.0
 21
600.0
 31
0.0
  0
LINE
  5
7BE9
  8
4
  6
CONTINUOUS
 10
1300.0
 20
1000.0
 30
0.0
 11
1300.0
 21
600.0
 31
0.0
  0
LINE
  5
7BEC
  8
4
  6
CONTINUOUS
 10
1300.0
 20
600.0
 30
0.0
 11
3700.0
 21
600.0
 31
0.0
  0
LINE
  5
7BED
  8
4
  6
CONTINUOUS
 10
1300.0
 20
800.0
 30
0.0
 11
3700.0
 21
800.0
 31
0.0
  0
TEXT
  5
7BEE
  8
4
  6
CONTINUOUS
 10
1377.004162
 20
863.086052
 30
0.0
 40
100.0
  1
機器名称
  0
TEXT
  5
7BEF
  8
4
  6
CONTINUOUS
 10
1372.516212
 20
643.29031299999986
 30
0.0
 40
100.0
  1
機器型番
  0
TEXT
  5
7BF0
  8
4
  6
CONTINUOUS
 10
2355.3574910000002
 20
845.14353800000015
 30
0.0
 40
100.0
  1
ミツヤ多翼送風機
  0
TEXT
  5
7BF1
  8
4
  6
CONTINUOUS
 10
2373.3089909999999
 20
634.31916899999999
 30
0.0
 40
100.0
  1
MF#3 1/2-4
  0
TEXT
  5
7BF3
  8
4
  6
CONTINUOUS
 10
1456.239898
 20
4766.8576830000002
 30
0.0
 40
108.0
  1
天井吊枠防振ベット
  0
TEXT
  5
7BF4
  8
4
  6
CONTINUOUS
 10
632.33518700000002
 20
5067.7619520000007
 30
0.0
 40
144.0
  1
ベルト駆動式片吸込両持多翼ファン
  0
LINE
  5
7BF5
  8
4
  6
CONTINUOUS
 10
500.0
 20
4938.8175090000004
 30
0.0
 11
3700.0
 21
4938.8175090000004
 31
0.0
  0
LINE
  5
7BF6
  8
4
  6
CONTINUOUS
 10
500.0
 20
5338.8175090000004
 30
0.0
 11
3700.0
 21
5338.8175090000004
 31
0.0
  0
LINE
  5
7BF7
  8
4
  6
CONTINUOUS
 10
1300.0
 20
1000.0
 30
0.0
 11
3700.0
 21
1000.0
 31
0.0
  0
LINE
  5
7BF8
  8
4
  6
CONTINUOUS
 10
500.0
 20
5338.8175090000004
 30
0.0
 11
500.0
 21
4938.8175090000004
 31
0.0
  0
TEXT
  5
7BF9
  8
4
  6
CONTINUOUS
 10
584.52223400000003
 20
4764.6389549999994
 30
0.0
 40
108.0
  1
右回転上向
  0
TEXT
  5
7BFA
  8
4
  6
CONTINUOUS
 10
2937.9391179999998
 20
5412.122163
 30
0.0
 40
112.0
  1
No.
  0
TEXT
  5
7BFB
  8
4
  6
CONTINUOUS
 10
2774.0199680000001
 20
4766.8576830000002
 30
0.0
 40
108.0
  1
縮尺：1/20
  0
LINE
  5
7BFC
  8
4
  6
CONTINUOUS
 10
3700.0
 20
5338.8175090000004
 30
0.0
 11
3700.0
 21
4938.8175090000004
 31
0.0
  0
LINE
  5
7BFE
  8
4
  6
CONTINUOUS
 10
2881.234845
 20
5362.5271659999999
 30
0.0
 11
2881.234845
 21
5573.3045229999998
 31
0.0
  0
LINE
  5
7BFF
  8
4
 10
2881.234845
 20
5573.3045229999998
 30
0.0
 11
3700.0
 21
5573.3045229999998
 31
0.0
  0
LINE
  5
7C00
  8
4
  6
CONTINUOUS
 10
3700.0
 20
5573.3045229999998
 30
0.0
 11
3700.0
 21
5362.5271659999999
 31
0.0
  0
LINE
  5
7C01
  8
4
  6
CONTINUOUS
 10
3700.0
 20
5362.5271659999999
 30
0.0
 11
2881.234845
 21
5362.5271659999999
 31
0.0
  0
ENDSEC
  0
EOF
