  0
SECTION
  2
HEADER
  9
$ACADVER
  1
AC1009
  9
$INSBASE
 10
0.0
 20
0.0
 30
0.0
  9
$EXTMIN
 10
500.0
 20
600.0
 30
0.0
  9
$EXTMAX
 10
3700.0
 20
5573.3045229999998
 30
0.0
  9
$LIMMIN
 10
0.0
 20
0.0
  9
$LIMMAX
 10
297.0
 20
210.0
  9
$ORTHOMODE
 70
     0
  9
$REGENMODE
 70
     1
  9
$FILLMODE
 70
     0
  9
$QTEXTMODE
 70
     0
  9
$MIRRTEXT
 70
     1
  9
$DRAGMODE
 70
     2
  9
$LTSCALE
 40
100.0
  9
$OSMODE
 70
    37
  9
$ATTMODE
 70
     1
  9
$TEXTSIZE
 40
180.0
  9
$TRACEWID
 40
0.05
  9
$TEXTSTYLE
  7
STANDARD
  9
$CLAYER
  8
3
  9
$CELTYPE
  6
BYLAYER
  9
$CECOLOR
 62
   256
  9
$DIMSCALE
 40
20.0
  9
$DIMASZ
 40
2.0
  9
$DIMEXO
 40
0.5
  9
$DIMDLI
 40
10.0
  9
$DIMRND
 40
0.0
  9
$DIMDLE
 40
0.0
  9
$DIMEXE
 40
1.0
  9
$DIMTP
 40
1.0
  9
$DIMTM
 40
1.0
  9
$DIMTXT
 40
3.0
  9
$DIMCEN
 40
0.0
  9
$DIMTSZ
 40
0.0
  9
$DIMTOL
 70
     0
  9
$DIMLIM
 70
     0
  9
$DIMTIH
 70
     0
  9
$DIMTOH
 70
     0
  9
$DIMSE1
 70
     0
  9
$DIMSE2
 70
     0
  9
$DIMTAD
 70
     1
  9
$DIMZIN
 70
     8
  9
$DIMBLK
  1

  9
$DIMASO
 70
     1
  9
$DIMSHO
 70
     1
  9
$DIMPOST
  1

  9
$DIMAPOST
  1

  9
$DIMALT
 70
     0
  9
$DIMALTD
 70
     2
  9
$DIMALTF
 40
0.039
  9
$DIMLFAC
 40
1.0
  9
$DIMTOFL
 70
     1
  9
$DIMTVP
 40
0.0
  9
$DIMTIX
 70
     0
  9
$DIMSOXD
 70
     0
  9
$DIMSAH
 70
     1
  9
$DIMBLK1
  1
OPEN
  9
$DIMBLK2
  1
OPEN
  9
$DIMSTYLE
  2
IGA
  9
$DIMCLRD
 70
     0
  9
$DIMCLRE
 70
     0
  9
$DIMCLRT
 70
     0
  9
$DIMTFAC
 40
10.0
  9
$DIMGAP
 40
1.0
  9
$LUNITS
 70
     2
  9
$LUPREC
 70
     3
  9
$SKETCHINC
 40
0.1
  9
$FILLETRAD
 40
50.0
  9
$AUNITS
 70
     0
  9
$AUPREC
 70
     0
  9
$MENU
  1
acad
  9
$ELEVATION
 40
0.0
  9
$PELEVATION
 40
0.0
  9
$THICKNESS
 40
0.0
  9
$LIMCHECK
 70
     0
  9
$BLIPMODE
 70
     0
  9
$CHAMFERA
 40
0.5
  9
$CHAMFERB
 40
0.5
  9
$SKPOLY
 70
     0
  9
$TDCREATE
 40
2450737.618781365
  9
$TDUPDATE
 40
2454953.7692948841
  9
$TDINDWG
 40
0.0130329745
  9
$TDUSRTIMER
 40
0.0130329745
  9
$USRTIMER
 70
     1
  9
$ANGBASE
 50
0.0
  9
$ANGDIR
 70
     0
  9
$PDMODE
 70
     0
  9
$PDSIZE
 40
0.0
  9
$PLINEWID
 40
0.0
  9
$COORDS
 70
     1
  9
$SPLFRAME
 70
     0
  9
$SPLINETYPE
 70
     6
  9
$SPLINESEGS
 70
     8
  9
$ATTDIA
 70
     0
  9
$ATTREQ
 70
     1
  9
$HANDLING
 70
 10241
  9
$HANDSEED
  5
7E60
  9
$SURFTAB1
 70
     6
  9
$SURFTAB2
 70
     6
  9
$SURFTYPE
 70
     6
  9
$SURFU
 70
     6
  9
$SURFV
 70
     6
  9
$UCSNAME
  2

  9
$UCSORG
 10
0.0
 20
0.0
 30
0.0
  9
$UCSXDIR
 10
1.0
 20
0.0
 30
0.0
  9
$UCSYDIR
 10
0.0
 20
1.0
 30
0.0
  9
$PUCSNAME
  2

  9
$PUCSORG
 10
0.0
 20
0.0
 30
0.0
  9
$PUCSXDIR
 10
1.0
 20
0.0
 30
0.0
  9
$PUCSYDIR
 10
0.0
 20
1.0
 30
0.0
  9
$USERI1
 70
     0
  9
$USERI2
 70
     0
  9
$USERI3
 70
     0
  9
$USERI4
 70
     0
  9
$USERI5
 70
     0
  9
$USERR1
 40
0.0
  9
$USERR2
 40
0.0
  9
$USERR3
 40
0.0
  9
$USERR4
 40
0.0
  9
$USERR5
 40
0.0
  9
$WORLDVIEW
 70
     1
  9
$SHADEDGE
 70
     3
  9
$SHADEDIF
 70
    70
  9
$TILEMODE
 70
     1
  9
$MAXACTVP
 70
    16
  9
$PLIMCHECK
 70
     0
  9
$PEXTMIN
 10
1.0000000000000000E+020
 20
1.0000000000000000E+020
 30
1.0000000000000000E+020
  9
$PEXTMAX
 10
-1.0000000000000000E+020
 20
-1.0000000000000000E+020
 30
-1.0000000000000000E+020
  9
$PLIMMIN
 10
0.0
 20
0.0
  9
$PLIMMAX
 10
12.0
 20
9.0
  9
$UNITMODE
 70
     0
  9
$VISRETAIN
 70
     0
  9
$PLINEGEN
 70
     0
  9
$PSLTSCALE
 70
     1
  0
ENDSEC
  0
SECTION
  2
TABLES
  0
TABLE
  2
VPORT
 70
     2
  0
VPORT
  2
*ACTIVE
 70
     0
 10
0.0
 20
0.0
 11
1.0
 21
1.0
 12
6292.1124769529506
 22
3086.6374998146398
 13
0.0
 23
0.0
 14
10.0
 24
10.0
 15
10.0
 25
10.0
 16
0.0
 26
0.0
 36
1.0
 17
0.0
 27
0.0
 37
0.0
 40
5011.4968576296578
 41
3.1666666666666661
 42
50.0
 43
0.0
 44
0.0
 50
0.0
 51
0.0
 71
     0
 72
   100
 73
     1
 74
     0
 75
     0
 76
     0
 77
     0
 78
     0
  0
ENDTAB
  0
TABLE
  2
LTYPE
 70
     2
  0
LTYPE
  2
CONTINUOUS
 70
     0
  3
Solid line
 72
    65
 73
     0
 40
0.0
  0
LTYPE
  2
CENTER
 70
     0
  3
____ _ ____ _ ____ _ ____ _ ____ _ ____ _ ____ 
 72
    65
 73
     4
 40
2.0
 49
1.25
 49
-0.25
 49
0.25
 49
-0.25
  0
ENDTAB
  0
TABLE
  2
LAYER
 70
     6
  0
LAYER
  2
0
 70
     0
 62
     7
  6
CONTINUOUS
  0
LAYER
  2
3
 70
     0
 62
     2
  6
CONTINUOUS
  0
LAYER
  2
2
 70
     0
 62
     3
  6
CENTER
  0
LAYER
  2
1
 70
     0
 62
     4
  6
CONTINUOUS
  0
LAYER
  2
4
 70
     0
 62
     7
  6
CONTINUOUS
  0
LAYER
  2
DEFPOINTS
 70
     0
 62
     7
  6
CONTINUOUS
  0
ENDTAB
  0
TABLE
  2
STYLE
 70
     1
  0
STYLE
  2
STANDARD
 70
     0
 40
0.0
 41
1.0
 50
0.0
 71
     0
 42
180.0
  3
simplex.shx
  4
extfont.shx
  0
ENDTAB
  0
TABLE
  2
VIEW
 70
     0
  0
ENDTAB
  0
TABLE
  2
UCS
 70
     0
  0
ENDTAB
  0
TABLE
  2
APPID
 70
     1
  0
APPID
  2
ACAD
 70
     0
  0
ENDTAB
  0
TABLE
  2
DIMSTYLE
 70
     1
  0
DIMSTYLE
  2
IGA
 70
     0
  3

  4

  5

  6
OPEN
  7
OPEN
 40
2.0
 41
2.0
 42
0.5
 43
10.0
 44
1.0
 45
0.0
 46
0.0
 47
1.0
 48
1.0
140
3.0
141
0.0
142
0.0
143
0.03937
144
1.0
145
0.0
146
10.0
147
1.0
 71
     0
 72
     0
 73
     0
 74
     0
 75
     0
 76
     0
 77
     1
 78
     8
170
     0
171
     2
172
     0
173
     1
174
     0
175
     0
176
     0
177
     0
178
     0
  0
ENDTAB
  0
ENDSEC
  0
SECTION
  2
BLOCKS
  0
BLOCK
  8
0
  2
$MODEL_SPACE
 70
     0
 10
0.0
 20
0.0
 30
0.0
  3
$MODEL_SPACE
  1

  0
ENDBLK
  5
1B
  8
0
  0
BLOCK
 67
     1
  8
0
  2
$PAPER_SPACE
 70
     0
 10
0.0
 20
0.0
 30
0.0
  3
$PAPER_SPACE
  1

  0
ENDBLK
  5
18
 67
     1
  8
0
  0
BLOCK
  8
0
  2
_OPEN
 70
     0
 10
0.0
 20
0.0
 30
0.0
  3
_OPEN
  1

  0
LINE
  5
7B24
  8
0
  6
BYBLOCK
 62
     0
 10
-1.0
 20
0.166667
 30
0.0
 11
0.0
 21
0.0
 31
0.0
  0
LINE
  5
7B25
  8
0
  6
BYBLOCK
 62
     0
 10
0.0
 20
0.0
 30
0.0
 11
-1.0
 21
-0.166667
 31
0.0
  0
LINE
  5
7B26
  8
0
  6
BYBLOCK
 62
     0
 10
0.0
 20
0.0
 30
0.0
 11
-1.0
 21
0.0
 31
0.0
  0
ENDBLK
  5
7B27
  8
0
  0
BLOCK
  8
0
  2
*D1
 70
     1
 10
0.0
 20
0.0
 30
0.0
  3
*D1
  1

  0
LINE
  5
7DCC
  8
3
  6
CONTINUOUS
 62
     0
 10
1982.2474249999991
 20
2648.6786229999998
 30
0.0
 11
2244.747946
 21
2648.6786229999998
 31
0.0
  0
LINE
  5
7DCD
  8
3
  6
CONTINUOUS
 62
     0
 10
1982.2474249999991
 20
2088.6786229999998
 30
0.0
 11
2244.747946
 21
2088.6786229999998
 31
0.0
  0
LINE
  5
7DCE
  8
3
  6
CONTINUOUS
 62
     0
 10
2224.747946
 20
2608.6786229999998
 30
0.0
 11
2224.747946
 21
2128.6786229999998
 31
0.0
  0
INSERT
  5
7DCF
  8
3
  6
CONTINUOUS
 62
     0
  2
_OPEN
 10
2224.747946
 20
2648.6786229999998
 30
0.0
 41
40.0
 42
40.0
 43
40.0
 50
90.0
  0
INSERT
  5
7DD0
  8
3
  6
CONTINUOUS
 62
     0
  2
_OPEN
 10
2224.747946
 20
2088.6786229999998
 30
0.0
 41
40.0
 42
40.0
 43
40.0
 50
270.0
  0
TEXT
  8
3
  40
60
  5
7E51
  62
0
  72
0
  71
0
 10
2054.75
 20
2292.22
 30
0.000000
  1
560
  0
POINT
  5
7DD2
  8
DEFPOINTS
  6
CONTINUOUS
 62
     0
 10
1972.247425
 20
2648.6786229999998
 30
0.0
  0
POINT
  5
7DD3
  8
DEFPOINTS
  6
CONTINUOUS
 62
     0
 10
1972.247425
 20
2088.6786229999998
 30
0.0
  0
POINT
  5
7DD4
  8
DEFPOINTS
  6
CONTINUOUS
 62
     0
 10
2224.747946
 20
2088.6786229999998
 30
0.0
  0
ENDBLK
  5
7C62
  8
0
  0
BLOCK
  8
0
  2
*D2
 70
     1
 10
0.0
 20
0.0
 30
0.0
  3
*D2
  1

  0
LINE
  5
7DD5
  8
3
  6
CONTINUOUS
 62
     0
 10
2022.247425
 20
2648.6786229999998
 30
0.0
 11
2376.8698260000001
 21
2648.6786229999998
 31
0.0
  0
LINE
  5
7DD6
  8
3
  6
CONTINUOUS
 62
     0
 10
2165.5821729999998
 20
2109.6786229999998
 30
0.0
 11
2376.8698260000001
 21
2109.6786229999998
 31
0.0
  0
LINE
  5
7DD7
  8
3
  6
CONTINUOUS
 62
     0
 10
2356.8698260000001
 20
2608.6786229999998
 30
0.0
 11
2356.8698260000001
 21
2149.6786229999998
 31
0.0
  0
INSERT
  5
7DD8
  8
3
  6
CONTINUOUS
 62
     0
  2
_OPEN
 10
2356.8698260000001
 20
2648.6786229999998
 30
0.0
 41
40.0
 42
40.0
 43
40.0
 50
90.0
  0
INSERT
  5
7DD9
  8
3
  6
CONTINUOUS
 62
     0
  2
_OPEN
 10
2356.8698260000001
 20
2109.6786229999998
 30
0.0
 41
40.0
 42
40.0
 43
40.0
 50
270.0
  0
TEXT
  8
3
  40
60
  5
7E52
  62
0
  72
0
  71
0
 10
2186.87
 20
2297.50
 30
0.000000
  1
539
  0
POINT
  5
7DDB
  8
DEFPOINTS
  6
CONTINUOUS
 62
     0
 10
2012.2474249999991
 20
2648.6786229999998
 30
0.0
  0
POINT
  5
7DDC
  8
DEFPOINTS
  6
CONTINUOUS
 62
     0
 10
2155.5821729999998
 20
2109.6786229999998
 30
0.0
  0
POINT
  5
7DDD
  8
DEFPOINTS
  6
CONTINUOUS
 62
     0
 10
2356.8698260000001
 20
2109.6786229999998
 30
0.0
  0
ENDBLK
  5
7C57
  8
0
  0
BLOCK
  8
0
  2
*D3
 70
     1
 10
0.0
 20
0.0
 30
0.0
  3
*D3
  1

  0
LINE
  5
7DDE
  8
3
  6
CONTINUOUS
 62
     0
 10
1922.247425
 20
1619.678623
 30
0.0
 11
2376.8698260000001
 21
1619.678623
 31
0.0
  0
LINE
  5
7DDF
  8
3
  6
CONTINUOUS
 62
     0
 10
2356.8698260000001
 20
2069.6786229999998
 30
0.0
 11
2356.8698260000001
 21
1659.678623
 31
0.0
  0
INSERT
  5
7DE0
  8
3
  6
CONTINUOUS
 62
     0
  2
_OPEN
 10
2356.8698260000001
 20
2109.6786229999998
 30
0.0
 41
40.0
 42
40.0
 43
40.0
 50
90.0
  0
INSERT
  5
7DE1
  8
3
  6
CONTINUOUS
 62
     0
  2
_OPEN
 10
2356.8698260000001
 20
1619.678623
 30
0.0
 41
40.0
 42
40.0
 43
40.0
 50
270.0
  0
TEXT
  8
3
  40
60
  5
7E53
  62
0
  72
0
  71
0
 10
2186.87
 20
1758.48
 30
0.000000
  1
490
  0
POINT
  5
7DE3
  8
DEFPOINTS
  6
CONTINUOUS
 62
     0
 10
2155.5821729999998
 20
2109.6786229999998
 30
0.0
  0
POINT
  5
7DE4
  8
DEFPOINTS
  6
CONTINUOUS
 62
     0
 10
1912.247425
 20
1619.678623
 30
0.0
  0
POINT
  5
7DE5
  8
DEFPOINTS
  6
CONTINUOUS
 62
     0
 10
2356.8698260000001
 20
1619.678623
 30
0.0
  0
ENDBLK
  5
7C4C
  8
0
  0
BLOCK
  8
0
  2
*D4
 70
     1
 10
0.0
 20
0.0
 30
0.0
  3
*D4
  1

  0
LINE
  5
7DE6
  8
3
  6
CONTINUOUS
 62
     0
 10
1922.247425
 20
1619.678623
 30
0.0
 11
2376.8698260000001
 21
1619.678623
 31
0.0
  0
LINE
  5
7DE7
  8
3
  6
CONTINUOUS
 62
     0
 10
2022.247425
 20
1557.678623
 30
0.0
 11
2376.8698260000001
 21
1557.678623
 31
0.0
  0
LINE
  5
7DE8
  8
3
  6
CONTINUOUS
 62
     0
 10
2356.8698260000001
 20
1659.678623
 30
0.0
 11
2356.8698260000001
 21
1699.678623
 31
0.0
  0
LINE
  5
7DE9
  8
3
  6
CONTINUOUS
 62
     0
 10
2356.8698260000001
 20
1517.678623
 30
0.0
 11
2356.8698260000001
 21
1340.5357658571429
 31
0.0
  0
LINE
  5
7DEA
  8
3
  6
CONTINUOUS
 62
     0
 10
2356.8698260000001
 20
1619.678623
 30
0.0
 11
2356.8698260000001
 21
1557.678623
 31
0.0
  0
INSERT
  5
7DEB
  8
3
  6
CONTINUOUS
 62
     0
  2
_OPEN
 10
2356.8698260000001
 20
1619.678623
 30
0.0
 41
40.0
 42
40.0
 43
40.0
 50
270.0
  0
INSERT
  5
7DEC
  8
3
  6
CONTINUOUS
 62
     0
  2
_OPEN
 10
2356.8698260000001
 20
1557.678623
 30
0.0
 41
40.0
 42
40.0
 43
40.0
 50
90.0
  0
TEXT
  8
3
  40
60
  5
7E54
  62
0
  72
0
  71
0
 10
2186.87
 20
1302.91
 30
0.000000
  1
62
  0
POINT
  5
7DEE
  8
DEFPOINTS
  6
CONTINUOUS
 62
     0
 10
1912.247425
 20
1619.678623
 30
0.0
  0
POINT
  5
7DEF
  8
DEFPOINTS
  6
CONTINUOUS
 62
     0
 10
2012.2474249999991
 20
1557.678623
 30
0.0
  0
POINT
  5
7DF0
  8
DEFPOINTS
  6
CONTINUOUS
 62
     0
 10
2356.8698260000001
 20
1557.678623
 30
0.0
  0
ENDBLK
  5
7D23
  8
0
  0
BLOCK
  8
0
  2
*D5
 70
     1
 10
0.0
 20
0.0
 30
0.0
  3
*D5
  1

  0
LINE
  5
7DF1
  8
3
  6
CONTINUOUS
 62
     0
 10
562.24742500000002
 20
1547.678623
 30
0.0
 11
562.24742500000002
 21
1314.0682169999991
 31
0.0
  0
LINE
  5
7DF2
  8
3
  6
CONTINUOUS
 62
     0
 10
1567.247425
 20
1467.7504300104949
 30
0.0
 11
1567.247425
 21
1314.0682169999991
 31
0.0
  0
LINE
  5
7DF3
  8
3
  6
CONTINUOUS
 62
     0
 10
602.24742500000002
 20
1334.068217
 30
0.0
 11
1527.247425
 21
1334.068217
 31
0.0
  0
INSERT
  5
7DF4
  8
3
  6
CONTINUOUS
 62
     0
  2
_OPEN
 10
562.24742500000002
 20
1334.068217
 30
0.0
 41
40.0
 42
40.0
 43
40.0
 50
180.0
  0
INSERT
  5
7DF5
  8
3
  6
CONTINUOUS
 62
     0
  2
_OPEN
 10
1567.247425
 20
1334.068217
 30
0.0
 41
40.0
 42
40.0
 43
40.0
  0
TEXT
  8
3
  40
60
  5
7E55
  62
0
  72
0
  71
0
 10
948.515
 20
1277.87
 30
0.000000
  1
1005
  0
POINT
  5
7DF7
  8
DEFPOINTS
  6
CONTINUOUS
 62
     0
 10
562.24742500000002
 20
1557.678623
 30
0.0
  0
POINT
  5
7DF8
  8
DEFPOINTS
  6
CONTINUOUS
 62
     0
 10
1567.247425
 20
1477.7504300104949
 30
0.0
  0
POINT
  5
7DF9
  8
DEFPOINTS
  6
CONTINUOUS
 62
     0
 10
1567.247425
 20
1334.068217
 30
0.0
  0
ENDBLK
  5
7D8F
  8
0
  0
BLOCK
  8
0
  2
*D6
 70
     1
 10
0.0
 20
0.0
 30
0.0
  3
*D6
  1

  0
LINE
  5
7DFA
  8
3
  6
CONTINUOUS
 62
     0
 10
2012.2474249999991
 20
1547.678623
 30
0.0
 11
2012.2474249999991
 21
1314.0682169999991
 31
0.0
  0
LINE
  5
7DFB
  8
3
  6
CONTINUOUS
 62
     0
 10
1607.2474249999991
 20
1334.068217
 30
0.0
 11
1972.247425
 21
1334.068217
 31
0.0
  0
INSERT
  5
7DFC
  8
3
  6
CONTINUOUS
 62
     0
  2
_OPEN
 10
1567.247425
 20
1334.068217
 30
0.0
 41
40.0
 42
40.0
 43
40.0
 50
180.0
  0
INSERT
  5
7DFD
  8
3
  6
CONTINUOUS
 62
     0
  2
_OPEN
 10
2012.2474249999991
 20
1334.068217
 30
0.0
 41
40.0
 42
40.0
 43
40.0
  0
TEXT
  8
3
  40
60
  5
7E56
  62
0
  72
0
  71
0
 10
1669.75
 20
1277.87
 30
0.000000
  1
445
  0
POINT
  5
7DFF
  8
DEFPOINTS
  6
CONTINUOUS
 62
     0
 10
1567.247425
 20
1477.7504300104949
 30
0.0
  0
POINT
  5
7E00
  8
DEFPOINTS
  6
CONTINUOUS
 62
     0
 10
2012.2474249999991
 20
1557.678623
 30
0.0
  0
POINT
  5
7E01
  8
DEFPOINTS
  6
CONTINUOUS
 62
     0
 10
2012.2474249999991
 20
1334.068217
 30
0.0
  0
ENDBLK
  5
7D84
  8
0
  0
BLOCK
  8
0
  2
*D7
 70
     1
 10
0.0
 20
0.0
 30
0.0
  3
*D7
  1

  0
LINE
  5
7E02
  8
3
  6
CONTINUOUS
 62
     0
 10
1972.247425
 20
2685.6786229999998
 30
0.0
 11
1972.247425
 21
2988.6408879999999
 31
0.0
  0
LINE
  5
7E03
  8
3
  6
CONTINUOUS
 62
     0
 10
1567.247425
 20
2952.8951659999989
 30
0.0
 11
1567.247425
 21
2988.6408879999999
 31
0.0
  0
LINE
  5
7E04
  8
3
  6
CONTINUOUS
 62
     0
 10
1932.2474249999991
 20
2968.640887999999
 30
0.0
 11
1607.2474249999991
 21
2968.640887999999
 31
0.0
  0
INSERT
  5
7E05
  8
3
  6
CONTINUOUS
 62
     0
  2
_OPEN
 10
1972.247425
 20
2968.640887999999
 30
0.0
 41
40.0
 42
40.0
 43
40.0
  0
INSERT
  5
7E06
  8
3
  6
CONTINUOUS
 62
     0
  2
_OPEN
 10
1567.247425
 20
2968.640887999999
 30
0.0
 41
40.0
 42
40.0
 43
40.0
 50
180.0
  0
TEXT
  8
3
  40
60
  5
7E57
  62
0
  72
0
  71
0
 10
1656.69
 20
2912.44
 30
0.000000
  1
405
  0
POINT
  5
7E08
  8
DEFPOINTS
  6
CONTINUOUS
 62
     0
 10
1972.247425
 20
2675.6786229999998
 30
0.0
  0
POINT
  5
7E09
  8
DEFPOINTS
  6
CONTINUOUS
 62
     0
 10
1567.247425
 20
2942.8951659999989
 30
0.0
  0
POINT
  5
7E0A
  8
DEFPOINTS
  6
CONTINUOUS
 62
     0
 10
1567.247425
 20
2968.640887999999
 30
0.0
  0
ENDBLK
  5
7B84
  8
0
  0
BLOCK
  8
0
  2
*D8
 70
     1
 10
0.0
 20
0.0
 30
0.0
  3
*D8
  1

  0
LINE
  5
7E0B
  8
3
  6
CONTINUOUS
 62
     0
 10
3327.7515969999999
 20
2404.6786229999998
 30
0.0
 11
3661.4619250000001
 21
2404.6786229999998
 31
0.0
  0
LINE
  5
7E0C
  8
3
  6
CONTINUOUS
 62
     0
 10
3327.7515969999999
 20
1814.678623
 30
0.0
 11
3661.4619250000001
 21
1814.678623
 31
0.0
  0
LINE
  5
7E0D
  8
3
  6
CONTINUOUS
 62
     0
 10
3641.461925000001
 20
2364.6786229999998
 30
0.0
 11
3641.461925000001
 21
1854.6786229999991
 31
0.0
  0
INSERT
  5
7E0E
  8
3
  6
CONTINUOUS
 62
     0
  2
_OPEN
 10
3641.461925000001
 20
2404.6786229999998
 30
0.0
 41
40.0
 42
40.0
 43
40.0
 50
90.0
  0
INSERT
  5
7E0F
  8
3
  6
CONTINUOUS
 62
     0
  2
_OPEN
 10
3641.461925000001
 20
1814.678623
 30
0.0
 41
40.0
 42
40.0
 43
40.0
 50
270.0
  0
TEXT
  8
3
  40
60
  5
7E58
  62
0
  72
0
  71
0
 10
3471.46
 20
2012.40
 30
0.000000
  1
φ590
  0
POINT
  5
7E11
  8
DEFPOINTS
  6
CONTINUOUS
 62
     0
 10
3317.7515969999999
 20
2404.6786229999998
 30
0.0
  0
POINT
  5
7E12
  8
DEFPOINTS
  6
CONTINUOUS
 62
     0
 10
3317.7515969999999
 20
1814.678623
 30
0.0
  0
POINT
  5
7E13
  8
DEFPOINTS
  6
CONTINUOUS
 62
     0
 10
3641.461925000001
 20
1814.678623
 30
0.0
  0
ENDBLK
  5
7D44
  8
0
  0
BLOCK
  8
0
  2
*D9
 70
     1
 10
0.0
 20
0.0
 30
0.0
  3
*D9
  1

  0
LINE
  5
7D30
  8
0
  6
BYBLOCK
 62
     0
 10
3317.7515969999999
 20
2439.6786229999998
 30
0.0
 11
3317.7515969999999
 21
3087.5378820000001
 31
0.0
  0
LINE
  5
7D31
  8
0
  6
BYBLOCK
 62
     0
 10
3105.7515969999999
 20
3047.2738629999999
 30
0.0
 11
3105.7515969999999
 21
3087.5378820000001
 31
0.0
  0
LINE
  5
7D32
  8
0
  6
BYBLOCK
 62
     0
 10
3277.7515969999999
 20
3067.5378820000001
 30
0.0
 11
3145.7515969999999
 21
3067.5378820000001
 31
0.0
  0
TEXT
  5
7D33
  8
3
 62
     0
 10
3140.3230255714279
 20
3096.9287586624409
 30
0.0
 40
60.0
  1
212
  0
INSERT
  5
7D34
  8
0
  6
BYBLOCK
 62
     0
  2
_OPEN
 10
3317.7515969999999
 20
3067.5378820000001
 30
0.0
 41
40.0
 42
40.0
 43
40.0
  0
INSERT
  5
7D35
  8
0
  6
BYBLOCK
 62
     0
  2
_OPEN
 10
3105.7515969999999
 20
3067.5378820000001
 30
0.0
 41
40.0
 42
40.0
 43
40.0
 50
180.0
  0
POINT
  5
7D36
  8
DEFPOINTS
  6
BYBLOCK
 62
     0
 10
3317.7515969999999
 20
2429.6786229999998
 30
0.0
  0
POINT
  5
7D37
  8
DEFPOINTS
  6
BYBLOCK
 62
     0
 10
3105.7515969999999
 20
3037.2738629999999
 30
0.0
  0
POINT
  5
7D38
  8
DEFPOINTS
  6
BYBLOCK
 62
     0
 10
3105.7515969999999
 20
3067.5378820000001
 30
0.0
  0
ENDBLK
  5
7D39
  8
0
  0
BLOCK
  8
0
  2
*D10
 70
     1
 10
0.0
 20
0.0
 30
0.0
  3
*D10
  1

  0
LINE
  5
7E14
  8
3
  6
CONTINUOUS
 62
     0
 10
2695.7515969999999
 20
1547.678623
 30
0.0
 11
2695.7515969999999
 21
1321.789878
 31
0.0
  0
LINE
  5
7E15
  8
3
  6
CONTINUOUS
 62
     0
 10
3105.7515969999999
 20
1449.2343033963191
 30
0.0
 11
3105.7515969999999
 21
1321.789878
 31
0.0
  0
LINE
  5
7E16
  8
3
  6
CONTINUOUS
 62
     0
 10
2735.7515969999999
 20
1341.789878
 30
0.0
 11
3065.7515969999999
 21
1341.789878
 31
0.0
  0
INSERT
  5
7E17
  8
3
  6
CONTINUOUS
 62
     0
  2
_OPEN
 10
2695.7515969999999
 20
1341.789878
 30
0.0
 41
40.0
 42
40.0
 43
40.0
 50
180.0
  0
INSERT
  5
7E18
  8
3
  6
CONTINUOUS
 62
     0
  2
_OPEN
 10
3105.7515969999999
 20
1341.789878
 30
0.0
 41
40.0
 42
40.0
 43
40.0
  0
TEXT
  8
3
  40
60
  5
7E59
  62
0
  72
0
  71
0
 10
2781.58
 20
1285.59
 30
0.000000
  1
410
  0
POINT
  5
7E1A
  8
DEFPOINTS
  6
CONTINUOUS
 62
     0
 10
2695.7515969999999
 20
1557.678623
 30
0.0
  0
POINT
  5
7E1B
  8
DEFPOINTS
  6
CONTINUOUS
 62
     0
 10
3105.7515969999999
 20
1459.2343033963191
 30
0.0
  0
POINT
  5
7E1C
  8
DEFPOINTS
  6
CONTINUOUS
 62
     0
 10
3105.7515969999999
 20
1341.789878
 30
0.0
  0
ENDBLK
  5
7D9A
  8
0
  0
BLOCK
  8
0
  2
*D11
 70
     1
 10
0.0
 20
0.0
 30
0.0
  3
*D11
  1

  0
LINE
  5
7E1D
  8
3
  6
CONTINUOUS
 62
     0
 10
3445.7515969999999
 20
1547.678623
 30
0.0
 11
3445.7515969999999
 21
1321.789878
 31
0.0
  0
LINE
  5
7E1E
  8
3
  6
CONTINUOUS
 62
     0
 10
3145.7515969999999
 20
1341.789878
 30
0.0
 11
3405.7515969999999
 21
1341.789878
 31
0.0
  0
INSERT
  5
7E1F
  8
3
  6
CONTINUOUS
 62
     0
  2
_OPEN
 10
3105.7515969999999
 20
1341.789878
 30
0.0
 41
40.0
 42
40.0
 43
40.0
 50
180.0
  0
INSERT
  5
7E20
  8
3
  6
CONTINUOUS
 62
     0
  2
_OPEN
 10
3445.7515969999999
 20
1341.789878
 30
0.0
 41
40.0
 42
40.0
 43
40.0
  0
TEXT
  8
3
  40
60
  5
7E5A
  62
0
  72
0
  71
0
 10
3155.75
 20
1285.59
 30
0.000000
  1
340
  0
POINT
  5
7E22
  8
DEFPOINTS
  6
CONTINUOUS
 62
     0
 10
3105.7515969999999
 20
1459.2343033963191
 30
0.0
  0
POINT
  5
7E23
  8
DEFPOINTS
  6
CONTINUOUS
 62
     0
 10
3445.7515969999999
 20
1557.678623
 30
0.0
  0
POINT
  5
7E24
  8
DEFPOINTS
  6
CONTINUOUS
 62
     0
 10
3445.7515969999999
 20
1341.789878
 30
0.0
  0
ENDBLK
  5
7DA4
  8
0
  0
BLOCK
  8
0
  2
*D12
 70
     1
 10
0.0
 20
0.0
 30
0.0
  3
*D12
  1

  0
LINE
  5
7E25
  8
3
  6
CONTINUOUS
 62
     0
 10
562.24742500000002
 20
4124.6786229999998
 30
0.0
 11
562.24742500000002
 21
4325.3774910000002
 31
0.0
  0
LINE
  5
7E26
  8
3
  6
CONTINUOUS
 62
     0
 10
2012.2474249999991
 20
4124.6786229999998
 30
0.0
 11
2012.2474249999991
 21
4325.3774910000002
 31
0.0
  0
LINE
  5
7E27
  8
3
  6
CONTINUOUS
 62
     0
 10
602.24742500000002
 20
4305.3774909999993
 30
0.0
 11
1972.247425
 21
4305.3774909999993
 31
0.0
  0
INSERT
  5
7E28
  8
3
  6
CONTINUOUS
 62
     0
  2
_OPEN
 10
562.24742500000002
 20
4305.3774909999993
 30
0.0
 41
40.0
 42
40.0
 43
40.0
 50
180.0
  0
INSERT
  5
7E29
  8
3
  6
CONTINUOUS
 62
     0
  2
_OPEN
 10
2012.2474249999991
 20
4305.3774909999993
 30
0.0
 41
40.0
 42
40.0
 43
40.0
  0
TEXT
  8
3
  40
60
  5
7E5B
  62
0
  72
0
  71
0
 10
1165.20
 20
4249.18
 30
0.000000
  1
1450
  0
POINT
  5
7E2B
  8
DEFPOINTS
  6
CONTINUOUS
 62
     0
 10
562.24742500000002
 20
4114.6786229999989
 30
0.0
  0
POINT
  5
7E2C
  8
DEFPOINTS
  6
CONTINUOUS
 62
     0
 10
2012.2474249999991
 20
4114.6786229999989
 30
0.0
  0
POINT
  5
7E2D
  8
DEFPOINTS
  6
CONTINUOUS
 62
     0
 10
2012.2474249999991
 20
4305.3774909999993
 30
0.0
  0
ENDBLK
  5
7C6D
  8
0
  0
BLOCK
  8
0
  2
*D13
 70
     1
 10
0.0
 20
0.0
 30
0.0
  3
*D13
  1

  0
LINE
  5
7E2E
  8
3
  6
CONTINUOUS
 62
     0
 10
2022.247425
 20
4114.6786229999989
 30
0.0
 11
2219.478654
 21
4114.678622999998
 31
0.0
  0
LINE
  5
7E2F
  8
3
  6
CONTINUOUS
 62
     0
 10
2022.247425
 20
3364.6786229999989
 30
0.0
 11
2219.478654
 21
3364.6786229999989
 31
0.0
  0
LINE
  5
7E30
  8
3
  6
CONTINUOUS
 62
     0
 10
2199.4786540000009
 20
4074.6786229999989
 30
0.0
 11
2199.4786540000009
 21
3404.6786229999989
 31
0.0
  0
INSERT
  5
7E31
  8
3
  6
CONTINUOUS
 62
     0
  2
_OPEN
 10
2199.4786540000009
 20
4114.678622999998
 30
0.0
 41
40.0
 42
40.0
 43
40.0
 50
90.0
  0
INSERT
  5
7E32
  8
3
  6
CONTINUOUS
 62
     0
  2
_OPEN
 10
2199.4786540000009
 20
3364.6786229999989
 30
0.0
 41
40.0
 42
40.0
 43
40.0
 50
270.0
  0
TEXT
  8
3
  40
60
  5
7E5C
  62
0
  72
0
  71
0
 10
2029.48
 20
3604.21
 30
0.000000
  1
750
  0
POINT
  5
7E34
  8
DEFPOINTS
  6
CONTINUOUS
 62
     0
 10
2012.2474249999991
 20
4114.6786229999989
 30
0.0
  0
POINT
  5
7E35
  8
DEFPOINTS
  6
CONTINUOUS
 62
     0
 10
2012.2474249999991
 20
3364.6786229999989
 30
0.0
  0
POINT
  5
7E36
  8
DEFPOINTS
  6
CONTINUOUS
 62
     0
 10
2199.4786540000009
 20
3364.6786229999989
 30
0.0
  0
ENDBLK
  5
7BEE
  8
0
  0
BLOCK
  8
0
  2
*D14
 70
     1
 10
0.0
 20
0.0
 30
0.0
  3
*D14
  1

  0
LINE
  5
7E37
  8
3
  6
CONTINUOUS
 62
     0
 10
2685.7515969999999
 20
2857.6786229999998
 30
0.0
 11
2522.5358110000002
 21
2857.6786229999998
 31
0.0
  0
LINE
  5
7E38
  8
3
  6
CONTINUOUS
 62
     0
 10
2685.7515969999999
 20
1557.678623
 30
0.0
 11
2522.5358110000002
 21
1557.678623
 31
0.0
  0
LINE
  5
7E39
  8
3
  6
CONTINUOUS
 62
     0
 10
2542.5358110000002
 20
2817.6786229999998
 30
0.0
 11
2542.5358110000002
 21
1597.678623
 31
0.0
  0
INSERT
  5
7E3A
  8
3
  6
CONTINUOUS
 62
     0
  2
_OPEN
 10
2542.5358110000002
 20
2857.6786229999998
 30
0.0
 41
40.0
 42
40.0
 43
40.0
 50
90.0
  0
INSERT
  5
7E3B
  8
3
  6
CONTINUOUS
 62
     0
  2
_OPEN
 10
2542.5358110000002
 20
1557.678623
 30
0.0
 41
40.0
 42
40.0
 43
40.0
 50
270.0
  0
TEXT
  8
3
  40
60
  5
7E5D
  62
0
  72
0
  71
0
 10
2372.54
 20
2023.48
 30
0.000000
  1
1300
  0
POINT
  5
7E3D
  8
DEFPOINTS
  6
CONTINUOUS
 62
     0
 10
2695.7515969999999
 20
2857.6786229999998
 30
0.0
  0
POINT
  5
7E3E
  8
DEFPOINTS
  6
CONTINUOUS
 62
     0
 10
2695.7515969999999
 20
1557.678623
 30
0.0
  0
POINT
  5
7E3F
  8
DEFPOINTS
  6
CONTINUOUS
 62
     0
 10
2542.5358110000002
 20
1557.678623
 30
0.0
  0
ENDBLK
  5
7CA2
  8
0
  0
BLOCK
  8
0
  2
*D15
 70
     1
 10
0.0
 20
0.0
 30
0.0
  3
*D15
  1

  0
LINE
  5
7E40
  8
3
  6
CONTINUOUS
 62
     0
 10
2895.7515969999999
 20
2658.6786229999998
 30
0.0
 11
2895.7515969999999
 21
2944.58896
 31
0.0
  0
LINE
  5
7E41
  8
3
  6
CONTINUOUS
 62
     0
 10
3315.7515969999999
 20
2658.6786229999998
 30
0.0
 11
3315.7515969999999
 21
2944.58896
 31
0.0
  0
LINE
  5
7E42
  8
3
  6
CONTINUOUS
 62
     0
 10
2935.7515969999999
 20
2924.58896
 30
0.0
 11
3275.7515969999999
 21
2924.58896
 31
0.0
  0
INSERT
  5
7E43
  8
3
  6
CONTINUOUS
 62
     0
  2
_OPEN
 10
2895.7515969999999
 20
2924.58896
 30
0.0
 41
40.0
 42
40.0
 43
40.0
 50
180.0
  0
INSERT
  5
7E44
  8
3
  6
CONTINUOUS
 62
     0
  2
_OPEN
 10
3315.7515969999999
 20
2924.58896
 30
0.0
 41
40.0
 42
40.0
 43
40.0
  0
TEXT
  8
3
  40
60
  5
7E5E
  62
0
  72
0
  71
0
 10
2971.56
 20
2868.39
 30
0.000000
  1
420
  0
POINT
  5
7E46
  8
DEFPOINTS
  6
CONTINUOUS
 62
     0
 10
2895.7515969999999
 20
2648.6786229999998
 30
0.0
  0
POINT
  5
7E47
  8
DEFPOINTS
  6
CONTINUOUS
 62
     0
 10
3315.7515969999999
 20
2648.6786229999998
 30
0.0
  0
POINT
  5
7E48
  8
DEFPOINTS
  6
CONTINUOUS
 62
     0
 10
3315.7515969999999
 20
2924.58896
 30
0.0
  0
ENDBLK
  5
7CBB
  8
0
  0
BLOCK
  8
0
  2
*D16
 70
     1
 10
0.0
 20
0.0
 30
0.0
  3
*D16
  1

  0
LINE
  5
7E49
  8
3
 62
     0
 10
1092.247425
 20
2529.6786229999998
 30
0.0
 11
1092.247425
 21
2988.6408879999999
 31
0.0
  0
LINE
  5
7E4A
  8
3
 62
     0
 10
1527.247425
 20
2968.640887999999
 30
0.0
 11
1132.247425
 21
2968.640887999999
 31
0.0
  0
INSERT
  5
7E4B
  8
3
 62
     0
  2
_OPEN
 10
1567.247425
 20
2968.640887999999
 30
0.0
 41
40.0
 42
40.0
 43
40.0
  0
INSERT
  5
7E4C
  8
3
 62
     0
  2
_OPEN
 10
1092.247425
 20
2968.640887999999
 30
0.0
 41
40.0
 42
40.0
 43
40.0
 50
180.0
  0
TEXT
  8
3
  40
60
  5
7E5F
  62
0
  72
0
  71
0
 10
1209.75
 20
2912.44
 30
0.000000
  1
475
  0
POINT
  5
7E4E
  8
DEFPOINTS
 62
     0
 10
1567.247425
 20
2942.8951659999989
 30
0.0
  0
POINT
  5
7E4F
  8
DEFPOINTS
 62
     0
 10
1092.247425
 20
2519.6786229999998
 30
0.0
  0
POINT
  5
7E50
  8
DEFPOINTS
 62
     0
 10
1092.247425
 20
2968.640887999999
 30
0.0
  0
ENDBLK
  5
7D79
  8
0
  0
ENDSEC
  0
SECTION
  2
ENTITIES
  0
LINE
  5
7A82
  8
1
  6
CONTINUOUS
 10
3405.7515969999999
 20
1597.678623
 30
0.0
 11
3405.7515969999999
 21
2817.6786229999998
 31
0.0
  0
LINE
  5
7A83
  8
1
  6
CONTINUOUS
 10
2735.7515969999999
 20
2817.6786229999998
 30
0.0
 11
2735.7515969999999
 21
1597.678623
 31
0.0
  0
LINE
  5
7A84
  8
1
  6
CONTINUOUS
 10
1972.247425
 20
2817.6786229999998
 30
0.0
 11
1972.247425
 21
1597.678623
 31
0.0
  0
LINE
  5
7A85
  8
1
  6
CONTINUOUS
 10
602.24742500000002
 20
1597.678623
 30
0.0
 11
602.24742500000002
 21
2817.6786229999998
 31
0.0
  0
POLYLINE
  5
7A86
  8
1
  6
CONTINUOUS
 66
     1
 10
0.0
 20
0.0
 30
0.0
 70
     1
  0
VERTEX
  5
7DC7
  8
1
  6
CONTINUOUS
 10
3445.7515969999999
 20
2857.6786229999998
 30
0.0
  0
VERTEX
  5
7DC8
  8
1
  6
CONTINUOUS
 10
2695.7515969999999
 20
2857.6786229999998
 30
0.0
  0
VERTEX
  5
7DC9
  8
1
  6
CONTINUOUS
 10
2695.7515969999999
 20
1557.678623
 30
0.0
  0
VERTEX
  5
7DCA
  8
1
  6
CONTINUOUS
 10
3445.7515969999999
 20
1557.678623
 30
0.0
  0
SEQEND
  5
7DCB
  8
1
  6
CONTINUOUS
  0
LINE
  5
7A8C
  8
1
  6
CONTINUOUS
 10
562.24742500000002
 20
2857.6786229999998
 30
0.0
 11
562.24742500000002
 21
1557.678623
 31
0.0
  0
LINE
  5
7A8D
  8
1
  6
CONTINUOUS
 10
2012.2474249999991
 20
2857.6786229999998
 30
0.0
 11
2012.2474249999991
 21
1557.678623
 31
0.0
  0
LINE
  5
7A8F
  8
1
  6
CONTINUOUS
 10
2012.2474249999991
 20
1557.678623
 30
0.0
 11
562.24742500000002
 21
1557.678623
 31
0.0
  0
LINE
  5
7A90
  8
1
  6
CONTINUOUS
 10
1972.247425
 20
1597.678623
 30
0.0
 11
602.24742500000002
 21
1597.678623
 31
0.0
  0
LINE
  5
7A91
  8
1
  6
CONTINUOUS
 10
1567.747425
 20
2534.6786229999998
 30
0.0
 11
707.74742500000002
 21
1929.678623
 31
0.0
  0
LINE
  5
7A92
  8
1
  6
CONTINUOUS
 10
737.24742500000002
 20
1699.678623
 30
0.0
 11
997.24742500000013
 21
1699.678623
 31
0.0
  0
ARC
  5
7A93
  8
1
  6
CONTINUOUS
 10
867.24742500000002
 20
1881.678623
 30
0.0
 40
142.0
 50
324.59875699999998
 51
215.40124299999999
  0
LINE
  5
7A94
  8
1
  6
CONTINUOUS
 10
1912.247425
 20
1619.678623
 30
0.0
 11
662.24742500000002
 21
1619.678623
 31
0.0
  0
LINE
  5
7A95
  8
1
  6
CONTINUOUS
 10
1927.247425
 20
1699.678623
 30
0.0
 11
662.24742500000002
 21
1699.678623
 31
0.0
  0
LINE
  5
7A96
  8
1
  6
CONTINUOUS
 10
707.74742500000002
 20
1699.678623
 30
0.0
 11
707.74742500000002
 21
1929.678623
 31
0.0
  0
LINE
  5
7A97
  8
1
  6
CONTINUOUS
 10
737.24742500000002
 20
1699.678623
 30
0.0
 11
737.24742500000002
 21
1764.678623
 31
0.0
  0
LINE
  5
7A98
  8
1
  6
CONTINUOUS
 10
737.24742500000002
 20
1764.678623
 30
0.0
 11
751.50106200000005
 21
1799.418185999999
 31
0.0
  0
LINE
  5
7A99
  8
1
  6
CONTINUOUS
 10
662.24742500000002
 20
1699.678623
 30
0.0
 11
662.24742500000002
 21
1619.678623
 31
0.0
  0
LINE
  5
7A9A
  8
1
  6
CONTINUOUS
 10
886.19618100000002
 20
1814.292091
 30
0.0
 11
1594.317076
 21
2013.412149
 31
0.0
  0
LINE
  5
7A9B
  8
1
  6
CONTINUOUS
 10
842.87415500000009
 20
1947.298313
 30
0.0
 11
1532.428466999999
 21
2203.4210370000001
 31
0.0
  0
CIRCLE
  5
7A9C
  8
1
  6
CONTINUOUS
 10
1567.247425
 20
2109.6786229999998
 30
0.0
 40
320.0
  0
CIRCLE
  5
7A9D
  8
1
  6
CONTINUOUS
 10
1567.247425
 20
2109.6786229999998
 30
0.0
 40
295.0
  0
ARC
  5
7A9E
  8
1
  6
CONTINUOUS
 10
1604.247425
 20
2146.6786229999998
 30
0.0
 40
501.36713099999992
 50
94.232174000000001
 51
185.042451
  0
ARC
  5
7A9F
  8
1
  6
CONTINUOUS
 10
1536.2474249999991
 20
2140.6786229999998
 30
0.0
 40
433.10293799999999
 50
185.042451
 51
277.25319500000001
  0
LINE
  5
7AA0
  8
1
  6
CONTINUOUS
 10
1927.247425
 20
2519.6786229999998
 30
0.0
 11
1092.247425
 21
2519.6786229999998
 31
0.0
  0
CIRCLE
  5
7AA1
  8
1
  6
CONTINUOUS
 10
867.24742500000002
 20
1881.678623
 30
0.0
 40
70.0
  0
LINE
  5
7AA2
  8
2
  6
CENTER
 10
867.24742500000002
 20
1811.6786229999991
 30
0.0
 11
867.24742500000002
 21
1951.678623
 31
0.0
  0
LINE
  5
7AA3
  8
1
  6
CONTINUOUS
 10
1092.247425
 20
2519.6786229999998
 30
0.0
 11
1092.247425
 21
1699.678623
 31
0.0
  0
LINE
  5
7AA4
  8
2
  6
CENTER
 10
797.24742500000002
 20
1881.678623
 30
0.0
 11
937.24742499999991
 21
1881.678623
 31
0.0
  0
LINE
  5
7AA5
  8
1
  6
CONTINUOUS
 10
997.24742500000013
 20
1764.678623
 30
0.0
 11
982.99378800000011
 21
1799.418185999999
 31
0.0
  0
LINE
  5
7AA6
  8
1
  6
CONTINUOUS
 10
997.24742500000013
 20
1699.678623
 30
0.0
 11
997.24742500000013
 21
1764.678623
 31
0.0
  0
LINE
  5
7AA7
  8
1
  6
CONTINUOUS
 10
1837.747425
 20
1699.678623
 30
0.0
 11
1837.747425
 21
2449.6786229999998
 31
0.0
  0
ARC
  5
7AA8
  8
1
  6
CONTINUOUS
 10
1543.247425
 20
2085.6786229999998
 30
0.0
 40
377.65927299999993
 50
277.25319500000001
 51
0.455143
  0
LINE
  5
7AA9
  8
1
  6
CONTINUOUS
 10
1927.247425
 20
2519.6786229999998
 30
0.0
 11
1927.247425
 21
1699.678623
 31
0.0
  0
LINE
  5
7AAA
  8
1
  6
CONTINUOUS
 10
1912.247425
 20
1699.678623
 30
0.0
 11
1912.247425
 21
1619.678623
 31
0.0
  0
LINE
  5
7AAB
  8
1
  6
CONTINUOUS
 10
1837.747425
 20
2449.6786229999998
 30
0.0
 11
1567.747425
 21
2534.6786229999998
 31
0.0
  0
LINE
  5
7AAC
  8
1
  6
CONTINUOUS
 10
1972.247425
 20
2648.6786229999998
 30
0.0
 11
1567.247425
 21
2646.6786229999998
 31
0.0
  0
CIRCLE
  5
7AAD
  8
1
  6
CONTINUOUS
 10
1567.247425
 20
2109.6786229999998
 30
0.0
 40
100.0
  0
LINE
  5
7AAE
  8
2
  6
CENTER
 10
3485.7037395247021
 20
2109.6786229999998
 30
0.0
 11
2660.5722879999998
 21
2109.6786229999998
 31
0.0
  0
LINE
  5
7AAF
  8
2
  6
CENTER
 10
1567.2474249999991
 20
4161.1710519309954
 30
0.0
 11
1567.247425
 21
3299.226979
 31
0.0
  0
LINE
  5
7AB0
  8
1
  6
CONTINUOUS
 10
1947.247425
 20
2088.6786229999998
 30
0.0
 11
1947.247425
 21
2648.5551660000001
 31
0.0
  0
LINE
  5
7AB1
  8
1
  6
CONTINUOUS
 10
1972.247425
 20
2061.6786229999998
 30
0.0
 11
1972.247425
 21
2675.6786229999998
 31
0.0
  0
LINE
  5
7AB2
  8
1
  6
CONTINUOUS
 10
1920.8947820000001
 20
2088.6786229999998
 30
0.0
 11
1972.247425
 21
2088.6786229999998
 31
0.0
  0
LINE
  5
7AB3
  8
1
  6
CONTINUOUS
 10
2735.7515969999999
 20
1597.678623
 30
0.0
 11
3405.7515969999999
 21
1597.678623
 31
0.0
  0
LINE
  5
7AB4
  8
1
  6
CONTINUOUS
 10
2895.7515969999999
 20
2088.6786229999998
 30
0.0
 11
3315.7515969999999
 21
2648.6786229999998
 31
0.0
  0
LINE
  5
7AB5
  8
1
  6
CONTINUOUS
 10
2895.7515969999999
 20
2648.6786229999998
 30
0.0
 11
3315.7515969999999
 21
2088.6786229999998
 31
0.0
  0
LINE
  5
7AB6
  8
1
  6
CONTINUOUS
 10
2895.7515969999999
 20
2088.6786229999998
 30
0.0
 11
3315.7515969999999
 21
2088.6786229999998
 31
0.0
  0
LINE
  5
7AB7
  8
1
  6
CONTINUOUS
 10
2895.7515969999999
 20
2648.6786229999998
 30
0.0
 11
3315.7515969999999
 21
2648.6786229999998
 31
0.0
  0
LINE
  5
7AB8
  8
1
  6
CONTINUOUS
 10
3360.7515969999999
 20
1699.678623
 30
0.0
 11
2695.7515969999999
 21
1699.678623
 31
0.0
  0
LINE
  5
7AB9
  8
1
  6
CONTINUOUS
 10
3360.7515969999999
 20
1619.678623
 30
0.0
 11
2850.7515969999999
 21
1619.678623
 31
0.0
  0
LINE
  5
7ABA
  8
1
  6
CONTINUOUS
 10
2785.7515969999999
 20
1951.678623
 30
0.0
 11
2785.7515969999999
 21
1811.6786229999991
 31
0.0
  0
LINE
  5
7ABB
  8
1
  6
CONTINUOUS
 10
2725.7515969999999
 20
1951.678623
 30
0.0
 11
2725.7515969999999
 21
1811.6786229999991
 31
0.0
  0
LINE
  5
7ABC
  8
1
  6
CONTINUOUS
 10
2815.7515969999999
 20
1699.678623
 30
0.0
 11
2815.7515969999999
 21
2534.6786229999998
 31
0.0
  0
LINE
  5
7ABD
  8
1
  6
CONTINUOUS
 10
2895.7515969999999
 20
1699.678623
 30
0.0
 11
2895.7515969999999
 21
2648.6786229999998
 31
0.0
  0
LINE
  5
7AC0
  8
1
  6
CONTINUOUS
 10
2725.7515969999999
 20
1811.6786229999991
 30
0.0
 11
2785.7515969999999
 21
1811.6786229999991
 31
0.0
  0
LINE
  5
7AC2
  8
1
  6
CONTINUOUS
 10
2785.7515969999999
 20
1865.678623
 30
0.0
 11
2895.7515969999999
 21
1865.678623
 31
0.0
  0
LINE
  5
7AC3
  8
1
  6
CONTINUOUS
 10
2850.7515969999999
 20
1619.678623
 30
0.0
 11
2850.7515969999999
 21
1699.678623
 31
0.0
  0
LINE
  5
7AC4
  8
1
  6
CONTINUOUS
 10
2725.7515969999999
 20
1951.678623
 30
0.0
 11
2785.7515969999999
 21
1951.678623
 31
0.0
  0
LINE
  5
7AC5
  8
1
  6
CONTINUOUS
 10
2725.7515969999999
 20
2009.678623
 30
0.0
 11
2785.7515969999999
 21
2009.678623
 31
0.0
  0
LINE
  5
7AC6
  8
1
  6
CONTINUOUS
 10
2725.7515969999999
 20
2209.6786229999998
 30
0.0
 11
2785.7515969999999
 21
2209.6786229999998
 31
0.0
  0
LINE
  5
7AC7
  8
1
  6
CONTINUOUS
 10
2695.7515969999999
 20
2534.6786229999998
 30
0.0
 11
2815.7515969999999
 21
2534.6786229999998
 31
0.0
  0
LINE
  5
7AC8
  8
1
  6
CONTINUOUS
 10
2725.7515969999999
 20
2209.6786229999998
 30
0.0
 11
2725.7515969999999
 21
2009.678623
 31
0.0
  0
LINE
  5
7AC9
  8
1
  6
CONTINUOUS
 10
2895.7515969999999
 20
2093.6786229999998
 30
0.0
 11
2785.7515969999999
 21
2093.6786229999998
 31
0.0
  0
LINE
  5
7ACA
  8
1
  6
CONTINUOUS
 10
2895.7515969999999
 20
2125.6786229999998
 30
0.0
 11
2785.7515969999999
 21
2125.6786229999998
 31
0.0
  0
LINE
  5
7ACB
  8
1
  6
CONTINUOUS
 10
2785.7515969999999
 20
1897.678623
 30
0.0
 11
2895.7515969999999
 21
1897.678623
 31
0.0
  0
LINE
  5
7ACC
  8
1
  6
CONTINUOUS
 10
2785.7515969999999
 20
2209.6786229999998
 30
0.0
 11
2785.7515969999999
 21
2009.678623
 31
0.0
  0
LINE
  5
7ACD
  8
1
  6
CONTINUOUS
 10
3317.7515969999999
 20
1789.678623
 30
0.0
 11
3317.7515969999999
 21
2429.6786229999998
 31
0.0
  0
LINE
  5
7ACE
  8
1
  6
CONTINUOUS
 10
3315.7515969999999
 20
1699.678623
 30
0.0
 11
3315.7515969999999
 21
2648.6786229999998
 31
0.0
  0
LINE
  5
7ACF
  8
1
  6
CONTINUOUS
 10
3315.7515969999999
 20
1789.678623
 30
0.0
 11
3317.7515969999999
 21
1789.678623
 31
0.0
  0
LINE
  5
7AD0
  8
1
  6
CONTINUOUS
 10
3360.7515969999999
 20
1619.678623
 30
0.0
 11
3360.7515969999999
 21
1699.678623
 31
0.0
  0
LINE
  5
7AD1
  8
1
  6
CONTINUOUS
 10
3315.7515969999999
 20
2429.6786229999998
 30
0.0
 11
3317.7515969999999
 21
2429.6786229999998
 31
0.0
  0
LINE
  5
7AD2
  8
1
  6
CONTINUOUS
 10
562.24742500000002
 20
4114.6786229999989
 30
0.0
 11
2012.2474249999991
 21
4114.6786229999989
 31
0.0
  0
LINE
  5
7AD3
  8
1
  6
CONTINUOUS
 10
562.24742500000002
 20
3364.6786229999989
 30
0.0
 11
2012.2474249999991
 21
3364.6786229999989
 31
0.0
  0
LINE
  5
7AD4
  8
1
  6
CONTINUOUS
 10
2012.2474249999991
 20
2857.6786229999998
 30
0.0
 11
562.24742500000002
 21
2857.6786229999998
 31
0.0
  0
LINE
  5
7AD5
  8
1
  6
CONTINUOUS
 10
1972.247425
 20
3404.6786229999989
 30
0.0
 11
602.24742500000002
 21
3404.6786229999989
 31
0.0
  0
LINE
  5
7AD6
  8
1
  6
CONTINUOUS
 10
602.24742500000002
 20
4074.6786229999989
 30
0.0
 11
1972.247425
 21
4074.6786229999989
 31
0.0
  0
LINE
  5
7AD7
  8
1
  6
CONTINUOUS
 10
602.24742500000002
 20
2817.6786229999998
 30
0.0
 11
1972.247425
 21
2817.6786229999998
 31
0.0
  0
LINE
  5
7AD8
  8
1
  6
CONTINUOUS
 10
848.24742500000002
 20
3519.6786229999998
 30
0.0
 11
662.24742500000002
 21
3519.6786229999998
 31
0.0
  0
LINE
  5
7AD9
  8
1
  6
CONTINUOUS
 10
1837.747425
 20
3484.6786229999998
 30
0.0
 11
707.74742500000002
 21
3484.6786229999998
 31
0.0
  0
LINE
  5
7ADA
  8
1
  6
CONTINUOUS
 10
1912.247425
 20
4029.6786229999998
 30
0.0
 11
662.24742500000002
 21
4029.6786229999998
 31
0.0
  0
LINE
  5
7ADB
  8
1
  6
CONTINUOUS
 10
725.24742500000002
 20
3938.4164559999999
 30
0.0
 11
1009.247425
 21
3938.4164559999999
 31
0.0
  0
LINE
  5
7ADC
  8
1
  6
CONTINUOUS
 10
725.24742500000002
 20
3538.4164559999999
 30
0.0
 11
1009.247425
 21
3538.4164559999999
 31
0.0
  0
LINE
  5
7ADD
  8
1
  6
CONTINUOUS
 10
602.24742500000002
 20
3404.6786229999989
 30
0.0
 11
602.24742500000002
 21
4074.6786229999989
 31
0.0
  0
LINE
  5
7ADE
  8
1
  6
CONTINUOUS
 10
562.24742500000002
 20
4114.6786229999989
 30
0.0
 11
562.24742500000002
 21
3364.6786229999989
 31
0.0
  0
LINE
  5
7ADF
  8
1
  6
CONTINUOUS
 10
662.24742500000002
 20
4029.6786229999998
 30
0.0
 11
662.24742500000002
 21
3519.6786229999998
 31
0.0
  0
LINE
  5
7AE0
  8
1
  6
CONTINUOUS
 10
725.24742500000002
 20
3938.4164559999999
 30
0.0
 11
725.24742500000002
 21
3538.4164559999999
 31
0.0
  0
LINE
  5
7AE1
  8
1
  6
CONTINUOUS
 10
707.74742500000002
 20
3364.6786229999989
 30
0.0
 11
707.74742500000002
 21
3484.6786229999998
 31
0.0
  0
LINE
  5
7AE2
  8
1
  6
CONTINUOUS
 10
1247.247425
 20
3986.6786229999989
 30
0.0
 11
1887.2474249999991
 21
3986.6786229999989
 31
0.0
  0
LINE
  5
7AE3
  8
1
  6
CONTINUOUS
 10
1551.247425
 20
3519.6786229999998
 30
0.0
 11
886.24742499999991
 21
3519.6786229999998
 31
0.0
  0
LINE
  5
7AE4
  8
1
  6
CONTINUOUS
 10
1092.247425
 20
3984.6786229999998
 30
0.0
 11
1972.247425
 21
3984.6786229999998
 31
0.0
  0
LINE
  5
7AE5
  8
1
  6
CONTINUOUS
 10
1092.247425
 20
3564.6786229999989
 30
0.0
 11
1972.247425
 21
3564.6786229999989
 31
0.0
  0
LINE
  5
7AE6
  8
1
  6
CONTINUOUS
 10
1092.247425
 20
3564.6786229999989
 30
0.0
 11
1092.247425
 21
3984.6786229999998
 31
0.0
  0
LINE
  5
7AE7
  8
1
  6
CONTINUOUS
 10
1009.247425
 20
3938.4164559999999
 30
0.0
 11
1009.247425
 21
3538.4164559999999
 31
0.0
  0
LINE
  5
7AE8
  8
1
  6
CONTINUOUS
 10
797.24742500000002
 20
3394.6786229999998
 30
0.0
 11
937.24742499999991
 21
3394.6786229999998
 31
0.0
  0
LINE
  5
7AE9
  8
1
  6
CONTINUOUS
 10
797.24742500000002
 20
3454.6786229999998
 30
0.0
 11
937.24742499999991
 21
3454.6786229999998
 31
0.0
  0
LINE
  5
7AEA
  8
1
  6
CONTINUOUS
 10
797.24742500000002
 20
3394.6786229999998
 30
0.0
 11
797.24742500000002
 21
3454.6786229999998
 31
0.0
  0
LINE
  5
7AEB
  8
1
  6
CONTINUOUS
 10
886.24742499999991
 20
3454.6786229999998
 30
0.0
 11
886.24742499999991
 21
3538.4164559999999
 31
0.0
  0
LINE
  5
7AEC
  8
1
  6
CONTINUOUS
 10
848.24742500000002
 20
3454.6786229999998
 30
0.0
 11
848.24742500000002
 21
3538.4164559999999
 31
0.0
  0
LINE
  5
7AED
  8
1
  6
CONTINUOUS
 10
937.24742499999991
 20
3394.6786229999998
 30
0.0
 11
937.24742499999991
 21
3454.6786229999998
 31
0.0
  0
LINE
  5
7AEE
  8
1
  6
CONTINUOUS
 10
1247.247425
 20
3984.6786229999998
 30
0.0
 11
1247.247425
 21
3986.6786229999989
 31
0.0
  0
LINE
  5
7AEF
  8
1
  6
CONTINUOUS
 10
1972.247425
 20
4074.6786229999989
 30
0.0
 11
1972.247425
 21
3404.6786229999989
 31
0.0
  0
LINE
  5
7AF0
  8
1
  6
CONTINUOUS
 10
1947.247425
 20
3984.6786229999998
 30
0.0
 11
1947.247425
 21
3564.6786229999989
 31
0.0
  0
LINE
  5
7AF1
  8
1
  6
CONTINUOUS
 10
1972.247425
 20
4011.6786229999989
 30
0.0
 11
1972.247425
 21
3537.6786229999998
 31
0.0
  0
LINE
  5
7AF2
  8
1
  6
CONTINUOUS
 10
1912.247425
 20
3519.6786229999998
 30
0.0
 11
1583.247425
 21
3519.6786229999998
 31
0.0
  0
LINE
  5
7AF3
  8
1
  6
CONTINUOUS
 10
1467.247425
 20
3454.6786229999998
 30
0.0
 11
1667.247425
 21
3454.6786229999998
 31
0.0
  0
LINE
  5
7AF4
  8
1
  6
CONTINUOUS
 10
1467.247425
 20
3394.6786229999998
 30
0.0
 11
1667.247425
 21
3394.6786229999998
 31
0.0
  0
LINE
  5
7AF5
  8
1
  6
CONTINUOUS
 10
1467.247425
 20
3394.6786229999998
 30
0.0
 11
1467.247425
 21
3454.6786229999998
 31
0.0
  0
LINE
  5
7AF6
  8
1
  6
CONTINUOUS
 10
1667.247425
 20
3394.6786229999998
 30
0.0
 11
1667.247425
 21
3454.6786229999998
 31
0.0
  0
LINE
  5
7AF7
  8
1
  6
CONTINUOUS
 10
1583.247425
 20
3564.6786229999989
 30
0.0
 11
1583.247425
 21
3454.6786229999998
 31
0.0
  0
LINE
  5
7AF8
  8
1
  6
CONTINUOUS
 10
1551.247425
 20
3564.6786229999989
 30
0.0
 11
1551.247425
 21
3454.6786229999998
 31
0.0
  0
LINE
  5
7AF9
  8
1
  6
CONTINUOUS
 10
1837.747425
 20
3364.6786229999989
 30
0.0
 11
1837.747425
 21
3484.6786229999998
 31
0.0
  0
LINE
  5
7AFA
  8
1
  6
CONTINUOUS
 10
1912.247425
 20
3564.6786229999989
 30
0.0
 11
1912.247425
 21
3519.6786229999998
 31
0.0
  0
LINE
  5
7AFB
  8
1
  6
CONTINUOUS
 10
1887.2474249999991
 20
3984.6786229999998
 30
0.0
 11
1887.2474249999991
 21
3986.6786229999989
 31
0.0
  0
LINE
  5
7AFC
  8
1
  6
CONTINUOUS
 10
1912.247425
 20
4029.6786229999998
 30
0.0
 11
1912.247425
 21
3984.6786229999998
 31
0.0
  0
LINE
  5
7AFD
  8
1
  6
CONTINUOUS
 10
3405.7515969999999
 20
2817.6786229999998
 30
0.0
 11
2735.7515969999999
 21
2817.6786229999998
 31
0.0
  0
LINE
  5
7AFE
  8
1
  6
CONTINUOUS
 10
2012.2474249999991
 20
4114.6786229999989
 30
0.0
 11
2012.2474249999991
 21
3364.6786229999989
 31
0.0
  0
LINE
  5
7AFF
  8
2
  6
CENTER
 10
3105.7515969999999
 20
2892.7914679999999
 30
0.0
 11
3105.7515969999999
 21
1459.2343033963191
 31
0.0
  0
LINE
  5
7B00
  8
2
  6
CENTER
 10
935.84632487305134
 20
3774.6786229999989
 30
0.0
 11
2059.7041648092818
 21
3774.6786229999989
 31
0.0
  0
LINE
  5
7B01
  8
2
  6
CENTER
 10
1567.247425
 20
2942.8951659999989
 30
0.0
 11
1567.247425
 21
1477.7504300104949
 31
0.0
  0
LINE
  5
7B02
  8
2
  6
CENTER
 10
2155.5821729999998
 20
2109.6786229999998
 30
0.0
 11
803.08793378016708
 21
2109.6786229999998
 31
0.0
  0
LINE
  5
7B03
  8
4
  6
CONTINUOUS
 10
3700.0
 20
1000.0
 30
0.0
 11
3700.0
 21
600.0
 31
0.0
  0
LINE
  5
7B04
  8
4
  6
CONTINUOUS
 10
2300.0
 20
1000.0
 30
0.0
 11
2300.0
 21
600.0
 31
0.0
  0
LINE
  5
7B05
  8
4
  6
CONTINUOUS
 10
1300.0
 20
1000.0
 30
0.0
 11
1300.0
 21
600.0
 31
0.0
  0
LINE
  5
7B08
  8
4
  6
CONTINUOUS
 10
1300.0
 20
600.0
 30
0.0
 11
3700.0
 21
600.0
 31
0.0
  0
LINE
  5
7B09
  8
4
  6
CONTINUOUS
 10
1300.0
 20
800.0
 30
0.0
 11
3700.0
 21
800.0
 31
0.0
  0
TEXT
  5
7B0A
  8
4
  6
CONTINUOUS
 10
1377.004162
 20
863.086052
 30
0.0
 40
100.0
  1
機器名称
  0
TEXT
  5
7B0B
  8
4
  6
CONTINUOUS
 10
1372.516212
 20
643.29031299999986
 30
0.0
 40
100.0
  1
機器型番
  0
TEXT
  5
7B0C
  8
4
  6
CONTINUOUS
 10
2355.3574910000002
 20
845.14353800000015
 30
0.0
 40
100.0
  1
ミツヤ多翼送風機
  0
TEXT
  5
7B0D
  8
4
  6
CONTINUOUS
 10
2373.3089909999999
 20
634.31916899999999
 30
0.0
 40
100.0
  1
MF#3 1/2-4
  0
TEXT
  5
7B0F
  8
4
  6
CONTINUOUS
 10
1468.4311439999999
 20
4766.8576830000002
 30
0.0
 40
108.0
  1
天井吊枠防振ベット
  0
TEXT
  5
7B10
  8
4
  6
CONTINUOUS
 10
632.33518700000002
 20
5067.7619520000007
 30
0.0
 40
144.0
  1
ベルト駆動式片吸込両持多翼ファン
  0
LINE
  5
7B11
  8
4
  6
CONTINUOUS
 10
500.0
 20
4938.8175090000004
 30
0.0
 11
3700.0
 21
4938.8175090000004
 31
0.0
  0
LINE
  5
7B12
  8
4
  6
CONTINUOUS
 10
500.0
 20
5338.8175090000004
 30
0.0
 11
3700.0
 21
5338.8175090000004
 31
0.0
  0
LINE
  5
7B13
  8
4
  6
CONTINUOUS
 10
1300.0
 20
1000.0
 30
0.0
 11
3700.0
 21
1000.0
 31
0.0
  0
LINE
  5
7B14
  8
4
  6
CONTINUOUS
 10
500.0
 20
5338.8175090000004
 30
0.0
 11
500.0
 21
4938.8175090000004
 31
0.0
  0
TEXT
  5
7B15
  8
4
  6
CONTINUOUS
 10
596.71348
 20
4764.6389549999994
 30
0.0
 40
108.0
  1
右回転右横向
  0
TEXT
  5
7B16
  8
4
  6
CONTINUOUS
 10
2937.9391179999998
 20
5412.122163
 30
0.0
 40
112.0
  1
No.
  0
TEXT
  5
7B17
  8
4
  6
CONTINUOUS
 10
2787.2805969999999
 20
4766.8576830000002
 30
0.0
 40
108.0
  1
縮尺：1/20
  0
LINE
  5
7B18
  8
4
  6
CONTINUOUS
 10
3700.0
 20
5338.8175090000004
 30
0.0
 11
3700.0
 21
4938.8175090000004
 31
0.0
  0
LINE
  5
7B1A
  8
4
  6
CONTINUOUS
 10
2881.234845
 20
5362.5271659999999
 30
0.0
 11
2881.234845
 21
5573.3045229999998
 31
0.0
  0
LINE
  5
7B1B
  8
4
  6
CONTINUOUS
 10
2881.234845
 20
5573.3045229999998
 30
0.0
 11
3700.0
 21
5573.3045229999998
 31
0.0
  0
LINE
  5
7B1C
  8
4
  6
CONTINUOUS
 10
3700.0
 20
5573.3045229999998
 30
0.0
 11
3700.0
 21
5362.5271659999999
 31
0.0
  0
LINE
  5
7B1D
  8
4
  6
CONTINUOUS
 10
3700.0
 20
5362.5271659999999
 30
0.0
 11
2881.234845
 21
5362.5271659999999
 31
0.0
  0
DIMENSION
  5
7B35
  8
3
  6
CONTINUOUS
  2
*D1
 10
2224.747946
 20
2088.6786229999998
 30
0.0
 11
2224.747946
 21
2398.4239120000002
 31
0.0
 70
   128
 13
1972.247425
 23
2648.6786229999998
 33
0.0
 14
1972.247425
 24
2088.6786229999998
 34
0.0
 50
90.0
1001
ACAD
1000
DSTYLE
1002
{
1070
   287
1070
     3
1070
    40
1040
20.0
1070
   143
1040
0.039
1070
   172
1070
     1
1070
   271
1070
     0
1070
   279
1070
     0
1070
   288
1070
     1
1002
}
  0
DIMENSION
  5
7B42
  8
3
  6
CONTINUOUS
  2
*D2
 10
2356.8698260000001
 20
2109.6786229999998
 30
0.0
 11
2356.8698260000001
 21
2403.7037019999998
 31
0.0
 70
   128
 13
2012.2474249999991
 23
2648.6786229999998
 33
0.0
 14
2155.5821729999998
 24
2109.6786229999998
 34
0.0
 50
90.0
1001
ACAD
1000
DSTYLE
1002
{
1070
   287
1070
     3
1070
    40
1040
20.0
1070
   143
1040
0.039
1070
   172
1070
     1
1070
   271
1070
     0
1070
   279
1070
     0
1070
   288
1070
     1
1002
}
  0
DIMENSION
  5
7B4F
  8
3
  6
CONTINUOUS
  2
*D3
 10
2356.8698260000001
 20
1619.678623
 30
0.0
 11
2306.8698259999992
 21
1864.678623
 31
0.0
 70
     0
 13
2155.5821729999998
 23
2109.6786229999998
 33
0.0
 14
1912.247425
 24
1619.678623
 34
0.0
 50
90.0
1001
ACAD
1000
DSTYLE
1002
{
1070
   287
1070
     4
1070
    40
1040
20.0
1070
    75
1070
     1
1070
   143
1040
0.039
1070
   172
1070
     1
1070
   271
1070
     0
1070
   279
1070
     1
1070
   288
1070
     1
1002
}
  0
DIMENSION
  5
7B5F
  8
3
  6
CONTINUOUS
  2
*D4
 10
2356.8698260000001
 20
1557.678623
 30
0.0
 11
2356.8698260000001
 21
1409.1071944285709
 31
0.0
 70
   128
 13
1912.247425
 23
1619.678623
 33
0.0
 14
2012.2474249999991
 24
1557.678623
 34
0.0
 50
90.0
1001
ACAD
1000
DSTYLE
1002
{
1070
   287
1070
     3
1070
    40
1040
20.0
1070
   143
1040
0.039
1070
   172
1070
     1
1070
   271
1070
     0
1070
   279
1070
     0
1070
   288
1070
     1
1002
}
  0
DIMENSION
  5
7B6C
  8
3
  6
CONTINUOUS
  2
*D5
 10
1567.247425
 20
1334.068217
 30
0.0
 11
1068.51539
 21
1334.068217
 31
0.0
 70
   128
 13
562.24742500000002
 23
1557.678623
 33
0.0
 14
1567.247425
 24
1477.7504300104949
 34
0.0
1001
ACAD
1000
DSTYLE
1002
{
1070
   287
1070
     3
1070
    40
1040
20.0
1070
   143
1040
0.039
1070
   172
1070
     1
1070
   271
1070
     0
1070
   279
1070
     0
1070
   288
1070
     1
1002
}
  0
DIMENSION
  5
7B78
  8
3
  6
CONTINUOUS
  2
*D6
 10
2012.2474249999991
 20
1334.068217
 30
0.0
 11
1789.747425
 21
1384.068217
 31
0.0
 70
     0
 13
1567.247425
 23
1477.7504300104949
 33
0.0
 14
2012.2474249999991
 24
1557.678623
 34
0.0
1001
ACAD
1000
DSTYLE
1002
{
1070
   287
1070
     4
1070
    40
1040
20.0
1070
    75
1070
     1
1070
   143
1040
0.039
1070
   172
1070
     1
1070
   271
1070
     0
1070
   279
1070
     1
1070
   288
1070
     1
1002
}
  0
DIMENSION
  5
7B85
  8
3
  6
CONTINUOUS
  2
*D7
 10
1567.247425
 20
2968.640887999999
 30
0.0
 11
1776.6886500000001
 21
2968.640887999999
 31
0.0
 70
   128
 13
1972.247425
 23
2675.6786229999998
 33
0.0
 14
1567.247425
 24
2942.8951659999989
 34
0.0
1001
ACAD
1000
DSTYLE
1002
{
1070
   287
1070
     3
1070
    40
1040
20.0
1070
   143
1040
0.039
1070
   172
1070
     1
1070
   271
1070
     0
1070
   279
1070
     0
1070
   288
1070
     1
1002
}
  0
DIMENSION
  5
7BA1
  8
3
  6
CONTINUOUS
  2
*D8
 10
3641.461925000001
 20
1814.678623
 30
0.0
 11
3641.4619250000001
 21
2118.5952139999999
 31
0.0
 70
   128
 13
3317.7515969999999
 23
2404.6786229999998
 33
0.0
 14
3317.7515969999999
 24
1814.678623
 34
0.0
 50
90.0
1001
ACAD
1000
DSTYLE
1002
{
1070
   287
1070
     3
1070
     3
1000
φ<>
1070
    40
1040
20.0
1070
   143
1040
0.039
1070
   172
1070
     1
1070
   271
1070
     0
1070
   279
1070
     0
1070
   288
1070
     1
1002
}
  0
DIMENSION
  5
7BB0
  8
3
  6
CONTINUOUS
  2
*D9
 10
3105.7515969999999
 20
3067.5378820000001
 30
0.0
 11
3211.7515969999999
 21
3126.9287586624409
 31
0.0
 70
   128
 13
3317.7515969999999
 23
2429.6786229999998
 33
0.0
 14
3105.7515969999999
 24
3037.2738629999999
 34
0.0
1001
ACAD
1000
DSTYLE
1002
{
1070
   288
1070
     1
1070
   172
1070
     1
1070
    40
1040
20.0
1070
   271
1070
     0
1070
   143
1040
0.039
1002
}
  0
DIMENSION
  5
7BC9
  8
3
  6
CONTINUOUS
  2
*D10
 10
3105.7515969999999
 20
1341.789878
 30
0.0
 11
2901.5794329999999
 21
1341.789878
 31
0.0
 70
   128
 13
2695.7515969999999
 23
1557.678623
 33
0.0
 14
3105.7515969999999
 24
1459.2343033963191
 34
0.0
1001
ACAD
1000
DSTYLE
1002
{
1070
   287
1070
     3
1070
    40
1040
20.0
1070
   143
1040
0.039
1070
   172
1070
     1
1070
   271
1070
     0
1070
   279
1070
     0
1070
   288
1070
     1
1002
}
  0
DIMENSION
  5
7BD5
  8
3
  6
CONTINUOUS
  2
*D11
 10
3445.7515969999999
 20
1341.789878
 30
0.0
 11
3275.7515969999999
 21
1391.789878
 31
0.0
 70
     0
 13
3105.7515969999999
 23
1459.2343033963191
 33
0.0
 14
3445.7515969999999
 24
1557.678623
 34
0.0
1001
ACAD
1000
DSTYLE
1002
{
1070
   287
1070
     4
1070
    40
1040
20.0
1070
    75
1070
     1
1070
   143
1040
0.039
1070
   172
1070
     1
1070
   271
1070
     0
1070
   279
1070
     1
1070
   288
1070
     1
1002
}
  0
DIMENSION
  5
7BE2
  8
3
  6
CONTINUOUS
  2
*D12
 10
2012.2474249999991
 20
4305.3774909999993
 30
0.0
 11
1285.195287
 21
4305.3774909999993
 31
0.0
 70
   128
 13
562.24742500000002
 23
4114.6786229999989
 33
0.0
 14
2012.2474249999991
 24
4114.6786229999989
 34
0.0
1001
ACAD
1000
DSTYLE
1002
{
1070
   287
1070
     3
1070
    40
1040
20.0
1070
   143
1040
0.039
1070
   172
1070
     1
1070
   271
1070
     0
1070
   279
1070
     0
1070
   288
1070
     1
1002
}
  0
DIMENSION
  5
7BEF
  8
3
  6
CONTINUOUS
  2
*D13
 10
2199.4786540000009
 20
3364.6786229999989
 30
0.0
 11
2199.4786539999991
 21
3710.411357
 31
0.0
 70
   128
 13
2012.2474249999991
 23
4114.6786229999989
 33
0.0
 14
2012.2474249999991
 24
3364.6786229999989
 34
0.0
 50
90.0
1001
ACAD
1000
DSTYLE
1002
{
1070
   287
1070
     3
1070
    40
1040
20.0
1070
   143
1040
0.039
1070
   172
1070
     1
1070
   271
1070
     0
1070
   279
1070
     0
1070
   288
1070
     1
1002
}
  0
DIMENSION
  5
7C01
  8
3
  6
CONTINUOUS
  2
*D14
 10
2542.5358110000002
 20
1557.678623
 30
0.0
 11
2542.5358110000002
 21
2129.680069
 31
0.0
 70
   128
 13
2695.7515969999999
 23
2857.6786229999998
 33
0.0
 14
2695.7515969999999
 24
1557.678623
 34
0.0
 50
90.0
1001
ACAD
1000
DSTYLE
1002
{
1070
   287
1070
     3
1070
    40
1040
20.0
1070
   143
1040
0.039
1070
   172
1070
     1
1070
   271
1070
     0
1070
   279
1070
     0
1070
   288
1070
     1
1002
}
  0
DIMENSION
  5
7CBC
  8
3
  6
CONTINUOUS
  2
*D15
 10
3315.7515969999999
 20
2924.58896
 30
0.0
 11
3091.5624079999989
 21
2924.58896
 31
0.0
 70
   128
 13
2895.7515969999999
 23
2648.6786229999998
 33
0.0
 14
3315.7515969999999
 24
2648.6786229999998
 34
0.0
1001
ACAD
1000
DSTYLE
1002
{
1070
   287
1070
     3
1070
    40
1040
20.0
1070
   143
1040
0.039
1070
   172
1070
     1
1070
   271
1070
     0
1070
   279
1070
     0
1070
   288
1070
     1
1002
}
  0
DIMENSION
  5
7D7A
  8
3
  2
*D16
 10
1092.247425
 20
2968.640887999999
 30
0.0
 11
1329.747425
 21
3018.6408879999999
 31
0.0
 70
     0
 13
1567.247425
 23
2942.8951659999989
 33
0.0
 14
1092.247425
 24
2519.6786229999998
 34
0.0
1001
ACAD
1000
DSTYLE
1002
{
1070
   287
1070
     4
1070
    40
1040
20.0
1070
    75
1070
     1
1070
   143
1040
0.039
1070
   172
1070
     1
1070
   271
1070
     0
1070
   279
1070
     1
1070
   288
1070
     1
1002
}
  0
ENDSEC
  0
EOF
