  0
SECTION
  2
HEADER
  9
$ACADVER
  1
AC1009
  9
$INSBASE
 10
0.0
 20
0.0
 30
0.0
  9
$EXTMIN
 10
500.0
 20
600.0
 30
0.0
  9
$EXTMAX
 10
3700.0
 20
5573.3045229999998
 30
0.0
  9
$LIMMIN
 10
0.0
 20
0.0
  9
$LIMMAX
 10
297.0
 20
210.0
  9
$ORTHOMODE
 70
     0
  9
$REGENMODE
 70
     1
  9
$FILLMODE
 70
     0
  9
$QTEXTMODE
 70
     0
  9
$MIRRTEXT
 70
     1
  9
$DRAGMODE
 70
     2
  9
$LTSCALE
 40
100.0
  9
$OSMODE
 70
    37
  9
$ATTMODE
 70
     1
  9
$TEXTSIZE
 40
180.0
  9
$TRACEWID
 40
0.05
  9
$TEXTSTYLE
  7
STANDARD
  9
$CLAYER
  8
3
  9
$CELTYPE
  6
BYLAYER
  9
$CECOLOR
 62
   256
  9
$DIMSCALE
 40
20.0
  9
$DIMASZ
 40
2.0
  9
$DIMEXO
 40
0.5
  9
$DIMDLI
 40
10.0
  9
$DIMRND
 40
0.0
  9
$DIMDLE
 40
0.0
  9
$DIMEXE
 40
1.0
  9
$DIMTP
 40
1.0
  9
$DIMTM
 40
1.0
  9
$DIMTXT
 40
3.0
  9
$DIMCEN
 40
0.0
  9
$DIMTSZ
 40
0.0
  9
$DIMTOL
 70
     0
  9
$DIMLIM
 70
     0
  9
$DIMTIH
 70
     0
  9
$DIMTOH
 70
     0
  9
$DIMSE1
 70
     0
  9
$DIMSE2
 70
     0
  9
$DIMTAD
 70
     1
  9
$DIMZIN
 70
     8
  9
$DIMBLK
  1

  9
$DIMASO
 70
     1
  9
$DIMSHO
 70
     1
  9
$DIMPOST
  1

  9
$DIMAPOST
  1

  9
$DIMALT
 70
     0
  9
$DIMALTD
 70
     2
  9
$DIMALTF
 40
0.039
  9
$DIMLFAC
 40
1.0
  9
$DIMTOFL
 70
     1
  9
$DIMTVP
 40
0.0
  9
$DIMTIX
 70
     0
  9
$DIMSOXD
 70
     0
  9
$DIMSAH
 70
     1
  9
$DIMBLK1
  1
OPEN
  9
$DIMBLK2
  1
OPEN
  9
$DIMSTYLE
  2
IGA
  9
$DIMCLRD
 70
     0
  9
$DIMCLRE
 70
     0
  9
$DIMCLRT
 70
     0
  9
$DIMTFAC
 40
10.0
  9
$DIMGAP
 40
1.0
  9
$LUNITS
 70
     2
  9
$LUPREC
 70
     3
  9
$SKETCHINC
 40
0.1
  9
$FILLETRAD
 40
50.0
  9
$AUNITS
 70
     0
  9
$AUPREC
 70
     0
  9
$MENU
  1
acad
  9
$ELEVATION
 40
0.0
  9
$PELEVATION
 40
0.0
  9
$THICKNESS
 40
0.0
  9
$LIMCHECK
 70
     0
  9
$BLIPMODE
 70
     0
  9
$CHAMFERA
 40
0.5
  9
$CHAMFERB
 40
0.5
  9
$SKPOLY
 70
     0
  9
$TDCREATE
 40
2450738.3827537028
  9
$TDUPDATE
 40
2454953.7692397218
  9
$TDINDWG
 40
0.0063943866
  9
$TDUSRTIMER
 40
0.0063943866
  9
$USRTIMER
 70
     1
  9
$ANGBASE
 50
0.0
  9
$ANGDIR
 70
     0
  9
$PDMODE
 70
     0
  9
$PDSIZE
 40
0.0
  9
$PLINEWID
 40
0.0
  9
$COORDS
 70
     1
  9
$SPLFRAME
 70
     0
  9
$SPLINETYPE
 70
     6
  9
$SPLINESEGS
 70
     8
  9
$ATTDIA
 70
     0
  9
$ATTREQ
 70
     1
  9
$HANDLING
 70
 10241
  9
$HANDSEED
  5
7E77
  9
$SURFTAB1
 70
     6
  9
$SURFTAB2
 70
     6
  9
$SURFTYPE
 70
     6
  9
$SURFU
 70
     6
  9
$SURFV
 70
     6
  9
$UCSNAME
  2

  9
$UCSORG
 10
0.0
 20
0.0
 30
0.0
  9
$UCSXDIR
 10
1.0
 20
0.0
 30
0.0
  9
$UCSYDIR
 10
0.0
 20
1.0
 30
0.0
  9
$PUCSNAME
  2

  9
$PUCSORG
 10
0.0
 20
0.0
 30
0.0
  9
$PUCSXDIR
 10
1.0
 20
0.0
 30
0.0
  9
$PUCSYDIR
 10
0.0
 20
1.0
 30
0.0
  9
$USERI1
 70
     0
  9
$USERI2
 70
     0
  9
$USERI3
 70
     0
  9
$USERI4
 70
     0
  9
$USERI5
 70
     0
  9
$USERR1
 40
0.0
  9
$USERR2
 40
0.0
  9
$USERR3
 40
0.0
  9
$USERR4
 40
0.0
  9
$USERR5
 40
0.0
  9
$WORLDVIEW
 70
     1
  9
$SHADEDGE
 70
     3
  9
$SHADEDIF
 70
    70
  9
$TILEMODE
 70
     1
  9
$MAXACTVP
 70
    16
  9
$PLIMCHECK
 70
     0
  9
$PEXTMIN
 10
1.0000000000000000E+020
 20
1.0000000000000000E+020
 30
1.0000000000000000E+020
  9
$PEXTMAX
 10
-1.0000000000000000E+020
 20
-1.0000000000000000E+020
 30
-1.0000000000000000E+020
  9
$PLIMMIN
 10
0.0
 20
0.0
  9
$PLIMMAX
 10
12.0
 20
9.0
  9
$UNITMODE
 70
     0
  9
$VISRETAIN
 70
     0
  9
$PLINEGEN
 70
     0
  9
$PSLTSCALE
 70
     1
  0
ENDSEC
  0
SECTION
  2
TABLES
  0
TABLE
  2
VPORT
 70
     2
  0
VPORT
  2
*ACTIVE
 70
     0
 10
0.0
 20
0.0
 11
1.0
 21
1.0
 12
6292.1124769529506
 22
3086.6374998146398
 13
0.0
 23
0.0
 14
10.0
 24
10.0
 15
10.0
 25
10.0
 16
0.0
 26
0.0
 36
1.0
 17
0.0
 27
0.0
 37
0.0
 40
5011.4968576296578
 41
3.1666666666666661
 42
50.0
 43
0.0
 44
0.0
 50
0.0
 51
0.0
 71
     0
 72
   100
 73
     1
 74
     0
 75
     0
 76
     0
 77
     0
 78
     0
  0
ENDTAB
  0
TABLE
  2
LTYPE
 70
     2
  0
LTYPE
  2
CONTINUOUS
 70
     0
  3
Solid line
 72
    65
 73
     0
 40
0.0
  0
LTYPE
  2
CENTER
 70
     0
  3
____ _ ____ _ ____ _ ____ _ ____ _ ____ _ ____ 
 72
    65
 73
     4
 40
2.0
 49
1.25
 49
-0.25
 49
0.25
 49
-0.25
  0
ENDTAB
  0
TABLE
  2
LAYER
 70
     6
  0
LAYER
  2
0
 70
     0
 62
     7
  6
CONTINUOUS
  0
LAYER
  2
3
 70
     0
 62
     2
  6
CONTINUOUS
  0
LAYER
  2
2
 70
     0
 62
     3
  6
CENTER
  0
LAYER
  2
1
 70
     0
 62
     4
  6
CONTINUOUS
  0
LAYER
  2
4
 70
     0
 62
     7
  6
CONTINUOUS
  0
LAYER
  2
DEFPOINTS
 70
     0
 62
     7
  6
CONTINUOUS
  0
ENDTAB
  0
TABLE
  2
STYLE
 70
     1
  0
STYLE
  2
STANDARD
 70
     0
 40
0.0
 41
1.0
 50
0.0
 71
     0
 42
180.0
  3
simplex.shx
  4
extfont.shx
  0
ENDTAB
  0
TABLE
  2
VIEW
 70
     0
  0
ENDTAB
  0
TABLE
  2
UCS
 70
     0
  0
ENDTAB
  0
TABLE
  2
APPID
 70
     1
  0
APPID
  2
ACAD
 70
     0
  0
ENDTAB
  0
TABLE
  2
DIMSTYLE
 70
     1
  0
DIMSTYLE
  2
IGA
 70
     0
  3

  4

  5

  6
OPEN
  7
OPEN
 40
2.0
 41
2.0
 42
0.5
 43
10.0
 44
1.0
 45
0.0
 46
0.0
 47
1.0
 48
1.0
140
3.0
141
0.0
142
0.0
143
0.03937
144
1.0
145
0.0
146
10.0
147
1.0
 71
     0
 72
     0
 73
     0
 74
     0
 75
     0
 76
     0
 77
     1
 78
     8
170
     0
171
     2
172
     0
173
     1
174
     0
175
     0
176
     0
177
     0
178
     0
  0
ENDTAB
  0
ENDSEC
  0
SECTION
  2
BLOCKS
  0
BLOCK
  8
0
  2
$MODEL_SPACE
 70
     0
 10
0.0
 20
0.0
 30
0.0
  3
$MODEL_SPACE
  1

  0
ENDBLK
  5
1B
  8
0
  0
BLOCK
 67
     1
  8
0
  2
$PAPER_SPACE
 70
     0
 10
0.0
 20
0.0
 30
0.0
  3
$PAPER_SPACE
  1

  0
ENDBLK
  5
18
 67
     1
  8
0
  0
BLOCK
  8
0
  2
_OPEN
 70
     0
 10
0.0
 20
0.0
 30
0.0
  3
_OPEN
  1

  0
LINE
  5
7B49
  8
0
  6
BYBLOCK
 62
     0
 10
-1.0
 20
0.166667
 30
0.0
 11
0.0
 21
0.0
 31
0.0
  0
LINE
  5
7B4A
  8
0
  6
BYBLOCK
 62
     0
 10
0.0
 20
0.0
 30
0.0
 11
-1.0
 21
-0.166667
 31
0.0
  0
LINE
  5
7B4B
  8
0
  6
BYBLOCK
 62
     0
 10
0.0
 20
0.0
 30
0.0
 11
-1.0
 21
0.0
 31
0.0
  0
ENDBLK
  5
7B4C
  8
0
  0
BLOCK
  8
0
  2
*D1
 70
     1
 10
0.0
 20
0.0
 30
0.0
  3
*D1
  1

  0
LINE
  5
7DD9
  8
3
  6
CONTINUOUS
 62
     0
 10
2041.8484539999999
 20
2327.2912909999991
 30
0.0
 11
2249.3879350000011
 21
2327.2912909999991
 31
0.0
  0
LINE
  5
7DDA
  8
3
  6
CONTINUOUS
 62
     0
 10
2041.8484539999999
 20
1767.291291
 30
0.0
 11
2249.3879350000011
 21
1767.291291
 31
0.0
  0
LINE
  5
7DDB
  8
3
  6
CONTINUOUS
 62
     0
 10
2229.3879350000002
 20
2287.291291
 30
0.0
 11
2229.3879350000002
 21
1807.291291
 31
0.0
  0
INSERT
  5
7DDC
  8
3
  6
CONTINUOUS
 62
     0
  2
_OPEN
 10
2229.3879350000002
 20
2327.2912909999991
 30
0.0
 41
40.0
 42
40.0
 43
40.0
 50
90.0
  0
INSERT
  5
7DDD
  8
3
  6
CONTINUOUS
 62
     0
  2
_OPEN
 10
2229.3879350000002
 20
1767.291291
 30
0.0
 41
40.0
 42
40.0
 43
40.0
 50
270.0
  0
TEXT
  8
3
  40
60
  5
7E67
  62
0
  72
0
  71
0
 10
2059.39
 20
1923.57
 30
0.000000
  1
560
  0
POINT
  5
7DDF
  8
DEFPOINTS
  6
CONTINUOUS
 62
     0
 10
2031.848453999999
 20
2327.2912909999991
 30
0.0
  0
POINT
  5
7DE0
  8
DEFPOINTS
  6
CONTINUOUS
 62
     0
 10
2031.848453999999
 20
1767.291291
 30
0.0
  0
POINT
  5
7DE1
  8
DEFPOINTS
  6
CONTINUOUS
 62
     0
 10
2229.3879350000002
 20
1767.291291
 30
0.0
  0
ENDBLK
  5
7B59
  8
0
  0
BLOCK
  8
0
  2
*D2
 70
     1
 10
0.0
 20
0.0
 30
0.0
  3
*D2
  1

  0
LINE
  5
7DE2
  8
3
  6
CONTINUOUS
 62
     0
 10
2161.5428579999998
 20
2306.291291
 30
0.0
 11
2381.5102360000001
 21
2306.291291
 31
0.0
  0
LINE
  5
7DE3
  8
3
  6
CONTINUOUS
 62
     0
 10
2081.8484539999999
 20
1767.291291
 30
0.0
 11
2381.5102360000001
 21
1767.291291
 31
0.0
  0
LINE
  5
7DE4
  8
3
  6
CONTINUOUS
 62
     0
 10
2361.5102360000001
 20
2266.2912909999991
 30
0.0
 11
2361.5102360000001
 21
1807.291291
 31
0.0
  0
INSERT
  5
7DE5
  8
3
  6
CONTINUOUS
 62
     0
  2
_OPEN
 10
2361.5102360000001
 20
2306.291291
 30
0.0
 41
40.0
 42
40.0
 43
40.0
 50
90.0
  0
INSERT
  5
7DE6
  8
3
  6
CONTINUOUS
 62
     0
  2
_OPEN
 10
2361.5102360000001
 20
1767.291291
 30
0.0
 41
40.0
 42
40.0
 43
40.0
 50
270.0
  0
TEXT
  8
3
  40
60
  5
7E68
  62
0
  72
0
  71
0
 10
2191.51
 20
1923.57
 30
0.000000
  1
539
  0
POINT
  5
7DE8
  8
DEFPOINTS
  6
CONTINUOUS
 62
     0
 10
2151.5428579999998
 20
2306.291291
 30
0.0
  0
POINT
  5
7DE9
  8
DEFPOINTS
  6
CONTINUOUS
 62
     0
 10
2071.848453999999
 20
1767.291291
 30
0.0
  0
POINT
  5
7DEA
  8
DEFPOINTS
  6
CONTINUOUS
 62
     0
 10
2361.5102360000001
 20
1767.291291
 30
0.0
  0
ENDBLK
  5
7B66
  8
0
  0
BLOCK
  8
0
  2
*D3
 70
     1
 10
0.0
 20
0.0
 30
0.0
  3
*D3
  1

  0
LINE
  5
7DEB
  8
3
  6
CONTINUOUS
 62
     0
 10
2161.5428579999998
 20
2306.291291
 30
0.0
 11
2502.4953399999999
 21
2306.291291
 31
0.0
  0
LINE
  5
7DEC
  8
3
  6
CONTINUOUS
 62
     0
 10
1981.8484539999999
 20
1636.291291
 30
0.0
 11
2502.4953399999999
 21
1636.291291
 31
0.0
  0
LINE
  5
7DED
  8
3
  6
CONTINUOUS
 62
     0
 10
2482.4953399999999
 20
2266.2912909999991
 30
0.0
 11
2482.4953399999999
 21
1676.291291
 31
0.0
  0
INSERT
  5
7DEE
  8
3
  6
CONTINUOUS
 62
     0
  2
_OPEN
 10
2482.4953399999999
 20
2306.291291
 30
0.0
 41
40.0
 42
40.0
 43
40.0
 50
90.0
  0
INSERT
  5
7DEF
  8
3
  6
CONTINUOUS
 62
     0
  2
_OPEN
 10
2482.4953399999999
 20
1636.291291
 30
0.0
 41
40.0
 42
40.0
 43
40.0
 50
270.0
  0
TEXT
  8
3
  40
60
  5
7E69
  62
0
  72
0
  71
0
 10
2312.50
 20
1834.00
 30
0.000000
  1
670
  0
POINT
  5
7DF1
  8
DEFPOINTS
  6
CONTINUOUS
 62
     0
 10
2151.5428579999998
 20
2306.291291
 30
0.0
  0
POINT
  5
7DF2
  8
DEFPOINTS
  6
CONTINUOUS
 62
     0
 10
1971.848453999999
 20
1636.291291
 30
0.0
  0
POINT
  5
7DF3
  8
DEFPOINTS
  6
CONTINUOUS
 62
     0
 10
2482.4953399999999
 20
1636.291291
 30
0.0
  0
ENDBLK
  5
7CBF
  8
0
  0
BLOCK
  8
0
  2
*D4
 70
     1
 10
0.0
 20
0.0
 30
0.0
  3
*D4
  1

  0
LINE
  5
7DF4
  8
3
  6
CONTINUOUS
 62
     0
 10
1981.8484539999999
 20
1636.291291
 30
0.0
 11
2501.1691540000002
 21
1636.291291
 31
0.0
  0
LINE
  5
7DF5
  8
3
  6
CONTINUOUS
 62
     0
 10
2081.8484539999999
 20
1574.291291
 30
0.0
 11
2501.1691540000002
 21
1574.291291
 31
0.0
  0
LINE
  5
7DF6
  8
3
  6
CONTINUOUS
 62
     0
 10
2481.1691540000002
 20
1676.291291
 30
0.0
 11
2481.1691540000002
 21
1716.291291
 31
0.0
  0
LINE
  5
7DF7
  8
3
  6
CONTINUOUS
 62
     0
 10
2481.1691540000002
 20
1534.291291
 30
0.0
 11
2481.1691540000002
 21
1357.148433857142
 31
0.0
  0
LINE
  5
7DF8
  8
3
  6
CONTINUOUS
 62
     0
 10
2481.1691540000002
 20
1636.291291
 30
0.0
 11
2481.1691540000002
 21
1574.291291
 31
0.0
  0
INSERT
  5
7DF9
  8
3
  6
CONTINUOUS
 62
     0
  2
_OPEN
 10
2481.1691540000002
 20
1636.291291
 30
0.0
 41
40.0
 42
40.0
 43
40.0
 50
270.0
  0
INSERT
  5
7DFA
  8
3
  6
CONTINUOUS
 62
     0
  2
_OPEN
 10
2481.1691540000002
 20
1574.291291
 30
0.0
 41
40.0
 42
40.0
 43
40.0
 50
90.0
  0
TEXT
  8
3
  40
60
  5
7E6A
  62
0
  72
0
  71
0
 10
2311.17
 20
1319.52
 30
0.000000
  1
62
  0
POINT
  5
7DFC
  8
DEFPOINTS
  6
CONTINUOUS
 62
     0
 10
1971.848453999999
 20
1636.291291
 30
0.0
  0
POINT
  5
7DFD
  8
DEFPOINTS
  6
CONTINUOUS
 62
     0
 10
2071.848453999999
 20
1574.291291
 30
0.0
  0
POINT
  5
7DFE
  8
DEFPOINTS
  6
CONTINUOUS
 62
     0
 10
2481.1691540000002
 20
1574.291291
 30
0.0
  0
ENDBLK
  5
7CEE
  8
0
  0
BLOCK
  8
0
  2
*D5
 70
     1
 10
0.0
 20
0.0
 30
0.0
  3
*D5
  1

  0
LINE
  5
7DFF
  8
3
  6
CONTINUOUS
 62
     0
 10
2031.848453999999
 20
2364.291291
 30
0.0
 11
2031.848453999999
 21
2973.7638099999999
 31
0.0
  0
LINE
  5
7E00
  8
3
  6
CONTINUOUS
 62
     0
 10
1626.8484539999999
 20
2917.8656139677619
 30
0.0
 11
1626.8484539999999
 21
2973.7638099999999
 31
0.0
  0
LINE
  5
7E01
  8
3
  6
CONTINUOUS
 62
     0
 10
1991.8484539999999
 20
2953.7638099999999
 30
0.0
 11
1666.8484539999999
 21
2953.7638099999999
 31
0.0
  0
INSERT
  5
7E02
  8
3
  6
CONTINUOUS
 62
     0
  2
_OPEN
 10
2031.848453999999
 20
2953.7638099999999
 30
0.0
 41
40.0
 42
40.0
 43
40.0
  0
INSERT
  5
7E03
  8
3
  6
CONTINUOUS
 62
     0
  2
_OPEN
 10
1626.8484539999999
 20
2953.7638099999999
 30
0.0
 41
40.0
 42
40.0
 43
40.0
 50
180.0
  0
TEXT
  8
3
  40
60
  5
7E6B
  62
0
  72
0
  71
0
 10
1694.15
 20
2897.56
 30
0.000000
  1
405
  0
POINT
  5
7E05
  8
DEFPOINTS
  6
CONTINUOUS
 62
     0
 10
2031.848453999999
 20
2354.291291
 30
0.0
  0
POINT
  5
7E06
  8
DEFPOINTS
  6
CONTINUOUS
 62
     0
 10
1626.8484539999999
 20
2907.8656139677619
 30
0.0
  0
POINT
  5
7E07
  8
DEFPOINTS
  6
CONTINUOUS
 62
     0
 10
1626.8484539999999
 20
2953.7638099999999
 30
0.0
  0
ENDBLK
  5
7D9D
  8
0
  0
BLOCK
  8
0
  2
*D6
 70
     1
 10
0.0
 20
0.0
 30
0.0
  3
*D6
  1

  0
LINE
  5
7E08
  8
3
  6
CONTINUOUS
 62
     0
 10
621.84845399999995
 20
1564.2912909999991
 30
0.0
 11
621.84845399999995
 21
1404.4941555236189
 31
0.0
  0
LINE
  5
7E09
  8
3
  6
CONTINUOUS
 62
     0
 10
1626.8484539999999
 20
1517.6408935236191
 30
0.0
 11
1626.8484539999999
 21
1404.4941555236189
 31
0.0
  0
LINE
  5
7E0A
  8
3
  6
CONTINUOUS
 62
     0
 10
661.84845399999995
 20
1424.4941555236189
 30
0.0
 11
1586.8484539999999
 21
1424.4941555236189
 31
0.0
  0
INSERT
  5
7E0B
  8
3
  6
CONTINUOUS
 62
     0
  2
_OPEN
 10
621.84845399999995
 20
1424.4941555236189
 30
0.0
 41
40.0
 42
40.0
 43
40.0
 50
180.0
  0
INSERT
  5
7E0C
  8
3
  6
CONTINUOUS
 62
     0
  2
_OPEN
 10
1626.8484539999999
 20
1424.4941555236189
 30
0.0
 41
40.0
 42
40.0
 43
40.0
  0
TEXT
  8
3
  40
60
  5
7E6C
  62
0
  72
0
  71
0
 10
1000.50
 20
1368.29
 30
0.000000
  1
1005
  0
POINT
  5
7E0E
  8
DEFPOINTS
  6
CONTINUOUS
 62
     0
 10
621.84845399999995
 20
1574.291291
 30
0.0
  0
POINT
  5
7E0F
  8
DEFPOINTS
  6
CONTINUOUS
 62
     0
 10
1626.8484539999999
 20
1527.6408935236191
 30
0.0
  0
POINT
  5
7E10
  8
DEFPOINTS
  6
CONTINUOUS
 62
     0
 10
1626.8484539999999
 20
1424.4941555236189
 30
0.0
  0
ENDBLK
  5
7D71
  8
0
  0
BLOCK
  8
0
  2
*D7
 70
     1
 10
0.0
 20
0.0
 30
0.0
  3
*D7
  1

  0
LINE
  5
7E11
  8
3
  6
CONTINUOUS
 62
     0
 10
2071.848453999999
 20
1564.2912909999991
 30
0.0
 11
2071.848453999999
 21
1404.4941555236189
 31
0.0
  0
LINE
  5
7E12
  8
3
  6
CONTINUOUS
 62
     0
 10
1666.8484539999999
 20
1424.4941555236189
 30
0.0
 11
2031.848453999999
 21
1424.4941555236189
 31
0.0
  0
INSERT
  5
7E13
  8
3
  6
CONTINUOUS
 62
     0
  2
_OPEN
 10
1626.8484539999999
 20
1424.4941555236189
 30
0.0
 41
40.0
 42
40.0
 43
40.0
 50
180.0
  0
INSERT
  5
7E14
  8
3
  6
CONTINUOUS
 62
     0
  2
_OPEN
 10
2071.848453999999
 20
1424.4941555236189
 30
0.0
 41
40.0
 42
40.0
 43
40.0
  0
TEXT
  8
3
  40
60
  5
7E6D
  62
0
  72
0
  71
0
 10
1729.35
 20
1368.29
 30
0.000000
  1
445
  0
POINT
  5
7E16
  8
DEFPOINTS
  6
CONTINUOUS
 62
     0
 10
1626.8484539999999
 20
1527.6408935236191
 30
0.0
  0
POINT
  5
7E17
  8
DEFPOINTS
  6
CONTINUOUS
 62
     0
 10
2071.848453999999
 20
1574.291291
 30
0.0
  0
POINT
  5
7E18
  8
DEFPOINTS
  6
CONTINUOUS
 62
     0
 10
2071.848453999999
 20
1424.4941555236189
 30
0.0
  0
ENDBLK
  5
7D66
  8
0
  0
BLOCK
  8
0
  2
*D8
 70
     1
 10
0.0
 20
0.0
 30
0.0
  3
*D8
  1

  0
LINE
  5
7E19
  8
3
  6
CONTINUOUS
 62
     0
 10
2766.357457999999
 20
1564.2912909999991
 30
0.0
 11
2766.357457999999
 21
1400.631081896245
 31
0.0
  0
LINE
  5
7E1A
  8
3
  6
CONTINUOUS
 62
     0
 10
3176.357458
 20
1458.806500938201
 30
0.0
 11
3176.357458
 21
1400.631081896245
 31
0.0
  0
LINE
  5
7E1B
  8
3
  6
CONTINUOUS
 62
     0
 10
2806.357458
 20
1420.631081896245
 30
0.0
 11
3136.357458
 21
1420.631081896245
 31
0.0
  0
INSERT
  5
7E1C
  8
3
  6
CONTINUOUS
 62
     0
  2
_OPEN
 10
2766.357457999999
 20
1420.631081896245
 30
0.0
 41
40.0
 42
40.0
 43
40.0
 50
180.0
  0
INSERT
  5
7E1D
  8
3
  6
CONTINUOUS
 62
     0
  2
_OPEN
 10
3176.357458
 20
1420.631081896245
 30
0.0
 41
40.0
 42
40.0
 43
40.0
  0
TEXT
  8
3
  40
60
  5
7E6E
  62
0
  72
0
  71
0
 10
2851.45
 20
1364.43
 30
0.000000
  1
410
  0
POINT
  5
7E1F
  8
DEFPOINTS
  6
CONTINUOUS
 62
     0
 10
2766.357457999999
 20
1574.291291
 30
0.0
  0
POINT
  5
7E20
  8
DEFPOINTS
  6
CONTINUOUS
 62
     0
 10
3176.357458
 20
1468.8065009382001
 30
0.0
  0
POINT
  5
7E21
  8
DEFPOINTS
  6
CONTINUOUS
 62
     0
 10
3176.357458
 20
1420.631081896245
 30
0.0
  0
ENDBLK
  5
7D52
  8
0
  0
BLOCK
  8
0
  2
*D9
 70
     1
 10
0.0
 20
0.0
 30
0.0
  3
*D9
  1

  0
LINE
  5
7E22
  8
3
  6
CONTINUOUS
 62
     0
 10
3516.357458
 20
1564.2912909999991
 30
0.0
 11
3516.357458
 21
1400.631081896245
 31
0.0
  0
LINE
  5
7E23
  8
3
  6
CONTINUOUS
 62
     0
 10
3216.357458
 20
1420.631081896245
 30
0.0
 11
3476.357458
 21
1420.631081896245
 31
0.0
  0
INSERT
  5
7E24
  8
3
  6
CONTINUOUS
 62
     0
  2
_OPEN
 10
3176.357458
 20
1420.631081896245
 30
0.0
 41
40.0
 42
40.0
 43
40.0
 50
180.0
  0
INSERT
  5
7E25
  8
3
  6
CONTINUOUS
 62
     0
  2
_OPEN
 10
3516.357458
 20
1420.631081896245
 30
0.0
 41
40.0
 42
40.0
 43
40.0
  0
TEXT
  8
3
  40
60
  5
7E6F
  62
0
  72
0
  71
0
 10
3226.36
 20
1364.43
 30
0.000000
  1
340
  0
POINT
  5
7E27
  8
DEFPOINTS
  6
CONTINUOUS
 62
     0
 10
3176.357458
 20
1466.077080241301
 30
0.0
  0
POINT
  5
7E28
  8
DEFPOINTS
  6
CONTINUOUS
 62
     0
 10
3516.357458
 20
1574.291291
 30
0.0
  0
POINT
  5
7E29
  8
DEFPOINTS
  6
CONTINUOUS
 62
     0
 10
3516.357458
 20
1420.631081896245
 30
0.0
  0
ENDBLK
  5
7D5C
  8
0
  0
BLOCK
  8
0
  2
*D10
 70
     1
 10
0.0
 20
0.0
 30
0.0
  3
*D10
  1

  0
LINE
  5
7E2A
  8
3
  6
CONTINUOUS
 62
     0
 10
3386.357457999999
 20
2675.291291
 30
0.0
 11
3386.357457999999
 21
2954.9067850000001
 31
0.0
  0
LINE
  5
7E2B
  8
3
  6
CONTINUOUS
 62
     0
 10
2966.357458
 20
2675.291291
 30
0.0
 11
2966.357458
 21
2954.9067850000001
 31
0.0
  0
LINE
  5
7E2C
  8
3
  6
CONTINUOUS
 62
     0
 10
3346.357457999999
 20
2934.9067850000001
 30
0.0
 11
3006.357458
 21
2934.9067850000001
 31
0.0
  0
INSERT
  5
7E2D
  8
3
  6
CONTINUOUS
 62
     0
  2
_OPEN
 10
3386.357457999999
 20
2934.9067850000001
 30
0.0
 41
40.0
 42
40.0
 43
40.0
  0
INSERT
  5
7E2E
  8
3
  6
CONTINUOUS
 62
     0
  2
_OPEN
 10
2966.357458
 20
2934.9067850000001
 30
0.0
 41
40.0
 42
40.0
 43
40.0
 50
180.0
  0
TEXT
  8
3
  40
60
  5
7E70
  62
0
  72
0
  71
0
 10
3063.79
 20
2878.71
 30
0.000000
  1
420
  0
POINT
  5
7E30
  8
DEFPOINTS
  6
CONTINUOUS
 62
     0
 10
3386.357457999999
 20
2665.291291
 30
0.0
  0
POINT
  5
7E31
  8
DEFPOINTS
  6
CONTINUOUS
 62
     0
 10
2966.357458
 20
2665.291291
 30
0.0
  0
POINT
  5
7E32
  8
DEFPOINTS
  6
CONTINUOUS
 62
     0
 10
2966.357458
 20
2934.9067850000001
 30
0.0
  0
ENDBLK
  5
7BCF
  8
0
  0
BLOCK
  8
0
  2
*D11
 70
     1
 10
0.0
 20
0.0
 30
0.0
  3
*D11
  1

  0
LINE
  5
7E33
  8
3
  6
CONTINUOUS
 62
     0
 10
3398.357458
 20
2601.291291
 30
0.0
 11
3669.8192180000001
 21
2601.291291
 31
0.0
  0
LINE
  5
7E34
  8
3
  6
CONTINUOUS
 62
     0
 10
3396.357458
 20
2011.291291
 30
0.0
 11
3669.8192180000001
 21
2011.291291
 31
0.0
  0
LINE
  5
7E35
  8
3
  6
CONTINUOUS
 62
     0
 10
3649.8192180000001
 20
2561.291291
 30
0.0
 11
3649.8192180000001
 21
2051.2912909999991
 31
0.0
  0
INSERT
  5
7E36
  8
3
  6
CONTINUOUS
 62
     0
  2
_OPEN
 10
3649.8192180000001
 20
2601.291291
 30
0.0
 41
40.0
 42
40.0
 43
40.0
 50
90.0
  0
INSERT
  5
7E37
  8
3
  6
CONTINUOUS
 62
     0
  2
_OPEN
 10
3649.8192180000001
 20
2011.291291
 30
0.0
 41
40.0
 42
40.0
 43
40.0
 50
270.0
  0
TEXT
  8
3
  40
60
  5
7E71
  62
0
  72
0
  71
0
 10
3479.82
 20
2197.00
 30
0.000000
  1
φ590
  0
POINT
  5
7E39
  8
DEFPOINTS
  6
CONTINUOUS
 62
     0
 10
3388.357458
 20
2601.291291
 30
0.0
  0
POINT
  5
7E3A
  8
DEFPOINTS
  6
CONTINUOUS
 62
     0
 10
3386.357457999999
 20
2011.291291
 30
0.0
  0
POINT
  5
7E3B
  8
DEFPOINTS
  6
CONTINUOUS
 62
     0
 10
3649.8192180000001
 20
2011.291291
 30
0.0
  0
ENDBLK
  5
7D32
  8
0
  0
BLOCK
  8
0
  2
*D12
 70
     1
 10
0.0
 20
0.0
 30
0.0
  3
*D12
  1

  0
LINE
  5
7D89
  8
0
  6
BYBLOCK
 62
     0
 10
3388.357458
 20
2636.291291
 30
0.0
 11
3388.357458
 21
3081.1520024972901
 31
0.0
  0
LINE
  5
7D8A
  8
0
  6
BYBLOCK
 62
     0
 10
3176.357458
 20
3044.0186025776902
 30
0.0
 11
3176.357458
 21
3081.1520024972901
 31
0.0
  0
LINE
  5
7D8B
  8
0
  6
BYBLOCK
 62
     0
 10
3348.357458
 20
3061.1520024972911
 30
0.0
 11
3216.357458
 21
3061.1520024972911
 31
0.0
  0
TEXT
  5
7D8C
  8
3
 62
     0
 10
3210.9288865714279
 20
3080.0322757980589
 30
0.0
 40
60.0
  1
212
  0
INSERT
  5
7D8D
  8
0
  6
BYBLOCK
 62
     0
  2
_OPEN
 10
3388.357458
 20
3061.1520024972911
 30
0.0
 41
40.0
 42
40.0
 43
40.0
  0
INSERT
  5
7D8E
  8
0
  6
BYBLOCK
 62
     0
  2
_OPEN
 10
3176.357458
 20
3061.1520024972911
 30
0.0
 41
40.0
 42
40.0
 43
40.0
 50
180.0
  0
POINT
  5
7D8F
  8
DEFPOINTS
  6
BYBLOCK
 62
     0
 10
3388.357458
 20
2626.291291
 30
0.0
  0
POINT
  5
7D90
  8
DEFPOINTS
  6
BYBLOCK
 62
     0
 10
3176.357458
 20
3034.0186025776902
 30
0.0
  0
POINT
  5
7D91
  8
DEFPOINTS
  6
BYBLOCK
 62
     0
 10
3176.357458
 20
3061.1520024972911
 30
0.0
  0
ENDBLK
  5
7D92
  8
0
  0
BLOCK
  8
0
  2
*D13
 70
     1
 10
0.0
 20
0.0
 30
0.0
  3
*D13
  1

  0
LINE
  5
7E3C
  8
3
  6
CONTINUOUS
 62
     0
 10
2756.357458
 20
2874.291291
 30
0.0
 11
2616.4290489999998
 21
2874.291291
 31
0.0
  0
LINE
  5
7E3D
  8
3
  6
CONTINUOUS
 62
     0
 10
2756.357458
 20
1574.291291
 30
0.0
 11
2616.4290489999998
 21
1574.291291
 31
0.0
  0
LINE
  5
7E3E
  8
3
  6
CONTINUOUS
 62
     0
 10
2636.4290489999998
 20
2834.2912909999991
 30
0.0
 11
2636.4290489999998
 21
1614.2912909999991
 31
0.0
  0
INSERT
  5
7E3F
  8
3
  6
CONTINUOUS
 62
     0
  2
_OPEN
 10
2636.4290489999998
 20
2874.291291
 30
0.0
 41
40.0
 42
40.0
 43
40.0
 50
90.0
  0
INSERT
  5
7E40
  8
3
  6
CONTINUOUS
 62
     0
  2
_OPEN
 10
2636.4290489999998
 20
1574.291291
 30
0.0
 41
40.0
 42
40.0
 43
40.0
 50
270.0
  0
TEXT
  8
3
  40
60
  5
7E72
  62
0
  72
0
  71
0
 10
2466.43
 20
2065.00
 30
0.000000
  1
1300
  0
POINT
  5
7E42
  8
DEFPOINTS
  6
CONTINUOUS
 62
     0
 10
2766.357457999999
 20
2874.291291
 30
0.0
  0
POINT
  5
7E43
  8
DEFPOINTS
  6
CONTINUOUS
 62
     0
 10
2766.357457999999
 20
1574.291291
 30
0.0
  0
POINT
  5
7E44
  8
DEFPOINTS
  6
CONTINUOUS
 62
     0
 10
2636.4290489999998
 20
1574.291291
 30
0.0
  0
ENDBLK
  5
7C06
  8
0
  0
BLOCK
  8
0
  2
*D14
 70
     1
 10
0.0
 20
0.0
 30
0.0
  3
*D14
  1

  0
LINE
  5
7E45
  8
3
  6
CONTINUOUS
 62
     0
 10
621.84845399999995
 20
4141.2912909999986
 30
0.0
 11
621.84845399999995
 21
4363.6788119999992
 31
0.0
  0
LINE
  5
7E46
  8
3
  6
CONTINUOUS
 62
     0
 10
2071.848453999999
 20
4141.2912909999986
 30
0.0
 11
2071.848453999999
 21
4363.6788119999992
 31
0.0
  0
LINE
  5
7E47
  8
3
  6
CONTINUOUS
 62
     0
 10
661.84845399999995
 20
4343.6788120000001
 30
0.0
 11
2031.848453999999
 21
4343.6788120000001
 31
0.0
  0
INSERT
  5
7E48
  8
3
  6
CONTINUOUS
 62
     0
  2
_OPEN
 10
621.84845399999995
 20
4343.6788120000001
 30
0.0
 41
40.0
 42
40.0
 43
40.0
 50
180.0
  0
INSERT
  5
7E49
  8
3
  6
CONTINUOUS
 62
     0
  2
_OPEN
 10
2071.848453999999
 20
4343.6788120000001
 30
0.0
 41
40.0
 42
40.0
 43
40.0
  0
TEXT
  8
3
  40
60
  5
7E73
  62
0
  72
0
  71
0
 10
1209.37
 20
4287.48
 30
0.000000
  1
1450
  0
POINT
  5
7E4B
  8
DEFPOINTS
  6
CONTINUOUS
 62
     0
 10
621.84845399999995
 20
4131.2912909999986
 30
0.0
  0
POINT
  5
7E4C
  8
DEFPOINTS
  6
CONTINUOUS
 62
     0
 10
2071.848453999999
 20
4131.2912909999986
 30
0.0
  0
POINT
  5
7E4D
  8
DEFPOINTS
  6
CONTINUOUS
 62
     0
 10
2071.848453999999
 20
4343.6788120000001
 30
0.0
  0
ENDBLK
  5
7C4B
  8
0
  0
BLOCK
  8
0
  2
*D15
 70
     1
 10
0.0
 20
0.0
 30
0.0
  3
*D15
  1

  0
LINE
  5
7E4E
  8
3
  6
CONTINUOUS
 62
     0
 10
2081.8484539999999
 20
4131.2912909999986
 30
0.0
 11
2319.0860269999998
 21
4131.2912909999986
 31
0.0
  0
LINE
  5
7E4F
  8
3
  6
CONTINUOUS
 62
     0
 10
2081.8484539999999
 20
3381.2912909999991
 30
0.0
 11
2319.0860269999998
 21
3381.2912909999991
 31
0.0
  0
LINE
  5
7E50
  8
3
  6
CONTINUOUS
 62
     0
 10
2299.0860269999998
 20
4091.291291
 30
0.0
 11
2299.0860269999998
 21
3421.2912909999991
 31
0.0
  0
INSERT
  5
7E51
  8
3
  6
CONTINUOUS
 62
     0
  2
_OPEN
 10
2299.0860269999998
 20
4131.2912909999986
 30
0.0
 41
40.0
 42
40.0
 43
40.0
 50
90.0
  0
INSERT
  5
7E52
  8
3
  6
CONTINUOUS
 62
     0
  2
_OPEN
 10
2299.0860269999998
 20
3381.2912909999991
 30
0.0
 41
40.0
 42
40.0
 43
40.0
 50
270.0
  0
TEXT
  8
3
  40
60
  5
7E74
  62
0
  72
0
  71
0
 10
2129.09
 20
3614.84
 30
0.000000
  1
750
  0
POINT
  5
7E54
  8
DEFPOINTS
  6
CONTINUOUS
 62
     0
 10
2071.848453999999
 20
4131.2912909999986
 30
0.0
  0
POINT
  5
7E55
  8
DEFPOINTS
  6
CONTINUOUS
 62
     0
 10
2071.848453999999
 20
3381.2912909999991
 30
0.0
  0
POINT
  5
7E56
  8
DEFPOINTS
  6
CONTINUOUS
 62
     0
 10
2299.0860269999998
 20
3381.2912909999991
 30
0.0
  0
ENDBLK
  5
7C56
  8
0
  0
BLOCK
  8
0
  2
*D16
 70
     1
 10
0.0
 20
0.0
 30
0.0
  3
*D16
  1

  0
LINE
  5
7E57
  8
3
 62
     0
 10
1996.8484539999999
 20
2716.291291
 30
0.0
 11
2502.4953399999999
 21
2716.291291
 31
0.0
  0
LINE
  5
7E58
  8
3
 62
     0
 10
2482.495339999999
 20
2346.291291
 30
0.0
 11
2482.495339999999
 21
2676.291291
 31
0.0
  0
INSERT
  5
7E59
  8
3
 62
     0
  2
_OPEN
 10
2482.495339999999
 20
2306.291291
 30
0.0
 41
40.0
 42
40.0
 43
40.0
 50
270.0
  0
INSERT
  5
7E5A
  8
3
 62
     0
  2
_OPEN
 10
2482.495339999999
 20
2716.291291
 30
0.0
 41
40.0
 42
40.0
 43
40.0
 50
90.0
  0
TEXT
  8
3
  40
60
  5
7E75
  62
0
  72
0
  71
0
 10
2312.50
 20
2405.09
 30
0.000000
  1
410
  0
POINT
  5
7E5C
  8
DEFPOINTS
 62
     0
 10
2151.5428579999998
 20
2306.291291
 30
0.0
  0
POINT
  5
7E5D
  8
DEFPOINTS
 62
     0
 10
1986.8484539999999
 20
2716.291291
 30
0.0
  0
POINT
  5
7E5E
  8
DEFPOINTS
 62
     0
 10
2482.495339999999
 20
2716.291291
 30
0.0
  0
ENDBLK
  5
7CF9
  8
0
  0
BLOCK
  8
0
  2
*D17
 70
     1
 10
0.0
 20
0.0
 30
0.0
  3
*D17
  1

  0
LINE
  5
7E5F
  8
3
 62
     0
 10
1151.8484539999999
 20
2279.291291
 30
0.0
 11
1151.8484539999999
 21
2973.7638099999999
 31
0.0
  0
LINE
  5
7E60
  8
3
 62
     0
 10
1586.8484539999999
 20
2953.7638099999999
 30
0.0
 11
1191.8484539999999
 21
2953.7638099999999
 31
0.0
  0
INSERT
  5
7E61
  8
3
 62
     0
  2
_OPEN
 10
1626.8484539999999
 20
2953.7638099999999
 30
0.0
 41
40.0
 42
40.0
 43
40.0
  0
INSERT
  5
7E62
  8
3
 62
     0
  2
_OPEN
 10
1151.8484539999999
 20
2953.7638099999999
 30
0.0
 41
40.0
 42
40.0
 43
40.0
 50
180.0
  0
TEXT
  8
3
  40
60
  5
7E76
  62
0
  72
0
  71
0
 10
1269.35
 20
2897.56
 30
0.000000
  1
475
  0
POINT
  5
7E64
  8
DEFPOINTS
 62
     0
 10
1626.8484539999999
 20
2946.7078649999999
 30
0.0
  0
POINT
  5
7E65
  8
DEFPOINTS
 62
     0
 10
1151.8484539999999
 20
2269.291291
 30
0.0
  0
POINT
  5
7E66
  8
DEFPOINTS
 62
     0
 10
1151.8484539999999
 20
2953.7638099999999
 30
0.0
  0
ENDBLK
  5
7DB6
  8
0
  0
ENDSEC
  0
SECTION
  2
ENTITIES
  0
LINE
  5
7A81
  8
1
  6
CONTINUOUS
 10
3476.357458
 20
1614.2912909999991
 30
0.0
 11
3476.357458
 21
2834.2912909999991
 31
0.0
  0
LINE
  5
7A82
  8
1
  6
CONTINUOUS
 10
2806.357458
 20
2834.2912909999991
 30
0.0
 11
2806.357458
 21
1614.2912909999991
 31
0.0
  0
LINE
  5
7A83
  8
1
  6
CONTINUOUS
 10
2031.848453999999
 20
2834.2912909999991
 30
0.0
 11
2031.848453999999
 21
1614.2912909999991
 31
0.0
  0
LINE
  5
7A84
  8
1
  6
CONTINUOUS
 10
661.84845399999995
 20
1614.2912909999991
 30
0.0
 11
661.84845399999995
 21
2834.2912909999991
 31
0.0
  0
LINE
  5
7A85
  8
1
  6
CONTINUOUS
 10
3516.357458
 20
2874.291291
 30
0.0
 11
3516.357458
 21
1574.291291
 31
0.0
  0
LINE
  5
7A86
  8
1
  6
CONTINUOUS
 10
2766.357457999999
 20
2874.291291
 30
0.0
 11
2766.357457999999
 21
1574.291291
 31
0.0
  0
LINE
  5
7A87
  8
1
  6
CONTINUOUS
 10
2071.848453999999
 20
2874.291291
 30
0.0
 11
2071.848453999999
 21
1574.291291
 31
0.0
  0
LINE
  5
7A88
  8
1
  6
CONTINUOUS
 10
621.84845399999995
 20
2874.291291
 30
0.0
 11
621.84845399999995
 21
1574.291291
 31
0.0
  0
ARC
  5
7A89
  8
1
  6
CONTINUOUS
 10
1602.0660466557169
 20
2253.318039310122
 30
0.0
 40
454.20339122374412
 50
83.874879314348476
 51
172.403942903744
  0
LINE
  5
7A8A
  8
1
  6
CONTINUOUS
 10
2806.357458
 20
1614.2912909999991
 30
0.0
 11
3476.357458
 21
1614.2912909999991
 31
0.0
  0
LINE
  5
7A8B
  8
1
  6
CONTINUOUS
 10
3516.357458
 20
1574.291291
 30
0.0
 11
2766.357457999999
 21
1574.291291
 31
0.0
  0
LINE
  5
7A8C
  8
1
  6
CONTINUOUS
 10
2966.357458
 20
2327.2912909999991
 30
0.0
 11
3386.357457999999
 21
2327.2912909999991
 31
0.0
  0
LINE
  5
7A8D
  8
1
  6
CONTINUOUS
 10
2966.357458
 20
1767.291291
 30
0.0
 11
3386.357457999999
 21
1767.291291
 31
0.0
  0
LINE
  5
7A8E
  8
1
  6
CONTINUOUS
 10
3431.357458
 20
1636.291291
 30
0.0
 11
2921.357458
 21
1636.291291
 31
0.0
  0
LINE
  5
7A8F
  8
1
  6
CONTINUOUS
 10
3431.357458
 20
1716.291291
 30
0.0
 11
2766.357457999999
 21
1716.291291
 31
0.0
  0
LINE
  5
7A90
  8
1
  6
CONTINUOUS
 10
2966.357458
 20
2665.291291
 30
0.0
 11
3386.357457999999
 21
2665.291291
 31
0.0
  0
LINE
  5
7A91
  8
1
  6
CONTINUOUS
 10
2966.357458
 20
2327.2912909999991
 30
0.0
 11
3386.357457999999
 21
1767.291291
 31
0.0
  0
LINE
  5
7A92
  8
1
  6
CONTINUOUS
 10
2966.357458
 20
1767.291291
 30
0.0
 11
3386.357457999999
 21
2327.2912909999991
 31
0.0
  0
LINE
  5
7A93
  8
1
  6
CONTINUOUS
 10
2031.848453999999
 20
1614.2912909999991
 30
0.0
 11
661.84845399999995
 21
1614.2912909999991
 31
0.0
  0
LINE
  5
7A94
  8
1
  6
CONTINUOUS
 10
2071.848453999999
 20
1574.291291
 30
0.0
 11
621.84845399999995
 21
1574.291291
 31
0.0
  0
LINE
  5
7A95
  8
1
  6
CONTINUOUS
 10
959.83449499999995
 20
1836.5505339999991
 30
0.0
 11
1673.97137
 21
2218.090209
 31
0.0
  0
LINE
  5
7A96
  8
1
  6
CONTINUOUS
 10
889.38387299999999
 20
1957.4216989999991
 30
0.0
 11
1573.327624
 21
2390.7633030000002
 31
0.0
  0
LINE
  5
7A97
  8
1
  6
CONTINUOUS
 10
1986.8484539999999
 20
1716.291291
 30
0.0
 11
721.84845399999995
 21
1716.291291
 31
0.0
  0
LINE
  5
7A98
  8
1
  6
CONTINUOUS
 10
1627.348453999999
 20
2551.291291
 30
0.0
 11
767.34845399999995
 21
1946.291291
 31
0.0
  0
LINE
  5
7A99
  8
1
  6
CONTINUOUS
 10
1971.848453999999
 20
1636.291291
 30
0.0
 11
721.84845399999995
 21
1636.291291
 31
0.0
  0
CIRCLE
  5
7A9A
  8
1
  6
CONTINUOUS
 10
1626.8484539999999
 20
2306.291291
 30
0.0
 40
295.0
  0
LINE
  5
7A9B
  8
2
  6
CENTER
 10
3559.0755669999999
 20
2306.291291
 30
0.0
 11
2703.597878
 21
2306.291291
 31
0.0
  0
CIRCLE
  5
7A9C
  8
1
  6
CONTINUOUS
 10
1626.8484539999999
 20
2306.291291
 30
0.0
 40
100.0
  0
CIRCLE
  5
7A9D
  8
1
  6
CONTINUOUS
 10
1626.8484539999999
 20
2306.291291
 30
0.0
 40
320.0
  0
LINE
  5
7A9E
  8
1
  6
CONTINUOUS
 10
1986.8484539999999
 20
1716.291291
 30
0.0
 11
1266.8484539999999
 21
1716.291291
 31
0.0
  0
LINE
  5
7A9F
  8
1
  6
CONTINUOUS
 10
1986.8484539999999
 20
2716.291291
 30
0.0
 11
1266.8484539999999
 21
2716.291291
 31
0.0
  0
ARC
  5
7AA0
  8
1
  6
CONTINUOUS
 10
1674.520491578465
 20
2290.295449673421
 30
0.0
 40
523.18061565983101
 50
177.47346211481309
 51
264.77197648523719
  0
ARC
  5
7AA1
  8
1
  6
CONTINUOUS
 10
926.84845399999995
 20
1898.2912909999991
 30
0.0
 40
142.0
 50
324.59875699999998
 51
215.40124299999999
  0
LINE
  5
7AA2
  8
2
  6
CENTER
 10
856.84845399999995
 20
1898.2912909999991
 30
0.0
 11
996.84845399999995
 21
1898.2912909999991
 31
0.0
  0
LINE
  5
7AA3
  8
1
  6
CONTINUOUS
 10
796.84845399999995
 20
1716.291291
 30
0.0
 11
1056.8484539999999
 21
1716.291291
 31
0.0
  0
CIRCLE
  5
7AA4
  8
1
  6
CONTINUOUS
 10
926.84845399999995
 20
1898.2912909999991
 30
0.0
 40
70.0
  0
LINE
  5
7AA5
  8
1
  6
CONTINUOUS
 10
767.34845399999995
 20
1716.291291
 30
0.0
 11
767.34845399999995
 21
1946.291291
 31
0.0
  0
LINE
  5
7AA6
  8
1
  6
CONTINUOUS
 10
721.84845399999995
 20
1716.291291
 30
0.0
 11
721.84845399999995
 21
1636.291291
 31
0.0
  0
LINE
  5
7AA7
  8
1
  6
CONTINUOUS
 10
796.84845399999995
 20
1781.291291
 30
0.0
 11
811.10209099999997
 21
1816.0308540000001
 31
0.0
  0
LINE
  5
7AA8
  8
1
  6
CONTINUOUS
 10
796.84845399999995
 20
1716.291291
 30
0.0
 11
796.84845399999995
 21
1781.291291
 31
0.0
  0
LINE
  5
7AA9
  8
2
  6
CENTER
 10
926.84845399999995
 20
1828.291291
 30
0.0
 11
926.84845399999995
 21
1968.2912909999991
 31
0.0
  0
LINE
  5
7AAA
  8
1
  6
CONTINUOUS
 10
1266.8484539999999
 20
1716.291291
 30
0.0
 11
1266.8484539999999
 21
2716.291291
 31
0.0
  0
LINE
  5
7AAB
  8
1
  6
CONTINUOUS
 10
1056.8484539999999
 20
1716.291291
 30
0.0
 11
1056.8484539999999
 21
1781.291291
 31
0.0
  0
LINE
  5
7AAC
  8
1
  6
CONTINUOUS
 10
1056.8484539999999
 20
1781.291291
 30
0.0
 11
1042.5948169999999
 21
1816.0308540000001
 31
0.0
  0
LINE
  5
7AAE
  8
1
  6
CONTINUOUS
 10
1897.3484539999999
 20
1716.291291
 30
0.0
 11
1897.3484539999999
 21
2466.291291
 31
0.0
  0
LINE
  5
7AAF
  8
1
  6
CONTINUOUS
 10
2006.8484539999999
 20
2327.2912909999991
 30
0.0
 11
2006.8484539999999
 21
1767.4147479999999
 31
0.0
  0
LINE
  5
7AB0
  8
1
  6
CONTINUOUS
 10
1986.8484539999999
 20
1716.291291
 30
0.0
 11
1986.8484539999999
 21
2716.291291
 31
0.0
  0
LINE
  5
7AB1
  8
1
  6
CONTINUOUS
 10
2031.848453999999
 20
2354.291291
 30
0.0
 11
2031.848453999999
 21
1740.291291
 31
0.0
  0
LINE
  5
7AB2
  8
1
  6
CONTINUOUS
 10
2031.848453999999
 20
1767.291291
 30
0.0
 11
1626.8484539999999
 21
1769.291291
 31
0.0
  0
LINE
  5
7AB3
  8
1
  6
CONTINUOUS
 10
1971.848453999999
 20
1716.291291
 30
0.0
 11
1971.848453999999
 21
1636.291291
 31
0.0
  0
LINE
  5
7AB4
  8
1
  6
CONTINUOUS
 10
1897.3484539999999
 20
2466.291291
 30
0.0
 11
1627.348453999999
 21
2551.291291
 31
0.0
  0
ARC
  5
7AB5
  8
1
  6
CONTINUOUS
 10
1602.8484539999999
 20
2330.2912909999991
 30
0.0
 40
377.65927299999993
 50
359.54485699999992
 51
82.746804999999995
  0
LINE
  5
7AB6
  8
2
  6
CENTER
 10
1626.8484539999999
 20
4214.5322889999998
 30
0.0
 11
1626.8484539999999
 21
3279.6718559999999
 31
0.0
  0
LINE
  5
7AB7
  8
1
  6
CONTINUOUS
 10
1980.495811
 20
2327.2912909999991
 30
0.0
 11
2031.848453999999
 21
2327.2912909999991
 31
0.0
  0
LINE
  5
7AB8
  8
1
  6
CONTINUOUS
 10
2886.357458
 20
1716.291291
 30
0.0
 11
2886.357458
 21
2551.291291
 31
0.0
  0
LINE
  5
7AB9
  8
1
  6
CONTINUOUS
 10
2796.357458
 20
1968.2912909999991
 30
0.0
 11
2796.357458
 21
1828.291291
 31
0.0
  0
LINE
  5
7ABA
  8
1
  6
CONTINUOUS
 10
2856.357458
 20
1968.2912909999991
 30
0.0
 11
2856.357458
 21
1828.291291
 31
0.0
  0
LINE
  5
7ABB
  8
1
  6
CONTINUOUS
 10
2966.357458
 20
1716.291291
 30
0.0
 11
2966.357458
 21
2665.291291
 31
0.0
  0
LINE
  5
7ABE
  8
1
  6
CONTINUOUS
 10
2856.357458
 20
1882.2912909999991
 30
0.0
 11
2966.357458
 21
1882.2912909999991
 31
0.0
  0
LINE
  5
7ABF
  8
1
  6
CONTINUOUS
 10
2796.357458
 20
1828.291291
 30
0.0
 11
2856.357458
 21
1828.291291
 31
0.0
  0
LINE
  5
7AC0
  8
1
  6
CONTINUOUS
 10
2921.357458
 20
1636.291291
 30
0.0
 11
2921.357458
 21
1716.291291
 31
0.0
  0
LINE
  5
7AC1
  8
1
  6
CONTINUOUS
 10
2856.357458
 20
1914.2912909999991
 30
0.0
 11
2966.357458
 21
1914.2912909999991
 31
0.0
  0
LINE
  5
7AC2
  8
1
  6
CONTINUOUS
 10
2966.357458
 20
2322.291291
 30
0.0
 11
2856.357458
 21
2322.291291
 31
0.0
  0
LINE
  5
7AC3
  8
1
  6
CONTINUOUS
 10
2966.357458
 20
2290.291291
 30
0.0
 11
2856.357458
 21
2290.291291
 31
0.0
  0
LINE
  5
7AC4
  8
1
  6
CONTINUOUS
 10
2796.357458
 20
2406.291291
 30
0.0
 11
2796.357458
 21
2206.291291
 31
0.0
  0
LINE
  5
7AC5
  8
1
  6
CONTINUOUS
 10
2856.357458
 20
2406.291291
 30
0.0
 11
2856.357458
 21
2206.291291
 31
0.0
  0
LINE
  5
7AC6
  8
1
  6
CONTINUOUS
 10
2796.357458
 20
2206.291291
 30
0.0
 11
2856.357458
 21
2206.291291
 31
0.0
  0
LINE
  5
7AC7
  8
1
  6
CONTINUOUS
 10
2796.357458
 20
1968.2912909999991
 30
0.0
 11
2856.357458
 21
1968.2912909999991
 31
0.0
  0
LINE
  5
7AC8
  8
1
  6
CONTINUOUS
 10
2766.357457999999
 20
2551.291291
 30
0.0
 11
2886.357458
 21
2551.291291
 31
0.0
  0
LINE
  5
7AC9
  8
1
  6
CONTINUOUS
 10
2796.357458
 20
2406.291291
 30
0.0
 11
2856.357458
 21
2406.291291
 31
0.0
  0
LINE
  5
7ACA
  8
1
  6
CONTINUOUS
 10
3386.357457999999
 20
1716.291291
 30
0.0
 11
3386.357457999999
 21
2665.291291
 31
0.0
  0
LINE
  5
7ACB
  8
1
  6
CONTINUOUS
 10
3431.357458
 20
1636.291291
 30
0.0
 11
3431.357458
 21
1716.291291
 31
0.0
  0
LINE
  5
7ACC
  8
1
  6
CONTINUOUS
 10
3388.357458
 20
1986.291291
 30
0.0
 11
3388.357458
 21
2626.291291
 31
0.0
  0
LINE
  5
7ACD
  8
1
  6
CONTINUOUS
 10
3386.357457999999
 20
1986.291291
 30
0.0
 11
3388.357458
 21
1986.291291
 31
0.0
  0
LINE
  5
7ACE
  8
1
  6
CONTINUOUS
 10
3386.357457999999
 20
2626.291291
 30
0.0
 11
3388.357458
 21
2626.291291
 31
0.0
  0
LINE
  5
7ACF
  8
1
  6
CONTINUOUS
 10
3476.357458
 20
2834.2912909999991
 30
0.0
 11
2806.357458
 21
2834.2912909999991
 31
0.0
  0
LINE
  5
7AD0
  8
1
  6
CONTINUOUS
 10
3516.357458
 20
2874.291291
 30
0.0
 11
2766.357457999999
 21
2874.291291
 31
0.0
  0
LINE
  5
7AD1
  8
1
  6
CONTINUOUS
 10
2031.848453999999
 20
3421.2912909999991
 30
0.0
 11
661.84845399999995
 21
3421.2912909999991
 31
0.0
  0
LINE
  5
7AD2
  8
1
  6
CONTINUOUS
 10
661.84845399999995
 20
4091.291291
 30
0.0
 11
2031.848453999999
 21
4091.291291
 31
0.0
  0
LINE
  5
7AD3
  8
1
  6
CONTINUOUS
 10
661.84845399999995
 20
2834.2912909999991
 30
0.0
 11
2031.848453999999
 21
2834.2912909999991
 31
0.0
  0
LINE
  5
7AD4
  8
1
  6
CONTINUOUS
 10
2071.848453999999
 20
2874.291291
 30
0.0
 11
621.84845399999995
 21
2874.291291
 31
0.0
  0
LINE
  5
7AD5
  8
1
  6
CONTINUOUS
 10
621.84845399999995
 20
3381.2912909999991
 30
0.0
 11
2071.848453999999
 21
3381.2912909999991
 31
0.0
  0
LINE
  5
7AD6
  8
1
  6
CONTINUOUS
 10
621.84845399999995
 20
4131.2912909999986
 30
0.0
 11
2071.848453999999
 21
4131.2912909999986
 31
0.0
  0
LINE
  5
7AD7
  8
1
  6
CONTINUOUS
 10
1946.848453999999
 20
4003.2912909999991
 30
0.0
 11
1306.8484539999999
 21
4003.2912909999991
 31
0.0
  0
LINE
  5
7AD8
  8
1
  6
CONTINUOUS
 10
1610.8484539999999
 20
3536.2912909999991
 30
0.0
 11
945.84845399999983
 21
3536.2912909999991
 31
0.0
  0
LINE
  5
7AD9
  8
1
  6
CONTINUOUS
 10
1526.8484539999999
 20
3411.2912909999991
 30
0.0
 11
1726.848453999999
 21
3411.2912909999991
 31
0.0
  0
LINE
  5
7ADA
  8
1
  6
CONTINUOUS
 10
1526.8484539999999
 20
3471.2912909999991
 30
0.0
 11
1726.848453999999
 21
3471.2912909999991
 31
0.0
  0
LINE
  5
7ADB
  8
1
  6
CONTINUOUS
 10
1971.848453999999
 20
4046.2912909999991
 30
0.0
 11
721.84845399999995
 21
4046.2912909999991
 31
0.0
  0
LINE
  5
7ADC
  8
1
  6
CONTINUOUS
 10
1897.3484539999999
 20
3501.2912909999991
 30
0.0
 11
767.34845399999995
 21
3501.2912909999991
 31
0.0
  0
LINE
  5
7ADD
  8
1
  6
CONTINUOUS
 10
1162.4813229999991
 20
3581.2912909999991
 30
0.0
 11
2031.848453999999
 21
3581.2912909999991
 31
0.0
  0
LINE
  5
7ADE
  8
1
  6
CONTINUOUS
 10
1162.4813229999991
 20
4001.291291
 30
0.0
 11
2031.848453999999
 21
4001.291291
 31
0.0
  0
LINE
  5
7ADF
  8
1
  6
CONTINUOUS
 10
784.84845399999995
 20
3555.0291240000001
 30
0.0
 11
1068.8484539999999
 21
3555.0291240000001
 31
0.0
  0
LINE
  5
7AE0
  8
1
  6
CONTINUOUS
 10
784.84845399999995
 20
3955.0291240000001
 30
0.0
 11
1068.8484539999999
 21
3955.0291240000001
 31
0.0
  0
LINE
  5
7AE1
  8
1
  6
CONTINUOUS
 10
856.84845399999995
 20
3471.2912909999991
 30
0.0
 11
996.84845399999995
 21
3471.2912909999991
 31
0.0
  0
LINE
  5
7AE2
  8
1
  6
CONTINUOUS
 10
856.84845399999995
 20
3411.2912909999991
 30
0.0
 11
996.84845399999995
 21
3411.2912909999991
 31
0.0
  0
LINE
  5
7AE3
  8
1
  6
CONTINUOUS
 10
661.84845399999995
 20
3421.2912909999991
 30
0.0
 11
661.84845399999995
 21
4091.291291
 31
0.0
  0
LINE
  5
7AE4
  8
1
  6
CONTINUOUS
 10
621.84845399999995
 20
4131.2912909999986
 30
0.0
 11
621.84845399999995
 21
3381.2912909999991
 31
0.0
  0
LINE
  5
7AE5
  8
1
  6
CONTINUOUS
 10
784.84845399999995
 20
3955.0291240000001
 30
0.0
 11
784.84845399999995
 21
3555.0291240000001
 31
0.0
  0
LINE
  5
7AE6
  8
1
  6
CONTINUOUS
 10
721.84845399999995
 20
4046.2912909999991
 30
0.0
 11
721.84845399999995
 21
3536.2912909999991
 31
0.0
  0
LINE
  5
7AE7
  8
1
  6
CONTINUOUS
 10
907.84845399999995
 20
3536.2912909999991
 30
0.0
 11
721.84845399999995
 21
3536.2912909999991
 31
0.0
  0
LINE
  5
7AE8
  8
1
  6
CONTINUOUS
 10
767.34845399999995
 20
3381.2912909999991
 30
0.0
 11
767.34845399999995
 21
3501.2912909999991
 31
0.0
  0
LINE
  5
7AE9
  8
1
  6
CONTINUOUS
 10
907.84845399999995
 20
3471.2912909999991
 30
0.0
 11
907.84845399999995
 21
3555.0291240000001
 31
0.0
  0
LINE
  5
7AEA
  8
1
  6
CONTINUOUS
 10
856.84845399999995
 20
3411.2912909999991
 30
0.0
 11
856.84845399999995
 21
3471.2912909999991
 31
0.0
  0
LINE
  5
7AEB
  8
1
  6
CONTINUOUS
 10
1068.8484539999999
 20
3955.0291240000001
 30
0.0
 11
1068.8484539999999
 21
3555.0291240000001
 31
0.0
  0
LINE
  5
7AEC
  8
1
  6
CONTINUOUS
 10
1162.4813229999991
 20
3581.2912909999991
 30
0.0
 11
1162.4813229999991
 21
4001.291291
 31
0.0
  0
LINE
  5
7AED
  8
1
  6
CONTINUOUS
 10
945.84845399999983
 20
3471.2912909999991
 30
0.0
 11
945.84845399999983
 21
3555.0291240000001
 31
0.0
  0
LINE
  5
7AEE
  8
1
  6
CONTINUOUS
 10
996.84845399999995
 20
3411.2912909999991
 30
0.0
 11
996.84845399999995
 21
3471.2912909999991
 31
0.0
  0
LINE
  5
7AEF
  8
1
  6
CONTINUOUS
 10
1526.8484539999999
 20
3411.2912909999991
 30
0.0
 11
1526.8484539999999
 21
3471.2912909999991
 31
0.0
  0
LINE
  5
7AF0
  8
1
  6
CONTINUOUS
 10
1306.8484539999999
 20
4001.291291
 30
0.0
 11
1306.8484539999999
 21
4003.2912909999991
 31
0.0
  0
LINE
  5
7AF1
  8
1
  6
CONTINUOUS
 10
2031.848453999999
 20
4091.291291
 30
0.0
 11
2031.848453999999
 21
3421.2912909999991
 31
0.0
  0
LINE
  5
7AF2
  8
1
  6
CONTINUOUS
 10
2071.848453999999
 20
4131.2912909999986
 30
0.0
 11
2071.848453999999
 21
3381.2912909999991
 31
0.0
  0
LINE
  5
7AF3
  8
1
  6
CONTINUOUS
 10
2031.848453999999
 20
4028.2912909999991
 30
0.0
 11
2031.848453999999
 21
3554.291291
 31
0.0
  0
LINE
  5
7AF4
  8
1
  6
CONTINUOUS
 10
2006.8484539999999
 20
4001.291291
 30
0.0
 11
2006.8484539999999
 21
3581.2912909999991
 31
0.0
  0
LINE
  5
7AF5
  8
1
  6
CONTINUOUS
 10
1971.848453999999
 20
3536.2912909999991
 30
0.0
 11
1642.8484539999999
 21
3536.2912909999991
 31
0.0
  0
LINE
  5
7AF6
  8
1
  6
CONTINUOUS
 10
1610.8484539999999
 20
3581.2912909999991
 30
0.0
 11
1610.8484539999999
 21
3471.2912909999991
 31
0.0
  0
LINE
  5
7AF7
  8
1
  6
CONTINUOUS
 10
1642.8484539999999
 20
3581.2912909999991
 30
0.0
 11
1642.8484539999999
 21
3471.2912909999991
 31
0.0
  0
LINE
  5
7AF8
  8
1
  6
CONTINUOUS
 10
1726.848453999999
 20
3411.2912909999991
 30
0.0
 11
1726.848453999999
 21
3471.2912909999991
 31
0.0
  0
LINE
  5
7AF9
  8
1
  6
CONTINUOUS
 10
1971.848453999999
 20
3581.2912909999991
 30
0.0
 11
1971.848453999999
 21
3536.2912909999991
 31
0.0
  0
LINE
  5
7AFA
  8
1
  6
CONTINUOUS
 10
1897.3484539999999
 20
3381.2912909999991
 30
0.0
 11
1897.3484539999999
 21
3501.2912909999991
 31
0.0
  0
LINE
  5
7AFB
  8
1
  6
CONTINUOUS
 10
1946.848453999999
 20
4001.291291
 30
0.0
 11
1946.848453999999
 21
4003.2912909999991
 31
0.0
  0
LINE
  5
7AFC
  8
1
  6
CONTINUOUS
 10
1971.848453999999
 20
4046.2912909999991
 30
0.0
 11
1971.848453999999
 21
4001.291291
 31
0.0
  0
LINE
  5
7AFD
  8
2
  6
CENTER
 10
1096.103064610691
 20
3791.2912909999991
 30
0.0
 11
2177.1793720000001
 21
3791.2912909999991
 31
0.0
  0
LINE
  5
7AFE
  8
2
  6
CENTER
 10
3176.357458
 20
2906.290853
 30
0.0
 11
3176.357458
 21
1466.077080241301
 31
0.0
  0
LINE
  5
7B26
  8
2
  6
CENTER
 10
1626.8484539999999
 20
2907.8656139677619
 30
0.0
 11
1626.8484539999999
 21
1527.6408935236191
 31
0.0
  0
LINE
  5
7B27
  8
2
  6
CENTER
 10
2151.5428579999998
 20
2306.291291
 30
0.0
 11
988.69710820055479
 21
2306.291291
 31
0.0
  0
LINE
  5
7B28
  8
4
  6
CONTINUOUS
 10
3700.0
 20
1000.0
 30
0.0
 11
3700.0
 21
600.0
 31
0.0
  0
LINE
  5
7B29
  8
4
  6
CONTINUOUS
 10
2300.0
 20
1000.0
 30
0.0
 11
2300.0
 21
600.0
 31
0.0
  0
LINE
  5
7B2A
  8
4
  6
CONTINUOUS
 10
1300.0
 20
1000.0
 30
0.0
 11
1300.0
 21
600.0
 31
0.0
  0
LINE
  5
7B2D
  8
4
  6
CONTINUOUS
 10
1300.0
 20
600.0
 30
0.0
 11
3700.0
 21
600.0
 31
0.0
  0
LINE
  5
7B2E
  8
4
  6
CONTINUOUS
 10
1300.0
 20
800.0
 30
0.0
 11
3700.0
 21
800.0
 31
0.0
  0
TEXT
  5
7B2F
  8
4
  6
CONTINUOUS
 10
1377.004162
 20
863.086052
 30
0.0
 40
100.0
  1
機器名称
  0
TEXT
  5
7B30
  8
4
  6
CONTINUOUS
 10
1372.516212
 20
643.29031299999986
 30
0.0
 40
100.0
  1
機器型番
  0
TEXT
  5
7B31
  8
4
  6
CONTINUOUS
 10
2355.3574910000002
 20
845.14353800000015
 30
0.0
 40
100.0
  1
ミツヤ多翼送風機
  0
TEXT
  5
7B32
  8
4
  6
CONTINUOUS
 10
2373.3089909999999
 20
634.31916899999999
 30
0.0
 40
100.0
  1
MF#3 1/2-4
  0
TEXT
  5
7B34
  8
4
  6
CONTINUOUS
 10
1468.869514
 20
4766.8576830000002
 30
0.0
 40
108.0
  1
天井吊枠防振ベット
  0
TEXT
  5
7B35
  8
4
  6
CONTINUOUS
 10
632.33518700000002
 20
5067.7619520000007
 30
0.0
 40
144.0
  1
ベルト駆動式片吸込両持多翼ファン
  0
LINE
  5
7B36
  8
4
  6
CONTINUOUS
 10
500.0
 20
4938.8175090000004
 30
0.0
 11
3700.0
 21
4938.8175090000004
 31
0.0
  0
LINE
  5
7B37
  8
4
  6
CONTINUOUS
 10
500.0
 20
5338.8175090000004
 30
0.0
 11
3700.0
 21
5338.8175090000004
 31
0.0
  0
LINE
  5
7B38
  8
4
  6
CONTINUOUS
 10
1300.0
 20
1000.0
 30
0.0
 11
3700.0
 21
1000.0
 31
0.0
  0
LINE
  5
7B39
  8
4
  6
CONTINUOUS
 10
500.0
 20
5338.8175090000004
 30
0.0
 11
500.0
 21
4938.8175090000004
 31
0.0
  0
TEXT
  5
7B3A
  8
4
  6
CONTINUOUS
 10
597.15184899999997
 20
4764.6389549999994
 30
0.0
 40
108.0
  1
左回転右横向
  0
TEXT
  5
7B3B
  8
4
  6
CONTINUOUS
 10
2937.9391179999998
 20
5412.122163
 30
0.0
 40
112.0
  1
No.
  0
TEXT
  5
7B3C
  8
4
  6
CONTINUOUS
 10
2799.2524290000001
 20
4766.8576830000002
 30
0.0
 40
108.0
  1
縮尺：1/20
  0
LINE
  5
7B3D
  8
4
  6
CONTINUOUS
 10
3700.0
 20
5338.8175090000004
 30
0.0
 11
3700.0
 21
4938.8175090000004
 31
0.0
  0
LINE
  5
7B3F
  8
4
  6
CONTINUOUS
 10
2881.234845
 20
5362.5271659999999
 30
0.0
 11
2881.234845
 21
5573.3045229999998
 31
0.0
  0
LINE
  5
7B40
  8
4
  6
CONTINUOUS
 10
2881.234845
 20
5573.3045229999998
 30
0.0
 11
3700.0
 21
5573.3045229999998
 31
0.0
  0
LINE
  5
7B41
  8
4
  6
CONTINUOUS
 10
3700.0
 20
5573.3045229999998
 30
0.0
 11
3700.0
 21
5362.5271659999999
 31
0.0
  0
LINE
  5
7B42
  8
4
  6
CONTINUOUS
 10
3700.0
 20
5362.5271659999999
 30
0.0
 11
2881.234845
 21
5362.5271659999999
 31
0.0
  0
DIMENSION
  5
7B5A
  8
3
  6
CONTINUOUS
  2
*D1
 10
2229.3879350000002
 20
1767.291291
 30
0.0
 11
2229.3879350000002
 21
2029.7692849999989
 31
0.0
 70
   128
 13
2031.848453999999
 23
2327.2912909999991
 33
0.0
 14
2031.848453999999
 24
1767.291291
 34
0.0
 50
90.0
1001
ACAD
1000
DSTYLE
1002
{
1070
   287
1070
     3
1070
    40
1040
20.0
1070
   143
1040
0.039
1070
   172
1070
     1
1070
   271
1070
     0
1070
   279
1070
     0
1070
   288
1070
     1
1002
}
  0
DIMENSION
  5
7B67
  8
3
  6
CONTINUOUS
  2
*D2
 10
2361.5102360000001
 20
1767.291291
 30
0.0
 11
2361.5102360000001
 21
2029.7692849999989
 31
0.0
 70
   128
 13
2151.5428579999998
 23
2306.291291
 33
0.0
 14
2071.848453999999
 24
1767.291291
 34
0.0
 50
90.0
1001
ACAD
1000
DSTYLE
1002
{
1070
   287
1070
     3
1070
    40
1040
20.0
1070
   143
1040
0.039
1070
   172
1070
     1
1070
   271
1070
     0
1070
   279
1070
     0
1070
   288
1070
     1
1002
}
  0
DIMENSION
  5
7B74
  8
3
  6
CONTINUOUS
  2
*D3
 10
2482.4953399999999
 20
1636.291291
 30
0.0
 11
2482.495339999999
 21
1940.1983879999991
 31
0.0
 70
   128
 13
2151.5428579999998
 23
2306.291291
 33
0.0
 14
1971.848453999999
 24
1636.291291
 34
0.0
 50
90.0
1001
ACAD
1000
DSTYLE
1002
{
1070
   287
1070
     3
1070
    40
1040
20.0
1070
   143
1040
0.039
1070
   172
1070
     1
1070
   271
1070
     0
1070
   279
1070
     0
1070
   288
1070
     1
1002
}
  0
DIMENSION
  5
7B84
  8
3
  6
CONTINUOUS
  2
*D4
 10
2481.1691540000002
 20
1574.291291
 30
0.0
 11
2481.1691539999988
 21
1425.7198624285711
 31
0.0
 70
   128
 13
1971.848453999999
 23
1636.291291
 33
0.0
 14
2071.848453999999
 24
1574.291291
 34
0.0
 50
90.0
1001
ACAD
1000
DSTYLE
1002
{
1070
   287
1070
     3
1070
    40
1040
20.0
1070
   143
1040
0.039
1070
   172
1070
     1
1070
   271
1070
     0
1070
   279
1070
     0
1070
   288
1070
     1
1002
}
  0
DIMENSION
  5
7B91
  8
3
  6
CONTINUOUS
  2
*D5
 10
1626.8484539999999
 20
2953.7638099999999
 30
0.0
 11
1814.146414
 21
2953.7638099999999
 31
0.0
 70
   128
 13
2031.848453999999
 23
2354.291291
 33
0.0
 14
1626.8484539999999
 24
2907.8656139677619
 34
0.0
1001
ACAD
1000
DSTYLE
1002
{
1070
   287
1070
     3
1070
    40
1040
20.0
1070
   143
1040
0.039
1070
   172
1070
     1
1070
   271
1070
     0
1070
   279
1070
     0
1070
   288
1070
     1
1002
}
  0
DIMENSION
  5
7B9E
  8
3
  6
CONTINUOUS
  2
*D6
 10
1626.8484539999999
 20
1424.4941555236189
 30
0.0
 11
1120.504326999999
 21
1424.4941555236189
 31
0.0
 70
   128
 13
621.84845399999995
 23
1574.291291
 33
0.0
 14
1626.8484539999999
 24
1527.6408935236191
 34
0.0
1001
ACAD
1000
DSTYLE
1002
{
1070
   287
1070
     3
1070
    40
1040
20.0
1070
   143
1040
0.039
1070
   172
1070
     1
1070
   271
1070
     0
1070
   279
1070
     0
1070
   288
1070
     1
1002
}
  0
DIMENSION
  5
7BAA
  8
3
  6
CONTINUOUS
  2
*D7
 10
2071.848453999999
 20
1424.4941555236189
 30
0.0
 11
1849.3484539999999
 21
1474.4941555236189
 31
0.0
 70
     0
 13
1626.8484539999999
 23
1527.6408935236191
 33
0.0
 14
2071.848453999999
 24
1574.291291
 34
0.0
1001
ACAD
1000
DSTYLE
1002
{
1070
   287
1070
     4
1070
    40
1040
20.0
1070
    75
1070
     1
1070
   143
1040
0.039
1070
   172
1070
     1
1070
   271
1070
     0
1070
   279
1070
     1
1070
   288
1070
     1
1002
}
  0
DIMENSION
  5
7BB7
  8
3
  6
CONTINUOUS
  2
*D8
 10
3176.357458
 20
1420.631081896245
 30
0.0
 11
2971.4534680000002
 21
1420.631081896245
 31
0.0
 70
   128
 13
2766.357457999999
 23
1574.291291
 33
0.0
 14
3176.357458
 24
1468.8065009382001
 34
0.0
1001
ACAD
1000
DSTYLE
1002
{
1070
   287
1070
     3
1070
    40
1040
20.0
1070
   143
1040
0.039
1070
   172
1070
     1
1070
   271
1070
     0
1070
   279
1070
     0
1070
   288
1070
     1
1002
}
  0
DIMENSION
  5
7BC3
  8
3
  6
CONTINUOUS
  2
*D9
 10
3516.357458
 20
1420.631081896245
 30
0.0
 11
3346.357457999999
 21
1470.631081896245
 31
0.0
 70
     0
 13
3176.357458
 23
1466.077080241301
 33
0.0
 14
3516.357458
 24
1574.291291
 34
0.0
1001
ACAD
1000
DSTYLE
1002
{
1070
   287
1070
     4
1070
    40
1040
20.0
1070
    75
1070
     1
1070
   143
1040
0.039
1070
   172
1070
     1
1070
   271
1070
     0
1070
   279
1070
     1
1070
   288
1070
     1
1002
}
  0
DIMENSION
  5
7BD0
  8
3
  6
CONTINUOUS
  2
*D10
 10
2966.357458
 20
2934.9067850000001
 30
0.0
 11
3183.7928710000001
 21
2934.9067850000001
 31
0.0
 70
   128
 13
3386.357457999999
 23
2665.291291
 33
0.0
 14
2966.357458
 24
2665.291291
 34
0.0
1001
ACAD
1000
DSTYLE
1002
{
1070
   287
1070
     3
1070
    40
1040
20.0
1070
   143
1040
0.039
1070
   172
1070
     1
1070
   271
1070
     0
1070
   279
1070
     0
1070
   288
1070
     1
1002
}
  0
DIMENSION
  5
7BDF
  8
3
  6
CONTINUOUS
  2
*D11
 10
3649.8192180000001
 20
2011.291291
 30
0.0
 11
3649.8192180000001
 21
2303.1962410000001
 31
0.0
 70
   128
 13
3388.357458
 23
2601.291291
 33
0.0
 14
3386.357457999999
 24
2011.291291
 34
0.0
 50
90.0
1001
ACAD
1000
DSTYLE
1002
{
1070
   287
1070
     3
1070
     3
1000
φ<>
1070
    40
1040
20.0
1070
   143
1040
0.039
1070
   172
1070
     1
1070
   271
1070
     0
1070
   279
1070
     0
1070
   288
1070
     1
1002
}
  0
DIMENSION
  5
7BEE
  8
3
  6
CONTINUOUS
  2
*D12
 10
3176.357458
 20
3061.1520024972911
 30
0.0
 11
3282.357457999999
 21
3110.0322757980589
 31
0.0
 70
   128
 13
3388.357458
 23
2626.291291
 33
0.0
 14
3176.357458
 24
3034.0186025776902
 34
0.0
1001
ACAD
1000
DSTYLE
1002
{
1070
   288
1070
     1
1070
   172
1070
     1
1070
    40
1040
20.0
1070
   271
1070
     0
1070
   143
1040
0.039
1002
}
  0
DIMENSION
  5
7C07
  8
3
  6
CONTINUOUS
  2
*D13
 10
2636.4290489999998
 20
1574.291291
 30
0.0
 11
2636.4290489999998
 21
2171.1970160000001
 31
0.0
 70
   128
 13
2766.357457999999
 23
2874.291291
 33
0.0
 14
2766.357457999999
 24
1574.291291
 34
0.0
 50
90.0
1001
ACAD
1000
DSTYLE
1002
{
1070
   287
1070
     3
1070
    40
1040
20.0
1070
   143
1040
0.039
1070
   172
1070
     1
1070
   271
1070
     0
1070
   279
1070
     0
1070
   288
1070
     1
1002
}
  0
DIMENSION
  5
7C14
  8
3
  6
CONTINUOUS
  2
*D14
 10
2071.848453999999
 20
4343.6788120000001
 30
0.0
 11
1329.3723669999999
 21
4343.6788120000001
 31
0.0
 70
   128
 13
621.84845399999995
 23
4131.2912909999986
 33
0.0
 14
2071.848453999999
 24
4131.2912909999986
 34
0.0
1001
ACAD
1000
DSTYLE
1002
{
1070
   287
1070
     3
1070
    40
1040
20.0
1070
   143
1040
0.039
1070
   172
1070
     1
1070
   271
1070
     0
1070
   279
1070
     0
1070
   288
1070
     1
1002
}
  0
DIMENSION
  5
7C21
  8
3
  6
CONTINUOUS
  2
*D15
 10
2299.0860269999998
 20
3381.2912909999991
 30
0.0
 11
2299.0860269999989
 21
3721.0406539999999
 31
0.0
 70
   128
 13
2071.848453999999
 23
4131.2912909999986
 33
0.0
 14
2071.848453999999
 24
3381.2912909999991
 34
0.0
 50
90.0
1001
ACAD
1000
DSTYLE
1002
{
1070
   287
1070
     3
1070
    40
1040
20.0
1070
   143
1040
0.039
1070
   172
1070
     1
1070
   271
1070
     0
1070
   279
1070
     0
1070
   288
1070
     1
1002
}
  0
DIMENSION
  5
7CFA
  8
3
  2
*D16
 10
2482.495339999999
 20
2716.291291
 30
0.0
 11
2432.495339999999
 21
2511.291291
 31
0.0
 70
     0
 13
2151.5428579999998
 23
2306.291291
 33
0.0
 14
1986.8484539999999
 24
2716.291291
 34
0.0
 50
90.0
1001
ACAD
1000
DSTYLE
1002
{
1070
   287
1070
     4
1070
    40
1040
20.0
1070
    75
1070
     1
1070
   143
1040
0.039
1070
   172
1070
     1
1070
   271
1070
     0
1070
   279
1070
     1
1070
   288
1070
     1
1002
}
  0
DIMENSION
  5
7D06
  8
3
  2
*D17
 10
1151.8484539999999
 20
2953.7638099999999
 30
0.0
 11
1389.3484539999999
 21
3003.7638099999999
 31
0.0
 70
     0
 13
1626.8484539999999
 23
2946.7078649999999
 33
0.0
 14
1151.8484539999999
 24
2269.291291
 34
0.0
1001
ACAD
1000
DSTYLE
1002
{
1070
   287
1070
     4
1070
    40
1040
20.0
1070
    75
1070
     1
1070
   143
1040
0.039
1070
   172
1070
     1
1070
   271
1070
     0
1070
   279
1070
     1
1070
   288
1070
     1
1002
}
  0
ENDSEC
  0
EOF
