  0
SECTION
  2
HEADER
  9
$ACADVER
  1
AC1009
  9
$INSBASE
 10
0.0
 20
0.0
 30
0.0
  9
$EXTMIN
 10
500.0
 20
600.0
 30
0.0
  9
$EXTMAX
 10
3700.0
 20
5573.3045229999998
 30
0.0
  9
$LIMMIN
 10
0.0
 20
0.0
  9
$LIMMAX
 10
297.0
 20
210.0
  9
$ORTHOMODE
 70
     0
  9
$REGENMODE
 70
     1
  9
$FILLMODE
 70
     0
  9
$QTEXTMODE
 70
     0
  9
$MIRRTEXT
 70
     1
  9
$DRAGMODE
 70
     2
  9
$LTSCALE
 40
100.0
  9
$OSMODE
 70
    37
  9
$ATTMODE
 70
     1
  9
$TEXTSIZE
 40
180.0
  9
$TRACEWID
 40
0.05
  9
$TEXTSTYLE
  7
STANDARD
  9
$CLAYER
  8
3
  9
$CELTYPE
  6
BYLAYER
  9
$CECOLOR
 62
   256
  9
$DIMSCALE
 40
20.0
  9
$DIMASZ
 40
2.0
  9
$DIMEXO
 40
0.5
  9
$DIMDLI
 40
10.0
  9
$DIMRND
 40
0.0
  9
$DIMDLE
 40
0.0
  9
$DIMEXE
 40
1.0
  9
$DIMTP
 40
1.0
  9
$DIMTM
 40
1.0
  9
$DIMTXT
 40
3.0
  9
$DIMCEN
 40
0.0
  9
$DIMTSZ
 40
0.0
  9
$DIMTOL
 70
     0
  9
$DIMLIM
 70
     0
  9
$DIMTIH
 70
     0
  9
$DIMTOH
 70
     0
  9
$DIMSE1
 70
     0
  9
$DIMSE2
 70
     0
  9
$DIMTAD
 70
     1
  9
$DIMZIN
 70
     8
  9
$DIMBLK
  1

  9
$DIMASO
 70
     1
  9
$DIMSHO
 70
     1
  9
$DIMPOST
  1

  9
$DIMAPOST
  1

  9
$DIMALT
 70
     0
  9
$DIMALTD
 70
     2
  9
$DIMALTF
 40
0.039
  9
$DIMLFAC
 40
1.0
  9
$DIMTOFL
 70
     1
  9
$DIMTVP
 40
0.0
  9
$DIMTIX
 70
     0
  9
$DIMSOXD
 70
     0
  9
$DIMSAH
 70
     1
  9
$DIMBLK1
  1
OPEN
  9
$DIMBLK2
  1
OPEN
  9
$DIMSTYLE
  2
IGA
  9
$DIMCLRD
 70
     0
  9
$DIMCLRE
 70
     0
  9
$DIMCLRT
 70
     0
  9
$DIMTFAC
 40
10.0
  9
$DIMGAP
 40
1.0
  9
$LUNITS
 70
     2
  9
$LUPREC
 70
     3
  9
$SKETCHINC
 40
0.1
  9
$FILLETRAD
 40
50.0
  9
$AUNITS
 70
     0
  9
$AUPREC
 70
     0
  9
$MENU
  1
acad
  9
$ELEVATION
 40
0.0
  9
$PELEVATION
 40
0.0
  9
$THICKNESS
 40
0.0
  9
$LIMCHECK
 70
     0
  9
$BLIPMODE
 70
     0
  9
$CHAMFERA
 40
0.5
  9
$CHAMFERB
 40
0.5
  9
$SKPOLY
 70
     0
  9
$TDCREATE
 40
2450737.6357453698
  9
$TDUPDATE
 40
2454953.7691901731
  9
$TDINDWG
 40
0.0056745718
  9
$TDUSRTIMER
 40
0.0056745718
  9
$USRTIMER
 70
     1
  9
$ANGBASE
 50
0.0
  9
$ANGDIR
 70
     0
  9
$PDMODE
 70
     0
  9
$PDSIZE
 40
0.0
  9
$PLINEWID
 40
0.0
  9
$COORDS
 70
     1
  9
$SPLFRAME
 70
     0
  9
$SPLINETYPE
 70
     6
  9
$SPLINESEGS
 70
     8
  9
$ATTDIA
 70
     0
  9
$ATTREQ
 70
     1
  9
$HANDLING
 70
 10241
  9
$HANDSEED
  5
7EE6
  9
$SURFTAB1
 70
     6
  9
$SURFTAB2
 70
     6
  9
$SURFTYPE
 70
     6
  9
$SURFU
 70
     6
  9
$SURFV
 70
     6
  9
$UCSNAME
  2

  9
$UCSORG
 10
0.0
 20
0.0
 30
0.0
  9
$UCSXDIR
 10
1.0
 20
0.0
 30
0.0
  9
$UCSYDIR
 10
0.0
 20
1.0
 30
0.0
  9
$PUCSNAME
  2

  9
$PUCSORG
 10
0.0
 20
0.0
 30
0.0
  9
$PUCSXDIR
 10
1.0
 20
0.0
 30
0.0
  9
$PUCSYDIR
 10
0.0
 20
1.0
 30
0.0
  9
$USERI1
 70
     0
  9
$USERI2
 70
     0
  9
$USERI3
 70
     0
  9
$USERI4
 70
     0
  9
$USERI5
 70
     0
  9
$USERR1
 40
0.0
  9
$USERR2
 40
0.0
  9
$USERR3
 40
0.0
  9
$USERR4
 40
0.0
  9
$USERR5
 40
0.0
  9
$WORLDVIEW
 70
     1
  9
$SHADEDGE
 70
     3
  9
$SHADEDIF
 70
    70
  9
$TILEMODE
 70
     1
  9
$MAXACTVP
 70
    16
  9
$PLIMCHECK
 70
     0
  9
$PEXTMIN
 10
1.0000000000000000E+020
 20
1.0000000000000000E+020
 30
1.0000000000000000E+020
  9
$PEXTMAX
 10
-1.0000000000000000E+020
 20
-1.0000000000000000E+020
 30
-1.0000000000000000E+020
  9
$PLIMMIN
 10
0.0
 20
0.0
  9
$PLIMMAX
 10
12.0
 20
9.0
  9
$UNITMODE
 70
     0
  9
$VISRETAIN
 70
     0
  9
$PLINEGEN
 70
     0
  9
$PSLTSCALE
 70
     1
  0
ENDSEC
  0
SECTION
  2
TABLES
  0
TABLE
  2
VPORT
 70
     2
  0
VPORT
  2
*ACTIVE
 70
     0
 10
0.0
 20
0.0
 11
1.0
 21
1.0
 12
6292.1124769529506
 22
3086.6374998146398
 13
0.0
 23
0.0
 14
10.0
 24
10.0
 15
10.0
 25
10.0
 16
0.0
 26
0.0
 36
1.0
 17
0.0
 27
0.0
 37
0.0
 40
5011.4968576296578
 41
3.1666666666666661
 42
50.0
 43
0.0
 44
0.0
 50
0.0
 51
0.0
 71
     0
 72
   100
 73
     1
 74
     0
 75
     0
 76
     0
 77
     0
 78
     0
  0
ENDTAB
  0
TABLE
  2
LTYPE
 70
     2
  0
LTYPE
  2
CONTINUOUS
 70
     0
  3
Solid line
 72
    65
 73
     0
 40
0.0
  0
LTYPE
  2
CENTER
 70
     0
  3
____ _ ____ _ ____ _ ____ _ ____ _ ____ _ ____ 
 72
    65
 73
     4
 40
2.0
 49
1.25
 49
-0.25
 49
0.25
 49
-0.25
  0
ENDTAB
  0
TABLE
  2
LAYER
 70
     6
  0
LAYER
  2
0
 70
     0
 62
     7
  6
CONTINUOUS
  0
LAYER
  2
3
 70
     0
 62
     2
  6
CONTINUOUS
  0
LAYER
  2
2
 70
     0
 62
     3
  6
CENTER
  0
LAYER
  2
1
 70
     0
 62
     4
  6
CONTINUOUS
  0
LAYER
  2
4
 70
     0
 62
     7
  6
CONTINUOUS
  0
LAYER
  2
DEFPOINTS
 70
     0
 62
     7
  6
CONTINUOUS
  0
ENDTAB
  0
TABLE
  2
STYLE
 70
     1
  0
STYLE
  2
STANDARD
 70
     0
 40
0.0
 41
1.0
 50
0.0
 71
     0
 42
180.0
  3
simplex.shx
  4
extfont.shx
  0
ENDTAB
  0
TABLE
  2
VIEW
 70
     0
  0
ENDTAB
  0
TABLE
  2
UCS
 70
     0
  0
ENDTAB
  0
TABLE
  2
APPID
 70
     1
  0
APPID
  2
ACAD
 70
     0
  0
ENDTAB
  0
TABLE
  2
DIMSTYLE
 70
     1
  0
DIMSTYLE
  2
IGA
 70
     0
  3

  4

  5

  6
OPEN
  7
OPEN
 40
2.0
 41
2.0
 42
0.5
 43
10.0
 44
1.0
 45
0.0
 46
0.0
 47
1.0
 48
1.0
140
3.0
141
0.0
142
0.0
143
0.03937
144
1.0
145
0.0
146
10.0
147
1.0
 71
     0
 72
     0
 73
     0
 74
     0
 75
     0
 76
     0
 77
     1
 78
     8
170
     0
171
     2
172
     0
173
     1
174
     0
175
     0
176
     0
177
     0
178
     0
  0
ENDTAB
  0
ENDSEC
  0
SECTION
  2
BLOCKS
  0
BLOCK
  8
0
  2
$MODEL_SPACE
 70
     0
 10
0.0
 20
0.0
 30
0.0
  3
$MODEL_SPACE
  1

  0
ENDBLK
  5
1B
  8
0
  0
BLOCK
 67
     1
  8
0
  2
$PAPER_SPACE
 70
     0
 10
0.0
 20
0.0
 30
0.0
  3
$PAPER_SPACE
  1

  0
ENDBLK
  5
18
 67
     1
  8
0
  0
BLOCK
  8
0
  2
_OPEN
 70
     0
 10
0.0
 20
0.0
 30
0.0
  3
_OPEN
  1

  0
LINE
  5
7BB6
  8
0
  6
BYBLOCK
 62
     0
 10
-1.0
 20
0.166667
 30
0.0
 11
0.0
 21
0.0
 31
0.0
  0
LINE
  5
7BB7
  8
0
  6
BYBLOCK
 62
     0
 10
0.0
 20
0.0
 30
0.0
 11
-1.0
 21
-0.166667
 31
0.0
  0
LINE
  5
7BB8
  8
0
  6
BYBLOCK
 62
     0
 10
0.0
 20
0.0
 30
0.0
 11
-1.0
 21
0.0
 31
0.0
  0
ENDBLK
  5
7BB9
  8
0
  0
BLOCK
  8
0
  2
*D1
 70
     1
 10
0.0
 20
0.0
 30
0.0
  3
*D1
  1

  0
LINE
  5
7E52
  8
3
  6
CONTINUOUS
 62
     0
 10
1732.970141
 20
2527.3492890000002
 30
0.0
 11
1732.970141
 21
2641.0801820000001
 31
0.0
  0
LINE
  5
7E53
  8
3
  6
CONTINUOUS
 62
     0
 10
1172.970141
 20
2527.3492890000002
 30
0.0
 11
1172.970141
 21
2641.0801820000001
 31
0.0
  0
LINE
  5
7E54
  8
3
  6
CONTINUOUS
 62
     0
 10
1692.9701409999991
 20
2621.0801820000001
 30
0.0
 11
1212.970141
 21
2621.0801820000001
 31
0.0
  0
INSERT
  5
7E55
  8
3
  6
CONTINUOUS
 62
     0
  2
_OPEN
 10
1732.970141
 20
2621.0801820000001
 30
0.0
 41
40.0
 42
40.0
 43
40.0
  0
INSERT
  5
7E56
  8
3
  6
CONTINUOUS
 62
     0
  2
_OPEN
 10
1172.970141
 20
2621.0801820000001
 30
0.0
 41
40.0
 42
40.0
 43
40.0
 50
180.0
  0
TEXT
  8
3
  40
60
  5
7ED7
  62
0
  72
0
  71
0
 10
1313.23
 20
2564.88
 30
0.000000
  1
560
  0
POINT
  5
7E58
  8
DEFPOINTS
  6
CONTINUOUS
 62
     0
 10
1732.970141
 20
2517.3492890000002
 30
0.0
  0
POINT
  5
7E59
  8
DEFPOINTS
  6
CONTINUOUS
 62
     0
 10
1172.970141
 20
2517.3492890000002
 30
0.0
  0
POINT
  5
7E5A
  8
DEFPOINTS
  6
CONTINUOUS
 62
     0
 10
1172.970141
 20
2621.0801820000001
 30
0.0
  0
ENDBLK
  5
7D2D
  8
0
  0
BLOCK
  8
0
  2
*D2
 70
     1
 10
0.0
 20
0.0
 30
0.0
  3
*D2
  1

  0
LINE
  5
7E5B
  8
3
  6
CONTINUOUS
 62
     0
 10
1732.970141
 20
2527.3492890000002
 30
0.0
 11
1732.970141
 21
2930.9573150000001
 31
0.0
  0
LINE
  5
7E5C
  8
3
  6
CONTINUOUS
 62
     0
 10
1193.970141
 20
2739.6195142969691
 30
0.0
 11
1193.970141
 21
2930.9573150000001
 31
0.0
  0
LINE
  5
7E5D
  8
3
  6
CONTINUOUS
 62
     0
 10
1692.9701409999991
 20
2910.9573149999992
 30
0.0
 11
1233.970141
 21
2910.9573149999992
 31
0.0
  0
INSERT
  5
7E5E
  8
3
  6
CONTINUOUS
 62
     0
  2
_OPEN
 10
1732.970141
 20
2910.9573149999992
 30
0.0
 41
40.0
 42
40.0
 43
40.0
  0
INSERT
  5
7E5F
  8
3
  6
CONTINUOUS
 62
     0
  2
_OPEN
 10
1193.970141
 20
2910.9573149999992
 30
0.0
 41
40.0
 42
40.0
 43
40.0
 50
180.0
  0
TEXT
  8
3
  40
60
  5
7ED8
  62
0
  72
0
  71
0
 10
1315.15
 20
2854.76
 30
0.000000
  1
539
  0
POINT
  5
7E61
  8
DEFPOINTS
  6
CONTINUOUS
 62
     0
 10
1732.970141
 20
2517.3492890000002
 30
0.0
  0
POINT
  5
7E62
  8
DEFPOINTS
  6
CONTINUOUS
 62
     0
 10
1193.970141
 20
2729.6195142969691
 30
0.0
  0
POINT
  5
7E63
  8
DEFPOINTS
  6
CONTINUOUS
 62
     0
 10
1193.970141
 20
2910.9573149999992
 30
0.0
  0
ENDBLK
  5
7D78
  8
0
  0
BLOCK
  8
0
  2
*D3
 70
     1
 10
0.0
 20
0.0
 30
0.0
  3
*D3
  1

  0
LINE
  5
7E64
  8
3
  6
CONTINUOUS
 62
     0
 10
783.9701409999999
 20
2482.3492890000002
 30
0.0
 11
783.9701409999999
 21
2930.9573150000001
 31
0.0
  0
LINE
  5
7E65
  8
3
  6
CONTINUOUS
 62
     0
 10
1153.970141
 20
2910.9573149999992
 30
0.0
 11
823.97014100000001
 21
2910.9573149999992
 31
0.0
  0
INSERT
  5
7E66
  8
3
  6
CONTINUOUS
 62
     0
  2
_OPEN
 10
1193.970141
 20
2910.9573149999992
 30
0.0
 41
40.0
 42
40.0
 43
40.0
  0
INSERT
  5
7E67
  8
3
  6
CONTINUOUS
 62
     0
  2
_OPEN
 10
783.9701409999999
 20
2910.9573149999992
 30
0.0
 41
40.0
 42
40.0
 43
40.0
 50
180.0
  0
TEXT
  8
3
  40
60
  5
7ED9
  62
0
  72
0
  71
0
 10
868.970
 20
2854.76
 30
0.000000
  1
410
  0
POINT
  5
7E69
  8
DEFPOINTS
  6
CONTINUOUS
 62
     0
 10
1193.970141
 20
2729.6195142969691
 30
0.0
  0
POINT
  5
7E6A
  8
DEFPOINTS
  6
CONTINUOUS
 62
     0
 10
783.9701409999999
 20
2472.3492890000002
 30
0.0
  0
POINT
  5
7E6B
  8
DEFPOINTS
  6
CONTINUOUS
 62
     0
 10
783.9701409999999
 20
2910.9573149999992
 30
0.0
  0
ENDBLK
  5
7D6D
  8
0
  0
BLOCK
  8
0
  2
*D4
 70
     1
 10
0.0
 20
0.0
 30
0.0
  3
*D4
  1

  0
LINE
  5
7E6C
  8
3
  6
CONTINUOUS
 62
     0
 10
1135.970141
 20
2517.3492890000002
 30
0.0
 11
586.10876200000041
 21
2517.3492890000002
 31
0.0
  0
LINE
  5
7E6D
  8
3
  6
CONTINUOUS
 62
     0
 10
649.99673269301275
 20
2112.3492890000002
 30
0.0
 11
586.10876200000018
 21
2112.3492890000002
 31
0.0
  0
LINE
  5
7E6E
  8
3
  6
CONTINUOUS
 62
     0
 10
606.1087620000003
 20
2477.3492890000011
 30
0.0
 11
606.1087620000003
 21
2152.3492890000002
 31
0.0
  0
INSERT
  5
7E6F
  8
3
  6
CONTINUOUS
 62
     0
  2
_OPEN
 10
606.1087620000003
 20
2517.3492890000002
 30
0.0
 41
40.0
 42
40.0
 43
40.0
 50
90.0
  0
INSERT
  5
7E70
  8
3
  6
CONTINUOUS
 62
     0
  2
_OPEN
 10
606.1087620000003
 20
2112.3492890000002
 30
0.0
 41
40.0
 42
40.0
 43
40.0
 50
270.0
  0
TEXT
  8
3
  40
60
  5
7EDA
  62
0
  72
0
  71
0
 10
436.109
 20
2208.90
 30
0.000000
  1
405
  0
POINT
  5
7E72
  8
DEFPOINTS
  6
CONTINUOUS
 62
     0
 10
1145.970141
 20
2517.3492890000002
 30
0.0
  0
POINT
  5
7E73
  8
DEFPOINTS
  6
CONTINUOUS
 62
     0
 10
659.99673269301275
 20
2112.3492890000002
 30
0.0
  0
POINT
  5
7E74
  8
DEFPOINTS
  6
CONTINUOUS
 62
     0
 10
606.1087620000003
 20
2112.3492890000002
 30
0.0
  0
ENDBLK
  5
7E2F
  8
0
  0
BLOCK
  8
0
  2
*D5
 70
     1
 10
0.0
 20
0.0
 30
0.0
  3
*D5
  1

  0
LINE
  5
7E75
  8
3
  6
CONTINUOUS
 62
     0
 10
838.97014100000001
 20
1557.349289
 30
0.0
 11
586.10876199999996
 21
1557.349289
 31
0.0
  0
LINE
  5
7E76
  8
3
  6
CONTINUOUS
 62
     0
 10
606.10876200000007
 20
2072.3492890000002
 30
0.0
 11
606.10876199999996
 21
1597.349289
 31
0.0
  0
INSERT
  5
7E77
  8
3
  6
CONTINUOUS
 62
     0
  2
_OPEN
 10
606.10876200000007
 20
2112.3492890000002
 30
0.0
 41
40.0
 42
40.0
 43
40.0
 50
90.0
  0
INSERT
  5
7E78
  8
3
  6
CONTINUOUS
 62
     0
  2
_OPEN
 10
606.10876199999996
 20
1557.349289
 30
0.0
 41
40.0
 42
40.0
 43
40.0
 50
270.0
  0
TEXT
  8
3
  40
60
  5
7EDB
  62
0
  72
0
  71
0
 10
436.109
 20
1728.65
 30
0.000000
  1
555
  0
POINT
  5
7E7A
  8
DEFPOINTS
  6
CONTINUOUS
 62
     0
 10
651.09920879763376
 20
2112.3492890000002
 30
0.0
  0
POINT
  5
7E7B
  8
DEFPOINTS
  6
CONTINUOUS
 62
     0
 10
848.97014100000001
 20
1557.349289
 30
0.0
  0
POINT
  5
7E7C
  8
DEFPOINTS
  6
CONTINUOUS
 62
     0
 10
606.10876199999996
 20
1557.349289
 30
0.0
  0
ENDBLK
  5
7E24
  8
0
  0
BLOCK
  8
0
  2
*D6
 70
     1
 10
0.0
 20
0.0
 30
0.0
  3
*D6
  1

  0
LINE
  5
7E7D
  8
3
  6
CONTINUOUS
 62
     0
 10
838.97014100000001
 20
1557.349289
 30
0.0
 11
585.51082100000008
 21
1557.349289
 31
0.0
  0
LINE
  5
7E7E
  8
3
  6
CONTINUOUS
 62
     0
 10
738.97014100000001
 20
1495.3492889999991
 30
0.0
 11
585.51082100000008
 21
1495.3492889999991
 31
0.0
  0
LINE
  5
7E7F
  8
3
  6
CONTINUOUS
 62
     0
 10
605.51082100000008
 20
1597.349289
 30
0.0
 11
605.51082100000008
 21
1637.349289
 31
0.0
  0
LINE
  5
7E80
  8
3
  6
CONTINUOUS
 62
     0
 10
605.51082100000008
 20
1455.349289
 30
0.0
 11
605.51082100000008
 21
1278.206431857142
 31
0.0
  0
LINE
  5
7E81
  8
3
  6
CONTINUOUS
 62
     0
 10
605.51082100000008
 20
1557.349289
 30
0.0
 11
605.51082100000008
 21
1495.3492889999991
 31
0.0
  0
INSERT
  5
7E82
  8
3
  6
CONTINUOUS
 62
     0
  2
_OPEN
 10
605.51082100000008
 20
1557.349289
 30
0.0
 41
40.0
 42
40.0
 43
40.0
 50
270.0
  0
INSERT
  5
7E83
  8
3
  6
CONTINUOUS
 62
     0
  2
_OPEN
 10
605.51082100000008
 20
1495.3492889999991
 30
0.0
 41
40.0
 42
40.0
 43
40.0
 50
90.0
  0
TEXT
  8
3
  40
60
  5
7EDC
  62
0
  72
0
  71
0
 10
435.511
 20
1240.58
 30
0.000000
  1
62
  0
POINT
  5
7E85
  8
DEFPOINTS
  6
CONTINUOUS
 62
     0
 10
848.97014100000001
 20
1557.349289
 30
0.0
  0
POINT
  5
7E86
  8
DEFPOINTS
  6
CONTINUOUS
 62
     0
 10
748.97014100000001
 20
1495.3492889999991
 30
0.0
  0
POINT
  5
7E87
  8
DEFPOINTS
  6
CONTINUOUS
 62
     0
 10
605.51082100000008
 20
1495.3492889999991
 30
0.0
  0
ENDBLK
  5
7D85
  8
0
  0
BLOCK
  8
0
  2
*D7
 70
     1
 10
0.0
 20
0.0
 30
0.0
  3
*D7
  1

  0
LINE
  5
7E88
  8
3
  6
CONTINUOUS
 62
     0
 10
748.97014100000001
 20
1485.349289
 30
0.0
 11
748.97014100000001
 21
1313.344797996738
 31
0.0
  0
LINE
  5
7E89
  8
3
  6
CONTINUOUS
 62
     0
 10
1193.970141
 20
1392.409924898664
 30
0.0
 11
1193.970141
 21
1313.344797996738
 31
0.0
  0
LINE
  5
7E8A
  8
3
  6
CONTINUOUS
 62
     0
 10
788.97014100000001
 20
1333.344797996738
 30
0.0
 11
1153.970141
 21
1333.344797996738
 31
0.0
  0
INSERT
  5
7E8B
  8
3
  6
CONTINUOUS
 62
     0
  2
_OPEN
 10
748.97014100000001
 20
1333.344797996738
 30
0.0
 41
40.0
 42
40.0
 43
40.0
 50
180.0
  0
INSERT
  5
7E8C
  8
3
  6
CONTINUOUS
 62
     0
  2
_OPEN
 10
1193.970141
 20
1333.344797996738
 30
0.0
 41
40.0
 42
40.0
 43
40.0
  0
TEXT
  8
3
  40
60
  5
7EDD
  62
0
  72
0
  71
0
 10
853.544
 20
1277.14
 30
0.000000
  1
445
  0
POINT
  5
7E8E
  8
DEFPOINTS
  6
CONTINUOUS
 62
     0
 10
748.97014100000001
 20
1495.3492889999991
 30
0.0
  0
POINT
  5
7E8F
  8
DEFPOINTS
  6
CONTINUOUS
 62
     0
 10
1193.970141
 20
1402.409924898664
 30
0.0
  0
POINT
  5
7E90
  8
DEFPOINTS
  6
CONTINUOUS
 62
     0
 10
1193.970141
 20
1333.344797996738
 30
0.0
  0
ENDBLK
  5
7E1A
  8
0
  0
BLOCK
  8
0
  2
*D8
 70
     1
 10
0.0
 20
0.0
 30
0.0
  3
*D8
  1

  0
LINE
  5
7E91
  8
3
  6
CONTINUOUS
 62
     0
 10
2198.9701409999998
 20
1485.349289
 30
0.0
 11
2198.9701409999998
 21
1313.344797996738
 31
0.0
  0
LINE
  5
7E92
  8
3
  6
CONTINUOUS
 62
     0
 10
1233.970141
 20
1333.344797996738
 30
0.0
 11
2158.9701409999998
 21
1333.344797996738
 31
0.0
  0
INSERT
  5
7E93
  8
3
  6
CONTINUOUS
 62
     0
  2
_OPEN
 10
1193.970141
 20
1333.344797996738
 30
0.0
 41
40.0
 42
40.0
 43
40.0
 50
180.0
  0
INSERT
  5
7E94
  8
3
  6
CONTINUOUS
 62
     0
  2
_OPEN
 10
2198.9701409999998
 20
1333.344797996738
 30
0.0
 41
40.0
 42
40.0
 43
40.0
  0
TEXT
  8
3
  40
60
  5
7EDE
  62
0
  72
0
  71
0
 10
1576.47
 20
1277.14
 30
0.000000
  1
1005
  0
POINT
  5
7E96
  8
DEFPOINTS
  6
CONTINUOUS
 62
     0
 10
1193.970141
 20
1402.409924898664
 30
0.0
  0
POINT
  5
7E97
  8
DEFPOINTS
  6
CONTINUOUS
 62
     0
 10
2198.9701409999998
 20
1495.3492889999991
 30
0.0
  0
POINT
  5
7E98
  8
DEFPOINTS
  6
CONTINUOUS
 62
     0
 10
2198.9701409999998
 20
1333.344797996738
 30
0.0
  0
ENDBLK
  5
7E0F
  8
0
  0
BLOCK
  8
0
  2
*D9
 70
     1
 10
0.0
 20
0.0
 30
0.0
  3
*D9
  1

  0
LINE
  5
7E99
  8
3
  6
CONTINUOUS
 62
     0
 10
3327.5615120684338
 20
2527.3492890000002
 30
0.0
 11
3327.5615120684338
 21
2885.8926860000001
 31
0.0
  0
LINE
  5
7E9A
  8
3
  6
CONTINUOUS
 62
     0
 10
2907.5615120684338
 20
2527.3492890000002
 30
0.0
 11
2907.5615120684338
 21
2885.8926860000001
 31
0.0
  0
LINE
  5
7E9B
  8
3
  6
CONTINUOUS
 62
     0
 10
3287.5615120684338
 20
2865.8926860000001
 30
0.0
 11
2947.5615120684338
 21
2865.8926860000001
 31
0.0
  0
INSERT
  5
7E9C
  8
3
  6
CONTINUOUS
 62
     0
  2
_OPEN
 10
3327.5615120684338
 20
2865.8926860000001
 30
0.0
 41
40.0
 42
40.0
 43
40.0
  0
INSERT
  5
7E9D
  8
3
  6
CONTINUOUS
 62
     0
  2
_OPEN
 10
2907.5615120684338
 20
2865.8926860000001
 30
0.0
 41
40.0
 42
40.0
 43
40.0
 50
180.0
  0
TEXT
  8
3
  40
60
  5
7EDF
  62
0
  72
0
  71
0
 10
2995.91
 20
2809.69
 30
0.000000
  1
420
  0
POINT
  5
7E9F
  8
DEFPOINTS
  6
CONTINUOUS
 62
     0
 10
3327.5615120684338
 20
2517.3492890000002
 30
0.0
  0
POINT
  5
7EA0
  8
DEFPOINTS
  6
CONTINUOUS
 62
     0
 10
2907.5615120684338
 20
2517.3492890000002
 30
0.0
  0
POINT
  5
7EA1
  8
DEFPOINTS
  6
CONTINUOUS
 62
     0
 10
2907.5615120684338
 20
2865.8926860000001
 30
0.0
  0
ENDBLK
  5
7C3B
  8
0
  0
BLOCK
  8
0
  2
*D10
 70
     1
 10
0.0
 20
0.0
 30
0.0
  3
*D10
  1

  0
LINE
  5
7EA2
  8
3
  6
CONTINUOUS
 62
     0
 10
3337.5615120684338
 20
2407.3492890000002
 30
0.0
 11
3651.2336140684351
 21
2407.3492890000002
 31
0.0
  0
LINE
  5
7EA3
  8
3
  6
CONTINUOUS
 62
     0
 10
3337.5615120684338
 20
1817.349289
 30
0.0
 11
3651.2336140684351
 21
1817.349289
 31
0.0
  0
LINE
  5
7EA4
  8
3
  6
CONTINUOUS
 62
     0
 10
3631.2336140684351
 20
2367.3492890000002
 30
0.0
 11
3631.2336140684351
 21
1857.3492889999991
 31
0.0
  0
INSERT
  5
7EA5
  8
3
  6
CONTINUOUS
 62
     0
  2
_OPEN
 10
3631.2336140684351
 20
2407.3492890000002
 30
0.0
 41
40.0
 42
40.0
 43
40.0
 50
90.0
  0
INSERT
  5
7EA6
  8
3
  6
CONTINUOUS
 62
     0
  2
_OPEN
 10
3631.2336140684351
 20
1817.349289
 30
0.0
 41
40.0
 42
40.0
 43
40.0
 50
270.0
  0
TEXT
  8
3
  40
60
  5
7EE0
  62
0
  72
0
  71
0
 10
3461.23
 20
1993.59
 30
0.000000
  1
φ590
  0
POINT
  5
7EA8
  8
DEFPOINTS
  6
CONTINUOUS
 62
     0
 10
3327.5615120684338
 20
2407.3492890000002
 30
0.0
  0
POINT
  5
7EA9
  8
DEFPOINTS
  6
CONTINUOUS
 62
     0
 10
3327.5615120684338
 20
1817.349289
 30
0.0
  0
POINT
  5
7EAA
  8
DEFPOINTS
  6
CONTINUOUS
 62
     0
 10
3631.2336140684351
 20
1817.349289
 30
0.0
  0
ENDBLK
  5
7DA6
  8
0
  0
BLOCK
  8
0
  2
*D11
 70
     1
 10
0.0
 20
0.0
 30
0.0
  3
*D11
  1

  0
LINE
  5
7DA8
  8
0
  6
BYBLOCK
 62
     0
 10
3329.5615120684338
 20
2442.3492890000002
 30
0.0
 11
3329.5615120684338
 21
3026.0937570000001
 31
0.0
  0
LINE
  5
7DA9
  8
0
  6
BYBLOCK
 62
     0
 10
3117.5615120684338
 20
2964.813168212188
 30
0.0
 11
3117.5615120684338
 21
3026.0937570000001
 31
0.0
  0
LINE
  5
7DAA
  8
0
  6
BYBLOCK
 62
     0
 10
3289.5615120684338
 20
3006.0937570000001
 30
0.0
 11
3157.5615120684338
 21
3006.0937570000001
 31
0.0
  0
TEXT
  5
7DAB
  8
3
 62
     0
 10
3152.1329406398622
 20
3031.882417989862
 30
0.0
 40
60.0
  1
212
  0
INSERT
  5
7DAC
  8
0
  6
BYBLOCK
 62
     0
  2
_OPEN
 10
3329.5615120684338
 20
3006.0937570000001
 30
0.0
 41
40.0
 42
40.0
 43
40.0
  0
INSERT
  5
7DAD
  8
0
  6
BYBLOCK
 62
     0
  2
_OPEN
 10
3117.5615120684338
 20
3006.0937570000001
 30
0.0
 41
40.0
 42
40.0
 43
40.0
 50
180.0
  0
POINT
  5
7DAE
  8
DEFPOINTS
  6
BYBLOCK
 62
     0
 10
3329.5615120684338
 20
2432.3492890000002
 30
0.0
  0
POINT
  5
7DAF
  8
DEFPOINTS
  6
BYBLOCK
 62
     0
 10
3117.5615120684338
 20
2954.813168212188
 30
0.0
  0
POINT
  5
7DB0
  8
DEFPOINTS
  6
BYBLOCK
 62
     0
 10
3117.5615120684338
 20
3006.0937570000001
 30
0.0
  0
ENDBLK
  5
7DB1
  8
0
  0
BLOCK
  8
0
  2
*D12
 70
     1
 10
0.0
 20
0.0
 30
0.0
  3
*D12
  1

  0
LINE
  5
7EAB
  8
3
  6
CONTINUOUS
 62
     0
 10
2707.5615120684338
 20
1485.349289
 30
0.0
 11
2707.5615120684338
 21
1302.8759169934749
 31
0.0
  0
LINE
  5
7EAC
  8
3
  6
CONTINUOUS
 62
     0
 10
3117.5615120684338
 20
1382.7253986207361
 30
0.0
 11
3117.5615120684338
 21
1302.8759169934749
 31
0.0
  0
LINE
  5
7EAD
  8
3
  6
CONTINUOUS
 62
     0
 10
2747.5615120684338
 20
1322.875916993474
 30
0.0
 11
3077.5615120684338
 21
1322.875916993474
 31
0.0
  0
INSERT
  5
7EAE
  8
3
  6
CONTINUOUS
 62
     0
  2
_OPEN
 10
2707.5615120684338
 20
1322.875916993474
 30
0.0
 41
40.0
 42
40.0
 43
40.0
 50
180.0
  0
INSERT
  5
7EAF
  8
3
  6
CONTINUOUS
 62
     0
  2
_OPEN
 10
3117.5615120684338
 20
1322.875916993474
 30
0.0
 41
40.0
 42
40.0
 43
40.0
  0
TEXT
  8
3
  40
60
  5
7EE1
  62
0
  72
0
  71
0
 10
2795.43
 20
1266.68
 30
0.000000
  1
410
  0
POINT
  5
7EB1
  8
DEFPOINTS
  6
CONTINUOUS
 62
     0
 10
2707.5615120684338
 20
1495.3492889999991
 30
0.0
  0
POINT
  5
7EB2
  8
DEFPOINTS
  6
CONTINUOUS
 62
     0
 10
3117.5615120684338
 20
1392.7253986207361
 30
0.0
  0
POINT
  5
7EB3
  8
DEFPOINTS
  6
CONTINUOUS
 62
     0
 10
3117.5615120684338
 20
1322.875916993474
 30
0.0
  0
ENDBLK
  5
7DD1
  8
0
  0
BLOCK
  8
0
  2
*D13
 70
     1
 10
0.0
 20
0.0
 30
0.0
  3
*D13
  1

  0
LINE
  5
7EB4
  8
3
  6
CONTINUOUS
 62
     0
 10
3457.5615120684329
 20
1485.349289
 30
0.0
 11
3457.5615120684329
 21
1302.8759169934749
 31
0.0
  0
LINE
  5
7EB5
  8
3
  6
CONTINUOUS
 62
     0
 10
3157.5615120684338
 20
1322.875916993474
 30
0.0
 11
3417.5615120684338
 21
1322.875916993474
 31
0.0
  0
INSERT
  5
7EB6
  8
3
  6
CONTINUOUS
 62
     0
  2
_OPEN
 10
3117.5615120684338
 20
1322.875916993474
 30
0.0
 41
40.0
 42
40.0
 43
40.0
 50
180.0
  0
INSERT
  5
7EB7
  8
3
  6
CONTINUOUS
 62
     0
  2
_OPEN
 10
3457.5615120684329
 20
1322.875916993474
 30
0.0
 41
40.0
 42
40.0
 43
40.0
  0
TEXT
  8
3
  40
60
  5
7EE2
  62
0
  72
0
  71
0
 10
3167.56
 20
1266.68
 30
0.000000
  1
340
  0
POINT
  5
7EB9
  8
DEFPOINTS
  6
CONTINUOUS
 62
     0
 10
3117.5615120684338
 20
1392.7253986207361
 30
0.0
  0
POINT
  5
7EBA
  8
DEFPOINTS
  6
CONTINUOUS
 62
     0
 10
3457.5615120684329
 20
1495.3492889999991
 30
0.0
  0
POINT
  5
7EBB
  8
DEFPOINTS
  6
CONTINUOUS
 62
     0
 10
3457.5615120684329
 20
1322.875916993474
 30
0.0
  0
ENDBLK
  5
7DDB
  8
0
  0
BLOCK
  8
0
  2
*D14
 70
     1
 10
0.0
 20
0.0
 30
0.0
  3
*D14
  1

  0
LINE
  5
7EBC
  8
3
  6
CONTINUOUS
 62
     0
 10
748.97014100000001
 20
4062.3492890000002
 30
0.0
 11
748.97014100000001
 21
4320.0846490000004
 31
0.0
  0
LINE
  5
7EBD
  8
3
  6
CONTINUOUS
 62
     0
 10
2198.9701409999998
 20
4062.3492890000002
 30
0.0
 11
2198.9701409999998
 21
4320.0846490000004
 31
0.0
  0
LINE
  5
7EBE
  8
3
  6
CONTINUOUS
 62
     0
 10
788.97014100000001
 20
4300.0846490000013
 30
0.0
 11
2158.9701409999998
 21
4300.0846490000013
 31
0.0
  0
INSERT
  5
7EBF
  8
3
  6
CONTINUOUS
 62
     0
  2
_OPEN
 10
748.97014100000001
 20
4300.0846490000013
 30
0.0
 41
40.0
 42
40.0
 43
40.0
 50
180.0
  0
INSERT
  5
7EC0
  8
3
  6
CONTINUOUS
 62
     0
  2
_OPEN
 10
2198.9701409999998
 20
4300.0846490000013
 30
0.0
 41
40.0
 42
40.0
 43
40.0
  0
TEXT
  8
3
  40
60
  5
7EE3
  62
0
  72
0
  71
0
 10
1371.34
 20
4243.88
 30
0.000000
  1
1450
  0
POINT
  5
7EC2
  8
DEFPOINTS
  6
CONTINUOUS
 62
     0
 10
748.97014100000001
 20
4052.3492890000002
 30
0.0
  0
POINT
  5
7EC3
  8
DEFPOINTS
  6
CONTINUOUS
 62
     0
 10
2198.9701409999998
 20
4052.3492890000002
 30
0.0
  0
POINT
  5
7EC4
  8
DEFPOINTS
  6
CONTINUOUS
 62
     0
 10
2198.9701409999998
 20
4300.0846490000013
 30
0.0
  0
ENDBLK
  5
7D38
  8
0
  0
BLOCK
  8
0
  2
*D15
 70
     1
 10
0.0
 20
0.0
 30
0.0
  3
*D15
  1

  0
LINE
  5
7EC5
  8
3
  6
CONTINUOUS
 62
     0
 10
2208.9701409999998
 20
4052.3492890000002
 30
0.0
 11
2431.9894490000001
 21
4052.3492890000002
 31
0.0
  0
LINE
  5
7EC6
  8
3
  6
CONTINUOUS
 62
     0
 10
2208.9701409999998
 20
3302.3492890000002
 30
0.0
 11
2431.9894490000001
 21
3302.3492890000002
 31
0.0
  0
LINE
  5
7EC7
  8
3
  6
CONTINUOUS
 62
     0
 10
2411.9894490000001
 20
4012.3492890000002
 30
0.0
 11
2411.9894490000001
 21
3342.3492890000002
 31
0.0
  0
INSERT
  5
7EC8
  8
3
  6
CONTINUOUS
 62
     0
  2
_OPEN
 10
2411.9894490000001
 20
4052.3492890000002
 30
0.0
 41
40.0
 42
40.0
 43
40.0
 50
90.0
  0
INSERT
  5
7EC9
  8
3
  6
CONTINUOUS
 62
     0
  2
_OPEN
 10
2411.9894490000001
 20
3302.3492890000002
 30
0.0
 41
40.0
 42
40.0
 43
40.0
 50
270.0
  0
TEXT
  8
3
  40
60
  5
7EE4
  62
0
  72
0
  71
0
 10
2241.99
 20
3587.85
 30
0.000000
  1
750
  0
POINT
  5
7ECB
  8
DEFPOINTS
  6
CONTINUOUS
 62
     0
 10
2198.9701409999998
 20
4052.3492890000002
 30
0.0
  0
POINT
  5
7ECC
  8
DEFPOINTS
  6
CONTINUOUS
 62
     0
 10
2198.9701409999998
 20
3302.3492890000002
 30
0.0
  0
POINT
  5
7ECD
  8
DEFPOINTS
  6
CONTINUOUS
 62
     0
 10
2411.9894490000001
 20
3302.3492890000002
 30
0.0
  0
ENDBLK
  5
7C98
  8
0
  0
BLOCK
  8
0
  2
*D16
 70
     1
 10
0.0
 20
0.0
 30
0.0
  3
*D16
  1

  0
LINE
  5
7ECE
  8
3
  6
CONTINUOUS
 62
     0
 10
2697.5615120684338
 20
2795.3492890000002
 30
0.0
 11
2523.4547700684352
 21
2795.3492890000002
 31
0.0
  0
LINE
  5
7ECF
  8
3
  6
CONTINUOUS
 62
     0
 10
2697.5615120684338
 20
1495.3492889999991
 30
0.0
 11
2523.4547700684352
 21
1495.349289
 31
0.0
  0
LINE
  5
7ED0
  8
3
  6
CONTINUOUS
 62
     0
 10
2543.4547700684352
 20
2755.3492890000002
 30
0.0
 11
2543.4547700684352
 21
1535.349289
 31
0.0
  0
INSERT
  5
7ED1
  8
3
  6
CONTINUOUS
 62
     0
  2
_OPEN
 10
2543.4547700684352
 20
2795.3492890000002
 30
0.0
 41
40.0
 42
40.0
 43
40.0
 50
90.0
  0
INSERT
  5
7ED2
  8
3
  6
CONTINUOUS
 62
     0
  2
_OPEN
 10
2543.4547700684352
 20
1495.349289
 30
0.0
 41
40.0
 42
40.0
 43
40.0
 50
270.0
  0
TEXT
  8
3
  40
60
  5
7EE5
  62
0
  72
0
  71
0
 10
2373.45
 20
1994.76
 30
0.000000
  1
1300
  0
POINT
  5
7ED4
  8
DEFPOINTS
  6
CONTINUOUS
 62
     0
 10
2707.5615120684338
 20
2795.3492890000002
 30
0.0
  0
POINT
  5
7ED5
  8
DEFPOINTS
  6
CONTINUOUS
 62
     0
 10
2707.5615120684338
 20
1495.3492889999991
 30
0.0
  0
POINT
  5
7ED6
  8
DEFPOINTS
  6
CONTINUOUS
 62
     0
 10
2543.4547700684352
 20
1495.349289
 30
0.0
  0
ENDBLK
  5
7CCA
  8
0
  0
ENDSEC
  0
SECTION
  2
ENTITIES
  0
LINE
  5
7AD9
  8
1
  6
CONTINUOUS
 10
2158.9701409999998
 20
3342.3492890000002
 30
0.0
 11
788.97014100000001
 21
3342.3492890000002
 31
0.0
  0
LINE
  5
7ADA
  8
1
  6
CONTINUOUS
 10
788.97014100000001
 20
4012.3492890000002
 30
0.0
 11
2158.9701409999998
 21
4012.3492890000002
 31
0.0
  0
LINE
  5
7ADB
  8
1
  6
CONTINUOUS
 10
2158.9701409999998
 20
1535.349289
 30
0.0
 11
788.97014100000001
 21
1535.349289
 31
0.0
  0
LINE
  5
7ADC
  8
1
  6
CONTINUOUS
 10
788.97014100000001
 20
2755.3492890000002
 30
0.0
 11
2158.9701409999998
 21
2755.3492890000002
 31
0.0
  0
LINE
  5
7ADD
  8
1
  6
CONTINUOUS
 10
1145.970141
 20
2517.3492890000002
 30
0.0
 11
1759.970141
 21
2517.3492890000002
 31
0.0
  0
ARC
  5
7ADE
  8
1
  6
CONTINUOUS
 10
1230.970141
 20
2149.3492890000002
 30
0.0
 40
501.36713099999992
 50
264.95754899999997
 51
355.7678259999999
  0
LINE
  5
7ADF
  8
1
  6
CONTINUOUS
 10
848.97014100000001
 20
1557.349289
 30
0.0
 11
2098.9701409999998
 21
1557.349289
 31
0.0
  0
LINE
  5
7AE0
  8
1
  6
CONTINUOUS
 10
1193.470141
 20
2472.3492890000002
 30
0.0
 11
2053.4701409999998
 21
1867.349289
 31
0.0
  0
ARC
  5
7AE1
  8
1
  6
CONTINUOUS
 10
1893.970141
 20
1819.349289
 30
0.0
 40
142.0
 50
324.59875699999998
 51
215.40124299999999
  0
LINE
  5
7AE2
  8
1
  6
CONTINUOUS
 10
833.9701409999999
 20
1637.349289
 30
0.0
 11
2098.9701409999998
 21
1637.349289
 31
0.0
  0
LINE
  5
7AE3
  8
1
  6
CONTINUOUS
 10
923.4701409999999
 20
3422.3492890000002
 30
0.0
 11
2053.4701409999998
 21
3422.3492890000002
 31
0.0
  0
LINE
  5
7AE4
  8
1
  6
CONTINUOUS
 10
848.97014100000001
 20
3967.3492890000002
 30
0.0
 11
2098.9701409999998
 21
3967.3492890000002
 31
0.0
  0
LINE
  5
7AE5
  8
1
  6
CONTINUOUS
 10
2035.9701409999991
 20
3876.087121999999
 30
0.0
 11
1751.970141
 21
3876.087121999999
 31
0.0
  0
LINE
  5
7AE6
  8
1
  6
CONTINUOUS
 10
2035.9701409999991
 20
3476.0871219999999
 30
0.0
 11
1751.970141
 21
3476.0871219999999
 31
0.0
  0
LINE
  5
7AE7
  8
1
  6
CONTINUOUS
 10
1209.970141
 20
3457.3492890000002
 30
0.0
 11
1874.970141
 21
3457.3492890000002
 31
0.0
  0
LINE
  5
7AE8
  8
1
  6
CONTINUOUS
 10
1923.5296049999999
 20
1882.8019329999991
 30
0.0
 11
1236.1979470000001
 21
2202.9959239999998
 31
0.0
  0
LINE
  5
7AE9
  8
1
  6
CONTINUOUS
 10
1869.5161820000001
 20
1753.759626
 30
0.0
 11
1159.035914
 21
2018.64977
 31
0.0
  0
LINE
  5
7AEA
  8
1
  6
CONTINUOUS
 10
2198.9701409999998
 20
4052.3492890000002
 30
0.0
 11
748.97014100000001
 21
4052.3492890000002
 31
0.0
  0
LINE
  5
7AEB
  8
1
  6
CONTINUOUS
 10
2198.9701409999998
 20
3302.3492890000002
 30
0.0
 11
748.97014100000001
 21
3302.3492890000002
 31
0.0
  0
LINE
  5
7AEC
  8
1
  6
CONTINUOUS
 10
748.97014100000001
 20
2795.3492890000002
 30
0.0
 11
2198.9701409999998
 21
2795.3492890000002
 31
0.0
  0
LINE
  5
7AED
  8
1
  6
CONTINUOUS
 10
748.97014100000001
 20
1495.3492889999991
 30
0.0
 11
2198.9701409999998
 21
1495.3492889999991
 31
0.0
  0
LINE
  5
7AEE
  8
1
  6
CONTINUOUS
 10
788.97014100000001
 20
1535.349289
 30
0.0
 11
788.97014100000001
 21
2755.3492890000002
 31
0.0
  0
LINE
  5
7AEF
  8
1
  6
CONTINUOUS
 10
748.97014100000001
 20
2795.3492890000002
 30
0.0
 11
748.97014100000001
 21
1495.3492889999991
 31
0.0
  0
ARC
  5
7AF0
  8
1
  6
CONTINUOUS
 10
1224.970141
 20
2081.3492890000002
 30
0.0
 40
433.10293799999999
 50
172.74680499999991
 51
264.95754899999997
  0
ARC
  5
7AF1
  8
1
  6
CONTINUOUS
 10
1169.970141
 20
2088.3492890000002
 30
0.0
 40
377.65927299999993
 50
89.544856999999993
 51
172.74680499999991
  0
LINE
  5
7AF2
  8
1
  6
CONTINUOUS
 10
1603.970141
 20
2472.3492890000002
 30
0.0
 11
783.9701409999999
 21
2472.3492890000002
 31
0.0
  0
LINE
  5
7AF3
  8
1
  6
CONTINUOUS
 10
1603.970141
 20
1637.349289
 30
0.0
 11
783.9701409999999
 21
1637.349289
 31
0.0
  0
CIRCLE
  5
7AF4
  8
1
  6
CONTINUOUS
 10
1193.970141
 20
2112.3492890000002
 30
0.0
 40
320.0
  0
CIRCLE
  5
7AF5
  8
1
  6
CONTINUOUS
 10
1193.970141
 20
2112.3492890000002
 30
0.0
 40
100.0
  0
LINE
  5
7AF6
  8
2
  6
CENTER
 10
651.09920879763376
 20
2112.3492890000002
 30
0.0
 11
1880.1665725424459
 21
2112.3492890000002
 31
0.0
  0
CIRCLE
  5
7AF7
  8
1
  6
CONTINUOUS
 10
1193.970141
 20
2112.3492890000002
 30
0.0
 40
295.0
  0
LINE
  5
7AF8
  8
1
  6
CONTINUOUS
 10
923.4701409999999
 20
2387.3492890000002
 30
0.0
 11
1193.470141
 21
2472.3492890000002
 31
0.0
  0
LINE
  5
7AF9
  8
1
  6
CONTINUOUS
 10
783.9701409999999
 20
2472.3492890000002
 30
0.0
 11
783.9701409999999
 21
1637.349289
 31
0.0
  0
LINE
  5
7AFA
  8
1
  6
CONTINUOUS
 10
923.4701409999999
 20
1637.349289
 30
0.0
 11
923.4701409999999
 21
2387.3492890000002
 31
0.0
  0
LINE
  5
7AFB
  8
1
  6
CONTINUOUS
 10
848.97014100000001
 20
1637.349289
 30
0.0
 11
848.97014100000001
 21
1557.349289
 31
0.0
  0
LINE
  5
7AFC
  8
1
  6
CONTINUOUS
 10
1603.970141
 20
2472.3492890000002
 30
0.0
 11
1603.970141
 21
1637.349289
 31
0.0
  0
LINE
  5
7AFD
  8
1
  6
CONTINUOUS
 10
1172.970141
 20
2492.3492890000002
 30
0.0
 11
1732.8466840000001
 21
2492.3492890000002
 31
0.0
  0
LINE
  5
7AFE
  8
2
  6
CENTER
 10
1193.970141
 20
4141.4518280000002
 30
0.0
 11
1193.970141
 21
3195.594169
 31
0.0
  0
LINE
  5
7AFF
  8
1
  6
CONTINUOUS
 10
1172.970141
 20
2465.9966460000001
 30
0.0
 11
1172.970141
 21
2517.3492890000002
 31
0.0
  0
LINE
  5
7B00
  8
1
  6
CONTINUOUS
 10
1732.970141
 20
2517.3492890000002
 30
0.0
 11
1730.970141
 21
2112.3492890000002
 31
0.0
  0
LINE
  5
7B01
  8
1
  6
CONTINUOUS
 10
783.9701409999999
 20
3502.3492890000002
 30
0.0
 11
1732.970141
 21
3502.3492890000002
 31
0.0
  0
LINE
  5
7B02
  8
1
  6
CONTINUOUS
 10
783.9701409999999
 20
3922.3492890000002
 30
0.0
 11
1732.970141
 21
3922.3492890000002
 31
0.0
  0
LINE
  5
7B03
  8
1
  6
CONTINUOUS
 10
848.97014100000001
 20
3457.3492890000002
 30
0.0
 11
1177.970141
 21
3457.3492890000002
 31
0.0
  0
LINE
  5
7B04
  8
1
  6
CONTINUOUS
 10
1293.9701409999991
 20
3392.3492890000002
 30
0.0
 11
1093.9701409999991
 21
3392.3492890000002
 31
0.0
  0
LINE
  5
7B05
  8
1
  6
CONTINUOUS
 10
1293.9701409999991
 20
3332.3492890000002
 30
0.0
 11
1093.9701409999991
 21
3332.3492890000002
 31
0.0
  0
LINE
  5
7B06
  8
1
  6
CONTINUOUS
 10
873.97014100000001
 20
3924.3492890000002
 30
0.0
 11
1513.970141
 21
3924.3492890000002
 31
0.0
  0
LINE
  5
7B07
  8
1
  6
CONTINUOUS
 10
788.97014100000001
 20
3342.3492890000002
 30
0.0
 11
788.97014100000001
 21
4012.3492890000002
 31
0.0
  0
LINE
  5
7B08
  8
1
  6
CONTINUOUS
 10
783.9701409999999
 20
3502.3492890000002
 30
0.0
 11
783.9701409999999
 21
3922.3492890000002
 31
0.0
  0
LINE
  5
7B09
  8
1
  6
CONTINUOUS
 10
748.97014100000001
 20
4052.3492890000002
 30
0.0
 11
748.97014100000001
 21
3302.3492890000002
 31
0.0
  0
LINE
  5
7B0A
  8
1
  6
CONTINUOUS
 10
923.4701409999999
 20
3302.3492890000002
 30
0.0
 11
923.4701409999999
 21
3422.3492890000002
 31
0.0
  0
LINE
  5
7B0B
  8
1
  6
CONTINUOUS
 10
848.97014100000001
 20
3502.3492890000002
 30
0.0
 11
848.97014100000001
 21
3457.3492890000002
 31
0.0
  0
LINE
  5
7B0C
  8
1
  6
CONTINUOUS
 10
1093.9701409999991
 20
3332.3492890000002
 30
0.0
 11
1093.9701409999991
 21
3392.3492890000002
 31
0.0
  0
LINE
  5
7B0D
  8
1
  6
CONTINUOUS
 10
848.97014100000001
 20
3967.3492890000002
 30
0.0
 11
848.97014100000001
 21
3922.3492890000002
 31
0.0
  0
LINE
  5
7B0E
  8
1
  6
CONTINUOUS
 10
873.97014100000001
 20
3922.3492890000002
 30
0.0
 11
873.97014100000001
 21
3924.3492890000002
 31
0.0
  0
LINE
  5
7B0F
  8
1
  6
CONTINUOUS
 10
1172.970141
 20
3922.3492890000002
 30
0.0
 11
1732.970141
 21
3502.3492890000002
 31
0.0
  0
LINE
  5
7B10
  8
1
  6
CONTINUOUS
 10
1732.970141
 20
3922.3492890000002
 30
0.0
 11
1172.970141
 21
3502.3492890000002
 31
0.0
  0
LINE
  5
7B11
  8
1
  6
CONTINUOUS
 10
1172.970141
 20
3922.3492890000002
 30
0.0
 11
1172.970141
 21
3502.3492890000002
 31
0.0
  0
LINE
  5
7B12
  8
1
  6
CONTINUOUS
 10
1732.970141
 20
3922.3492890000002
 30
0.0
 11
1732.970141
 21
3502.3492890000002
 31
0.0
  0
LINE
  5
7B13
  8
1
  6
CONTINUOUS
 10
1751.970141
 20
3876.087121999999
 30
0.0
 11
1751.970141
 21
3476.0871219999999
 31
0.0
  0
LINE
  5
7B14
  8
1
  6
CONTINUOUS
 10
1177.970141
 20
3502.3492890000002
 30
0.0
 11
1177.970141
 21
3392.3492890000002
 31
0.0
  0
LINE
  5
7B15
  8
1
  6
CONTINUOUS
 10
1209.970141
 20
3502.3492890000002
 30
0.0
 11
1209.970141
 21
3392.3492890000002
 31
0.0
  0
LINE
  5
7B16
  8
1
  6
CONTINUOUS
 10
1293.9701409999991
 20
3332.3492890000002
 30
0.0
 11
1293.9701409999991
 21
3392.3492890000002
 31
0.0
  0
LINE
  5
7B17
  8
1
  6
CONTINUOUS
 10
1513.970141
 20
3922.3492890000002
 30
0.0
 11
1513.970141
 21
3924.3492890000002
 31
0.0
  0
LINE
  5
7B18
  8
1
  6
CONTINUOUS
 10
3417.5615120684338
 20
1535.349289
 30
0.0
 11
3417.5615120684338
 21
2755.3492890000002
 31
0.0
  0
LINE
  5
7B19
  8
1
  6
CONTINUOUS
 10
2747.5615120684338
 20
2755.3492890000002
 30
0.0
 11
2747.5615120684338
 21
1535.349289
 31
0.0
  0
LINE
  5
7B1C
  8
1
  6
CONTINUOUS
 10
2158.9701409999998
 20
2755.3492890000002
 30
0.0
 11
2158.9701409999998
 21
1535.349289
 31
0.0
  0
LINE
  5
7B1D
  8
1
  6
CONTINUOUS
 10
2198.9701409999998
 20
2795.3492890000002
 30
0.0
 11
2198.9701409999998
 21
1495.3492889999991
 31
0.0
  0
LINE
  5
7B1E
  8
1
  6
CONTINUOUS
 10
3457.5615120684329
 20
2795.3492890000002
 30
0.0
 11
3457.5615120684329
 21
1495.3492889999991
 31
0.0
  0
LINE
  5
7B1F
  8
1
  6
CONTINUOUS
 10
2707.5615120684338
 20
2795.3492890000002
 30
0.0
 11
2707.5615120684338
 21
1495.3492889999991
 31
0.0
  0
LINE
  5
7B24
  8
1
  6
CONTINUOUS
 10
2747.5615120684338
 20
1535.349289
 30
0.0
 11
3417.5615120684338
 21
1535.349289
 31
0.0
  0
LINE
  5
7B25
  8
1
  6
CONTINUOUS
 10
3457.5615120684329
 20
1495.3492889999991
 30
0.0
 11
2707.5615120684338
 21
1495.3492889999991
 31
0.0
  0
LINE
  5
7B26
  8
1
  6
CONTINUOUS
 10
2707.5615120684338
 20
2472.3492890000002
 30
0.0
 11
2827.5615120684338
 21
2472.3492890000002
 31
0.0
  0
LINE
  5
7B27
  8
1
  6
CONTINUOUS
 10
2737.5615120684338
 20
2212.3492890000002
 30
0.0
 11
2797.5615120684338
 21
2212.3492890000002
 31
0.0
  0
LINE
  5
7B28
  8
1
  6
CONTINUOUS
 10
2737.5615120684338
 20
2012.349289
 30
0.0
 11
2797.5615120684338
 21
2012.349289
 31
0.0
  0
LINE
  5
7B29
  8
1
  6
CONTINUOUS
 10
2737.5615120684338
 20
1889.349289
 30
0.0
 11
2797.5615120684338
 21
1889.349289
 31
0.0
  0
LINE
  5
7B2A
  8
1
  6
CONTINUOUS
 10
2737.5615120684338
 20
1749.3492889999991
 30
0.0
 11
2797.5615120684338
 21
1749.3492889999991
 31
0.0
  0
LINE
  5
7B2B
  8
1
  6
CONTINUOUS
 10
3372.5615120684338
 20
1637.349289
 30
0.0
 11
2707.5615120684338
 21
1637.349289
 31
0.0
  0
CIRCLE
  5
7B36
  8
1
  6
CONTINUOUS
 10
1893.970141
 20
1819.349289
 30
0.0
 40
70.0
  0
LINE
  5
7B37
  8
1
  6
CONTINUOUS
 10
2053.4701409999998
 20
1637.349289
 30
0.0
 11
2053.4701409999998
 21
1867.349289
 31
0.0
  0
LINE
  5
7B38
  8
2
  6
CENTER
 10
1893.970141
 20
1749.3492889999991
 30
0.0
 11
1893.970141
 21
1889.349289
 31
0.0
  0
LINE
  5
7B39
  8
1
  6
CONTINUOUS
 10
2023.970141
 20
1637.349289
 30
0.0
 11
1763.970141
 21
1637.349289
 31
0.0
  0
LINE
  5
7B3A
  8
2
  6
CENTER
 10
1963.970141
 20
1819.349289
 30
0.0
 11
1823.970141
 21
1819.349289
 31
0.0
  0
LINE
  5
7B3B
  8
1
  6
CONTINUOUS
 10
1763.970141
 20
1702.3492889999991
 30
0.0
 11
1778.223778
 21
1737.088851999999
 31
0.0
  0
LINE
  5
7B3C
  8
1
  6
CONTINUOUS
 10
1763.970141
 20
1637.349289
 30
0.0
 11
1763.970141
 21
1702.3492889999991
 31
0.0
  0
LINE
  5
7B3D
  8
1
  6
CONTINUOUS
 10
2023.970141
 20
1637.349289
 30
0.0
 11
2023.970141
 21
1702.3492889999991
 31
0.0
  0
LINE
  5
7B3E
  8
1
  6
CONTINUOUS
 10
2023.970141
 20
1702.3492889999991
 30
0.0
 11
2009.716504
 21
1737.088851999999
 31
0.0
  0
LINE
  5
7B3F
  8
1
  6
CONTINUOUS
 10
2098.9701409999998
 20
1637.349289
 30
0.0
 11
2098.9701409999998
 21
1557.349289
 31
0.0
  0
LINE
  5
7B58
  8
1
  6
CONTINUOUS
 10
2737.5615120684338
 20
1889.349289
 30
0.0
 11
2737.5615120684338
 21
1749.3492889999991
 31
0.0
  0
LINE
  5
7B5D
  8
1
  6
CONTINUOUS
 10
2737.5615120684338
 20
2212.3492890000002
 30
0.0
 11
2737.5615120684338
 21
2012.349289
 31
0.0
  0
LINE
  5
7B5E
  8
1
  6
CONTINUOUS
 10
3329.5615120684338
 20
1792.349289
 30
0.0
 11
3329.5615120684338
 21
2432.3492890000002
 31
0.0
  0
LINE
  5
7B5F
  8
1
  6
CONTINUOUS
 10
2827.5615120684338
 20
1637.349289
 30
0.0
 11
2827.5615120684338
 21
2472.3492890000002
 31
0.0
  0
LINE
  5
7B60
  8
1
  6
CONTINUOUS
 10
2797.5615120684338
 20
1889.349289
 30
0.0
 11
2797.5615120684338
 21
1749.3492889999991
 31
0.0
  0
LINE
  5
7B61
  8
1
  6
CONTINUOUS
 10
2907.5615120684338
 20
1637.349289
 30
0.0
 11
2907.5615120684338
 21
2517.3492890000002
 31
0.0
  0
LINE
  5
7B62
  8
1
  6
CONTINUOUS
 10
3327.5615120684338
 20
1637.349289
 30
0.0
 11
3327.5615120684338
 21
2517.3492890000002
 31
0.0
  0
LINE
  5
7B63
  8
1
  6
CONTINUOUS
 10
3372.5615120684338
 20
1557.349289
 30
0.0
 11
2862.5615120684338
 21
1557.349289
 31
0.0
  0
LINE
  5
7B64
  8
1
  6
CONTINUOUS
 10
2797.5615120684338
 20
1803.349289
 30
0.0
 11
2907.5615120684338
 21
1803.349289
 31
0.0
  0
LINE
  5
7B65
  8
1
  6
CONTINUOUS
 10
2862.5615120684338
 20
1557.349289
 30
0.0
 11
2862.5615120684338
 21
1637.349289
 31
0.0
  0
LINE
  5
7B66
  8
1
  6
CONTINUOUS
 10
3327.5615120684338
 20
1792.349289
 30
0.0
 11
3329.5615120684338
 21
1792.349289
 31
0.0
  0
LINE
  5
7B67
  8
1
  6
CONTINUOUS
 10
3372.5615120684338
 20
1557.349289
 30
0.0
 11
3372.5615120684338
 21
1637.349289
 31
0.0
  0
LINE
  5
7B68
  8
1
  6
CONTINUOUS
 10
2907.5615120684338
 20
2492.3492890000002
 30
0.0
 11
3327.5615120684338
 21
2492.3492890000002
 31
0.0
  0
LINE
  5
7B69
  8
1
  6
CONTINUOUS
 10
2880.5615120684338
 20
2517.3492890000002
 30
0.0
 11
3354.5615120684338
 21
2517.3492890000002
 31
0.0
  0
LINE
  5
7B6A
  8
1
  6
CONTINUOUS
 10
2797.5615120684338
 20
2212.3492890000002
 30
0.0
 11
2797.5615120684338
 21
2012.349289
 31
0.0
  0
LINE
  5
7B6B
  8
1
  6
CONTINUOUS
 10
2797.5615120684338
 20
1835.349289
 30
0.0
 11
2907.5615120684338
 21
1835.349289
 31
0.0
  0
LINE
  5
7B6C
  8
1
  6
CONTINUOUS
 10
2907.5615120684338
 20
2128.3492890000002
 30
0.0
 11
2797.5615120684338
 21
2128.3492890000002
 31
0.0
  0
LINE
  5
7B6D
  8
1
  6
CONTINUOUS
 10
2907.5615120684338
 20
2096.3492890000002
 30
0.0
 11
2797.5615120684338
 21
2096.3492890000002
 31
0.0
  0
LINE
  5
7B6E
  8
1
  6
CONTINUOUS
 10
3327.5615120684338
 20
2432.3492890000002
 30
0.0
 11
3329.5615120684338
 21
2432.3492890000002
 31
0.0
  0
LINE
  5
7B6F
  8
1
  6
CONTINUOUS
 10
3417.5615120684338
 20
2755.3492890000002
 30
0.0
 11
2747.5615120684338
 21
2755.3492890000002
 31
0.0
  0
LINE
  5
7B70
  8
1
  6
CONTINUOUS
 10
3457.5615120684329
 20
2795.3492890000002
 30
0.0
 11
2707.5615120684338
 21
2795.3492890000002
 31
0.0
  0
LINE
  5
7B82
  8
1
  6
CONTINUOUS
 10
2158.9701409999998
 20
4012.3492890000002
 30
0.0
 11
2158.9701409999998
 21
3342.3492890000002
 31
0.0
  0
LINE
  5
7B83
  8
1
  6
CONTINUOUS
 10
2098.9701409999998
 20
3967.3492890000002
 30
0.0
 11
2098.9701409999998
 21
3457.3492890000002
 31
0.0
  0
LINE
  5
7B84
  8
1
  6
CONTINUOUS
 10
2035.9701409999991
 20
3876.087121999999
 30
0.0
 11
2035.9701409999991
 21
3476.0871219999999
 31
0.0
  0
LINE
  5
7B85
  8
1
  6
CONTINUOUS
 10
2198.9701409999998
 20
4052.3492890000002
 30
0.0
 11
2198.9701409999998
 21
3302.3492890000002
 31
0.0
  0
LINE
  5
7B86
  8
1
  6
CONTINUOUS
 10
1912.9701409999991
 20
3457.3492890000002
 30
0.0
 11
2098.9701409999998
 21
3457.3492890000002
 31
0.0
  0
LINE
  5
7B87
  8
1
  6
CONTINUOUS
 10
1963.970141
 20
3332.3492890000002
 30
0.0
 11
1823.970141
 21
3332.3492890000002
 31
0.0
  0
LINE
  5
7B88
  8
1
  6
CONTINUOUS
 10
1963.970141
 20
3392.3492890000002
 30
0.0
 11
1823.970141
 21
3392.3492890000002
 31
0.0
  0
LINE
  5
7B89
  8
1
  6
CONTINUOUS
 10
1823.970141
 20
3332.3492890000002
 30
0.0
 11
1823.970141
 21
3392.3492890000002
 31
0.0
  0
LINE
  5
7B8A
  8
1
  6
CONTINUOUS
 10
1874.970141
 20
3392.3492890000002
 30
0.0
 11
1874.970141
 21
3476.0871219999999
 31
0.0
  0
LINE
  5
7B8B
  8
1
  6
CONTINUOUS
 10
1963.970141
 20
3332.3492890000002
 30
0.0
 11
1963.970141
 21
3392.3492890000002
 31
0.0
  0
LINE
  5
7B8C
  8
1
  6
CONTINUOUS
 10
2053.4701409999998
 20
3302.3492890000002
 30
0.0
 11
2053.4701409999998
 21
3422.3492890000002
 31
0.0
  0
LINE
  5
7B8D
  8
1
  6
CONTINUOUS
 10
1912.9701409999991
 20
3392.3492890000002
 30
0.0
 11
1912.9701409999991
 21
3476.0871219999999
 31
0.0
  0
LINE
  5
7BAD
  8
2
  6
CENTER
 10
3117.5615120684338
 20
2855.8606947149251
 30
0.0
 11
3117.5615120684338
 21
1399.599300474425
 31
0.0
  0
LINE
  5
7BB0
  8
2
  6
CENTER
 10
646.757204
 20
3712.3492890000002
 30
0.0
 11
1826.463594337376
 21
3712.3492890000002
 31
0.0
  0
LINE
  5
7BB1
  8
2
  6
CENTER
 10
1193.970141
 20
2729.6195142969691
 30
0.0
 11
1193.970141
 21
1392.9659694135951
 31
0.0
  0
LINE
  5
7BB2
  8
2
  6
CENTER
 10
2646.4740820684342
 20
2112.3492890000002
 30
0.0
 11
3489.7306730691198
 21
2112.3492890000002
 31
0.0
  0
DIMENSION
  5
7BC7
  8
3
  6
CONTINUOUS
  2
*D1
 10
1172.970141
 20
2621.0801820000001
 30
0.0
 11
1433.2342149999999
 21
2621.0801820000001
 31
0.0
 70
   128
 13
1732.970141
 23
2517.3492890000002
 33
0.0
 14
1172.970141
 24
2517.3492890000002
 34
0.0
1001
ACAD
1000
DSTYLE
1002
{
1070
   287
1070
     3
1070
    40
1040
20.0
1070
   143
1040
0.039
1070
   172
1070
     1
1070
   271
1070
     0
1070
   279
1070
     0
1070
   288
1070
     1
1002
}
  0
DIMENSION
  5
7BD4
  8
3
  6
CONTINUOUS
  2
*D2
 10
1193.970141
 20
2910.9573149999992
 30
0.0
 11
1435.1493559999999
 21
2910.9573149999992
 31
0.0
 70
   128
 13
1732.970141
 23
2517.3492890000002
 33
0.0
 14
1193.970141
 24
2729.6195142969691
 34
0.0
1001
ACAD
1000
DSTYLE
1002
{
1070
   287
1070
     3
1070
    40
1040
20.0
1070
   143
1040
0.039
1070
   172
1070
     1
1070
   271
1070
     0
1070
   279
1070
     0
1070
   288
1070
     1
1002
}
  0
DIMENSION
  5
7BE0
  8
3
  6
CONTINUOUS
  2
*D3
 10
783.9701409999999
 20
2910.9573149999992
 30
0.0
 11
988.97014100000001
 21
2960.9573149999992
 31
0.0
 70
     0
 13
1193.970141
 23
2729.6195142969691
 33
0.0
 14
783.9701409999999
 24
2472.3492890000002
 34
0.0
1001
ACAD
1000
DSTYLE
1002
{
1070
   287
1070
     4
1070
    40
1040
20.0
1070
    75
1070
     1
1070
   143
1040
0.039
1070
   172
1070
     1
1070
   271
1070
     0
1070
   279
1070
     1
1070
   288
1070
     1
1002
}
  0
DIMENSION
  5
7BFA
  8
3
  6
CONTINUOUS
  2
*D4
 10
606.1087620000003
 20
2112.3492890000002
 30
0.0
 11
606.10876199999996
 21
2315.102758999999
 31
0.0
 70
   128
 13
1145.970141
 23
2517.3492890000002
 33
0.0
 14
659.99673269301275
 24
2112.3492890000002
 34
0.0
 50
90.0
1001
ACAD
1000
DSTYLE
1002
{
1070
   287
1070
     3
1070
    40
1040
20.0
1070
   143
1040
0.039
1070
   172
1070
     1
1070
   271
1070
     0
1070
   279
1070
     0
1070
   288
1070
     1
1002
}
  0
DIMENSION
  5
7C06
  8
3
  6
CONTINUOUS
  2
*D5
 10
606.10876199999996
 20
1557.349289
 30
0.0
 11
556.10876199999973
 21
1834.849289
 31
0.0
 70
     0
 13
651.09920879763376
 23
2112.3492890000002
 33
0.0
 14
848.97014100000001
 24
1557.349289
 34
0.0
 50
90.0
1001
ACAD
1000
DSTYLE
1002
{
1070
   287
1070
     4
1070
    40
1040
20.0
1070
    75
1070
     1
1070
   143
1040
0.039
1070
   172
1070
     1
1070
   271
1070
     0
1070
   279
1070
     1
1070
   288
1070
     1
1002
}
  0
DIMENSION
  5
7C16
  8
3
  6
CONTINUOUS
  2
*D6
 10
605.51082100000008
 20
1495.3492889999991
 30
0.0
 11
605.51082099999996
 21
1346.7778604285711
 31
0.0
 70
   128
 13
848.97014100000001
 23
1557.349289
 33
0.0
 14
748.97014100000001
 24
1495.3492889999991
 34
0.0
 50
90.0
1001
ACAD
1000
DSTYLE
1002
{
1070
   287
1070
     3
1070
    40
1040
20.0
1070
   143
1040
0.039
1070
   172
1070
     1
1070
   271
1070
     0
1070
   279
1070
     0
1070
   288
1070
     1
1002
}
  0
DIMENSION
  5
7C23
  8
3
  6
CONTINUOUS
  2
*D7
 10
1193.970141
 20
1333.344797996738
 30
0.0
 11
973.54353900000012
 21
1333.344797996738
 31
0.0
 70
   128
 13
748.97014100000001
 23
1495.3492889999991
 33
0.0
 14
1193.970141
 24
1402.409924898664
 34
0.0
1001
ACAD
1000
DSTYLE
1002
{
1070
   287
1070
     3
1070
    40
1040
20.0
1070
   143
1040
0.039
1070
   172
1070
     1
1070
   271
1070
     0
1070
   279
1070
     0
1070
   288
1070
     1
1002
}
  0
DIMENSION
  5
7C2F
  8
3
  6
CONTINUOUS
  2
*D8
 10
2198.9701409999998
 20
1333.344797996738
 30
0.0
 11
1696.470141
 21
1383.344797996738
 31
0.0
 70
     0
 13
1193.970141
 23
1402.409924898664
 33
0.0
 14
2198.9701409999998
 24
1495.3492889999991
 34
0.0
1001
ACAD
1000
DSTYLE
1002
{
1070
   287
1070
     4
1070
    40
1040
20.0
1070
    75
1070
     1
1070
   143
1040
0.039
1070
   172
1070
     1
1070
   271
1070
     0
1070
   279
1070
     1
1070
   288
1070
     1
1002
}
  0
DIMENSION
  5
7C3C
  8
3
  6
CONTINUOUS
  2
*D9
 10
2907.5615120684338
 20
2865.8926860000001
 30
0.0
 11
3115.9084590684338
 21
2865.8926860000001
 31
0.0
 70
   128
 13
3327.5615120684338
 23
2517.3492890000002
 33
0.0
 14
2907.5615120684338
 24
2517.3492890000002
 34
0.0
1001
ACAD
1000
DSTYLE
1002
{
1070
   287
1070
     3
1070
    40
1040
20.0
1070
   143
1040
0.039
1070
   172
1070
     1
1070
   271
1070
     0
1070
   279
1070
     0
1070
   288
1070
     1
1002
}
  0
DIMENSION
  5
7C4B
  8
3
  6
CONTINUOUS
  2
*D10
 10
3631.2336140684351
 20
1817.349289
 30
0.0
 11
3631.2336140684338
 21
2099.7939739999988
 31
0.0
 70
   128
 13
3327.5615120684338
 23
2407.3492890000002
 33
0.0
 14
3327.5615120684338
 24
1817.349289
 34
0.0
 50
90.0
1001
ACAD
1000
DSTYLE
1002
{
1070
   287
1070
     3
1070
     3
1000
φ<>
1070
    40
1040
20.0
1070
   143
1040
0.039
1070
   172
1070
     1
1070
   271
1070
     0
1070
   279
1070
     0
1070
   288
1070
     1
1002
}
  0
DIMENSION
  5
7C5A
  8
3
  6
CONTINUOUS
  2
*D11
 10
3117.5615120684338
 20
3006.0937570000001
 30
0.0
 11
3223.5615120684338
 21
3061.882417989862
 31
0.0
 70
   128
 13
3329.5615120684338
 23
2432.3492890000002
 33
0.0
 14
3117.5615120684338
 24
2954.813168212188
 34
0.0
1001
ACAD
1000
DSTYLE
1002
{
1070
   288
1070
     1
1070
   172
1070
     1
1070
    40
1040
20.0
1070
   271
1070
     0
1070
   143
1040
0.039
1002
}
  0
DIMENSION
  5
7C73
  8
3
  6
CONTINUOUS
  2
*D12
 10
3117.5615120684338
 20
1322.875916993474
 30
0.0
 11
2915.4281940684341
 21
1322.875916993474
 31
0.0
 70
   128
 13
2707.5615120684338
 23
1495.3492889999991
 33
0.0
 14
3117.5615120684338
 24
1392.7253986207361
 34
0.0
1001
ACAD
1000
DSTYLE
1002
{
1070
   287
1070
     3
1070
    40
1040
20.0
1070
   143
1040
0.039
1070
   172
1070
     1
1070
   271
1070
     0
1070
   279
1070
     0
1070
   288
1070
     1
1002
}
  0
DIMENSION
  5
7C7F
  8
3
  6
CONTINUOUS
  2
*D13
 10
3457.5615120684329
 20
1322.875916993474
 30
0.0
 11
3287.5615120684338
 21
1372.875916993474
 31
0.0
 70
     0
 13
3117.5615120684338
 23
1392.7253986207361
 33
0.0
 14
3457.5615120684329
 24
1495.3492889999991
 34
0.0
1001
ACAD
1000
DSTYLE
1002
{
1070
   287
1070
     4
1070
    40
1040
20.0
1070
    75
1070
     1
1070
   143
1040
0.039
1070
   172
1070
     1
1070
   271
1070
     0
1070
   279
1070
     1
1070
   288
1070
     1
1002
}
  0
DIMENSION
  5
7C8C
  8
3
  6
CONTINUOUS
  2
*D14
 10
2198.9701409999998
 20
4300.0846490000013
 30
0.0
 11
1491.3403920000001
 21
4300.0846490000013
 31
0.0
 70
   128
 13
748.97014100000001
 23
4052.3492890000002
 33
0.0
 14
2198.9701409999998
 24
4052.3492890000002
 34
0.0
1001
ACAD
1000
DSTYLE
1002
{
1070
   287
1070
     3
1070
    40
1040
20.0
1070
   143
1040
0.039
1070
   172
1070
     1
1070
   271
1070
     0
1070
   279
1070
     0
1070
   288
1070
     1
1002
}
  0
DIMENSION
  5
7C99
  8
3
  6
CONTINUOUS
  2
*D15
 10
2411.9894490000001
 20
3302.3492890000002
 30
0.0
 11
2411.9894490000001
 21
3694.0504149999988
 31
0.0
 70
   128
 13
2198.9701409999998
 23
4052.3492890000002
 33
0.0
 14
2198.9701409999998
 24
3302.3492890000002
 34
0.0
 50
90.0
1001
ACAD
1000
DSTYLE
1002
{
1070
   287
1070
     3
1070
    40
1040
20.0
1070
   143
1040
0.039
1070
   172
1070
     1
1070
   271
1070
     0
1070
   279
1070
     0
1070
   288
1070
     1
1002
}
  0
LINE
  5
7C9A
  8
4
  6
CONTINUOUS
 10
3700.0
 20
1000.0
 30
0.0
 11
3700.0
 21
600.0
 31
0.0
  0
LINE
  5
7C9B
  8
4
  6
CONTINUOUS
 10
2300.0
 20
1000.0
 30
0.0
 11
2300.0
 21
600.0
 31
0.0
  0
LINE
  5
7C9C
  8
4
  6
CONTINUOUS
 10
1300.0
 20
1000.0
 30
0.0
 11
1300.0
 21
600.0
 31
0.0
  0
LINE
  5
7C9F
  8
4
  6
CONTINUOUS
 10
1300.0
 20
600.0
 30
0.0
 11
3700.0
 21
600.0
 31
0.0
  0
LINE
  5
7CA0
  8
4
  6
CONTINUOUS
 10
1300.0
 20
800.0
 30
0.0
 11
3700.0
 21
800.0
 31
0.0
  0
TEXT
  5
7CA1
  8
4
  6
CONTINUOUS
 10
1377.004162
 20
863.086052
 30
0.0
 40
100.0
  1
機器名称
  0
TEXT
  5
7CA2
  8
4
  6
CONTINUOUS
 10
1372.516212
 20
643.29031299999986
 30
0.0
 40
100.0
  1
機器型番
  0
TEXT
  5
7CA3
  8
4
  6
CONTINUOUS
 10
2355.3574910000002
 20
845.14353800000015
 30
0.0
 40
100.0
  1
ミツヤ多翼送風機
  0
TEXT
  5
7CA4
  8
4
  6
CONTINUOUS
 10
2373.3089909999999
 20
634.31916899999999
 30
0.0
 40
100.0
  1
MF#3 1/2-4
  0
TEXT
  5
7CA6
  8
4
  6
CONTINUOUS
 10
1431.0019239999999
 20
4766.8576830000002
 30
0.0
 40
108.0
  1
天井吊枠防振ベット
  0
TEXT
  5
7CA7
  8
4
  6
CONTINUOUS
 10
632.33518700000002
 20
5067.7619520000007
 30
0.0
 40
144.0
  1
ベルト駆動式片吸込両持多翼ファン
  0
LINE
  5
7CA8
  8
4
  6
CONTINUOUS
 10
500.0
 20
4938.8175090000004
 30
0.0
 11
3700.0
 21
4938.8175090000004
 31
0.0
  0
LINE
  5
7CA9
  8
4
  6
CONTINUOUS
 10
500.0
 20
5338.8175090000004
 30
0.0
 11
3700.0
 21
5338.8175090000004
 31
0.0
  0
LINE
  5
7CAA
  8
4
  6
CONTINUOUS
 10
1300.0
 20
1000.0
 30
0.0
 11
3700.0
 21
1000.0
 31
0.0
  0
LINE
  5
7CAB
  8
4
  6
CONTINUOUS
 10
500.0
 20
5338.8175090000004
 30
0.0
 11
500.0
 21
4938.8175090000004
 31
0.0
  0
TEXT
  5
7CAC
  8
4
  6
CONTINUOUS
 10
559.2842599999999
 20
4764.6389549999994
 30
0.0
 40
108.0
  1
左回転上向
  0
TEXT
  5
7CAD
  8
4
  6
CONTINUOUS
 10
2937.9391179999998
 20
5412.122163
 30
0.0
 40
112.0
  1
No.
  0
TEXT
  5
7CAE
  8
4
  6
CONTINUOUS
 10
2761.4009930000002
 20
4766.8576830000002
 30
0.0
 40
108.0
  1
縮尺：1/20
  0
LINE
  5
7CAF
  8
4
  6
CONTINUOUS
 10
3700.0
 20
5338.8175090000004
 30
0.0
 11
3700.0
 21
4938.8175090000004
 31
0.0
  0
LINE
  5
7CB1
  8
4
  6
CONTINUOUS
 10
2881.234845
 20
5362.5271659999999
 30
0.0
 11
2881.234845
 21
5573.3045229999998
 31
0.0
  0
LINE
  5
7CB2
  8
4
  6
CONTINUOUS
 10
2881.234845
 20
5573.3045229999998
 30
0.0
 11
3700.0
 21
5573.3045229999998
 31
0.0
  0
LINE
  5
7CB3
  8
4
  6
CONTINUOUS
 10
3700.0
 20
5573.3045229999998
 30
0.0
 11
3700.0
 21
5362.5271659999999
 31
0.0
  0
LINE
  5
7CB4
  8
4
  6
CONTINUOUS
 10
3700.0
 20
5362.5271659999999
 30
0.0
 11
2881.234845
 21
5362.5271659999999
 31
0.0
  0
DIMENSION
  5
7CCB
  8
3
  6
CONTINUOUS
  2
*D16
 10
2543.4547700684352
 20
1495.349289
 30
0.0
 11
2543.4547700684338
 21
2100.9595250000002
 31
0.0
 70
   128
 13
2707.5615120684338
 23
2795.3492890000002
 33
0.0
 14
2707.5615120684338
 24
1495.3492889999991
 34
0.0
 50
90.0
1001
ACAD
1000
DSTYLE
1002
{
1070
   287
1070
     3
1070
    40
1040
20.0
1070
   143
1040
0.039
1070
   172
1070
     1
1070
   271
1070
     0
1070
   279
1070
     0
1070
   288
1070
     1
1002
}
  0
ENDSEC
  0
EOF
