  0
SECTION
  2
HEADER
  9
$ACADVER
  1
AC1009
  9
$INSBASE
 10
0.0
 20
0.0
 30
0.0
  9
$EXTMIN
 10
500.0
 20
600.0
 30
0.0
  9
$EXTMAX
 10
3700.0
 20
5573.3045229999998
 30
0.0
  9
$LIMMIN
 10
0.0
 20
0.0
  9
$LIMMAX
 10
297.0
 20
210.0
  9
$ORTHOMODE
 70
     0
  9
$REGENMODE
 70
     1
  9
$FILLMODE
 70
     0
  9
$QTEXTMODE
 70
     0
  9
$MIRRTEXT
 70
     1
  9
$DRAGMODE
 70
     2
  9
$LTSCALE
 40
100.0
  9
$OSMODE
 70
    37
  9
$ATTMODE
 70
     1
  9
$TEXTSIZE
 40
180.0
  9
$TRACEWID
 40
0.05
  9
$TEXTSTYLE
  7
STANDARD
  9
$CLAYER
  8
3
  9
$CELTYPE
  6
BYLAYER
  9
$CECOLOR
 62
   256
  9
$DIMSCALE
 40
20.0
  9
$DIMASZ
 40
2.0
  9
$DIMEXO
 40
0.5
  9
$DIMDLI
 40
10.0
  9
$DIMRND
 40
0.0
  9
$DIMDLE
 40
0.0
  9
$DIMEXE
 40
1.0
  9
$DIMTP
 40
1.0
  9
$DIMTM
 40
1.0
  9
$DIMTXT
 40
3.0
  9
$DIMCEN
 40
0.0
  9
$DIMTSZ
 40
0.0
  9
$DIMTOL
 70
     0
  9
$DIMLIM
 70
     0
  9
$DIMTIH
 70
     0
  9
$DIMTOH
 70
     0
  9
$DIMSE1
 70
     0
  9
$DIMSE2
 70
     0
  9
$DIMTAD
 70
     1
  9
$DIMZIN
 70
     8
  9
$DIMBLK
  1

  9
$DIMASO
 70
     1
  9
$DIMSHO
 70
     1
  9
$DIMPOST
  1

  9
$DIMAPOST
  1

  9
$DIMALT
 70
     0
  9
$DIMALTD
 70
     2
  9
$DIMALTF
 40
0.039
  9
$DIMLFAC
 40
1.0
  9
$DIMTOFL
 70
     1
  9
$DIMTVP
 40
0.0
  9
$DIMTIX
 70
     0
  9
$DIMSOXD
 70
     0
  9
$DIMSAH
 70
     1
  9
$DIMBLK1
  1
OPEN
  9
$DIMBLK2
  1
OPEN
  9
$DIMSTYLE
  2
IGA
  9
$DIMCLRD
 70
     0
  9
$DIMCLRE
 70
     0
  9
$DIMCLRT
 70
     0
  9
$DIMTFAC
 40
10.0
  9
$DIMGAP
 40
1.0
  9
$LUNITS
 70
     2
  9
$LUPREC
 70
     3
  9
$SKETCHINC
 40
0.1
  9
$FILLETRAD
 40
50.0
  9
$AUNITS
 70
     0
  9
$AUPREC
 70
     0
  9
$MENU
  1
acad
  9
$ELEVATION
 40
0.0
  9
$PELEVATION
 40
0.0
  9
$THICKNESS
 40
0.0
  9
$LIMCHECK
 70
     0
  9
$BLIPMODE
 70
     0
  9
$CHAMFERA
 40
0.5
  9
$CHAMFERB
 40
0.5
  9
$SKPOLY
 70
     0
  9
$TDCREATE
 40
2450737.6060836799
  9
$TDUPDATE
 40
2454953.7691406249
  9
$TDINDWG
 40
0.0045230903
  9
$TDUSRTIMER
 40
0.0045230903
  9
$USRTIMER
 70
     1
  9
$ANGBASE
 50
0.0
  9
$ANGDIR
 70
     0
  9
$PDMODE
 70
     0
  9
$PDSIZE
 40
0.0
  9
$PLINEWID
 40
0.0
  9
$COORDS
 70
     1
  9
$SPLFRAME
 70
     0
  9
$SPLINETYPE
 70
     6
  9
$SPLINESEGS
 70
     8
  9
$ATTDIA
 70
     0
  9
$ATTREQ
 70
     1
  9
$HANDLING
 70
 10241
  9
$HANDSEED
  5
7EA4
  9
$SURFTAB1
 70
     6
  9
$SURFTAB2
 70
     6
  9
$SURFTYPE
 70
     6
  9
$SURFU
 70
     6
  9
$SURFV
 70
     6
  9
$UCSNAME
  2

  9
$UCSORG
 10
0.0
 20
0.0
 30
0.0
  9
$UCSXDIR
 10
1.0
 20
0.0
 30
0.0
  9
$UCSYDIR
 10
0.0
 20
1.0
 30
0.0
  9
$PUCSNAME
  2

  9
$PUCSORG
 10
0.0
 20
0.0
 30
0.0
  9
$PUCSXDIR
 10
1.0
 20
0.0
 30
0.0
  9
$PUCSYDIR
 10
0.0
 20
1.0
 30
0.0
  9
$USERI1
 70
     0
  9
$USERI2
 70
     0
  9
$USERI3
 70
     0
  9
$USERI4
 70
     0
  9
$USERI5
 70
     0
  9
$USERR1
 40
0.0
  9
$USERR2
 40
0.0
  9
$USERR3
 40
0.0
  9
$USERR4
 40
0.0
  9
$USERR5
 40
0.0
  9
$WORLDVIEW
 70
     1
  9
$SHADEDGE
 70
     3
  9
$SHADEDIF
 70
    70
  9
$TILEMODE
 70
     1
  9
$MAXACTVP
 70
    16
  9
$PLIMCHECK
 70
     0
  9
$PEXTMIN
 10
1.0000000000000000E+020
 20
1.0000000000000000E+020
 30
1.0000000000000000E+020
  9
$PEXTMAX
 10
-1.0000000000000000E+020
 20
-1.0000000000000000E+020
 30
-1.0000000000000000E+020
  9
$PLIMMIN
 10
0.0
 20
0.0
  9
$PLIMMAX
 10
12.0
 20
9.0
  9
$UNITMODE
 70
     0
  9
$VISRETAIN
 70
     0
  9
$PLINEGEN
 70
     0
  9
$PSLTSCALE
 70
     1
  0
ENDSEC
  0
SECTION
  2
TABLES
  0
TABLE
  2
VPORT
 70
     2
  0
VPORT
  2
*ACTIVE
 70
     0
 10
0.0
 20
0.0
 11
1.0
 21
1.0
 12
6292.1124769529506
 22
3086.6374998146398
 13
0.0
 23
0.0
 14
10.0
 24
10.0
 15
10.0
 25
10.0
 16
0.0
 26
0.0
 36
1.0
 17
0.0
 27
0.0
 37
0.0
 40
5011.4968576296578
 41
3.1666666666666661
 42
50.0
 43
0.0
 44
0.0
 50
0.0
 51
0.0
 71
     0
 72
   100
 73
     1
 74
     0
 75
     0
 76
     0
 77
     0
 78
     0
  0
ENDTAB
  0
TABLE
  2
LTYPE
 70
     2
  0
LTYPE
  2
CONTINUOUS
 70
     0
  3
Solid line
 72
    65
 73
     0
 40
0.0
  0
LTYPE
  2
CENTER
 70
     0
  3
____ _ ____ _ ____ _ ____ _ ____ _ ____ _ ____ 
 72
    65
 73
     4
 40
2.0
 49
1.25
 49
-0.25
 49
0.25
 49
-0.25
  0
ENDTAB
  0
TABLE
  2
LAYER
 70
     6
  0
LAYER
  2
0
 70
     0
 62
     7
  6
CONTINUOUS
  0
LAYER
  2
3
 70
     0
 62
     2
  6
CONTINUOUS
  0
LAYER
  2
2
 70
     0
 62
     3
  6
CENTER
  0
LAYER
  2
1
 70
     0
 62
     4
  6
CONTINUOUS
  0
LAYER
  2
4
 70
     0
 62
     7
  6
CONTINUOUS
  0
LAYER
  2
DEFPOINTS
 70
     0
 62
    -7
  6
CONTINUOUS
  0
ENDTAB
  0
TABLE
  2
STYLE
 70
     1
  0
STYLE
  2
STANDARD
 70
     0
 40
0.0
 41
1.0
 50
0.0
 71
     0
 42
180.0
  3
simplex.shx
  4
extfont.shx
  0
ENDTAB
  0
TABLE
  2
VIEW
 70
     0
  0
ENDTAB
  0
TABLE
  2
UCS
 70
     0
  0
ENDTAB
  0
TABLE
  2
APPID
 70
     1
  0
APPID
  2
ACAD
 70
     0
  0
ENDTAB
  0
TABLE
  2
DIMSTYLE
 70
     1
  0
DIMSTYLE
  2
IGA
 70
     0
  3

  4

  5

  6
OPEN
  7
OPEN
 40
2.0
 41
2.0
 42
0.5
 43
10.0
 44
1.0
 45
0.0
 46
0.0
 47
1.0
 48
1.0
140
3.0
141
0.0
142
0.0
143
0.03937
144
1.0
145
0.0
146
10.0
147
1.0
 71
     0
 72
     0
 73
     0
 74
     0
 75
     0
 76
     0
 77
     1
 78
     8
170
     0
171
     2
172
     0
173
     1
174
     0
175
     0
176
     0
177
     0
178
     0
  0
ENDTAB
  0
ENDSEC
  0
SECTION
  2
BLOCKS
  0
BLOCK
  8
0
  2
$MODEL_SPACE
 70
     0
 10
0.0
 20
0.0
 30
0.0
  3
$MODEL_SPACE
  1

  0
ENDBLK
  5
1B
  8
0
  0
BLOCK
 67
     1
  8
0
  2
$PAPER_SPACE
 70
     0
 10
0.0
 20
0.0
 30
0.0
  3
$PAPER_SPACE
  1

  0
ENDBLK
  5
18
 67
     1
  8
0
  0
BLOCK
  8
0
  2
_OPEN
 70
     0
 10
0.0
 20
0.0
 30
0.0
  3
_OPEN
  1

  0
LINE
  5
7BD4
  8
0
  6
BYBLOCK
 62
     0
 10
-1.0
 20
0.166667
 30
0.0
 11
0.0
 21
0.0
 31
0.0
  0
LINE
  5
7BD5
  8
0
  6
BYBLOCK
 62
     0
 10
0.0
 20
0.0
 30
0.0
 11
-1.0
 21
-0.166667
 31
0.0
  0
LINE
  5
7BD6
  8
0
  6
BYBLOCK
 62
     0
 10
0.0
 20
0.0
 30
0.0
 11
-1.0
 21
0.0
 31
0.0
  0
ENDBLK
  5
7BD7
  8
0
  0
BLOCK
  8
0
  2
*D1
 70
     1
 10
0.0
 20
0.0
 30
0.0
  3
*D1
  1

  0
LINE
  5
7E10
  8
3
  6
CONTINUOUS
 62
     0
 10
895.05546899999979
 20
2575.7838699999988
 30
0.0
 11
731.07970700000044
 21
2575.7838699999988
 31
0.0
  0
LINE
  5
7E11
  8
3
  6
CONTINUOUS
 62
     0
 10
895.05546899999979
 20
2015.7838699999991
 30
0.0
 11
731.07970700000033
 21
2015.7838699999991
 31
0.0
  0
LINE
  5
7E12
  8
3
  6
CONTINUOUS
 62
     0
 10
751.07970700000044
 20
2535.7838699999988
 30
0.0
 11
751.07970700000033
 21
2055.7838700000002
 31
0.0
  0
INSERT
  5
7E13
  8
3
  6
CONTINUOUS
 62
     0
  2
_OPEN
 10
751.07970700000044
 20
2575.7838699999988
 30
0.0
 41
40.0
 42
40.0
 43
40.0
 50
90.0
  0
INSERT
  5
7E14
  8
3
  6
CONTINUOUS
 62
     0
  2
_OPEN
 10
751.07970700000033
 20
2015.7838699999991
 30
0.0
 41
40.0
 42
40.0
 43
40.0
 50
270.0
  0
TEXT
  8
3
  40
60
  5
7E95
  62
0
  72
0
  71
0
 10
581.080
 20
2165.82
 30
0.000000
  1
560
  0
POINT
  5
7E16
  8
DEFPOINTS
  6
CONTINUOUS
 62
     0
 10
905.05546899999979
 20
2575.7838699999988
 30
0.0
  0
POINT
  5
7E17
  8
DEFPOINTS
  6
CONTINUOUS
 62
     0
 10
905.05546899999979
 20
2015.7838699999991
 30
0.0
  0
POINT
  5
7E18
  8
DEFPOINTS
  6
CONTINUOUS
 62
     0
 10
751.07970700000033
 20
2015.7838699999991
 30
0.0
  0
ENDBLK
  5
7BE4
  8
0
  0
BLOCK
  8
0
  2
*D2
 70
     1
 10
0.0
 20
0.0
 30
0.0
  3
*D2
  1

  0
LINE
  5
7E19
  8
3
  6
CONTINUOUS
 62
     0
 10
855.05546899999979
 20
2575.7838699999988
 30
0.0
 11
605.76469600000041
 21
2575.7838699999988
 31
0.0
  0
LINE
  5
7E1A
  8
3
  6
CONTINUOUS
 62
     0
 10
770.09944499999995
 20
2036.78387
 30
0.0
 11
605.7646960000003
 21
2036.78387
 31
0.0
  0
LINE
  5
7E1B
  8
3
  6
CONTINUOUS
 62
     0
 10
625.76469600000041
 20
2535.7838699999988
 30
0.0
 11
625.7646960000003
 21
2076.7838700000002
 31
0.0
  0
INSERT
  5
7E1C
  8
3
  6
CONTINUOUS
 62
     0
  2
_OPEN
 10
625.76469600000041
 20
2575.7838699999988
 30
0.0
 41
40.0
 42
40.0
 43
40.0
 50
90.0
  0
INSERT
  5
7E1D
  8
3
  6
CONTINUOUS
 62
     0
  2
_OPEN
 10
625.7646960000003
 20
2036.78387
 30
0.0
 41
40.0
 42
40.0
 43
40.0
 50
270.0
  0
TEXT
  8
3
  40
60
  5
7E96
  62
0
  72
0
  71
0
 10
455.765
 20
2165.82
 30
0.000000
  1
539
  0
POINT
  5
7E1F
  8
DEFPOINTS
  6
CONTINUOUS
 62
     0
 10
865.0554689999999
 20
2575.7838699999988
 30
0.0
  0
POINT
  5
7E20
  8
DEFPOINTS
  6
CONTINUOUS
 62
     0
 10
780.09944500000006
 20
2036.78387
 30
0.0
  0
POINT
  5
7E21
  8
DEFPOINTS
  6
CONTINUOUS
 62
     0
 10
625.7646960000003
 20
2036.78387
 30
0.0
  0
ENDBLK
  5
7BF1
  8
0
  0
BLOCK
  8
0
  2
*D3
 70
     1
 10
0.0
 20
0.0
 30
0.0
  3
*D3
  1

  0
LINE
  5
7E22
  8
3
  6
CONTINUOUS
 62
     0
 10
955.05546899999979
 20
1546.78387
 30
0.0
 11
605.76469599999984
 21
1546.78387
 31
0.0
  0
LINE
  5
7E23
  8
3
  6
CONTINUOUS
 62
     0
 10
625.76469599999996
 20
1996.78387
 30
0.0
 11
625.76469599999984
 21
1586.78387
 31
0.0
  0
INSERT
  5
7E24
  8
3
  6
CONTINUOUS
 62
     0
  2
_OPEN
 10
625.76469599999996
 20
2036.78387
 30
0.0
 41
40.0
 42
40.0
 43
40.0
 50
90.0
  0
INSERT
  5
7E25
  8
3
  6
CONTINUOUS
 62
     0
  2
_OPEN
 10
625.76469599999984
 20
1546.78387
 30
0.0
 41
40.0
 42
40.0
 43
40.0
 50
270.0
  0
TEXT
  8
3
  40
60
  5
7E97
  62
0
  72
0
  71
0
 10
455.765
 20
1685.58
 30
0.000000
  1
490
  0
POINT
  5
7E27
  8
DEFPOINTS
  6
CONTINUOUS
 62
     0
 10
780.09944500000006
 20
2036.78387
 30
0.0
  0
POINT
  5
7E28
  8
DEFPOINTS
  6
CONTINUOUS
 62
     0
 10
965.0554689999999
 20
1546.78387
 30
0.0
  0
POINT
  5
7E29
  8
DEFPOINTS
  6
CONTINUOUS
 62
     0
 10
625.76469599999984
 20
1546.78387
 30
0.0
  0
ENDBLK
  5
7BFD
  8
0
  0
BLOCK
  8
0
  2
*D4
 70
     1
 10
0.0
 20
0.0
 30
0.0
  3
*D4
  1

  0
LINE
  5
7E2A
  8
3
  6
CONTINUOUS
 62
     0
 10
955.05546899999979
 20
1546.78387
 30
0.0
 11
605.19680700000015
 21
1546.78387
 31
0.0
  0
LINE
  5
7E2B
  8
3
  6
CONTINUOUS
 62
     0
 10
855.05546899999979
 20
1484.78387
 30
0.0
 11
605.19680700000015
 21
1484.78387
 31
0.0
  0
LINE
  5
7E2C
  8
3
  6
CONTINUOUS
 62
     0
 10
625.19680700000015
 20
1586.78387
 30
0.0
 11
625.19680700000015
 21
1626.7838699999991
 31
0.0
  0
LINE
  5
7E2D
  8
3
  6
CONTINUOUS
 62
     0
 10
625.19680700000015
 20
1444.78387
 30
0.0
 11
625.19680700000015
 21
1267.6410128571431
 31
0.0
  0
LINE
  5
7E2E
  8
3
  6
CONTINUOUS
 62
     0
 10
625.19680700000015
 20
1546.78387
 30
0.0
 11
625.19680700000015
 21
1484.78387
 31
0.0
  0
INSERT
  5
7E2F
  8
3
  6
CONTINUOUS
 62
     0
  2
_OPEN
 10
625.19680700000015
 20
1546.78387
 30
0.0
 41
40.0
 42
40.0
 43
40.0
 50
270.0
  0
INSERT
  5
7E30
  8
3
  6
CONTINUOUS
 62
     0
  2
_OPEN
 10
625.19680700000015
 20
1484.78387
 30
0.0
 41
40.0
 42
40.0
 43
40.0
 50
90.0
  0
TEXT
  8
3
  40
60
  5
7E98
  62
0
  72
0
  71
0
 10
455.197
 20
1230.01
 30
0.000000
  1
62
  0
POINT
  5
7E32
  8
DEFPOINTS
  6
CONTINUOUS
 62
     0
 10
965.0554689999999
 20
1546.78387
 30
0.0
  0
POINT
  5
7E33
  8
DEFPOINTS
  6
CONTINUOUS
 62
     0
 10
865.0554689999999
 20
1484.78387
 30
0.0
  0
POINT
  5
7E34
  8
DEFPOINTS
  6
CONTINUOUS
 62
     0
 10
625.19680700000015
 20
1484.78387
 30
0.0
  0
ENDBLK
  5
7D72
  8
0
  0
BLOCK
  8
0
  2
*D5
 70
     1
 10
0.0
 20
0.0
 30
0.0
  3
*D5
  1

  0
LINE
  5
7E35
  8
3
  6
CONTINUOUS
 62
     0
 10
905.05546899999979
 20
2612.7838699999988
 30
0.0
 11
905.05546899999979
 21
2922.624382
 31
0.0
  0
LINE
  5
7E36
  8
3
  6
CONTINUOUS
 62
     0
 10
1310.055468999999
 20
2873.797313
 30
0.0
 11
1310.055468999999
 21
2922.624382
 31
0.0
  0
LINE
  5
7E37
  8
3
  6
CONTINUOUS
 62
     0
 10
945.05546899999979
 20
2902.624382
 30
0.0
 11
1270.055468999999
 21
2902.624382
 31
0.0
  0
INSERT
  5
7E38
  8
3
  6
CONTINUOUS
 62
     0
  2
_OPEN
 10
905.05546899999979
 20
2902.624382
 30
0.0
 41
40.0
 42
40.0
 43
40.0
 50
180.0
  0
INSERT
  5
7E39
  8
3
  6
CONTINUOUS
 62
     0
  2
_OPEN
 10
1310.055468999999
 20
2902.624382
 30
0.0
 41
40.0
 42
40.0
 43
40.0
  0
TEXT
  8
3
  40
60
  5
7E99
  62
0
  72
0
  71
0
 10
969.894
 20
2846.42
 30
0.000000
  1
405
  0
POINT
  5
7E3B
  8
DEFPOINTS
  6
CONTINUOUS
 62
     0
 10
905.05546899999979
 20
2602.7838699999988
 30
0.0
  0
POINT
  5
7E3C
  8
DEFPOINTS
  6
CONTINUOUS
 62
     0
 10
1310.055468999999
 20
2863.797313
 30
0.0
  0
POINT
  5
7E3D
  8
DEFPOINTS
  6
CONTINUOUS
 62
     0
 10
1310.055468999999
 20
2902.624382
 30
0.0
  0
ENDBLK
  5
7C1A
  8
0
  0
BLOCK
  8
0
  2
*D6
 70
     1
 10
0.0
 20
0.0
 30
0.0
  3
*D6
  1

  0
LINE
  5
7E3E
  8
3
  6
CONTINUOUS
 62
     0
 10
865.0554689999999
 20
1474.78387
 30
0.0
 11
865.0554689999999
 21
1283.763121
 31
0.0
  0
LINE
  5
7E3F
  8
3
  6
CONTINUOUS
 62
     0
 10
1310.055468999999
 20
1369.288956100665
 30
0.0
 11
1310.055468999999
 21
1283.763121
 31
0.0
  0
LINE
  5
7E40
  8
3
  6
CONTINUOUS
 62
     0
 10
905.05546899999979
 20
1303.763121
 30
0.0
 11
1270.055468999999
 21
1303.763121
 31
0.0
  0
INSERT
  5
7E41
  8
3
  6
CONTINUOUS
 62
     0
  2
_OPEN
 10
865.0554689999999
 20
1303.763121
 30
0.0
 41
40.0
 42
40.0
 43
40.0
 50
180.0
  0
INSERT
  5
7E42
  8
3
  6
CONTINUOUS
 62
     0
  2
_OPEN
 10
1310.055468999999
 20
1303.763121
 30
0.0
 41
40.0
 42
40.0
 43
40.0
  0
TEXT
  8
3
  40
60
  5
7E9A
  62
0
  72
0
  71
0
 10
974.536
 20
1247.56
 30
0.000000
  1
445
  0
POINT
  5
7E44
  8
DEFPOINTS
  6
CONTINUOUS
 62
     0
 10
865.0554689999999
 20
1484.78387
 30
0.0
  0
POINT
  5
7E45
  8
DEFPOINTS
  6
CONTINUOUS
 62
     0
 10
1310.055468999999
 20
1379.288956100665
 30
0.0
  0
POINT
  5
7E46
  8
DEFPOINTS
  6
CONTINUOUS
 62
     0
 10
1310.055468999999
 20
1303.763121
 30
0.0
  0
ENDBLK
  5
7DDE
  8
0
  0
BLOCK
  8
0
  2
*D7
 70
     1
 10
0.0
 20
0.0
 30
0.0
  3
*D7
  1

  0
LINE
  5
7E47
  8
3
  6
CONTINUOUS
 62
     0
 10
2315.0554689999999
 20
1474.78387
 30
0.0
 11
2315.0554689999999
 21
1283.763121
 31
0.0
  0
LINE
  5
7E48
  8
3
  6
CONTINUOUS
 62
     0
 10
1350.055468999999
 20
1303.763121
 30
0.0
 11
2275.0554689999999
 21
1303.763121
 31
0.0
  0
INSERT
  5
7E49
  8
3
  6
CONTINUOUS
 62
     0
  2
_OPEN
 10
1310.055468999999
 20
1303.763121
 30
0.0
 41
40.0
 42
40.0
 43
40.0
 50
180.0
  0
INSERT
  5
7E4A
  8
3
  6
CONTINUOUS
 62
     0
  2
_OPEN
 10
2315.0554689999999
 20
1303.763121
 30
0.0
 41
40.0
 42
40.0
 43
40.0
  0
TEXT
  8
3
  40
60
  5
7E9B
  62
0
  72
0
  71
0
 10
1692.56
 20
1247.56
 30
0.000000
  1
1005
  0
POINT
  5
7E4C
  8
DEFPOINTS
  6
CONTINUOUS
 62
     0
 10
1310.055468999999
 20
1379.288956100665
 30
0.0
  0
POINT
  5
7E4D
  8
DEFPOINTS
  6
CONTINUOUS
 62
     0
 10
2315.0554689999999
 20
1484.78387
 30
0.0
  0
POINT
  5
7E4E
  8
DEFPOINTS
  6
CONTINUOUS
 62
     0
 10
2315.0554689999999
 20
1303.763121
 30
0.0
  0
ENDBLK
  5
7DD3
  8
0
  0
BLOCK
  8
0
  2
*D8
 70
     1
 10
0.0
 20
0.0
 30
0.0
  3
*D8
  1

  0
LINE
  5
7E4F
  8
3
  6
CONTINUOUS
 62
     0
 10
3374.1649050000001
 20
2585.7838700000002
 30
0.0
 11
3374.1649050000001
 21
2887.7273799999998
 31
0.0
  0
LINE
  5
7E50
  8
3
  6
CONTINUOUS
 62
     0
 10
2954.1649050000001
 20
2585.7838700000002
 30
0.0
 11
2954.1649050000001
 21
2887.7273799999998
 31
0.0
  0
LINE
  5
7E51
  8
3
  6
CONTINUOUS
 62
     0
 10
3334.1649049999992
 20
2867.7273799999998
 30
0.0
 11
2994.1649050000001
 21
2867.7273799999998
 31
0.0
  0
INSERT
  5
7E52
  8
3
  6
CONTINUOUS
 62
     0
  2
_OPEN
 10
3374.1649050000001
 20
2867.7273799999998
 30
0.0
 41
40.0
 42
40.0
 43
40.0
  0
INSERT
  5
7E53
  8
3
  6
CONTINUOUS
 62
     0
  2
_OPEN
 10
2954.1649050000001
 20
2867.7273799999998
 30
0.0
 41
40.0
 42
40.0
 43
40.0
 50
180.0
  0
TEXT
  8
3
  40
60
  5
7E9C
  62
0
  72
0
  71
0
 10
3035.11
 20
2811.53
 30
0.000000
  1
420
  0
POINT
  5
7E55
  8
DEFPOINTS
  6
CONTINUOUS
 62
     0
 10
3374.1649050000001
 20
2575.7838699999988
 30
0.0
  0
POINT
  5
7E56
  8
DEFPOINTS
  6
CONTINUOUS
 62
     0
 10
2954.1649050000001
 20
2575.7838699999988
 30
0.0
  0
POINT
  5
7E57
  8
DEFPOINTS
  6
CONTINUOUS
 62
     0
 10
2954.1649050000001
 20
2867.7273799999998
 30
0.0
  0
ENDBLK
  5
7D2C
  8
0
  0
BLOCK
  8
0
  2
*D9
 70
     1
 10
0.0
 20
0.0
 30
0.0
  3
*D9
  1

  0
LINE
  5
7E58
  8
3
  6
CONTINUOUS
 62
     0
 10
3386.1649049999992
 20
2331.7838700000002
 30
0.0
 11
3674.103239
 21
2331.7838700000002
 31
0.0
  0
LINE
  5
7E59
  8
3
  6
CONTINUOUS
 62
     0
 10
3386.1649049999992
 20
1741.78387
 30
0.0
 11
3674.103239
 21
1741.7838699999991
 31
0.0
  0
LINE
  5
7E5A
  8
3
  6
CONTINUOUS
 62
     0
 10
3654.103239
 20
2291.7838699999988
 30
0.0
 11
3654.103239
 21
1781.7838699999991
 31
0.0
  0
INSERT
  5
7E5B
  8
3
  6
CONTINUOUS
 62
     0
  2
_OPEN
 10
3654.103239
 20
2331.7838700000002
 30
0.0
 41
40.0
 42
40.0
 43
40.0
 50
90.0
  0
INSERT
  5
7E5C
  8
3
  6
CONTINUOUS
 62
     0
  2
_OPEN
 10
3654.103239
 20
1741.7838699999991
 30
0.0
 41
40.0
 42
40.0
 43
40.0
 50
270.0
  0
TEXT
  8
3
  40
60
  5
7E9D
  62
0
  72
0
  71
0
 10
3484.10
 20
1947.88
 30
0.000000
  1
φ590
  0
POINT
  5
7E5E
  8
DEFPOINTS
  6
CONTINUOUS
 62
     0
 10
3376.1649049999992
 20
2331.7838700000002
 30
0.0
  0
POINT
  5
7E5F
  8
DEFPOINTS
  6
CONTINUOUS
 62
     0
 10
3376.1649049999992
 20
1741.78387
 30
0.0
  0
POINT
  5
7E60
  8
DEFPOINTS
  6
CONTINUOUS
 62
     0
 10
3654.103239
 20
1741.7838699999991
 30
0.0
  0
ENDBLK
  5
7D9F
  8
0
  0
BLOCK
  8
0
  2
*D10
 70
     1
 10
0.0
 20
0.0
 30
0.0
  3
*D10
  1

  0
LINE
  5
7D8B
  8
0
  6
BYBLOCK
 62
     0
 10
3376.1649049999992
 20
2366.7838699999988
 30
0.0
 11
3376.1649049999992
 21
3006.0527550000002
 31
0.0
  0
LINE
  5
7D8C
  8
0
  6
BYBLOCK
 62
     0
 10
3164.1649050000001
 20
2970.1366010000002
 30
0.0
 11
3164.1649050000001
 21
3006.0527550000002
 31
0.0
  0
LINE
  5
7D8D
  8
0
  6
BYBLOCK
 62
     0
 10
3336.1649049999992
 20
2986.0527550000002
 30
0.0
 11
3204.1649050000001
 21
2986.0527550000002
 31
0.0
  0
TEXT
  5
7D8E
  8
3
 62
     0
 10
3198.7363335714281
 20
3012.9589978079048
 30
0.0
 40
60.0
  1
212
  0
INSERT
  5
7D8F
  8
0
  6
BYBLOCK
 62
     0
  2
_OPEN
 10
3376.1649049999992
 20
2986.0527550000002
 30
0.0
 41
40.0
 42
40.0
 43
40.0
  0
INSERT
  5
7D90
  8
0
  6
BYBLOCK
 62
     0
  2
_OPEN
 10
3164.1649050000001
 20
2986.0527550000002
 30
0.0
 41
40.0
 42
40.0
 43
40.0
 50
180.0
  0
POINT
  5
7D91
  8
DEFPOINTS
  6
BYBLOCK
 62
     0
 10
3376.1649049999992
 20
2356.7838700000002
 30
0.0
  0
POINT
  5
7D92
  8
DEFPOINTS
  6
BYBLOCK
 62
     0
 10
3164.1649050000001
 20
2960.1366010000002
 30
0.0
  0
POINT
  5
7D93
  8
DEFPOINTS
  6
BYBLOCK
 62
     0
 10
3164.1649050000001
 20
2986.0527550000002
 30
0.0
  0
ENDBLK
  5
7D94
  8
0
  0
BLOCK
  8
0
  2
*D11
 70
     1
 10
0.0
 20
0.0
 30
0.0
  3
*D11
  1

  0
LINE
  5
7E61
  8
3
  6
CONTINUOUS
 62
     0
 10
2754.1649050000001
 20
1474.78387
 30
0.0
 11
2754.1649050000001
 21
1293.42938
 31
0.0
  0
LINE
  5
7E62
  8
3
  6
CONTINUOUS
 62
     0
 10
3164.1649050000001
 20
1371.733914918854
 30
0.0
 11
3164.1649050000001
 21
1293.42938
 31
0.0
  0
LINE
  5
7E63
  8
3
  6
CONTINUOUS
 62
     0
 10
2794.1649050000001
 20
1313.42938
 30
0.0
 11
3124.1649050000001
 21
1313.42938
 31
0.0
  0
INSERT
  5
7E64
  8
3
  6
CONTINUOUS
 62
     0
  2
_OPEN
 10
2754.1649050000001
 20
1313.42938
 30
0.0
 41
40.0
 42
40.0
 43
40.0
 50
180.0
  0
INSERT
  5
7E65
  8
3
  6
CONTINUOUS
 62
     0
  2
_OPEN
 10
3164.1649050000001
 20
1313.42938
 30
0.0
 41
40.0
 42
40.0
 43
40.0
  0
TEXT
  8
3
  40
60
  5
7E9E
  62
0
  72
0
  71
0
 10
2840.17
 20
1257.23
 30
0.000000
  1
410
  0
POINT
  5
7E67
  8
DEFPOINTS
  6
CONTINUOUS
 62
     0
 10
2754.1649050000001
 20
1484.78387
 30
0.0
  0
POINT
  5
7E68
  8
DEFPOINTS
  6
CONTINUOUS
 62
     0
 10
3164.1649050000001
 20
1381.733914918854
 30
0.0
  0
POINT
  5
7E69
  8
DEFPOINTS
  6
CONTINUOUS
 62
     0
 10
3164.1649050000001
 20
1313.42938
 30
0.0
  0
ENDBLK
  5
7DAA
  8
0
  0
BLOCK
  8
0
  2
*D12
 70
     1
 10
0.0
 20
0.0
 30
0.0
  3
*D12
  1

  0
LINE
  5
7E6A
  8
3
  6
CONTINUOUS
 62
     0
 10
3504.1649049999992
 20
1474.78387
 30
0.0
 11
3504.1649049999992
 21
1293.42938
 31
0.0
  0
LINE
  5
7E6B
  8
3
  6
CONTINUOUS
 62
     0
 10
3204.1649050000001
 20
1313.42938
 30
0.0
 11
3464.1649050000001
 21
1313.42938
 31
0.0
  0
INSERT
  5
7E6C
  8
3
  6
CONTINUOUS
 62
     0
  2
_OPEN
 10
3164.1649050000001
 20
1313.42938
 30
0.0
 41
40.0
 42
40.0
 43
40.0
 50
180.0
  0
INSERT
  5
7E6D
  8
3
  6
CONTINUOUS
 62
     0
  2
_OPEN
 10
3504.1649049999992
 20
1313.42938
 30
0.0
 41
40.0
 42
40.0
 43
40.0
  0
TEXT
  8
3
  40
60
  5
7E9F
  62
0
  72
0
  71
0
 10
3214.16
 20
1257.23
 30
0.000000
  1
340
  0
POINT
  5
7E6F
  8
DEFPOINTS
  6
CONTINUOUS
 62
     0
 10
3164.1649050000001
 20
1381.733914918854
 30
0.0
  0
POINT
  5
7E70
  8
DEFPOINTS
  6
CONTINUOUS
 62
     0
 10
3504.1649049999992
 20
1484.78387
 30
0.0
  0
POINT
  5
7E71
  8
DEFPOINTS
  6
CONTINUOUS
 62
     0
 10
3504.1649049999992
 20
1313.42938
 30
0.0
  0
ENDBLK
  5
7DB4
  8
0
  0
BLOCK
  8
0
  2
*D13
 70
     1
 10
0.0
 20
0.0
 30
0.0
  3
*D13
  1

  0
LINE
  5
7E72
  8
3
  6
CONTINUOUS
 62
     0
 10
2744.1649050000001
 20
2784.7838700000002
 30
0.0
 11
2582.6776060000002
 21
2784.7838700000002
 31
0.0
  0
LINE
  5
7E73
  8
3
  6
CONTINUOUS
 62
     0
 10
2744.1649050000001
 20
1484.78387
 30
0.0
 11
2582.6776060000002
 21
1484.78387
 31
0.0
  0
LINE
  5
7E74
  8
3
  6
CONTINUOUS
 62
     0
 10
2602.6776060000002
 20
2744.7838700000002
 30
0.0
 11
2602.6776060000002
 21
1524.78387
 31
0.0
  0
INSERT
  5
7E75
  8
3
  6
CONTINUOUS
 62
     0
  2
_OPEN
 10
2602.6776060000002
 20
2784.7838700000002
 30
0.0
 41
40.0
 42
40.0
 43
40.0
 50
90.0
  0
INSERT
  5
7E76
  8
3
  6
CONTINUOUS
 62
     0
  2
_OPEN
 10
2602.6776060000002
 20
1484.78387
 30
0.0
 41
40.0
 42
40.0
 43
40.0
 50
270.0
  0
TEXT
  8
3
  40
60
  5
7EA0
  62
0
  72
0
  71
0
 10
2432.68
 20
1994.25
 30
0.000000
  1
1300
  0
POINT
  5
7E78
  8
DEFPOINTS
  6
CONTINUOUS
 62
     0
 10
2754.1649050000001
 20
2784.7838700000002
 30
0.0
  0
POINT
  5
7E79
  8
DEFPOINTS
  6
CONTINUOUS
 62
     0
 10
2754.1649050000001
 20
1484.78387
 30
0.0
  0
POINT
  5
7E7A
  8
DEFPOINTS
  6
CONTINUOUS
 62
     0
 10
2602.6776060000002
 20
1484.78387
 30
0.0
  0
ENDBLK
  5
7CF2
  8
0
  0
BLOCK
  8
0
  2
*D14
 70
     1
 10
0.0
 20
0.0
 30
0.0
  3
*D14
  1

  0
LINE
  5
7E7B
  8
3
  6
CONTINUOUS
 62
     0
 10
865.0554689999999
 20
4051.7838700000002
 30
0.0
 11
865.0554689999999
 21
4276.3534159999999
 31
0.0
  0
LINE
  5
7E7C
  8
3
  6
CONTINUOUS
 62
     0
 10
2315.0554689999999
 20
4051.7838700000002
 30
0.0
 11
2315.0554689999999
 21
4276.3534159999999
 31
0.0
  0
LINE
  5
7E7D
  8
3
  6
CONTINUOUS
 62
     0
 10
905.05546899999979
 20
4256.3534159999999
 30
0.0
 11
2275.0554689999999
 21
4256.3534159999999
 31
0.0
  0
INSERT
  5
7E7E
  8
3
  6
CONTINUOUS
 62
     0
  2
_OPEN
 10
865.0554689999999
 20
4256.3534159999999
 30
0.0
 41
40.0
 42
40.0
 43
40.0
 50
180.0
  0
INSERT
  5
7E7F
  8
3
  6
CONTINUOUS
 62
     0
  2
_OPEN
 10
2315.0554689999999
 20
4256.3534159999999
 30
0.0
 41
40.0
 42
40.0
 43
40.0
  0
TEXT
  8
3
  40
60
  5
7EA1
  62
0
  72
0
  71
0
 10
1471.15
 20
4200.15
 30
0.000000
  1
1450
  0
POINT
  5
7E81
  8
DEFPOINTS
  6
CONTINUOUS
 62
     0
 10
865.0554689999999
 20
4041.7838700000002
 30
0.0
  0
POINT
  5
7E82
  8
DEFPOINTS
  6
CONTINUOUS
 62
     0
 10
2315.0554689999999
 20
4041.7838700000002
 30
0.0
  0
POINT
  5
7E83
  8
DEFPOINTS
  6
CONTINUOUS
 62
     0
 10
2315.0554689999999
 20
4256.3534159999999
 30
0.0
  0
ENDBLK
  5
7CE7
  8
0
  0
BLOCK
  8
0
  2
*D15
 70
     1
 10
0.0
 20
0.0
 30
0.0
  3
*D15
  1

  0
LINE
  5
7E84
  8
3
  6
CONTINUOUS
 62
     0
 10
2325.0554689999999
 20
4041.7838700000002
 30
0.0
 11
2539.413524000001
 21
4041.7838700000002
 31
0.0
  0
LINE
  5
7E85
  8
3
  6
CONTINUOUS
 62
     0
 10
2325.0554689999999
 20
3291.7838699999988
 30
0.0
 11
2539.413524000001
 21
3291.7838699999988
 31
0.0
  0
LINE
  5
7E86
  8
3
  6
CONTINUOUS
 62
     0
 10
2519.4135240000001
 20
4001.7838700000002
 30
0.0
 11
2519.4135240000001
 21
3331.7838699999988
 31
0.0
  0
INSERT
  5
7E87
  8
3
  6
CONTINUOUS
 62
     0
  2
_OPEN
 10
2519.4135240000001
 20
4041.7838700000002
 30
0.0
 41
40.0
 42
40.0
 43
40.0
 50
90.0
  0
INSERT
  5
7E88
  8
3
  6
CONTINUOUS
 62
     0
  2
_OPEN
 10
2519.4135240000001
 20
3291.7838699999988
 30
0.0
 41
40.0
 42
40.0
 43
40.0
 50
270.0
  0
TEXT
  8
3
  40
60
  5
7EA2
  62
0
  72
0
  71
0
 10
2349.41
 20
3577.70
 30
0.000000
  1
750
  0
POINT
  5
7E8A
  8
DEFPOINTS
  6
CONTINUOUS
 62
     0
 10
2315.0554689999999
 20
4041.7838700000002
 30
0.0
  0
POINT
  5
7E8B
  8
DEFPOINTS
  6
CONTINUOUS
 62
     0
 10
2315.0554689999999
 20
3291.7838699999988
 30
0.0
  0
POINT
  5
7E8C
  8
DEFPOINTS
  6
CONTINUOUS
 62
     0
 10
2519.4135240000001
 20
3291.7838699999988
 30
0.0
  0
ENDBLK
  5
7CB6
  8
0
  0
BLOCK
  8
0
  2
*D16
 70
     1
 10
0.0
 20
0.0
 30
0.0
  3
*D16
  1

  0
LINE
  5
7E8D
  8
3
 62
     0
 10
1785.0554689999999
 20
2456.7838700000002
 30
0.0
 11
1785.0554689999999
 21
2922.624382
 31
0.0
  0
LINE
  5
7E8E
  8
3
 62
     0
 10
1350.055468999999
 20
2902.624382
 30
0.0
 11
1745.0554689999999
 21
2902.624382
 31
0.0
  0
INSERT
  5
7E8F
  8
3
 62
     0
  2
_OPEN
 10
1310.055468999999
 20
2902.624382
 30
0.0
 41
40.0
 42
40.0
 43
40.0
 50
180.0
  0
INSERT
  5
7E90
  8
3
 62
     0
  2
_OPEN
 10
1785.0554689999999
 20
2902.624382
 30
0.0
 41
40.0
 42
40.0
 43
40.0
  0
TEXT
  8
3
  40
60
  5
7EA3
  62
0
  72
0
  71
0
 10
1427.56
 20
2846.42
 30
0.000000
  1
475
  0
POINT
  5
7E92
  8
DEFPOINTS
 62
     0
 10
1310.055468999999
 20
2863.797313
 30
0.0
  0
POINT
  5
7E93
  8
DEFPOINTS
 62
     0
 10
1785.0554689999999
 20
2446.7838699999988
 30
0.0
  0
POINT
  5
7E94
  8
DEFPOINTS
 62
     0
 10
1785.0554689999999
 20
2902.624382
 30
0.0
  0
ENDBLK
  5
7D7D
  8
0
  0
ENDSEC
  0
SECTION
  2
ENTITIES
  0
LINE
  5
7ADA
  8
1
  6
CONTINUOUS
 10
2275.0554689999999
 20
3331.7838699999988
 30
0.0
 11
905.05546899999979
 21
3331.7838699999988
 31
0.0
  0
LINE
  5
7ADB
  8
1
  6
CONTINUOUS
 10
905.05546899999979
 20
4001.7838700000002
 30
0.0
 11
2275.0554689999999
 21
4001.7838700000002
 31
0.0
  0
LINE
  5
7ADC
  8
1
  6
CONTINUOUS
 10
2275.0554689999999
 20
1524.78387
 30
0.0
 11
905.05546899999979
 21
1524.78387
 31
0.0
  0
LINE
  5
7ADD
  8
1
  6
CONTINUOUS
 10
905.05546899999979
 20
2744.7838700000002
 30
0.0
 11
2275.0554689999999
 21
2744.7838700000002
 31
0.0
  0
POLYLINE
  5
7ADE
  8
1
  6
CONTINUOUS
 66
     1
 10
0.0
 20
0.0
 30
0.0
 70
     1
  0
VERTEX
  5
7E01
  8
1
  6
CONTINUOUS
 10
865.0554689999999
 20
4041.7838700000002
 30
0.0
  0
VERTEX
  5
7E02
  8
1
  6
CONTINUOUS
 10
2315.0554689999999
 20
4041.7838700000002
 30
0.0
  0
VERTEX
  5
7E03
  8
1
  6
CONTINUOUS
 10
2315.0554689999999
 20
3291.7838699999988
 30
0.0
  0
VERTEX
  5
7E04
  8
1
  6
CONTINUOUS
 10
865.0554689999999
 20
3291.7838699999988
 30
0.0
  0
SEQEND
  5
7E05
  8
1
  6
CONTINUOUS
  0
POLYLINE
  5
7AE4
  8
1
  6
CONTINUOUS
 66
     1
 10
0.0
 20
0.0
 30
0.0
 70
     1
  0
VERTEX
  5
7E06
  8
1
  6
CONTINUOUS
 10
865.0554689999999
 20
1484.78387
 30
0.0
  0
VERTEX
  5
7E07
  8
1
  6
CONTINUOUS
 10
865.0554689999999
 20
2784.7838700000002
 30
0.0
  0
VERTEX
  5
7E08
  8
1
  6
CONTINUOUS
 10
2315.0554689999999
 20
2784.7838700000002
 30
0.0
  0
VERTEX
  5
7E09
  8
1
  6
CONTINUOUS
 10
2315.0554689999999
 20
1484.78387
 30
0.0
  0
SEQEND
  5
7E0A
  8
1
  6
CONTINUOUS
  0
LINE
  5
7AEA
  8
1
  6
CONTINUOUS
 10
950.0554689999999
 20
2446.7838699999988
 30
0.0
 11
1785.0554689999999
 21
2446.7838699999988
 31
0.0
  0
LINE
  5
7AEB
  8
1
  6
CONTINUOUS
 10
950.0554689999999
 20
1626.7838699999991
 30
0.0
 11
2215.0554689999999
 21
1626.7838699999991
 31
0.0
  0
ARC
  5
7AEC
  8
1
  6
CONTINUOUS
 10
1341.0554689999999
 20
2067.7838699999988
 30
0.0
 40
433.10293799999999
 50
262.74680499999999
 51
354.95754899999997
  0
ARC
  5
7AED
  8
1
  6
CONTINUOUS
 10
1273.055468999999
 20
2073.7838699999988
 30
0.0
 40
501.36713099999992
 50
354.95754899999997
 51
85.767825999999985
  0
LINE
  5
7AEE
  8
1
  6
CONTINUOUS
 10
965.0554689999999
 20
1546.78387
 30
0.0
 11
2215.0554689999999
 21
1546.78387
 31
0.0
  0
LINE
  5
7AEF
  8
1
  6
CONTINUOUS
 10
1309.5554689999999
 20
2461.7838699999988
 30
0.0
 11
2169.5554689999999
 21
1856.78387
 31
0.0
  0
LINE
  5
7AF0
  8
1
  6
CONTINUOUS
 10
1785.0554689999999
 20
3491.7838700000002
 30
0.0
 11
905.05546899999979
 21
3491.7838700000002
 31
0.0
  0
LINE
  5
7AF1
  8
1
  6
CONTINUOUS
 10
1785.0554689999999
 20
3911.7838700000002
 30
0.0
 11
905.05546899999979
 21
3911.7838700000002
 31
0.0
  0
LINE
  5
7AF2
  8
1
  6
CONTINUOUS
 10
965.0554689999999
 20
3956.7838700000002
 30
0.0
 11
2215.0554689999999
 21
3956.7838700000002
 31
0.0
  0
LINE
  5
7AF3
  8
1
  6
CONTINUOUS
 10
1039.555468999999
 20
3411.7838700000002
 30
0.0
 11
2169.5554689999999
 21
3411.7838700000002
 31
0.0
  0
CIRCLE
  5
7AF4
  8
1
  6
CONTINUOUS
 10
1310.055468999999
 20
2036.78387
 30
0.0
 40
295.0
  0
CIRCLE
  5
7AF5
  8
1
  6
CONTINUOUS
 10
1310.055468999999
 20
2036.78387
 30
0.0
 40
320.0
  0
LINE
  5
7AF6
  8
1
  6
CONTINUOUS
 10
1326.055468999999
 20
3446.7838700000002
 30
0.0
 11
1991.0554689999999
 21
3446.7838700000002
 31
0.0
  0
LINE
  5
7AF7
  8
1
  6
CONTINUOUS
 10
2034.428739
 20
1874.40356
 30
0.0
 11
1344.874427
 21
2130.526284
 31
0.0
  0
LINE
  5
7AF8
  8
1
  6
CONTINUOUS
 10
1991.106712999999
 20
1741.397338
 30
0.0
 11
1282.9858180000001
 21
1940.517396
 31
0.0
  0
LINE
  5
7AF9
  8
1
  6
CONTINUOUS
 10
1630.0554689999999
 20
3913.7838700000002
 30
0.0
 11
990.0554689999999
 21
3913.7838700000002
 31
0.0
  0
LINE
  5
7AFA
  8
1
  6
CONTINUOUS
 10
905.05546899999979
 20
1524.78387
 30
0.0
 11
905.05546899999979
 21
2744.7838700000002
 31
0.0
  0
ARC
  5
7AFB
  8
1
  6
CONTINUOUS
 10
1334.055468999999
 20
2012.78387
 30
0.0
 40
377.65927299999993
 50
179.54485700000001
 51
262.74680499999999
  0
LINE
  5
7AFC
  8
1
  6
CONTINUOUS
 10
905.05546899999979
 20
2575.7838699999988
 30
0.0
 11
1310.055468999999
 21
2573.7838699999988
 31
0.0
  0
LINE
  5
7AFD
  8
1
  6
CONTINUOUS
 10
956.40811199999985
 20
2015.7838699999991
 30
0.0
 11
905.05546899999979
 21
2015.7838699999991
 31
0.0
  0
LINE
  5
7AFE
  8
1
  6
CONTINUOUS
 10
905.05546899999979
 20
1988.7838699999991
 30
0.0
 11
905.05546899999979
 21
2602.7838699999988
 31
0.0
  0
LINE
  5
7AFF
  8
1
  6
CONTINUOUS
 10
950.0554689999999
 20
2446.7838699999988
 30
0.0
 11
950.0554689999999
 21
1626.7838699999991
 31
0.0
  0
LINE
  5
7B00
  8
1
  6
CONTINUOUS
 10
1039.555468999999
 20
1626.7838699999991
 30
0.0
 11
1039.555468999999
 21
2376.7838700000002
 31
0.0
  0
LINE
  5
7B01
  8
1
  6
CONTINUOUS
 10
965.0554689999999
 20
1626.7838699999991
 30
0.0
 11
965.0554689999999
 21
1546.78387
 31
0.0
  0
LINE
  5
7B02
  8
2
  6
CENTER
 10
780.09944500000006
 20
2036.78387
 30
0.0
 11
2115.8453266566898
 21
2036.78387
 31
0.0
  0
LINE
  5
7B03
  8
1
  6
CONTINUOUS
 10
1039.555468999999
 20
2376.7838700000002
 30
0.0
 11
1309.5554689999999
 21
2461.7838699999988
 31
0.0
  0
CIRCLE
  5
7B04
  8
1
  6
CONTINUOUS
 10
1310.055468999999
 20
2036.78387
 30
0.0
 40
100.0
  0
LINE
  5
7B05
  8
1
  6
CONTINUOUS
 10
930.05546899999979
 20
2015.7838699999991
 30
0.0
 11
930.05546899999979
 21
2575.6604130000001
 31
0.0
  0
LINE
  5
7B06
  8
2
  6
CENTER
 10
1310.055468999999
 20
4139.4070659999988
 30
0.0
 11
1310.055468999999
 21
3163.175115
 31
0.0
  0
LINE
  5
7B07
  8
1
  6
CONTINUOUS
 10
905.05546899999979
 20
3331.7838699999988
 30
0.0
 11
905.05546899999979
 21
4001.7838700000002
 31
0.0
  0
LINE
  5
7B08
  8
1
  6
CONTINUOUS
 10
905.05546899999979
 20
3938.7838700000002
 30
0.0
 11
905.05546899999979
 21
3464.7838700000002
 31
0.0
  0
LINE
  5
7B09
  8
1
  6
CONTINUOUS
 10
930.05546899999979
 20
3911.7838700000002
 30
0.0
 11
930.05546899999979
 21
3491.7838700000002
 31
0.0
  0
LINE
  5
7B0A
  8
1
  6
CONTINUOUS
 10
965.0554689999999
 20
3446.7838700000002
 30
0.0
 11
1294.055468999999
 21
3446.7838700000002
 31
0.0
  0
LINE
  5
7B0B
  8
1
  6
CONTINUOUS
 10
1410.0554689999999
 20
3321.7838700000002
 30
0.0
 11
1210.0554689999999
 21
3321.7838700000002
 31
0.0
  0
LINE
  5
7B0C
  8
1
  6
CONTINUOUS
 10
1410.0554689999999
 20
3381.7838700000002
 30
0.0
 11
1210.0554689999999
 21
3381.7838700000002
 31
0.0
  0
LINE
  5
7B0D
  8
1
  6
CONTINUOUS
 10
1039.555468999999
 20
3291.7838699999988
 30
0.0
 11
1039.555468999999
 21
3411.7838700000002
 31
0.0
  0
LINE
  5
7B0E
  8
1
  6
CONTINUOUS
 10
965.0554689999999
 20
3491.7838700000002
 30
0.0
 11
965.0554689999999
 21
3446.7838700000002
 31
0.0
  0
LINE
  5
7B0F
  8
1
  6
CONTINUOUS
 10
1210.0554689999999
 20
3321.7838700000002
 30
0.0
 11
1210.0554689999999
 21
3381.7838700000002
 31
0.0
  0
LINE
  5
7B10
  8
1
  6
CONTINUOUS
 10
1326.055468999999
 20
3491.7838700000002
 30
0.0
 11
1326.055468999999
 21
3381.7838700000002
 31
0.0
  0
LINE
  5
7B11
  8
1
  6
CONTINUOUS
 10
1294.055468999999
 20
3491.7838700000002
 30
0.0
 11
1294.055468999999
 21
3381.7838700000002
 31
0.0
  0
LINE
  5
7B12
  8
1
  6
CONTINUOUS
 10
1410.0554689999999
 20
3321.7838700000002
 30
0.0
 11
1410.0554689999999
 21
3381.7838700000002
 31
0.0
  0
LINE
  5
7B13
  8
1
  6
CONTINUOUS
 10
965.0554689999999
 20
3956.7838700000002
 30
0.0
 11
965.0554689999999
 21
3911.7838700000002
 31
0.0
  0
LINE
  5
7B14
  8
1
  6
CONTINUOUS
 10
990.0554689999999
 20
3911.7838700000002
 30
0.0
 11
990.0554689999999
 21
3913.7838700000002
 31
0.0
  0
LINE
  5
7B15
  8
1
  6
CONTINUOUS
 10
3464.1649050000001
 20
1524.78387
 30
0.0
 11
3464.1649050000001
 21
2744.7838700000002
 31
0.0
  0
LINE
  5
7B16
  8
1
  6
CONTINUOUS
 10
2794.1649050000001
 20
2744.7838700000002
 30
0.0
 11
2794.1649050000001
 21
1524.78387
 31
0.0
  0
LINE
  5
7B19
  8
1
  6
CONTINUOUS
 10
2275.0554689999999
 20
2744.7838700000002
 30
0.0
 11
2275.0554689999999
 21
1524.78387
 31
0.0
  0
POLYLINE
  5
7B1A
  8
1
  6
CONTINUOUS
 66
     1
 10
0.0
 20
0.0
 30
0.0
 70
     1
  0
VERTEX
  5
7E0B
  8
1
  6
CONTINUOUS
 10
3504.1649049999992
 20
2784.7838700000002
 30
0.0
  0
VERTEX
  5
7E0C
  8
1
  6
CONTINUOUS
 10
2754.1649050000001
 20
2784.7838700000002
 30
0.0
  0
VERTEX
  5
7E0D
  8
1
  6
CONTINUOUS
 10
2754.1649050000001
 20
1484.78387
 30
0.0
  0
VERTEX
  5
7E0E
  8
1
  6
CONTINUOUS
 10
3504.1649049999992
 20
1484.78387
 30
0.0
  0
SEQEND
  5
7E0F
  8
1
  6
CONTINUOUS
  0
ARC
  5
7B2A
  8
1
  6
CONTINUOUS
 10
2010.0554689999999
 20
1808.78387
 30
0.0
 40
142.0
 50
324.59875699999998
 51
215.40124299999999
  0
LINE
  5
7B2B
  8
1
  6
CONTINUOUS
 10
2140.0554689999999
 20
1691.78387
 30
0.0
 11
2125.8018320000001
 21
1726.5234329999989
 31
0.0
  0
LINE
  5
7B2C
  8
1
  6
CONTINUOUS
 10
2140.0554689999999
 20
1626.7838699999991
 30
0.0
 11
1880.0554689999999
 21
1626.7838699999991
 31
0.0
  0
LINE
  5
7B2D
  8
1
  6
CONTINUOUS
 10
1785.0554689999999
 20
2446.7838699999988
 30
0.0
 11
1785.0554689999999
 21
1626.7838699999991
 31
0.0
  0
LINE
  5
7B2E
  8
2
  6
CENTER
 10
2010.0554689999999
 20
1738.7838699999991
 30
0.0
 11
2010.0554689999999
 21
1878.78387
 31
0.0
  0
CIRCLE
  5
7B2F
  8
1
  6
CONTINUOUS
 10
2010.0554689999999
 20
1808.78387
 30
0.0
 40
70.0
  0
LINE
  5
7B30
  8
2
  6
CENTER
 10
2080.0554689999999
 20
1808.78387
 30
0.0
 11
1940.0554689999999
 21
1808.78387
 31
0.0
  0
LINE
  5
7B31
  8
1
  6
CONTINUOUS
 10
1880.0554689999999
 20
1626.7838699999991
 30
0.0
 11
1880.0554689999999
 21
1691.78387
 31
0.0
  0
LINE
  5
7B32
  8
1
  6
CONTINUOUS
 10
1880.0554689999999
 20
1691.78387
 30
0.0
 11
1894.3091059999999
 21
1726.5234329999989
 31
0.0
  0
LINE
  5
7B33
  8
1
  6
CONTINUOUS
 10
2169.5554689999999
 20
1626.7838699999991
 30
0.0
 11
2169.5554689999999
 21
1856.78387
 31
0.0
  0
LINE
  5
7B35
  8
1
  6
CONTINUOUS
 10
2215.0554689999999
 20
1626.7838699999991
 30
0.0
 11
2215.0554689999999
 21
1546.78387
 31
0.0
  0
LINE
  5
7B36
  8
1
  6
CONTINUOUS
 10
2140.0554689999999
 20
1626.7838699999991
 30
0.0
 11
2140.0554689999999
 21
1691.78387
 31
0.0
  0
LINE
  5
7B53
  8
1
  6
CONTINUOUS
 10
2794.1649050000001
 20
1524.78387
 30
0.0
 11
3464.1649050000001
 21
1524.78387
 31
0.0
  0
LINE
  5
7B54
  8
1
  6
CONTINUOUS
 10
2954.1649050000001
 20
2015.7838699999991
 30
0.0
 11
3374.1649050000001
 21
2575.7838699999988
 31
0.0
  0
LINE
  5
7B55
  8
1
  6
CONTINUOUS
 10
2954.1649050000001
 20
2575.7838699999988
 30
0.0
 11
3374.1649050000001
 21
2015.7838699999991
 31
0.0
  0
LINE
  5
7B56
  8
1
  6
CONTINUOUS
 10
2954.1649050000001
 20
2015.7838699999991
 30
0.0
 11
3374.1649050000001
 21
2015.7838699999991
 31
0.0
  0
LINE
  5
7B57
  8
1
  6
CONTINUOUS
 10
2954.1649050000001
 20
2575.7838699999988
 30
0.0
 11
3374.1649050000001
 21
2575.7838699999988
 31
0.0
  0
LINE
  5
7B58
  8
1
  6
CONTINUOUS
 10
3419.1649049999992
 20
1626.7838699999991
 30
0.0
 11
2754.1649050000001
 21
1626.7838699999991
 31
0.0
  0
LINE
  5
7B59
  8
1
  6
CONTINUOUS
 10
3419.1649049999992
 20
1546.78387
 30
0.0
 11
2909.1649050000001
 21
1546.78387
 31
0.0
  0
LINE
  5
7B5A
  8
1
  6
CONTINUOUS
 10
2844.1649050000001
 20
1878.78387
 30
0.0
 11
2844.1649050000001
 21
1738.7838699999991
 31
0.0
  0
LINE
  5
7B5B
  8
1
  6
CONTINUOUS
 10
2784.1649050000001
 20
1878.78387
 30
0.0
 11
2784.1649050000001
 21
1738.7838699999991
 31
0.0
  0
LINE
  5
7B5C
  8
1
  6
CONTINUOUS
 10
2874.1649050000001
 20
1626.7838699999991
 30
0.0
 11
2874.1649050000001
 21
2461.7838699999988
 31
0.0
  0
LINE
  5
7B5D
  8
1
  6
CONTINUOUS
 10
2954.1649050000001
 20
1626.7838699999991
 30
0.0
 11
2954.1649050000001
 21
2575.7838699999988
 31
0.0
  0
LINE
  5
7B60
  8
1
  6
CONTINUOUS
 10
2784.1649050000001
 20
1738.7838699999991
 30
0.0
 11
2844.1649050000001
 21
1738.7838699999991
 31
0.0
  0
LINE
  5
7B62
  8
1
  6
CONTINUOUS
 10
2844.1649050000001
 20
1792.78387
 30
0.0
 11
2954.1649050000001
 21
1792.78387
 31
0.0
  0
LINE
  5
7B63
  8
1
  6
CONTINUOUS
 10
2909.1649050000001
 20
1546.78387
 30
0.0
 11
2909.1649050000001
 21
1626.7838699999991
 31
0.0
  0
LINE
  5
7B64
  8
1
  6
CONTINUOUS
 10
2784.1649050000001
 20
1878.78387
 30
0.0
 11
2844.1649050000001
 21
1878.78387
 31
0.0
  0
LINE
  5
7B65
  8
1
  6
CONTINUOUS
 10
2784.1649050000001
 20
1936.78387
 30
0.0
 11
2844.1649050000001
 21
1936.78387
 31
0.0
  0
LINE
  5
7B66
  8
1
  6
CONTINUOUS
 10
2784.1649050000001
 20
2136.7838699999988
 30
0.0
 11
2844.1649050000001
 21
2136.7838699999988
 31
0.0
  0
LINE
  5
7B67
  8
1
  6
CONTINUOUS
 10
2754.1649050000001
 20
2461.7838699999988
 30
0.0
 11
2874.1649050000001
 21
2461.7838699999988
 31
0.0
  0
LINE
  5
7B68
  8
1
  6
CONTINUOUS
 10
2784.1649050000001
 20
2136.7838699999988
 30
0.0
 11
2784.1649050000001
 21
1936.78387
 31
0.0
  0
LINE
  5
7B69
  8
1
  6
CONTINUOUS
 10
2954.1649050000001
 20
2020.78387
 30
0.0
 11
2844.1649050000001
 21
2020.78387
 31
0.0
  0
LINE
  5
7B6A
  8
1
  6
CONTINUOUS
 10
2954.1649050000001
 20
2052.7838699999988
 30
0.0
 11
2844.1649050000001
 21
2052.7838699999988
 31
0.0
  0
LINE
  5
7B6B
  8
1
  6
CONTINUOUS
 10
2844.1649050000001
 20
1824.78387
 30
0.0
 11
2954.1649050000001
 21
1824.78387
 31
0.0
  0
LINE
  5
7B6C
  8
1
  6
CONTINUOUS
 10
2844.1649050000001
 20
2136.7838699999988
 30
0.0
 11
2844.1649050000001
 21
1936.78387
 31
0.0
  0
LINE
  5
7B6D
  8
1
  6
CONTINUOUS
 10
3376.1649049999992
 20
1716.78387
 30
0.0
 11
3376.1649049999992
 21
2356.7838700000002
 31
0.0
  0
LINE
  5
7B6E
  8
1
  6
CONTINUOUS
 10
3374.1649050000001
 20
1626.7838699999991
 30
0.0
 11
3374.1649050000001
 21
2575.7838699999988
 31
0.0
  0
LINE
  5
7B6F
  8
1
  6
CONTINUOUS
 10
3374.1649050000001
 20
1716.78387
 30
0.0
 11
3376.1649049999992
 21
1716.78387
 31
0.0
  0
LINE
  5
7B70
  8
1
  6
CONTINUOUS
 10
3419.1649049999992
 20
1546.78387
 30
0.0
 11
3419.1649049999992
 21
1626.7838699999991
 31
0.0
  0
LINE
  5
7B71
  8
1
  6
CONTINUOUS
 10
3374.1649050000001
 20
2356.7838700000002
 30
0.0
 11
3376.1649049999992
 21
2356.7838700000002
 31
0.0
  0
LINE
  5
7B7D
  8
1
  6
CONTINUOUS
 10
2152.0554689999999
 20
3465.5217029999999
 30
0.0
 11
1868.0554689999999
 21
3465.5217029999999
 31
0.0
  0
LINE
  5
7B7E
  8
1
  6
CONTINUOUS
 10
2152.0554689999999
 20
3865.5217029999999
 30
0.0
 11
1868.0554689999999
 21
3865.5217029999999
 31
0.0
  0
LINE
  5
7B7F
  8
1
  6
CONTINUOUS
 10
2029.0554689999999
 20
3446.7838700000002
 30
0.0
 11
2215.0554689999999
 21
3446.7838700000002
 31
0.0
  0
LINE
  5
7B80
  8
1
  6
CONTINUOUS
 10
1868.0554689999999
 20
3865.5217029999999
 30
0.0
 11
1868.0554689999999
 21
3465.5217029999999
 31
0.0
  0
LINE
  5
7B81
  8
1
  6
CONTINUOUS
 10
1785.0554689999999
 20
3491.7838700000002
 30
0.0
 11
1785.0554689999999
 21
3911.7838700000002
 31
0.0
  0
LINE
  5
7B82
  8
1
  6
CONTINUOUS
 10
2080.0554689999999
 20
3381.7838700000002
 30
0.0
 11
1940.0554689999999
 21
3381.7838700000002
 31
0.0
  0
LINE
  5
7B83
  8
1
  6
CONTINUOUS
 10
2080.0554689999999
 20
3321.7838700000002
 30
0.0
 11
1940.0554689999999
 21
3321.7838700000002
 31
0.0
  0
LINE
  5
7B84
  8
1
  6
CONTINUOUS
 10
1940.0554689999999
 20
3321.7838700000002
 30
0.0
 11
1940.0554689999999
 21
3381.7838700000002
 31
0.0
  0
LINE
  5
7B85
  8
1
  6
CONTINUOUS
 10
2029.0554689999999
 20
3381.7838700000002
 30
0.0
 11
2029.0554689999999
 21
3465.5217029999999
 31
0.0
  0
LINE
  5
7B86
  8
1
  6
CONTINUOUS
 10
1991.0554689999999
 20
3381.7838700000002
 30
0.0
 11
1991.0554689999999
 21
3465.5217029999999
 31
0.0
  0
LINE
  5
7B87
  8
1
  6
CONTINUOUS
 10
2080.0554689999999
 20
3321.7838700000002
 30
0.0
 11
2080.0554689999999
 21
3381.7838700000002
 31
0.0
  0
LINE
  5
7B88
  8
1
  6
CONTINUOUS
 10
1630.0554689999999
 20
3911.7838700000002
 30
0.0
 11
1630.0554689999999
 21
3913.7838700000002
 31
0.0
  0
LINE
  5
7B89
  8
1
  6
CONTINUOUS
 10
2275.0554689999999
 20
4001.7838700000002
 30
0.0
 11
2275.0554689999999
 21
3331.7838699999988
 31
0.0
  0
LINE
  5
7B8B
  8
1
  6
CONTINUOUS
 10
2152.0554689999999
 20
3865.5217029999999
 30
0.0
 11
2152.0554689999999
 21
3465.5217029999999
 31
0.0
  0
LINE
  5
7B8C
  8
1
  6
CONTINUOUS
 10
2215.0554689999999
 20
3956.7838700000002
 30
0.0
 11
2215.0554689999999
 21
3446.7838700000002
 31
0.0
  0
LINE
  5
7B90
  8
1
  6
CONTINUOUS
 10
2169.5554689999999
 20
3291.7838699999988
 30
0.0
 11
2169.5554689999999
 21
3411.7838700000002
 31
0.0
  0
LINE
  5
7BAD
  8
1
  6
CONTINUOUS
 10
3464.1649050000001
 20
2744.7838700000002
 30
0.0
 11
2794.1649050000001
 21
2744.7838700000002
 31
0.0
  0
LINE
  5
7BAF
  8
2
  6
CENTER
 10
1966.091342026848
 20
3701.7838700000002
 30
0.0
 11
778.68437800000004
 21
3701.7838700000002
 31
0.0
  0
LINE
  5
7BB0
  8
2
  6
CENTER
 10
3164.1649050000001
 20
2845.5097850000002
 30
0.0
 11
3164.1649050000001
 21
1381.733914918854
 31
0.0
  0
LINE
  5
7BB1
  8
2
  6
CENTER
 10
1310.055468999999
 20
2863.797313
 30
0.0
 11
1310.055468999999
 21
1382.6840446691619
 31
0.0
  0
LINE
  5
7BB2
  8
2
  6
CENTER
 10
2671.2391750000002
 20
2036.78387
 30
0.0
 11
3544.7516969999988
 21
2036.78387
 31
0.0
  0
LINE
  5
7BB3
  8
4
  6
CONTINUOUS
 10
3700.0
 20
1000.0
 30
0.0
 11
3700.0
 21
600.0
 31
0.0
  0
LINE
  5
7BB4
  8
4
  6
CONTINUOUS
 10
2300.0
 20
1000.0
 30
0.0
 11
2300.0
 21
600.0
 31
0.0
  0
LINE
  5
7BB5
  8
4
  6
CONTINUOUS
 10
1300.0
 20
1000.0
 30
0.0
 11
1300.0
 21
600.0
 31
0.0
  0
LINE
  5
7BB8
  8
4
  6
CONTINUOUS
 10
1300.0
 20
600.0
 30
0.0
 11
3700.0
 21
600.0
 31
0.0
  0
LINE
  5
7BB9
  8
4
  6
CONTINUOUS
 10
1300.0
 20
800.0
 30
0.0
 11
3700.0
 21
800.0
 31
0.0
  0
TEXT
  5
7BBA
  8
4
  6
CONTINUOUS
 10
1377.004162
 20
863.086052
 30
0.0
 40
100.0
  1
機器名称
  0
TEXT
  5
7BBB
  8
4
  6
CONTINUOUS
 10
1372.516212
 20
643.29031299999986
 30
0.0
 40
100.0
  1
機器型番
  0
TEXT
  5
7BBC
  8
4
  6
CONTINUOUS
 10
2355.3574910000002
 20
845.14353800000015
 30
0.0
 40
100.0
  1
ミツヤ多翼送風機
  0
TEXT
  5
7BBD
  8
4
  6
CONTINUOUS
 10
2373.3089909999999
 20
634.31916899999999
 30
0.0
 40
100.0
  1
MF#3 1/2-4
  0
TEXT
  5
7BBF
  8
4
  6
CONTINUOUS
 10
1491.95803
 20
4766.8576830000002
 30
0.0
 40
108.0
  1
天井吊枠防振ベット
  0
TEXT
  5
7BC0
  8
4
  6
CONTINUOUS
 10
632.33518700000002
 20
5067.7619520000007
 30
0.0
 40
144.0
  1
ベルト駆動式片吸込両持多翼ファン
  0
LINE
  5
7BC1
  8
4
  6
CONTINUOUS
 10
500.0
 20
4938.8175090000004
 30
0.0
 11
3700.0
 21
4938.8175090000004
 31
0.0
  0
LINE
  5
7BC2
  8
4
  6
CONTINUOUS
 10
500.0
 20
5338.8175090000004
 30
0.0
 11
3700.0
 21
5338.8175090000004
 31
0.0
  0
LINE
  5
7BC3
  8
4
  6
CONTINUOUS
 10
1300.0
 20
1000.0
 30
0.0
 11
3700.0
 21
1000.0
 31
0.0
  0
LINE
  5
7BC4
  8
4
  6
CONTINUOUS
 10
500.0
 20
5338.8175090000004
 30
0.0
 11
500.0
 21
4938.8175090000004
 31
0.0
  0
TEXT
  5
7BC5
  8
4
  6
CONTINUOUS
 10
620.24036499999988
 20
4764.6389549999994
 30
0.0
 40
108.0
  1
左回転左横向
  0
TEXT
  5
7BC6
  8
4
  6
CONTINUOUS
 10
2937.9391179999998
 20
5412.122163
 30
0.0
 40
112.0
  1
No.
  0
TEXT
  5
7BC7
  8
4
  6
CONTINUOUS
 10
2787.2805969999999
 20
4766.8576830000002
 30
0.0
 40
108.0
  1
縮尺：1/20
  0
LINE
  5
7BC8
  8
4
  6
CONTINUOUS
 10
3700.0
 20
5338.8175090000004
 30
0.0
 11
3700.0
 21
4938.8175090000004
 31
0.0
  0
LINE
  5
7BCA
  8
4
  6
CONTINUOUS
 10
2881.234845
 20
5362.5271659999999
 30
0.0
 11
2881.234845
 21
5573.3045229999998
 31
0.0
  0
LINE
  5
7BCB
  8
4
  6
CONTINUOUS
 10
2881.234845
 20
5573.3045229999998
 30
0.0
 11
3700.0
 21
5573.3045229999998
 31
0.0
  0
LINE
  5
7BCC
  8
4
  6
CONTINUOUS
 10
3700.0
 20
5573.3045229999998
 30
0.0
 11
3700.0
 21
5362.5271659999999
 31
0.0
  0
LINE
  5
7BCD
  8
4
  6
CONTINUOUS
 10
3700.0
 20
5362.5271659999999
 30
0.0
 11
2881.234845
 21
5362.5271659999999
 31
0.0
  0
DIMENSION
  5
7BE5
  8
3
  6
CONTINUOUS
  2
*D1
 10
751.07970700000033
 20
2015.7838699999991
 30
0.0
 11
751.07970699999987
 21
2272.0158339999989
 31
0.0
 70
   128
 13
905.05546899999979
 23
2575.7838699999988
 33
0.0
 14
905.05546899999979
 24
2015.7838699999991
 34
0.0
 50
90.0
1001
ACAD
1000
DSTYLE
1002
{
1070
   287
1070
     3
1070
    40
1040
20.0
1070
   143
1040
0.039
1070
   172
1070
     1
1070
   271
1070
     0
1070
   279
1070
     0
1070
   288
1070
     1
1002
}
  0
DIMENSION
  5
7BF2
  8
3
  6
CONTINUOUS
  2
*D2
 10
625.7646960000003
 20
2036.78387
 30
0.0
 11
625.76469599999984
 21
2272.0158339999989
 31
0.0
 70
   128
 13
865.0554689999999
 23
2575.7838699999988
 33
0.0
 14
780.09944500000006
 24
2036.78387
 34
0.0
 50
90.0
1001
ACAD
1000
DSTYLE
1002
{
1070
   287
1070
     3
1070
    40
1040
20.0
1070
   143
1040
0.039
1070
   172
1070
     1
1070
   271
1070
     0
1070
   279
1070
     0
1070
   288
1070
     1
1002
}
  0
DIMENSION
  5
7BFE
  8
3
  6
CONTINUOUS
  2
*D3
 10
625.76469599999984
 20
1546.78387
 30
0.0
 11
575.76469599999973
 21
1791.78387
 31
0.0
 70
     0
 13
780.09944500000006
 23
2036.78387
 33
0.0
 14
965.0554689999999
 24
1546.78387
 34
0.0
 50
90.0
1001
ACAD
1000
DSTYLE
1002
{
1070
   287
1070
     4
1070
    40
1040
20.0
1070
    75
1070
     1
1070
   143
1040
0.039
1070
   172
1070
     1
1070
   271
1070
     0
1070
   279
1070
     1
1070
   288
1070
     1
1002
}
  0
DIMENSION
  5
7C0E
  8
3
  6
CONTINUOUS
  2
*D4
 10
625.19680700000015
 20
1484.78387
 30
0.0
 11
625.19680700000004
 21
1336.2124414285711
 31
0.0
 70
   128
 13
965.0554689999999
 23
1546.78387
 33
0.0
 14
865.0554689999999
 24
1484.78387
 34
0.0
 50
90.0
1001
ACAD
1000
DSTYLE
1002
{
1070
   287
1070
     3
1070
    40
1040
20.0
1070
   143
1040
0.039
1070
   172
1070
     1
1070
   271
1070
     0
1070
   279
1070
     0
1070
   288
1070
     1
1002
}
  0
DIMENSION
  5
7C1B
  8
3
  6
CONTINUOUS
  2
*D5
 10
1310.055468999999
 20
2902.624382
 30
0.0
 11
1089.8943300000001
 21
2902.624382
 31
0.0
 70
   128
 13
905.05546899999979
 23
2602.7838699999988
 33
0.0
 14
1310.055468999999
 24
2863.797313
 34
0.0
1001
ACAD
1000
DSTYLE
1002
{
1070
   287
1070
     3
1070
    40
1040
20.0
1070
   143
1040
0.039
1070
   172
1070
     1
1070
   271
1070
     0
1070
   279
1070
     0
1070
   288
1070
     1
1002
}
  0
DIMENSION
  5
7C34
  8
3
  6
CONTINUOUS
  2
*D6
 10
1310.055468999999
 20
1303.763121
 30
0.0
 11
1094.535609
 21
1303.763121
 31
0.0
 70
   128
 13
865.0554689999999
 23
1484.78387
 33
0.0
 14
1310.055468999999
 24
1379.288956100665
 34
0.0
1001
ACAD
1000
DSTYLE
1002
{
1070
   287
1070
     3
1070
    40
1040
20.0
1070
   143
1040
0.039
1070
   172
1070
     1
1070
   271
1070
     0
1070
   279
1070
     0
1070
   288
1070
     1
1002
}
  0
DIMENSION
  5
7C40
  8
3
  6
CONTINUOUS
  2
*D7
 10
2315.0554689999999
 20
1303.763121
 30
0.0
 11
1812.5554689999999
 21
1353.763121
 31
0.0
 70
     0
 13
1310.055468999999
 23
1379.288956100665
 33
0.0
 14
2315.0554689999999
 24
1484.78387
 34
0.0
1001
ACAD
1000
DSTYLE
1002
{
1070
   287
1070
     4
1070
    40
1040
20.0
1070
    75
1070
     1
1070
   143
1040
0.039
1070
   172
1070
     1
1070
   271
1070
     0
1070
   279
1070
     1
1070
   288
1070
     1
1002
}
  0
DIMENSION
  5
7C4D
  8
3
  6
CONTINUOUS
  2
*D8
 10
2954.1649050000001
 20
2867.7273799999998
 30
0.0
 11
3155.1069389999998
 21
2867.7273799999998
 31
0.0
 70
   128
 13
3374.1649050000001
 23
2575.7838699999988
 33
0.0
 14
2954.1649050000001
 24
2575.7838699999988
 34
0.0
1001
ACAD
1000
DSTYLE
1002
{
1070
   287
1070
     3
1070
    40
1040
20.0
1070
   143
1040
0.039
1070
   172
1070
     1
1070
   271
1070
     0
1070
   279
1070
     0
1070
   288
1070
     1
1002
}
  0
DIMENSION
  5
7C5C
  8
3
  6
CONTINUOUS
  2
*D9
 10
3654.103239
 20
1741.7838699999991
 30
0.0
 11
3654.1032389999991
 21
2054.0849459999999
 31
0.0
 70
   128
 13
3376.1649049999992
 23
2331.7838700000002
 33
0.0
 14
3376.1649049999992
 24
1741.78387
 34
0.0
 50
90.0
1001
ACAD
1000
DSTYLE
1002
{
1070
   287
1070
     3
1070
     3
1000
φ<>
1070
    40
1040
20.0
1070
   143
1040
0.039
1070
   172
1070
     1
1070
   271
1070
     0
1070
   279
1070
     0
1070
   288
1070
     1
1002
}
  0
DIMENSION
  5
7C6B
  8
3
  6
CONTINUOUS
  2
*D10
 10
3164.1649050000001
 20
2986.0527550000002
 30
0.0
 11
3270.1649050000001
 21
3042.9589978079061
 31
0.0
 70
   128
 13
3376.1649049999992
 23
2356.7838700000002
 33
0.0
 14
3164.1649050000001
 24
2960.1366010000002
 34
0.0
1001
ACAD
1000
DSTYLE
1002
{
1070
   288
1070
     1
1070
   172
1070
     1
1070
    40
1040
20.0
1070
   271
1070
     0
1070
   143
1040
0.039
1002
}
  0
DIMENSION
  5
7C84
  8
3
  6
CONTINUOUS
  2
*D11
 10
3164.1649050000001
 20
1313.42938
 30
0.0
 11
2960.1725029999998
 21
1313.42938
 31
0.0
 70
   128
 13
2754.1649050000001
 23
1484.78387
 33
0.0
 14
3164.1649050000001
 24
1381.733914918854
 34
0.0
1001
ACAD
1000
DSTYLE
1002
{
1070
   287
1070
     3
1070
    40
1040
20.0
1070
   143
1040
0.039
1070
   172
1070
     1
1070
   271
1070
     0
1070
   279
1070
     0
1070
   288
1070
     1
1002
}
  0
DIMENSION
  5
7C90
  8
3
  6
CONTINUOUS
  2
*D12
 10
3504.1649049999992
 20
1313.42938
 30
0.0
 11
3334.1649049999992
 21
1363.42938
 31
0.0
 70
     0
 13
3164.1649050000001
 23
1381.733914918854
 33
0.0
 14
3504.1649049999992
 24
1484.78387
 34
0.0
1001
ACAD
1000
DSTYLE
1002
{
1070
   287
1070
     4
1070
    40
1040
20.0
1070
    75
1070
     1
1070
   143
1040
0.039
1070
   172
1070
     1
1070
   271
1070
     0
1070
   279
1070
     1
1070
   288
1070
     1
1002
}
  0
DIMENSION
  5
7C9D
  8
3
  6
CONTINUOUS
  2
*D13
 10
2602.6776060000002
 20
1484.78387
 30
0.0
 11
2602.6776060000002
 21
2100.4532129999989
 31
0.0
 70
   128
 13
2754.1649050000001
 23
2784.7838700000002
 33
0.0
 14
2754.1649050000001
 24
1484.78387
 34
0.0
 50
90.0
1001
ACAD
1000
DSTYLE
1002
{
1070
   287
1070
     3
1070
    40
1040
20.0
1070
   143
1040
0.039
1070
   172
1070
     1
1070
   271
1070
     0
1070
   279
1070
     0
1070
   288
1070
     1
1002
}
  0
DIMENSION
  5
7CAA
  8
3
  6
CONTINUOUS
  2
*D14
 10
2315.0554689999999
 20
4256.3534159999999
 30
0.0
 11
1591.1543160000001
 21
4256.3534159999999
 31
0.0
 70
   128
 13
865.0554689999999
 23
4041.7838700000002
 33
0.0
 14
2315.0554689999999
 24
4041.7838700000002
 34
0.0
1001
ACAD
1000
DSTYLE
1002
{
1070
   287
1070
     3
1070
    40
1040
20.0
1070
   143
1040
0.039
1070
   172
1070
     1
1070
   271
1070
     0
1070
   279
1070
     0
1070
   288
1070
     1
1002
}
  0
DIMENSION
  5
7CB7
  8
3
  6
CONTINUOUS
  2
*D15
 10
2519.4135240000001
 20
3291.7838699999988
 30
0.0
 11
2519.4135240000001
 21
3683.895027
 31
0.0
 70
   128
 13
2315.0554689999999
 23
4041.7838700000002
 33
0.0
 14
2315.0554689999999
 24
3291.7838699999988
 34
0.0
 50
90.0
1001
ACAD
1000
DSTYLE
1002
{
1070
   287
1070
     3
1070
    40
1040
20.0
1070
   143
1040
0.039
1070
   172
1070
     1
1070
   271
1070
     0
1070
   279
1070
     0
1070
   288
1070
     1
1002
}
  0
DIMENSION
  5
7D7E
  8
3
  2
*D16
 10
1785.0554689999999
 20
2902.624382
 30
0.0
 11
1547.555468999999
 21
2952.624382
 31
0.0
 70
     0
 13
1310.055468999999
 23
2863.797313
 33
0.0
 14
1785.0554689999999
 24
2446.7838699999988
 34
0.0
1001
ACAD
1000
DSTYLE
1002
{
1070
   287
1070
     4
1070
    40
1040
20.0
1070
    75
1070
     1
1070
   143
1040
0.039
1070
   172
1070
     1
1070
   271
1070
     0
1070
   279
1070
     1
1070
   288
1070
     1
1002
}
  0
ENDSEC
  0
EOF
