  0
SECTION
  2
HEADER
  9
$ACADVER
  1
AC1009
  9
$INSBASE
 10
0.0
 20
0.0
 30
0.0
  9
$EXTMIN
 10
500.0
 20
600.0
 30
0.0
  9
$EXTMAX
 10
3700.0
 20
5573.3045229999998
 30
0.0
  9
$LIMMIN
 10
0.0
 20
0.0
  9
$LIMMAX
 10
297.0
 20
210.0
  9
$ORTHOMODE
 70
     0
  9
$REGENMODE
 70
     1
  9
$FILLMODE
 70
     0
  9
$QTEXTMODE
 70
     0
  9
$MIRRTEXT
 70
     1
  9
$DRAGMODE
 70
     2
  9
$LTSCALE
 40
100.0
  9
$OSMODE
 70
    37
  9
$ATTMODE
 70
     1
  9
$TEXTSIZE
 40
180.0
  9
$TRACEWID
 40
0.05
  9
$TEXTSTYLE
  7
STANDARD
  9
$CLAYER
  8
3
  9
$CELTYPE
  6
BYLAYER
  9
$CECOLOR
 62
   256
  9
$DIMSCALE
 40
20.0
  9
$DIMASZ
 40
2.0
  9
$DIMEXO
 40
0.5
  9
$DIMDLI
 40
10.0
  9
$DIMRND
 40
0.0
  9
$DIMDLE
 40
0.0
  9
$DIMEXE
 40
1.0
  9
$DIMTP
 40
1.0
  9
$DIMTM
 40
1.0
  9
$DIMTXT
 40
3.0
  9
$DIMCEN
 40
0.0
  9
$DIMTSZ
 40
0.0
  9
$DIMTOL
 70
     0
  9
$DIMLIM
 70
     0
  9
$DIMTIH
 70
     0
  9
$DIMTOH
 70
     0
  9
$DIMSE1
 70
     0
  9
$DIMSE2
 70
     0
  9
$DIMTAD
 70
     1
  9
$DIMZIN
 70
     8
  9
$DIMBLK
  1

  9
$DIMASO
 70
     1
  9
$DIMSHO
 70
     1
  9
$DIMPOST
  1

  9
$DIMAPOST
  1

  9
$DIMALT
 70
     0
  9
$DIMALTD
 70
     2
  9
$DIMALTF
 40
0.039
  9
$DIMLFAC
 40
1.0
  9
$DIMTOFL
 70
     1
  9
$DIMTVP
 40
0.0
  9
$DIMTIX
 70
     0
  9
$DIMSOXD
 70
     0
  9
$DIMSAH
 70
     1
  9
$DIMBLK1
  1
OPEN
  9
$DIMBLK2
  1
OPEN
  9
$DIMSTYLE
  2
IGA
  9
$DIMCLRD
 70
     0
  9
$DIMCLRE
 70
     0
  9
$DIMCLRT
 70
     0
  9
$DIMTFAC
 40
10.0
  9
$DIMGAP
 40
1.0
  9
$LUNITS
 70
     2
  9
$LUPREC
 70
     3
  9
$SKETCHINC
 40
0.1
  9
$FILLETRAD
 40
50.0
  9
$AUNITS
 70
     0
  9
$AUPREC
 70
     0
  9
$MENU
  1
acad
  9
$ELEVATION
 40
0.0
  9
$PELEVATION
 40
0.0
  9
$THICKNESS
 40
0.0
  9
$LIMCHECK
 70
     0
  9
$BLIPMODE
 70
     0
  9
$CHAMFERA
 40
0.5
  9
$CHAMFERB
 40
0.5
  9
$SKPOLY
 70
     0
  9
$TDCREATE
 40
2450737.5637700232
  9
$TDUPDATE
 40
2454953.769035914
  9
$TDINDWG
 40
0.0081650116
  9
$TDUSRTIMER
 40
0.0081650116
  9
$USRTIMER
 70
     1
  9
$ANGBASE
 50
0.0
  9
$ANGDIR
 70
     0
  9
$PDMODE
 70
     0
  9
$PDSIZE
 40
0.0
  9
$PLINEWID
 40
0.0
  9
$COORDS
 70
     1
  9
$SPLFRAME
 70
     0
  9
$SPLINETYPE
 70
     6
  9
$SPLINESEGS
 70
     8
  9
$ATTDIA
 70
     0
  9
$ATTREQ
 70
     1
  9
$HANDLING
 70
 10241
  9
$HANDSEED
  5
7E9B
  9
$SURFTAB1
 70
     6
  9
$SURFTAB2
 70
     6
  9
$SURFTYPE
 70
     6
  9
$SURFU
 70
     6
  9
$SURFV
 70
     6
  9
$UCSNAME
  2

  9
$UCSORG
 10
0.0
 20
0.0
 30
0.0
  9
$UCSXDIR
 10
1.0
 20
0.0
 30
0.0
  9
$UCSYDIR
 10
0.0
 20
1.0
 30
0.0
  9
$PUCSNAME
  2

  9
$PUCSORG
 10
0.0
 20
0.0
 30
0.0
  9
$PUCSXDIR
 10
1.0
 20
0.0
 30
0.0
  9
$PUCSYDIR
 10
0.0
 20
1.0
 30
0.0
  9
$USERI1
 70
     0
  9
$USERI2
 70
     0
  9
$USERI3
 70
     0
  9
$USERI4
 70
     0
  9
$USERI5
 70
     0
  9
$USERR1
 40
0.0
  9
$USERR2
 40
0.0
  9
$USERR3
 40
0.0
  9
$USERR4
 40
0.0
  9
$USERR5
 40
0.0
  9
$WORLDVIEW
 70
     1
  9
$SHADEDGE
 70
     3
  9
$SHADEDIF
 70
    70
  9
$TILEMODE
 70
     1
  9
$MAXACTVP
 70
    16
  9
$PLIMCHECK
 70
     0
  9
$PEXTMIN
 10
1.0000000000000000E+020
 20
1.0000000000000000E+020
 30
1.0000000000000000E+020
  9
$PEXTMAX
 10
-1.0000000000000000E+020
 20
-1.0000000000000000E+020
 30
-1.0000000000000000E+020
  9
$PLIMMIN
 10
0.0
 20
0.0
  9
$PLIMMAX
 10
12.0
 20
9.0
  9
$UNITMODE
 70
     0
  9
$VISRETAIN
 70
     0
  9
$PLINEGEN
 70
     0
  9
$PSLTSCALE
 70
     1
  0
ENDSEC
  0
SECTION
  2
TABLES
  0
TABLE
  2
VPORT
 70
     2
  0
VPORT
  2
*ACTIVE
 70
     0
 10
0.0
 20
0.0
 11
1.0
 21
1.0
 12
6292.1124769529506
 22
3086.6374998146398
 13
0.0
 23
0.0
 14
10.0
 24
10.0
 15
10.0
 25
10.0
 16
0.0
 26
0.0
 36
1.0
 17
0.0
 27
0.0
 37
0.0
 40
5011.4968576296578
 41
3.1666666666666661
 42
50.0
 43
0.0
 44
0.0
 50
0.0
 51
0.0
 71
     0
 72
   100
 73
     1
 74
     0
 75
     0
 76
     0
 77
     0
 78
     0
  0
ENDTAB
  0
TABLE
  2
LTYPE
 70
     2
  0
LTYPE
  2
CONTINUOUS
 70
     0
  3
Solid line
 72
    65
 73
     0
 40
0.0
  0
LTYPE
  2
CENTER
 70
     0
  3
____ _ ____ _ ____ _ ____ _ ____ _ ____ _ ____ 
 72
    65
 73
     4
 40
2.0
 49
1.25
 49
-0.25
 49
0.25
 49
-0.25
  0
ENDTAB
  0
TABLE
  2
LAYER
 70
     6
  0
LAYER
  2
0
 70
     0
 62
     7
  6
CONTINUOUS
  0
LAYER
  2
3
 70
     0
 62
     2
  6
CONTINUOUS
  0
LAYER
  2
2
 70
     0
 62
     3
  6
CENTER
  0
LAYER
  2
1
 70
     0
 62
     4
  6
CONTINUOUS
  0
LAYER
  2
4
 70
     0
 62
     7
  6
CONTINUOUS
  0
LAYER
  2
DEFPOINTS
 70
     0
 62
     7
  6
CONTINUOUS
  0
ENDTAB
  0
TABLE
  2
STYLE
 70
     1
  0
STYLE
  2
STANDARD
 70
     0
 40
0.0
 41
1.0
 50
0.0
 71
     0
 42
180.0
  3
simplex.shx
  4
extfont.shx
  0
ENDTAB
  0
TABLE
  2
VIEW
 70
     0
  0
ENDTAB
  0
TABLE
  2
UCS
 70
     0
  0
ENDTAB
  0
TABLE
  2
APPID
 70
     1
  0
APPID
  2
ACAD
 70
     0
  0
ENDTAB
  0
TABLE
  2
DIMSTYLE
 70
     1
  0
DIMSTYLE
  2
IGA
 70
     0
  3

  4

  5

  6
OPEN
  7
OPEN
 40
2.0
 41
2.0
 42
0.5
 43
10.0
 44
1.0
 45
0.0
 46
0.0
 47
1.0
 48
1.0
140
3.0
141
0.0
142
0.0
143
0.03937
144
1.0
145
0.0
146
10.0
147
1.0
 71
     0
 72
     0
 73
     0
 74
     0
 75
     0
 76
     0
 77
     1
 78
     8
170
     0
171
     2
172
     0
173
     1
174
     0
175
     0
176
     0
177
     0
178
     0
  0
ENDTAB
  0
ENDSEC
  0
SECTION
  2
BLOCKS
  0
BLOCK
  8
0
  2
$MODEL_SPACE
 70
     0
 10
0.0
 20
0.0
 30
0.0
  3
$MODEL_SPACE
  1

  0
ENDBLK
  5
1B
  8
0
  0
BLOCK
 67
     1
  8
0
  2
$PAPER_SPACE
 70
     0
 10
0.0
 20
0.0
 30
0.0
  3
$PAPER_SPACE
  1

  0
ENDBLK
  5
18
 67
     1
  8
0
  0
BLOCK
  8
0
  2
_OPEN
 70
     0
 10
0.0
 20
0.0
 30
0.0
  3
_OPEN
  1

  0
LINE
  5
7B24
  8
0
  6
BYBLOCK
 62
     0
 10
-1.0
 20
0.166667
 30
0.0
 11
0.0
 21
0.0
 31
0.0
  0
LINE
  5
7B25
  8
0
  6
BYBLOCK
 62
     0
 10
0.0
 20
0.0
 30
0.0
 11
-1.0
 21
-0.166667
 31
0.0
  0
LINE
  5
7B26
  8
0
  6
BYBLOCK
 62
     0
 10
0.0
 20
0.0
 30
0.0
 11
-1.0
 21
0.0
 31
0.0
  0
ENDBLK
  5
7B27
  8
0
  0
BLOCK
  8
0
  2
*D1
 70
     1
 10
0.0
 20
0.0
 30
0.0
  3
*D1
  1

  0
LINE
  5
7DF0
  8
3
  6
CONTINUOUS
 62
     0
 10
1029.6026320000001
 20
2580.3252400000001
 30
0.0
 11
1029.6026320000001
 21
2749.4597210000002
 31
0.0
  0
LINE
  5
7DF1
  8
3
  6
CONTINUOUS
 62
     0
 10
1589.6026320000001
 20
2580.3252400000001
 30
0.0
 11
1589.6026320000001
 21
2749.4597210000002
 31
0.0
  0
LINE
  5
7DF2
  8
3
  6
CONTINUOUS
 62
     0
 10
1069.6026320000001
 20
2729.4597210000002
 30
0.0
 11
1549.6026320000001
 21
2729.4597210000002
 31
0.0
  0
INSERT
  5
7DF3
  8
3
  6
CONTINUOUS
 62
     0
  2
_OPEN
 10
1029.6026320000001
 20
2729.4597210000002
 30
0.0
 41
40.0
 42
40.0
 43
40.0
 50
180.0
  0
INSERT
  5
7DF4
  8
3
  6
CONTINUOUS
 62
     0
  2
_OPEN
 10
1589.6026320000001
 20
2729.4597210000002
 30
0.0
 41
40.0
 42
40.0
 43
40.0
  0
TEXT
  8
3
  40
60
  5
7E89
  62
0
  72
0
  71
0
 10
1183.52
 20
2673.26
 30
0.000000
  1
560
  0
POINT
  5
7DF6
  8
DEFPOINTS
  6
CONTINUOUS
 62
     0
 10
1029.6026320000001
 20
2570.3252399999992
 30
0.0
  0
POINT
  5
7DF7
  8
DEFPOINTS
  6
CONTINUOUS
 62
     0
 10
1589.6026320000001
 20
2570.3252399999992
 30
0.0
  0
POINT
  5
7DF8
  8
DEFPOINTS
  6
CONTINUOUS
 62
     0
 10
1589.6026320000001
 20
2729.4597210000002
 30
0.0
  0
ENDBLK
  5
7C71
  8
0
  0
BLOCK
  8
0
  2
*D2
 70
     1
 10
0.0
 20
0.0
 30
0.0
  3
*D2
  1

  0
LINE
  5
7DF9
  8
3
  6
CONTINUOUS
 62
     0
 10
1029.6026320000001
 20
2580.3252400000001
 30
0.0
 11
1029.6026320000001
 21
2864.8607670000001
 31
0.0
  0
LINE
  5
7DFA
  8
3
  6
CONTINUOUS
 62
     0
 10
1568.6026320000001
 20
2780.3317430000002
 30
0.0
 11
1568.6026320000001
 21
2864.8607670000001
 31
0.0
  0
LINE
  5
7DFB
  8
3
  6
CONTINUOUS
 62
     0
 10
1069.6026320000001
 20
2844.8607670000001
 30
0.0
 11
1528.6026320000001
 21
2844.8607670000001
 31
0.0
  0
INSERT
  5
7DFC
  8
3
  6
CONTINUOUS
 62
     0
  2
_OPEN
 10
1029.6026320000001
 20
2844.8607670000001
 30
0.0
 41
40.0
 42
40.0
 43
40.0
 50
180.0
  0
INSERT
  5
7DFD
  8
3
  6
CONTINUOUS
 62
     0
  2
_OPEN
 10
1568.6026320000001
 20
2844.8607670000001
 30
0.0
 41
40.0
 42
40.0
 43
40.0
  0
TEXT
  8
3
  40
60
  5
7E8A
  62
0
  72
0
  71
0
 10
1179.39
 20
2788.66
 30
0.000000
  1
539
  0
POINT
  5
7DFF
  8
DEFPOINTS
  6
CONTINUOUS
 62
     0
 10
1029.6026320000001
 20
2570.3252399999992
 30
0.0
  0
POINT
  5
7E00
  8
DEFPOINTS
  6
CONTINUOUS
 62
     0
 10
1568.6026320000001
 20
2770.3317430000002
 30
0.0
  0
POINT
  5
7E01
  8
DEFPOINTS
  6
CONTINUOUS
 62
     0
 10
1568.6026320000001
 20
2844.8607670000001
 30
0.0
  0
ENDBLK
  5
7C66
  8
0
  0
BLOCK
  8
0
  2
*D3
 70
     1
 10
0.0
 20
0.0
 30
0.0
  3
*D3
  1

  0
LINE
  5
7E02
  8
3
  6
CONTINUOUS
 62
     0
 10
1978.6026320000001
 20
2535.3252400000001
 30
0.0
 11
1978.6026320000001
 21
2864.8607670000001
 31
0.0
  0
LINE
  5
7E03
  8
3
  6
CONTINUOUS
 62
     0
 10
1608.6026320000001
 20
2844.8607670000001
 30
0.0
 11
1938.6026320000001
 21
2844.8607670000001
 31
0.0
  0
INSERT
  5
7E04
  8
3
  6
CONTINUOUS
 62
     0
  2
_OPEN
 10
1568.6026320000001
 20
2844.8607670000001
 30
0.0
 41
40.0
 42
40.0
 43
40.0
 50
180.0
  0
INSERT
  5
7E05
  8
3
  6
CONTINUOUS
 62
     0
  2
_OPEN
 10
1978.6026320000001
 20
2844.8607670000001
 30
0.0
 41
40.0
 42
40.0
 43
40.0
  0
TEXT
  8
3
  40
60
  5
7E8B
  62
0
  72
0
  71
0
 10
1653.60
 20
2788.66
 30
0.000000
  1
410
  0
POINT
  5
7E07
  8
DEFPOINTS
  6
CONTINUOUS
 62
     0
 10
1568.6026320000001
 20
2770.3317430000002
 30
0.0
  0
POINT
  5
7E08
  8
DEFPOINTS
  6
CONTINUOUS
 62
     0
 10
1978.6026320000001
 20
2525.3252399999992
 30
0.0
  0
POINT
  5
7E09
  8
DEFPOINTS
  6
CONTINUOUS
 62
     0
 10
1978.6026320000001
 20
2844.8607670000001
 30
0.0
  0
ENDBLK
  5
7C7B
  8
0
  0
BLOCK
  8
0
  2
*D4
 70
     1
 10
0.0
 20
0.0
 30
0.0
  3
*D4
  1

  0
LINE
  5
7E0A
  8
3
  6
CONTINUOUS
 62
     0
 10
1626.6026320000001
 20
2570.3252399999992
 30
0.0
 11
2177.4827770000002
 21
2570.3252399999992
 31
0.0
  0
LINE
  5
7E0B
  8
3
  6
CONTINUOUS
 62
     0
 10
2065.138199
 20
2165.3252399999992
 30
0.0
 11
2177.4827770000002
 21
2165.3252399999992
 31
0.0
  0
LINE
  5
7E0C
  8
3
  6
CONTINUOUS
 62
     0
 10
2157.4827770000002
 20
2530.3252399999992
 30
0.0
 11
2157.4827770000002
 21
2205.3252400000001
 31
0.0
  0
INSERT
  5
7E0D
  8
3
  6
CONTINUOUS
 62
     0
  2
_OPEN
 10
2157.4827770000002
 20
2570.3252399999992
 30
0.0
 41
40.0
 42
40.0
 43
40.0
 50
90.0
  0
INSERT
  5
7E0E
  8
3
  6
CONTINUOUS
 62
     0
  2
_OPEN
 10
2157.4827770000002
 20
2165.3252399999992
 30
0.0
 41
40.0
 42
40.0
 43
40.0
 50
270.0
  0
TEXT
  8
3
  40
60
  5
7E8C
  62
0
  72
0
  71
0
 10
1987.48
 20
2275.16
 30
0.000000
  1
405
  0
POINT
  5
7E10
  8
DEFPOINTS
  6
CONTINUOUS
 62
     0
 10
1616.6026320000001
 20
2570.3252399999992
 30
0.0
  0
POINT
  5
7E11
  8
DEFPOINTS
  6
CONTINUOUS
 62
     0
 10
2055.1381989999991
 20
2165.3252399999992
 30
0.0
  0
POINT
  5
7E12
  8
DEFPOINTS
  6
CONTINUOUS
 62
     0
 10
2157.4827770000002
 20
2165.3252399999992
 30
0.0
  0
ENDBLK
  5
7B5A
  8
0
  0
BLOCK
  8
0
  2
*D5
 70
     1
 10
0.0
 20
0.0
 30
0.0
  3
*D5
  1

  0
LINE
  5
7E13
  8
3
  6
CONTINUOUS
 62
     0
 10
1923.6026320000001
 20
1610.3252399999999
 30
0.0
 11
2177.4827770000002
 21
1610.3252399999999
 31
0.0
  0
LINE
  5
7E14
  8
3
  6
CONTINUOUS
 62
     0
 10
2157.4827770000002
 20
2125.3252400000001
 30
0.0
 11
2157.4827770000002
 21
1650.3252399999999
 31
0.0
  0
INSERT
  5
7E15
  8
3
  6
CONTINUOUS
 62
     0
  2
_OPEN
 10
2157.4827770000002
 20
2165.3252399999992
 30
0.0
 41
40.0
 42
40.0
 43
40.0
 50
90.0
  0
INSERT
  5
7E16
  8
3
  6
CONTINUOUS
 62
     0
  2
_OPEN
 10
2157.4827770000002
 20
1610.3252399999999
 30
0.0
 41
40.0
 42
40.0
 43
40.0
 50
270.0
  0
TEXT
  8
3
  40
60
  5
7E8D
  62
0
  72
0
  71
0
 10
1987.48
 20
1781.63
 30
0.000000
  1
555
  0
POINT
  5
7E18
  8
DEFPOINTS
  6
CONTINUOUS
 62
     0
 10
2055.1381989999991
 20
2165.3252399999992
 30
0.0
  0
POINT
  5
7E19
  8
DEFPOINTS
  6
CONTINUOUS
 62
     0
 10
1913.6026320000001
 20
1610.3252399999999
 30
0.0
  0
POINT
  5
7E1A
  8
DEFPOINTS
  6
CONTINUOUS
 62
     0
 10
2157.4827770000002
 20
1610.3252399999999
 30
0.0
  0
ENDBLK
  5
7B66
  8
0
  0
BLOCK
  8
0
  2
*D6
 70
     1
 10
0.0
 20
0.0
 30
0.0
  3
*D6
  1

  0
LINE
  5
7D64
  8
0
  6
BYBLOCK
 62
     0
 10
1923.6026320000001
 20
1523.3252399999999
 30
0.0
 11
2177.4827770000002
 21
1523.3252399999999
 31
0.0
  0
LINE
  5
7D65
  8
0
  6
BYBLOCK
 62
     0
 10
2157.4827770000002
 20
1650.3252399999999
 30
0.0
 11
2157.4827770000002
 21
1690.3252399999999
 31
0.0
  0
LINE
  5
7D66
  8
0
  6
BYBLOCK
 62
     0
 10
2157.4827770000002
 20
1483.3252399999999
 30
0.0
 11
2157.4827770000002
 21
1443.3252399999999
 31
0.0
  0
TEXT
  5
7D67
  8
3
 62
     0
 10
2282.6949698877679
 20
1524.235757109016
 30
0.0
 40
60.0
  1
87
 50
90.0
  0
LINE
  5
7D68
  8
0
  6
BYBLOCK
 62
     0
 10
2157.4827770000002
 20
1610.3252399999999
 30
0.0
 11
2157.4827770000002
 21
1523.3252399999999
 31
0.0
  0
INSERT
  5
7D69
  8
0
  6
BYBLOCK
 62
     0
  2
_OPEN
 10
2157.4827770000002
 20
1610.3252399999999
 30
0.0
 41
40.0
 42
40.0
 43
40.0
 50
270.0
  0
INSERT
  5
7D6A
  8
0
  6
BYBLOCK
 62
     0
  2
_DOT
 10
2157.4827770000002
 20
1523.3252399999999
 30
0.0
 41
40.0
 42
40.0
 43
40.0
 50
90.0
  0
POINT
  5
7D6B
  8
DEFPOINTS
  6
BYBLOCK
 62
     0
 10
1913.6026320000001
 20
1610.3252399999999
 30
0.0
  0
POINT
  5
7D6C
  8
DEFPOINTS
  6
BYBLOCK
 62
     0
 10
1913.6026320000001
 20
1523.3252399999999
 30
0.0
  0
POINT
  5
7D6D
  8
DEFPOINTS
  6
BYBLOCK
 62
     0
 10
2157.4827770000002
 20
1523.3252399999999
 30
0.0
  0
ENDBLK
  5
7D6E
  8
0
  0
BLOCK
  8
0
  2
*D7
 70
     1
 10
0.0
 20
0.0
 30
0.0
  3
*D7
  1

  0
LINE
  5
7E1B
  8
3
  6
CONTINUOUS
 62
     0
 10
1636.6026319999989
 20
2570.3252399999992
 30
0.0
 11
2363.1274880000001
 21
2570.3252399999992
 31
0.0
  0
LINE
  5
7E1C
  8
3
  6
CONTINUOUS
 62
     0
 10
1923.6026320000001
 20
1483.3252399999999
 30
0.0
 11
2363.1274880000001
 21
1483.3252399999999
 31
0.0
  0
LINE
  5
7E1D
  8
3
  6
CONTINUOUS
 62
     0
 10
2343.1274880000001
 20
2530.3252399999992
 30
0.0
 11
2343.1274880000001
 21
1523.3252399999999
 31
0.0
  0
INSERT
  5
7E1E
  8
3
  6
CONTINUOUS
 62
     0
  2
_OPEN
 10
2343.1274880000001
 20
2570.3252399999992
 30
0.0
 41
40.0
 42
40.0
 43
40.0
 50
90.0
  0
INSERT
  5
7E1F
  8
3
  6
CONTINUOUS
 62
     0
  2
_OPEN
 10
2343.1274880000001
 20
1483.3252399999999
 30
0.0
 41
40.0
 42
40.0
 43
40.0
 50
270.0
  0
TEXT
  8
3
  40
60
  5
7E8E
  62
0
  72
0
  71
0
 10
2173.13
 20
1957.81
 30
0.000000
  1
1087
  0
POINT
  5
7E21
  8
DEFPOINTS
  6
CONTINUOUS
 62
     0
 10
1626.6026320000001
 20
2570.3252399999992
 30
0.0
  0
POINT
  5
7E22
  8
DEFPOINTS
  6
CONTINUOUS
 62
     0
 10
1913.6026320000001
 20
1483.3252399999999
 30
0.0
  0
POINT
  5
7E23
  8
DEFPOINTS
  6
CONTINUOUS
 62
     0
 10
2343.1274880000001
 20
1483.3252399999999
 30
0.0
  0
ENDBLK
  5
7B83
  8
0
  0
BLOCK
  8
0
  2
*D8
 70
     1
 10
0.0
 20
0.0
 30
0.0
  3
*D8
  1

  0
LINE
  5
7E24
  8
3
  6
CONTINUOUS
 62
     0
 10
663.60263199999997
 20
1473.3252399999999
 30
0.0
 11
663.60263199999997
 21
1325.346599
 31
0.0
  0
LINE
  5
7E25
  8
3
  6
CONTINUOUS
 62
     0
 10
1568.6026320000001
 20
1387.522026298089
 30
0.0
 11
1568.6026320000001
 21
1325.346599
 31
0.0
  0
LINE
  5
7E26
  8
3
  6
CONTINUOUS
 62
     0
 10
703.60263200000009
 20
1345.3465989999991
 30
0.0
 11
1528.6026320000001
 21
1345.3465989999991
 31
0.0
  0
INSERT
  5
7E27
  8
3
  6
CONTINUOUS
 62
     0
  2
_OPEN
 10
663.60263199999997
 20
1345.3465989999991
 30
0.0
 41
40.0
 42
40.0
 43
40.0
 50
180.0
  0
INSERT
  5
7E28
  8
3
  6
CONTINUOUS
 62
     0
  2
_OPEN
 10
1568.6026320000001
 20
1345.3465989999991
 30
0.0
 41
40.0
 42
40.0
 43
40.0
  0
TEXT
  8
3
  40
60
  5
7E8F
  62
0
  72
0
  71
0
 10
1010.25
 20
1289.15
 30
0.000000
  1
905
  0
POINT
  5
7E2A
  8
DEFPOINTS
  6
CONTINUOUS
 62
     0
 10
663.60263199999997
 20
1483.3252399999999
 30
0.0
  0
POINT
  5
7E2B
  8
DEFPOINTS
  6
CONTINUOUS
 62
     0
 10
1568.6026320000001
 20
1397.522026298089
 30
0.0
  0
POINT
  5
7E2C
  8
DEFPOINTS
  6
CONTINUOUS
 62
     0
 10
1568.6026320000001
 20
1345.3465989999991
 30
0.0
  0
ENDBLK
  5
7CFF
  8
0
  0
BLOCK
  8
0
  2
*D9
 70
     1
 10
0.0
 20
0.0
 30
0.0
  3
*D9
  1

  0
LINE
  5
7E2D
  8
3
  6
CONTINUOUS
 62
     0
 10
1913.6026320000001
 20
1473.3252399999999
 30
0.0
 11
1913.6026320000001
 21
1325.346599
 31
0.0
  0
LINE
  5
7E2E
  8
3
  6
CONTINUOUS
 62
     0
 10
1608.6026320000001
 20
1345.3465989999991
 30
0.0
 11
1873.6026320000001
 21
1345.3465989999991
 31
0.0
  0
INSERT
  5
7E2F
  8
3
  6
CONTINUOUS
 62
     0
  2
_OPEN
 10
1568.6026320000001
 20
1345.3465989999991
 30
0.0
 41
40.0
 42
40.0
 43
40.0
 50
180.0
  0
INSERT
  5
7E30
  8
3
  6
CONTINUOUS
 62
     0
  2
_OPEN
 10
1913.6026320000001
 20
1345.3465989999991
 30
0.0
 41
40.0
 42
40.0
 43
40.0
  0
TEXT
  8
3
  40
60
  5
7E90
  62
0
  72
0
  71
0
 10
1621.10
 20
1289.15
 30
0.000000
  1
345
  0
POINT
  5
7E32
  8
DEFPOINTS
  6
CONTINUOUS
 62
     0
 10
1568.6026320000001
 20
1397.522026298089
 30
0.0
  0
POINT
  5
7E33
  8
DEFPOINTS
  6
CONTINUOUS
 62
     0
 10
1913.6026320000001
 20
1483.3252399999999
 30
0.0
  0
POINT
  5
7E34
  8
DEFPOINTS
  6
CONTINUOUS
 62
     0
 10
1913.6026320000001
 20
1345.3465989999991
 30
0.0
  0
ENDBLK
  5
7CF4
  8
0
  0
BLOCK
  8
0
  2
*D10
 70
     1
 10
0.0
 20
0.0
 30
0.0
  3
*D10
  1

  0
LINE
  5
7E35
  8
3
  6
CONTINUOUS
 62
     0
 10
3320.7688750928842
 20
2580.3252400000001
 30
0.0
 11
3320.7688750928842
 21
2634.9907846992701
 31
0.0
  0
LINE
  5
7E36
  8
3
  6
CONTINUOUS
 62
     0
 10
2900.7688750928842
 20
2580.3252400000001
 30
0.0
 11
2900.7688750928842
 21
2634.9907846992701
 31
0.0
  0
LINE
  5
7E37
  8
3
  6
CONTINUOUS
 62
     0
 10
3280.7688750928842
 20
2614.9907846992701
 30
0.0
 11
2940.7688750928842
 21
2614.9907846992701
 31
0.0
  0
INSERT
  5
7E38
  8
3
  6
CONTINUOUS
 62
     0
  2
_OPEN
 10
3320.7688750928842
 20
2614.9907846992701
 30
0.0
 41
40.0
 42
40.0
 43
40.0
  0
INSERT
  5
7E39
  8
3
  6
CONTINUOUS
 62
     0
  2
_OPEN
 10
2900.7688750928842
 20
2614.9907846992701
 30
0.0
 41
40.0
 42
40.0
 43
40.0
 50
180.0
  0
TEXT
  8
3
  40
60
  5
7E91
  62
0
  72
0
  71
0
 10
2988.29
 20
2558.79
 30
0.000000
  1
420
  0
POINT
  5
7E3B
  8
DEFPOINTS
  6
CONTINUOUS
 62
     0
 10
3320.7688750928842
 20
2570.3252399999992
 30
0.0
  0
POINT
  5
7E3C
  8
DEFPOINTS
  6
CONTINUOUS
 62
     0
 10
2900.7688750928842
 20
2570.3252399999992
 30
0.0
  0
POINT
  5
7E3D
  8
DEFPOINTS
  6
CONTINUOUS
 62
     0
 10
2900.7688750928842
 20
2614.9907846992701
 30
0.0
  0
ENDBLK
  5
7D9C
  8
0
  0
BLOCK
  8
0
  2
*D11
 70
     1
 10
0.0
 20
0.0
 30
0.0
  3
*D11
  1

  0
LINE
  5
7E3E
  8
3
  6
CONTINUOUS
 62
     0
 10
3332.7688750928842
 20
2460.3252399999992
 30
0.0
 11
3531.3708440928849
 21
2460.3252399999992
 31
0.0
  0
LINE
  5
7E3F
  8
3
  6
CONTINUOUS
 62
     0
 10
3330.7688750928842
 20
1870.3252399999999
 30
0.0
 11
3531.3708440928849
 21
1870.3252399999999
 31
0.0
  0
LINE
  5
7E40
  8
3
  6
CONTINUOUS
 62
     0
 10
3511.3708440928849
 20
2420.3252399999992
 30
0.0
 11
3511.3708440928849
 21
1910.325239999999
 31
0.0
  0
INSERT
  5
7E41
  8
3
  6
CONTINUOUS
 62
     0
  2
_OPEN
 10
3511.3708440928849
 20
2460.3252399999992
 30
0.0
 41
40.0
 42
40.0
 43
40.0
 50
90.0
  0
INSERT
  5
7E42
  8
3
  6
CONTINUOUS
 62
     0
  2
_OPEN
 10
3511.3708440928849
 20
1870.3252399999999
 30
0.0
 41
40.0
 42
40.0
 43
40.0
 50
270.0
  0
TEXT
  8
3
  40
60
  5
7E92
  62
0
  72
0
  71
0
 10
3341.37
 20
2064.96
 30
0.000000
  1
φ590
  0
POINT
  5
7E44
  8
DEFPOINTS
  6
CONTINUOUS
 62
     0
 10
3322.7688750928842
 20
2460.3252399999992
 30
0.0
  0
POINT
  5
7E45
  8
DEFPOINTS
  6
CONTINUOUS
 62
     0
 10
3320.7688750928842
 20
1870.3252399999999
 30
0.0
  0
POINT
  5
7E46
  8
DEFPOINTS
  6
CONTINUOUS
 62
     0
 10
3511.3708440928849
 20
1870.3252399999999
 30
0.0
  0
ENDBLK
  5
7CD5
  8
0
  0
BLOCK
  8
0
  2
*D12
 70
     1
 10
0.0
 20
0.0
 30
0.0
  3
*D12
  1

  0
LINE
  5
7D9E
  8
0
  6
BYBLOCK
 62
     0
 10
3322.7688750928842
 20
2495.3252399999992
 30
0.0
 11
3322.7688750928842
 21
2789.2550769554559
 31
0.0
  0
LINE
  5
7D9F
  8
0
  6
BYBLOCK
 62
     0
 10
3110.7688750928842
 20
2717.9738170000001
 30
0.0
 11
3110.7688750928842
 21
2789.2550769554559
 31
0.0
  0
LINE
  5
7DA0
  8
0
  6
BYBLOCK
 62
     0
 10
3282.7688750928842
 20
2769.2550769554559
 30
0.0
 11
3150.7688750928842
 21
2769.2550769554559
 31
0.0
  0
TEXT
  5
7DA1
  8
3
 62
     0
 10
3156.0906402067958
 20
2793.727490998177
 30
0.0
 40
60.0
  1
212
  0
INSERT
  5
7DA2
  8
0
  6
BYBLOCK
 62
     0
  2
_OPEN
 10
3322.7688750928842
 20
2769.2550769554559
 30
0.0
 41
40.0
 42
40.0
 43
40.0
  0
INSERT
  5
7DA3
  8
0
  6
BYBLOCK
 62
     0
  2
_OPEN
 10
3110.7688750928842
 20
2769.2550769554559
 30
0.0
 41
40.0
 42
40.0
 43
40.0
 50
180.0
  0
POINT
  5
7DA4
  8
DEFPOINTS
  6
BYBLOCK
 62
     0
 10
3322.7688750928842
 20
2485.3252399999992
 30
0.0
  0
POINT
  5
7DA5
  8
DEFPOINTS
  6
BYBLOCK
 62
     0
 10
3110.7688750928842
 20
2707.9738170000001
 30
0.0
  0
POINT
  5
7DA6
  8
DEFPOINTS
  6
BYBLOCK
 62
     0
 10
3110.7688750928842
 20
2769.2550769554559
 30
0.0
  0
ENDBLK
  5
7DA7
  8
0
  0
BLOCK
  8
0
  2
*D13
 70
     1
 10
0.0
 20
0.0
 30
0.0
  3
*D13
  1

  0
LINE
  5
7E47
  8
3
  6
CONTINUOUS
 62
     0
 10
2700.7688750928842
 20
2535.3252400000001
 30
0.0
 11
2700.7688750928842
 21
2789.2550769554559
 31
0.0
  0
LINE
  5
7E48
  8
3
  6
CONTINUOUS
 62
     0
 10
3070.7688750928842
 20
2769.2550769554559
 30
0.0
 11
2740.7688750928842
 21
2769.2550769554559
 31
0.0
  0
INSERT
  5
7E49
  8
3
  6
CONTINUOUS
 62
     0
  2
_OPEN
 10
3110.7688750928842
 20
2769.2550769554559
 30
0.0
 41
40.0
 42
40.0
 43
40.0
  0
INSERT
  5
7E4A
  8
3
  6
CONTINUOUS
 62
     0
  2
_OPEN
 10
2700.7688750928842
 20
2769.2550769554559
 30
0.0
 41
40.0
 42
40.0
 43
40.0
 50
180.0
  0
TEXT
  8
3
  40
60
  5
7E93
  62
0
  72
0
  71
0
 10
2785.77
 20
2763.06
 30
0.000000
  1
MAX
  0
TEXT
  8
3
  40
60
  5
7E94
  62
0
  72
0
  71
0
 10
2785.77
 20
2685.06
 30
0.000000
  1
470
  0
POINT
  5
7E4C
  8
DEFPOINTS
  6
CONTINUOUS
 62
     0
 10
3110.7688750928842
 20
2707.9738170000001
 30
0.0
  0
POINT
  5
7E4D
  8
DEFPOINTS
  6
CONTINUOUS
 62
     0
 10
2700.7688750928842
 20
2525.3252399999992
 30
0.0
  0
POINT
  5
7E4E
  8
DEFPOINTS
  6
CONTINUOUS
 62
     0
 10
2700.7688750928842
 20
2769.2550769554559
 30
0.0
  0
ENDBLK
  5
7DCD
  8
0
  0
BLOCK
  8
0
  2
*D14
 70
     1
 10
0.0
 20
0.0
 30
0.0
  3
*D14
  1

  0
LINE
  5
7E4F
  8
3
  6
CONTINUOUS
 62
     0
 10
2665.7688750928842
 20
1473.3252399999999
 30
0.0
 11
2665.7688750928842
 21
1295.3454549999999
 31
0.0
  0
LINE
  5
7E50
  8
3
  6
CONTINUOUS
 62
     0
 10
3110.7688750928842
 20
1372.0830993076099
 30
0.0
 11
3110.7688750928842
 21
1295.3454549999999
 31
0.0
  0
LINE
  5
7E51
  8
3
  6
CONTINUOUS
 62
     0
 10
2705.7688750928842
 20
1315.3454549999999
 30
0.0
 11
3070.7688750928842
 21
1315.3454549999999
 31
0.0
  0
INSERT
  5
7E52
  8
3
  6
CONTINUOUS
 62
     0
  2
_OPEN
 10
2665.7688750928842
 20
1315.3454549999999
 30
0.0
 41
40.0
 42
40.0
 43
40.0
 50
180.0
  0
INSERT
  5
7E53
  8
3
  6
CONTINUOUS
 62
     0
  2
_OPEN
 10
3110.7688750928842
 20
1315.3454549999999
 30
0.0
 41
40.0
 42
40.0
 43
40.0
  0
TEXT
  8
3
  40
60
  5
7E95
  62
0
  72
0
  71
0
 10
2756.05
 20
1259.15
 30
0.000000
  1
445
  0
POINT
  5
7E55
  8
DEFPOINTS
  6
CONTINUOUS
 62
     0
 10
2665.7688750928842
 20
1483.3252399999999
 30
0.0
  0
POINT
  5
7E56
  8
DEFPOINTS
  6
CONTINUOUS
 62
     0
 10
3110.7688750928842
 20
1382.0830993076099
 30
0.0
  0
POINT
  5
7E57
  8
DEFPOINTS
  6
CONTINUOUS
 62
     0
 10
3110.7688750928842
 20
1315.3454549999999
 30
0.0
  0
ENDBLK
  5
7D0A
  8
0
  0
BLOCK
  8
0
  2
*D15
 70
     1
 10
0.0
 20
0.0
 30
0.0
  3
*D15
  1

  0
LINE
  5
7E58
  8
3
  6
CONTINUOUS
 62
     0
 10
3445.7688750928842
 20
1473.3252399999999
 30
0.0
 11
3445.7688750928842
 21
1295.3454549999999
 31
0.0
  0
LINE
  5
7E59
  8
3
  6
CONTINUOUS
 62
     0
 10
3150.7688750928842
 20
1315.3454549999999
 30
0.0
 11
3405.7688750928842
 21
1315.3454549999999
 31
0.0
  0
INSERT
  5
7E5A
  8
3
  6
CONTINUOUS
 62
     0
  2
_OPEN
 10
3110.7688750928842
 20
1315.3454549999999
 30
0.0
 41
40.0
 42
40.0
 43
40.0
 50
180.0
  0
INSERT
  5
7E5B
  8
3
  6
CONTINUOUS
 62
     0
  2
_OPEN
 10
3445.7688750928842
 20
1315.3454549999999
 30
0.0
 41
40.0
 42
40.0
 43
40.0
  0
TEXT
  8
3
  40
60
  5
7E96
  62
0
  72
0
  71
0
 10
3158.27
 20
1259.15
 30
0.000000
  1
335
  0
POINT
  5
7E5D
  8
DEFPOINTS
  6
CONTINUOUS
 62
     0
 10
3110.7688750928842
 20
1382.0830993076099
 30
0.0
  0
POINT
  5
7E5E
  8
DEFPOINTS
  6
CONTINUOUS
 62
     0
 10
3445.7688750928842
 20
1483.3252399999999
 30
0.0
  0
POINT
  5
7E5F
  8
DEFPOINTS
  6
CONTINUOUS
 62
     0
 10
3445.7688750928842
 20
1315.3454549999999
 30
0.0
  0
ENDBLK
  5
7D14
  8
0
  0
BLOCK
  8
0
  2
*D16
 70
     1
 10
0.0
 20
0.0
 30
0.0
  3
*D16
  1

  0
LINE
  5
7E60
  8
3
  6
CONTINUOUS
 62
     0
 10
663.60263199999997
 20
4110.3252400000001
 30
0.0
 11
663.60263199999997
 21
4247.1322499999987
 31
0.0
  0
LINE
  5
7E61
  8
3
  6
CONTINUOUS
 62
     0
 10
1913.6026320000001
 20
4110.3252400000001
 30
0.0
 11
1913.6026320000001
 21
4247.1322499999987
 31
0.0
  0
LINE
  5
7E62
  8
3
  6
CONTINUOUS
 62
     0
 10
703.60263200000009
 20
4227.1322499999987
 30
0.0
 11
1873.6026320000001
 21
4227.1322499999987
 31
0.0
  0
INSERT
  5
7E63
  8
3
  6
CONTINUOUS
 62
     0
  2
_OPEN
 10
663.60263199999997
 20
4227.1322499999987
 30
0.0
 41
40.0
 42
40.0
 43
40.0
 50
180.0
  0
INSERT
  5
7E64
  8
3
  6
CONTINUOUS
 62
     0
  2
_OPEN
 10
1913.6026320000001
 20
4227.1322499999987
 30
0.0
 41
40.0
 42
40.0
 43
40.0
  0
TEXT
  8
3
  40
60
  5
7E97
  62
0
  72
0
  71
0
 10
1195.89
 20
4170.93
 30
0.000000
  1
1250
  0
POINT
  5
7E66
  8
DEFPOINTS
  6
CONTINUOUS
 62
     0
 10
663.60263199999997
 20
4100.3252400000001
 30
0.0
  0
POINT
  5
7E67
  8
DEFPOINTS
  6
CONTINUOUS
 62
     0
 10
1913.6026320000001
 20
4100.3252400000001
 30
0.0
  0
POINT
  5
7E68
  8
DEFPOINTS
  6
CONTINUOUS
 62
     0
 10
1913.6026320000001
 20
4227.1322499999987
 30
0.0
  0
ENDBLK
  5
7C86
  8
0
  0
BLOCK
  8
0
  2
*D17
 70
     1
 10
0.0
 20
0.0
 30
0.0
  3
*D17
  1

  0
LINE
  5
7E69
  8
3
  6
CONTINUOUS
 62
     0
 10
1923.6026320000001
 20
4100.3252400000001
 30
0.0
 11
2226.9880280000011
 21
4100.3252399999992
 31
0.0
  0
LINE
  5
7E6A
  8
3
  6
CONTINUOUS
 62
     0
 10
1923.6026320000001
 20
3320.3252399999992
 30
0.0
 11
2226.9880280000011
 21
3320.3252399999992
 31
0.0
  0
LINE
  5
7E6B
  8
3
  6
CONTINUOUS
 62
     0
 10
2206.9880280000002
 20
4060.3252400000001
 30
0.0
 11
2206.9880280000002
 21
3360.3252399999992
 31
0.0
  0
INSERT
  5
7E6C
  8
3
  6
CONTINUOUS
 62
     0
  2
_OPEN
 10
2206.9880280000002
 20
4100.3252399999992
 30
0.0
 41
40.0
 42
40.0
 43
40.0
 50
90.0
  0
INSERT
  5
7E6D
  8
3
  6
CONTINUOUS
 62
     0
  2
_OPEN
 10
2206.9880280000002
 20
3320.3252399999992
 30
0.0
 41
40.0
 42
40.0
 43
40.0
 50
270.0
  0
TEXT
  8
3
  40
60
  5
7E98
  62
0
  72
0
  71
0
 10
2036.99
 20
3604.71
 30
0.000000
  1
780
  0
POINT
  5
7E6F
  8
DEFPOINTS
  6
CONTINUOUS
 62
     0
 10
1913.6026320000001
 20
4100.3252400000001
 30
0.0
  0
POINT
  5
7E70
  8
DEFPOINTS
  6
CONTINUOUS
 62
     0
 10
1913.6026320000001
 20
3320.3252399999992
 30
0.0
  0
POINT
  5
7E71
  8
DEFPOINTS
  6
CONTINUOUS
 62
     0
 10
2206.9880280000002
 20
3320.3252399999992
 30
0.0
  0
ENDBLK
  5
7C06
  8
0
  0
BLOCK
  8
0
  2
*D18
 70
     1
 10
0.0
 20
0.0
 30
0.0
  3
*D18
  1

  0
LINE
  5
7E72
  8
3
  6
CONTINUOUS
 62
     0
 10
1923.6026320000001
 20
1523.3252399999999
 30
0.0
 11
2177.4827770000002
 21
1523.3252399999999
 31
0.0
  0
LINE
  5
7E73
  8
3
  6
CONTINUOUS
 62
     0
 10
1923.6026320000001
 20
1483.3252399999999
 30
0.0
 11
2177.4827770000002
 21
1483.3252399999999
 31
0.0
  0
LINE
  5
7E74
  8
3
  6
CONTINUOUS
 62
     0
 10
2157.4827770000002
 20
1563.3252399999999
 30
0.0
 11
2157.4827770000002
 21
1603.3252399999999
 31
0.0
  0
LINE
  5
7E75
  8
3
  6
CONTINUOUS
 62
     0
 10
2157.4827770000002
 20
1443.3252399999999
 30
0.0
 11
2157.4827770000002
 21
1266.182382857143
 31
0.0
  0
LINE
  5
7E76
  8
3
  6
CONTINUOUS
 62
     0
 10
2157.4827770000002
 20
1523.3252399999999
 30
0.0
 11
2157.4827770000002
 21
1483.3252399999999
 31
0.0
  0
INSERT
  5
7E77
  8
3
  6
CONTINUOUS
 62
     0
  2
_DOT
 10
2157.4827770000002
 20
1523.3252399999999
 30
0.0
 41
40.0
 42
40.0
 43
40.0
 50
270.0
  0
INSERT
  5
7E78
  8
3
  6
CONTINUOUS
 62
     0
  2
_OPEN
 10
2157.4827770000002
 20
1483.3252399999999
 30
0.0
 41
40.0
 42
40.0
 43
40.0
 50
90.0
  0
TEXT
  8
3
  40
60
  5
7E99
  62
0
  72
0
  71
0
 10
1987.48
 20
1228.55
 30
0.000000
  1
40
  0
POINT
  5
7E7A
  8
DEFPOINTS
  6
CONTINUOUS
 62
     0
 10
1913.6026320000001
 20
1523.3252399999999
 30
0.0
  0
POINT
  5
7E7B
  8
DEFPOINTS
  6
CONTINUOUS
 62
     0
 10
1913.6026320000001
 20
1483.3252399999999
 30
0.0
  0
POINT
  5
7E7C
  8
DEFPOINTS
  6
CONTINUOUS
 62
     0
 10
2157.4827770000002
 20
1483.3252399999999
 30
0.0
  0
ENDBLK
  5
7D7B
  8
0
  0
BLOCK
  8
0
  2
_DOT
 70
     0
 10
0.0
 20
0.0
 30
0.0
  3
_DOT
  1

  0
LINE
  5
7DBF
  8
0
  6
BYBLOCK
 62
     0
 10
0.0
 20
0.0
 30
0.0
 11
-1.0
 21
-0.0000000000000284
 31
0.0
  0
POLYLINE
  5
7DC0
  8
0
  6
BYBLOCK
 62
     0
 66
     1
 10
0.0
 20
0.0
 30
0.0
 70
     1
 40
0.1666666666666666
 41
0.1666666666666666
  0
VERTEX
  5
7E86
  8
0
  6
BYBLOCK
 62
     0
 10
-0.0833333333333286
 20
-0.0000000000000284
 30
0.0
 42
1.0
  0
VERTEX
  5
7E87
  8
0
  6
BYBLOCK
 62
     0
 10
0.0833333333333286
 20
-0.0000000000000284
 30
0.0
 42
1.0
  0
SEQEND
  5
7E88
  8
0
  6
BYBLOCK
 62
     0
  0
ENDBLK
  5
7D62
  8
0
  0
BLOCK
  8
0
  2
*D20
 70
     1
 10
0.0
 20
0.0
 30
0.0
  3
*D20
  1

  0
LINE
  5
7E7D
  8
3
 62
     0
 10
1978.6026320000001
 20
2535.3252400000001
 30
0.0
 11
1978.6026320000001
 21
2991.1453768994938
 31
0.0
  0
LINE
  5
7E7E
  8
3
 62
     0
 10
663.60263199999997
 20
1700.3252399999999
 30
0.0
 11
663.60263200000009
 21
2991.1453768994938
 31
0.0
  0
LINE
  5
7E7F
  8
3
 62
     0
 10
1938.6026320000001
 20
2971.1453768994938
 30
0.0
 11
703.6026320000002
 21
2971.1453768994938
 31
0.0
  0
INSERT
  5
7E80
  8
3
 62
     0
  2
_OPEN
 10
1978.6026320000001
 20
2971.1453768994938
 30
0.0
 41
40.0
 42
40.0
 43
40.0
  0
INSERT
  5
7E81
  8
3
 62
     0
  2
_OPEN
 10
663.60263200000009
 20
2971.1453768994938
 30
0.0
 41
40.0
 42
40.0
 43
40.0
 50
180.0
  0
TEXT
  8
3
  40
60
  5
7E9A
  62
0
  72
0
  71
0
 10
1280.93
 20
2914.95
 30
0.000000
  1
1315
  0
POINT
  5
7E83
  8
DEFPOINTS
 62
     0
 10
1978.6026320000001
 20
2525.3252399999992
 30
0.0
  0
POINT
  5
7E84
  8
DEFPOINTS
 62
     0
 10
663.60263199999997
 20
1690.325239999999
 30
0.0
  0
POINT
  5
7E85
  8
DEFPOINTS
 62
     0
 10
663.60263200000009
 20
2971.1453768994938
 30
0.0
  0
ENDBLK
  5
7DBD
  8
0
  0
ENDSEC
  0
SECTION
  2
ENTITIES
  0
LINE
  5
7A84
  8
1
  6
CONTINUOUS
 10
3445.7688750928842
 20
1483.3252399999999
 30
0.0
 11
2665.7688750928842
 21
1483.3252399999999
 31
0.0
  0
LINE
  5
7A85
  8
1
  6
CONTINUOUS
 10
2700.7688750928842
 20
2525.3252399999992
 30
0.0
 11
2820.7688750928842
 21
2525.3252399999992
 31
0.0
  0
LINE
  5
7A86
  8
1
  6
CONTINUOUS
 10
2730.7688750928842
 20
2265.3252399999992
 30
0.0
 11
2790.7688750928842
 21
2265.3252399999992
 31
0.0
  0
LINE
  5
7A87
  8
1
  6
CONTINUOUS
 10
2730.7688750928842
 20
2065.3252399999992
 30
0.0
 11
2790.7688750928842
 21
2065.3252399999992
 31
0.0
  0
LINE
  5
7A88
  8
1
  6
CONTINUOUS
 10
2730.7688750928842
 20
1942.325239999999
 30
0.0
 11
2790.7688750928842
 21
1942.325239999999
 31
0.0
  0
LINE
  5
7A89
  8
1
  6
CONTINUOUS
 10
2730.7688750928842
 20
1802.3252399999999
 30
0.0
 11
2790.7688750928842
 21
1802.3252399999999
 31
0.0
  0
LINE
  5
7A8A
  8
1
  6
CONTINUOUS
 10
3365.7688750928842
 20
1690.325239999999
 30
0.0
 11
2700.7688750928842
 21
1690.325239999999
 31
0.0
  0
LINE
  5
7A8B
  8
1
  6
CONTINUOUS
 10
3445.7688750928842
 20
1523.3252399999999
 30
0.0
 11
2665.7688750928842
 21
1523.3252399999999
 31
0.0
  0
LINE
  5
7A8C
  8
1
  6
CONTINUOUS
 10
893.05659100000003
 20
1806.735576999999
 30
0.0
 11
1603.536859
 21
2071.625720999999
 31
0.0
  0
LINE
  5
7A8D
  8
1
  6
CONTINUOUS
 10
839.04316799999981
 20
1935.7778840000001
 30
0.0
 11
1526.374826
 21
2255.9718750000002
 31
0.0
  0
LINE
  5
7A8E
  8
1
  6
CONTINUOUS
 10
1928.6026320000001
 20
1690.325239999999
 30
0.0
 11
663.60263199999997
 21
1690.325239999999
 31
0.0
  0
LINE
  5
7A8F
  8
1
  6
CONTINUOUS
 10
1569.1026320000001
 20
2525.3252399999992
 30
0.0
 11
709.10263199999997
 21
1920.3252399999999
 31
0.0
  0
LINE
  5
7A90
  8
1
  6
CONTINUOUS
 10
1913.6026320000001
 20
1610.3252399999999
 30
0.0
 11
663.60263199999997
 21
1610.3252399999999
 31
0.0
  0
LINE
  5
7A91
  8
1
  6
CONTINUOUS
 10
1589.6026320000001
 20
2545.3252399999992
 30
0.0
 11
1029.726089
 21
2545.3252399999992
 31
0.0
  0
ARC
  5
7A92
  8
1
  6
CONTINUOUS
 10
1531.6026320000001
 20
2202.3252399999992
 30
0.0
 40
501.36713099999992
 50
184.2321739999999
 51
275.04245099999991
  0
LINE
  5
7A93
  8
1
  6
CONTINUOUS
 10
1616.6026320000001
 20
2570.3252399999992
 30
0.0
 11
1002.602632
 21
2570.3252399999992
 31
0.0
  0
LINE
  5
7A94
  8
1
  6
CONTINUOUS
 10
1913.6026320000001
 20
1523.3252399999999
 30
0.0
 11
663.60263199999997
 21
1523.3252399999999
 31
0.0
  0
LINE
  5
7A95
  8
1
  6
CONTINUOUS
 10
1913.6026320000001
 20
1588.3252399999999
 30
0.0
 11
663.60263199999997
 21
1588.3252399999999
 31
0.0
  0
ARC
  5
7A96
  8
1
  6
CONTINUOUS
 10
868.60263200000009
 20
1872.3252399999999
 30
0.0
 40
142.0
 50
324.59875699999998
 51
215.40124299999999
  0
LINE
  5
7A97
  8
2
  6
CENTER
 10
798.60263200000009
 20
1872.3252399999999
 30
0.0
 11
938.60263199999997
 21
1872.3252399999999
 31
0.0
  0
LINE
  5
7A98
  8
1
  6
CONTINUOUS
 10
738.60263199999997
 20
1690.325239999999
 30
0.0
 11
998.60263199999997
 21
1690.325239999999
 31
0.0
  0
CIRCLE
  5
7A99
  8
1
  6
CONTINUOUS
 10
868.60263200000009
 20
1872.3252399999999
 30
0.0
 40
70.0
  0
LINE
  5
7A9A
  8
1
  6
CONTINUOUS
 10
703.60263200000009
 20
1523.3252399999999
 30
0.0
 11
703.60263200000009
 21
1483.3252399999999
 31
0.0
  0
LINE
  5
7A9B
  8
1
  6
CONTINUOUS
 10
663.60263199999997
 20
1588.3252399999999
 30
0.0
 11
663.60263199999997
 21
1483.3252399999999
 31
0.0
  0
LINE
  5
7A9C
  8
1
  6
CONTINUOUS
 10
703.60263200000009
 20
1483.3252399999999
 30
0.0
 11
663.60263199999997
 21
1483.3252399999999
 31
0.0
  0
LINE
  5
7A9D
  8
1
  6
CONTINUOUS
 10
663.60263199999997
 20
1690.325239999999
 30
0.0
 11
663.60263199999997
 21
1610.3252399999999
 31
0.0
  0
LINE
  5
7A9E
  8
1
  6
CONTINUOUS
 10
738.60263199999997
 20
1755.325239999999
 30
0.0
 11
752.856269
 21
1790.064803
 31
0.0
  0
LINE
  5
7A9F
  8
1
  6
CONTINUOUS
 10
738.60263199999997
 20
1690.325239999999
 30
0.0
 11
738.60263199999997
 21
1755.325239999999
 31
0.0
  0
LINE
  5
7AA0
  8
1
  6
CONTINUOUS
 10
709.10263199999997
 20
1690.325239999999
 30
0.0
 11
709.10263199999997
 21
1920.3252399999999
 31
0.0
  0
LINE
  5
7AA1
  8
2
  6
CENTER
 10
868.60263200000009
 20
1802.3252399999999
 30
0.0
 11
868.60263200000009
 21
1942.325239999999
 31
0.0
  0
LINE
  5
7AA2
  8
1
  6
CONTINUOUS
 10
998.60263199999997
 20
1690.325239999999
 30
0.0
 11
998.60263199999997
 21
1755.325239999999
 31
0.0
  0
LINE
  5
7AA3
  8
1
  6
CONTINUOUS
 10
998.60263199999997
 20
1755.325239999999
 30
0.0
 11
984.34899499999995
 21
1790.064803
 31
0.0
  0
LINE
  5
7AA4
  8
1
  6
CONTINUOUS
 10
1029.6026320000001
 20
2570.3252399999992
 30
0.0
 11
1031.6026320000001
 21
2165.3252399999992
 31
0.0
  0
LINE
  5
7AA5
  8
1
  6
CONTINUOUS
 10
1839.1026320000001
 20
2440.3252399999992
 30
0.0
 11
1569.1026320000001
 21
2525.3252399999992
 31
0.0
  0
CIRCLE
  5
7AA6
  8
1
  6
CONTINUOUS
 10
1568.6026320000001
 20
2165.3252399999992
 30
0.0
 40
295.0
  0
CIRCLE
  5
7AA7
  8
1
  6
CONTINUOUS
 10
1568.6026320000001
 20
2165.3252399999992
 30
0.0
 40
320.0
  0
LINE
  5
7AA8
  8
1
  6
CONTINUOUS
 10
1158.6026320000001
 20
1690.325239999999
 30
0.0
 11
1978.6026320000001
 21
1690.325239999999
 31
0.0
  0
LINE
  5
7AA9
  8
1
  6
CONTINUOUS
 10
1158.6026320000001
 20
2525.3252399999992
 30
0.0
 11
1978.6026320000001
 21
2525.3252399999992
 31
0.0
  0
ARC
  5
7AAA
  8
1
  6
CONTINUOUS
 10
1592.6026320000001
 20
2141.3252400000001
 30
0.0
 40
377.65927299999993
 50
7.2531949999999998
 51
90.455143000000007
  0
ARC
  5
7AAB
  8
1
  6
CONTINUOUS
 10
1537.6026320000001
 20
2134.3252399999992
 30
0.0
 40
433.10293799999999
 50
275.04245099999991
 51
7.2531949999999998
  0
LINE
  5
7AAC
  8
1
  6
CONTINUOUS
 10
1158.6026320000001
 20
2525.3252399999992
 30
0.0
 11
1158.6026320000001
 21
1690.325239999999
 31
0.0
  0
LINE
  5
7AAD
  8
2
  6
CENTER
 10
3352.0594999998789
 20
2165.3252399999992
 30
0.0
 11
2653.421460092884
 21
2165.3252399999992
 31
0.0
  0
CIRCLE
  5
7AAE
  8
1
  6
CONTINUOUS
 10
1568.6026320000001
 20
2165.3252399999992
 30
0.0
 40
100.0
  0
LINE
  5
7AAF
  8
2
  6
CENTER
 10
1568.6026320000001
 20
4132.8183099999997
 30
0.0
 11
1568.6026320000001
 21
3223.0124860000001
 31
0.0
  0
LINE
  5
7AB0
  8
1
  6
CONTINUOUS
 10
1589.6026320000001
 20
2518.972597
 30
0.0
 11
1589.6026320000001
 21
2570.3252399999992
 31
0.0
  0
LINE
  5
7AB1
  8
1
  6
CONTINUOUS
 10
2700.7688750928842
 20
1690.325239999999
 30
0.0
 11
2700.7688750928842
 21
2525.3252399999992
 31
0.0
  0
LINE
  5
7AB2
  8
1
  6
CONTINUOUS
 10
1839.1026320000001
 20
1690.325239999999
 30
0.0
 11
1839.1026320000001
 21
2440.3252399999992
 31
0.0
  0
LINE
  5
7AB3
  8
1
  6
CONTINUOUS
 10
1978.6026320000001
 20
2525.3252399999992
 30
0.0
 11
1978.6026320000001
 21
1690.325239999999
 31
0.0
  0
LINE
  5
7AB5
  8
1
  6
CONTINUOUS
 10
1873.6026320000001
 20
1523.3252399999999
 30
0.0
 11
1873.6026320000001
 21
1483.3252399999999
 31
0.0
  0
LINE
  5
7AB6
  8
1
  6
CONTINUOUS
 10
1913.6026320000001
 20
1588.3252399999999
 30
0.0
 11
1913.6026320000001
 21
1483.3252399999999
 31
0.0
  0
LINE
  5
7AB7
  8
1
  6
CONTINUOUS
 10
1913.6026320000001
 20
1483.3252399999999
 30
0.0
 11
1873.6026320000001
 21
1483.3252399999999
 31
0.0
  0
LINE
  5
7AB8
  8
1
  6
CONTINUOUS
 10
1913.6026320000001
 20
1690.325239999999
 30
0.0
 11
1913.6026320000001
 21
1610.3252399999999
 31
0.0
  0
LINE
  5
7ABA
  8
1
  6
CONTINUOUS
 10
2665.7688750928842
 20
1523.3252399999999
 30
0.0
 11
2665.7688750928842
 21
1483.3252399999999
 31
0.0
  0
LINE
  5
7ABB
  8
1
  6
CONTINUOUS
 10
2730.7688750928842
 20
1942.325239999999
 30
0.0
 11
2730.7688750928842
 21
1802.3252399999999
 31
0.0
  0
LINE
  5
7ABC
  8
1
  6
CONTINUOUS
 10
2730.7688750928842
 20
2265.3252399999992
 30
0.0
 11
2730.7688750928842
 21
2065.3252399999992
 31
0.0
  0
LINE
  5
7ABD
  8
1
  6
CONTINUOUS
 10
1552.6026320000001
 20
3510.3252399999992
 30
0.0
 11
887.60263200000009
 21
3510.3252399999992
 31
0.0
  0
LINE
  5
7ABE
  8
1
  6
CONTINUOUS
 10
1913.6026320000001
 20
4020.3252400000001
 30
0.0
 11
663.60263199999997
 21
4020.3252400000001
 31
0.0
  0
LINE
  5
7ABF
  8
1
  6
CONTINUOUS
 10
1839.1026320000001
 20
3355.3252399999992
 30
0.0
 11
709.10263199999997
 21
3355.3252399999992
 31
0.0
  0
LINE
  5
7AC0
  8
1
  6
CONTINUOUS
 10
1839.1026320000001
 20
3475.3252400000001
 30
0.0
 11
709.10263199999997
 21
3475.3252400000001
 31
0.0
  0
LINE
  5
7AC1
  8
1
  6
CONTINUOUS
 10
1978.6026320000001
 20
3975.3252400000001
 30
0.0
 11
1029.6026320000001
 21
3975.3252400000001
 31
0.0
  0
LINE
  5
7AC2
  8
1
  6
CONTINUOUS
 10
1978.6026320000001
 20
3555.3252400000001
 30
0.0
 11
1029.6026320000001
 21
3555.3252400000001
 31
0.0
  0
LINE
  5
7AC3
  8
1
  6
CONTINUOUS
 10
1029.6026320000001
 20
3975.3252400000001
 30
0.0
 11
1589.6026320000001
 21
3555.3252400000001
 31
0.0
  0
LINE
  5
7AC4
  8
1
  6
CONTINUOUS
 10
1589.6026320000001
 20
3975.3252400000001
 30
0.0
 11
1029.6026320000001
 21
3555.3252400000001
 31
0.0
  0
LINE
  5
7AC5
  8
1
  6
CONTINUOUS
 10
1010.602632
 20
3929.0630729999998
 30
0.0
 11
1010.602632
 21
3529.0630729999989
 31
0.0
  0
LINE
  5
7AC6
  8
1
  6
CONTINUOUS
 10
726.60263199999997
 20
3929.0630729999998
 30
0.0
 11
726.60263199999997
 21
3529.0630729999989
 31
0.0
  0
LINE
  5
7AC7
  8
1
  6
CONTINUOUS
 10
663.60263199999997
 20
4100.3252400000001
 30
0.0
 11
663.60263199999997
 21
3320.3252399999992
 31
0.0
  0
LINE
  5
7AC8
  8
1
  6
CONTINUOUS
 10
1029.6026320000001
 20
3975.3252400000001
 30
0.0
 11
1029.6026320000001
 21
3555.3252400000001
 31
0.0
  0
LINE
  5
7AC9
  8
1
  6
CONTINUOUS
 10
849.60263199999997
 20
3510.3252399999992
 30
0.0
 11
663.60263199999997
 21
3510.3252399999992
 31
0.0
  0
LINE
  5
7ACA
  8
1
  6
CONTINUOUS
 10
726.60263199999997
 20
3529.0630729999989
 30
0.0
 11
1010.602632
 21
3529.0630729999989
 31
0.0
  0
LINE
  5
7ACB
  8
1
  6
CONTINUOUS
 10
798.60263200000009
 20
3445.3252399999992
 30
0.0
 11
938.60263199999997
 21
3445.3252399999992
 31
0.0
  0
LINE
  5
7ACC
  8
1
  6
CONTINUOUS
 10
798.60263200000009
 20
3385.3252399999992
 30
0.0
 11
938.60263199999997
 21
3385.3252399999992
 31
0.0
  0
LINE
  5
7ACD
  8
1
  6
CONTINUOUS
 10
703.60263200000009
 20
3320.3252399999992
 30
0.0
 11
663.60263199999997
 21
3320.3252399999992
 31
0.0
  0
LINE
  5
7ACE
  8
1
  6
CONTINUOUS
 10
709.10263199999997
 20
3355.3252399999992
 30
0.0
 11
709.10263199999997
 21
3475.3252400000001
 31
0.0
  0
LINE
  5
7ACF
  8
1
  6
CONTINUOUS
 10
798.60263200000009
 20
3385.3252399999992
 30
0.0
 11
798.60263200000009
 21
3445.3252399999992
 31
0.0
  0
LINE
  5
7AD0
  8
1
  6
CONTINUOUS
 10
703.60263200000009
 20
3510.3252399999992
 30
0.0
 11
703.60263200000009
 21
3320.3252399999992
 31
0.0
  0
LINE
  5
7AD1
  8
1
  6
CONTINUOUS
 10
849.60263199999997
 20
3445.3252399999992
 30
0.0
 11
849.60263199999997
 21
3529.0630729999989
 31
0.0
  0
LINE
  5
7AD2
  8
1
  6
CONTINUOUS
 10
887.60263200000009
 20
3445.3252399999992
 30
0.0
 11
887.60263200000009
 21
3529.0630729999989
 31
0.0
  0
LINE
  5
7AD3
  8
1
  6
CONTINUOUS
 10
938.60263199999997
 20
3385.3252399999992
 30
0.0
 11
938.60263199999997
 21
3445.3252399999992
 31
0.0
  0
LINE
  5
7AD4
  8
1
  6
CONTINUOUS
 10
726.60263199999997
 20
3929.0630729999998
 30
0.0
 11
1010.602632
 21
3929.0630729999998
 31
0.0
  0
LINE
  5
7AD5
  8
1
  6
CONTINUOUS
 10
703.60263200000009
 20
4100.3252400000001
 30
0.0
 11
663.60263199999997
 21
4100.3252400000001
 31
0.0
  0
LINE
  5
7AD6
  8
1
  6
CONTINUOUS
 10
703.60263200000009
 20
4100.3252400000001
 30
0.0
 11
703.60263200000009
 21
4020.3252400000001
 31
0.0
  0
LINE
  5
7AD7
  8
1
  6
CONTINUOUS
 10
1888.6026320000001
 20
3977.3252399999992
 30
0.0
 11
1248.6026320000001
 21
3977.3252399999992
 31
0.0
  0
LINE
  5
7AD8
  8
1
  6
CONTINUOUS
 10
1913.6026320000001
 20
3510.3252399999992
 30
0.0
 11
1584.6026320000001
 21
3510.3252399999992
 31
0.0
  0
LINE
  5
7AD9
  8
1
  6
CONTINUOUS
 10
1589.6026320000001
 20
3975.3252400000001
 30
0.0
 11
1589.6026320000001
 21
3555.3252400000001
 31
0.0
  0
LINE
  5
7ADA
  8
1
  6
CONTINUOUS
 10
1468.6026320000001
 20
3385.3252399999992
 30
0.0
 11
1668.6026319999989
 21
3385.3252399999992
 31
0.0
  0
LINE
  5
7ADB
  8
1
  6
CONTINUOUS
 10
1468.6026320000001
 20
3445.3252399999992
 30
0.0
 11
1668.6026319999989
 21
3445.3252399999992
 31
0.0
  0
LINE
  5
7ADC
  8
1
  6
CONTINUOUS
 10
1468.6026320000001
 20
3385.3252399999992
 30
0.0
 11
1468.6026320000001
 21
3445.3252399999992
 31
0.0
  0
LINE
  5
7ADD
  8
1
  6
CONTINUOUS
 10
1552.6026320000001
 20
3555.3252400000001
 30
0.0
 11
1552.6026320000001
 21
3445.3252399999992
 31
0.0
  0
LINE
  5
7ADE
  8
1
  6
CONTINUOUS
 10
1584.6026320000001
 20
3555.3252400000001
 30
0.0
 11
1584.6026320000001
 21
3445.3252399999992
 31
0.0
  0
LINE
  5
7ADF
  8
1
  6
CONTINUOUS
 10
1668.6026319999989
 20
3385.3252399999992
 30
0.0
 11
1668.6026319999989
 21
3445.3252399999992
 31
0.0
  0
LINE
  5
7AE0
  8
1
  6
CONTINUOUS
 10
1248.6026320000001
 20
3975.3252400000001
 30
0.0
 11
1248.6026320000001
 21
3977.3252399999992
 31
0.0
  0
LINE
  5
7AE1
  8
1
  6
CONTINUOUS
 10
1978.6026320000001
 20
3555.3252400000001
 30
0.0
 11
1978.6026320000001
 21
3975.3252400000001
 31
0.0
  0
LINE
  5
7AE2
  8
1
  6
CONTINUOUS
 10
1873.6026320000001
 20
3320.3252399999992
 30
0.0
 11
1913.6026320000001
 21
3320.3252399999992
 31
0.0
  0
LINE
  5
7AE3
  8
1
  6
CONTINUOUS
 10
1839.1026320000001
 20
3355.3252399999992
 30
0.0
 11
1839.1026320000001
 21
3475.3252400000001
 31
0.0
  0
LINE
  5
7AE4
  8
1
  6
CONTINUOUS
 10
1873.6026320000001
 20
3510.3252399999992
 30
0.0
 11
1873.6026320000001
 21
3320.3252399999992
 31
0.0
  0
LINE
  5
7AE5
  8
1
  6
CONTINUOUS
 10
1913.6026320000001
 20
3555.3252400000001
 30
0.0
 11
1913.6026320000001
 21
3320.3252399999992
 31
0.0
  0
LINE
  5
7AE6
  8
1
  6
CONTINUOUS
 10
1873.6026320000001
 20
4100.3252400000001
 30
0.0
 11
1913.6026320000001
 21
4100.3252400000001
 31
0.0
  0
LINE
  5
7AE7
  8
1
  6
CONTINUOUS
 10
1873.6026320000001
 20
4100.3252400000001
 30
0.0
 11
1873.6026320000001
 21
4020.3252400000001
 31
0.0
  0
LINE
  5
7AE8
  8
1
  6
CONTINUOUS
 10
1888.6026320000001
 20
3975.3252400000001
 30
0.0
 11
1888.6026320000001
 21
3977.3252399999992
 31
0.0
  0
LINE
  5
7AE9
  8
1
  6
CONTINUOUS
 10
1913.6026320000001
 20
4100.3252400000001
 30
0.0
 11
1913.6026320000001
 21
3975.3252400000001
 31
0.0
  0
LINE
  5
7AEA
  8
1
  6
CONTINUOUS
 10
3322.7688750928842
 20
1845.3252399999999
 30
0.0
 11
3322.7688750928842
 21
2485.3252399999992
 31
0.0
  0
LINE
  5
7AEB
  8
1
  6
CONTINUOUS
 10
2820.7688750928842
 20
1690.325239999999
 30
0.0
 11
2820.7688750928842
 21
2525.3252399999992
 31
0.0
  0
LINE
  5
7AEC
  8
1
  6
CONTINUOUS
 10
2900.7688750928842
 20
1690.325239999999
 30
0.0
 11
2900.7688750928842
 21
2570.3252399999992
 31
0.0
  0
LINE
  5
7AED
  8
1
  6
CONTINUOUS
 10
3320.7688750928842
 20
1690.325239999999
 30
0.0
 11
3320.7688750928842
 21
2570.3252399999992
 31
0.0
  0
LINE
  5
7AEE
  8
1
  6
CONTINUOUS
 10
3365.7688750928842
 20
1610.3252399999999
 30
0.0
 11
2855.7688750928842
 21
1610.3252399999999
 31
0.0
  0
LINE
  5
7AEF
  8
1
  6
CONTINUOUS
 10
3365.7688750928842
 20
1588.3252399999999
 30
0.0
 11
2855.7688750928842
 21
1588.3252399999999
 31
0.0
  0
LINE
  5
7AF0
  8
1
  6
CONTINUOUS
 10
2790.7688750928842
 20
1888.3252399999999
 30
0.0
 11
2900.7688750928842
 21
1888.3252399999999
 31
0.0
  0
LINE
  5
7AF1
  8
1
  6
CONTINUOUS
 10
2790.7688750928842
 20
1856.3252399999999
 30
0.0
 11
2900.7688750928842
 21
1856.3252399999999
 31
0.0
  0
LINE
  5
7AF2
  8
1
  6
CONTINUOUS
 10
2790.7688750928842
 20
1942.325239999999
 30
0.0
 11
2790.7688750928842
 21
1802.3252399999999
 31
0.0
  0
LINE
  5
7AF3
  8
1
  6
CONTINUOUS
 10
2855.7688750928842
 20
1610.3252399999999
 30
0.0
 11
2855.7688750928842
 21
1690.325239999999
 31
0.0
  0
LINE
  5
7AF4
  8
1
  6
CONTINUOUS
 10
2855.7688750928842
 20
1523.3252399999999
 30
0.0
 11
2855.7688750928842
 21
1588.3252399999999
 31
0.0
  0
LINE
  5
7AF5
  8
1
  6
CONTINUOUS
 10
3320.7688750928842
 20
1845.3252399999999
 30
0.0
 11
3322.7688750928842
 21
1845.3252399999999
 31
0.0
  0
LINE
  5
7AF6
  8
1
  6
CONTINUOUS
 10
3365.7688750928842
 20
1610.3252399999999
 30
0.0
 11
3365.7688750928842
 21
1690.325239999999
 31
0.0
  0
LINE
  5
7AF7
  8
1
  6
CONTINUOUS
 10
3365.7688750928842
 20
1523.3252399999999
 30
0.0
 11
3365.7688750928842
 21
1588.3252399999999
 31
0.0
  0
LINE
  5
7AF8
  8
1
  6
CONTINUOUS
 10
2900.7688750928842
 20
2545.3252399999992
 30
0.0
 11
3320.7688750928842
 21
2545.3252399999992
 31
0.0
  0
LINE
  5
7AF9
  8
1
  6
CONTINUOUS
 10
2873.7688750928842
 20
2570.3252399999992
 30
0.0
 11
3347.7688750928842
 21
2570.3252399999992
 31
0.0
  0
LINE
  5
7AFA
  8
1
  6
CONTINUOUS
 10
2790.7688750928842
 20
2265.3252399999992
 30
0.0
 11
2790.7688750928842
 21
2065.3252399999992
 31
0.0
  0
LINE
  5
7AFB
  8
1
  6
CONTINUOUS
 10
2900.7688750928842
 20
2181.3252399999992
 30
0.0
 11
2790.7688750928842
 21
2181.3252399999992
 31
0.0
  0
LINE
  5
7AFC
  8
1
  6
CONTINUOUS
 10
2900.7688750928842
 20
2149.3252399999992
 30
0.0
 11
2790.7688750928842
 21
2149.3252399999992
 31
0.0
  0
LINE
  5
7AFD
  8
1
  6
CONTINUOUS
 10
3320.7688750928842
 20
2485.3252399999992
 30
0.0
 11
3322.7688750928842
 21
2485.3252399999992
 31
0.0
  0
LINE
  5
7AFE
  8
1
  6
CONTINUOUS
 10
3445.7688750928842
 20
1523.3252399999999
 30
0.0
 11
3445.7688750928842
 21
1483.3252399999999
 31
0.0
  0
LINE
  5
7AFF
  8
2
  6
CENTER
 10
2082.680656
 20
3765.3252400000001
 30
0.0
 11
559.01674999999989
 21
3765.3252400000001
 31
0.0
  0
LINE
  5
7B00
  8
2
  6
CENTER
 10
3110.7688750928842
 20
2595.830132
 30
0.0
 11
3110.7688750928842
 21
1380.834329969085
 31
0.0
  0
LINE
  5
7B01
  8
2
  6
CENTER
 10
1568.6026320000001
 20
2770.3317430000002
 30
0.0
 11
1568.6026320000001
 21
1397.522026298089
 31
0.0
  0
LINE
  5
7B02
  8
2
  6
CENTER
 10
2055.1381989999991
 20
2165.3252399999992
 30
0.0
 11
847.4156605666866
 21
2165.3252399999992
 31
0.0
  0
LINE
  5
7B03
  8
4
  6
CONTINUOUS
 10
3700.0
 20
1000.0
 30
0.0
 11
3700.0
 21
600.0
 31
0.0
  0
LINE
  5
7B04
  8
4
  6
CONTINUOUS
 10
2300.0
 20
1000.0
 30
0.0
 11
2300.0
 21
600.0
 31
0.0
  0
LINE
  5
7B05
  8
4
  6
CONTINUOUS
 10
1300.0
 20
1000.0
 30
0.0
 11
1300.0
 21
600.0
 31
0.0
  0
LINE
  5
7B08
  8
4
  6
CONTINUOUS
 10
1300.0
 20
600.0
 30
0.0
 11
3700.0
 21
600.0
 31
0.0
  0
LINE
  5
7B09
  8
4
  6
CONTINUOUS
 10
1300.0
 20
800.0
 30
0.0
 11
3700.0
 21
800.0
 31
0.0
  0
TEXT
  5
7B0A
  8
4
  6
CONTINUOUS
 10
1377.004162
 20
863.086052
 30
0.0
 40
100.0
  1
機器名称
  0
TEXT
  5
7B0B
  8
4
  6
CONTINUOUS
 10
1372.516212
 20
643.29031299999986
 30
0.0
 40
100.0
  1
機器型番
  0
TEXT
  5
7B0C
  8
4
  6
CONTINUOUS
 10
2355.3574910000002
 20
845.14353800000015
 30
0.0
 40
100.0
  1
ミツヤ多翼送風機
  0
TEXT
  5
7B0D
  8
4
  6
CONTINUOUS
 10
2373.3089909999999
 20
634.31916899999999
 30
0.0
 40
100.0
  1
MF#3 1/2-4
  0
TEXT
  5
7B0F
  8
4
  6
CONTINUOUS
 10
1468.4311189999989
 20
4766.8576830000002
 30
0.0
 40
108.0
  1
天井吊防振ベット
  0
TEXT
  5
7B10
  8
4
  6
CONTINUOUS
 10
632.33518700000002
 20
5067.7619520000007
 30
0.0
 40
144.0
  1
ベルト駆動式片吸込両持多翼ファン
  0
LINE
  5
7B11
  8
4
  6
CONTINUOUS
 10
500.0
 20
4938.8175090000004
 30
0.0
 11
3700.0
 21
4938.8175090000004
 31
0.0
  0
LINE
  5
7B12
  8
4
  6
CONTINUOUS
 10
500.0
 20
5338.8175090000004
 30
0.0
 11
3700.0
 21
5338.8175090000004
 31
0.0
  0
LINE
  5
7B13
  8
4
  6
CONTINUOUS
 10
1300.0
 20
1000.0
 30
0.0
 11
3700.0
 21
1000.0
 31
0.0
  0
LINE
  5
7B14
  8
4
  6
CONTINUOUS
 10
500.0
 20
5338.8175090000004
 30
0.0
 11
500.0
 21
4938.8175090000004
 31
0.0
  0
TEXT
  5
7B15
  8
4
  6
CONTINUOUS
 10
596.71345499999995
 20
4764.6389549999994
 30
0.0
 40
108.0
  1
右回転上向
  0
TEXT
  5
7B16
  8
4
  6
CONTINUOUS
 10
2937.9391179999998
 20
5412.122163
 30
0.0
 40
112.0
  1
No.
  0
TEXT
  5
7B17
  8
4
  6
CONTINUOUS
 10
2622.5921250000001
 20
4766.8576830000002
 30
0.0
 40
108.0
  1
縮尺：1/20
  0
LINE
  5
7B18
  8
4
  6
CONTINUOUS
 10
3700.0
 20
5338.8175090000004
 30
0.0
 11
3700.0
 21
4938.8175090000004
 31
0.0
  0
LINE
  5
7B1A
  8
4
  6
CONTINUOUS
 10
2881.234845
 20
5362.5271659999999
 30
0.0
 11
2881.234845
 21
5573.3045229999998
 31
0.0
  0
LINE
  5
7B1B
  8
4
  6
CONTINUOUS
 10
2881.234845
 20
5573.3045229999998
 30
0.0
 11
3700.0
 21
5573.3045229999998
 31
0.0
  0
LINE
  5
7B1C
  8
4
  6
CONTINUOUS
 10
3700.0
 20
5573.3045229999998
 30
0.0
 11
3700.0
 21
5362.5271659999999
 31
0.0
  0
LINE
  5
7B1D
  8
4
  6
CONTINUOUS
 10
3700.0
 20
5362.5271659999999
 30
0.0
 11
2881.234845
 21
5362.5271659999999
 31
0.0
  0
DIMENSION
  5
7B35
  8
3
  6
CONTINUOUS
  2
*D1
 10
1589.6026320000001
 20
2729.4597210000002
 30
0.0
 11
1303.517083
 21
2729.4597210000002
 31
0.0
 70
   128
 13
1029.6026320000001
 23
2570.3252399999992
 33
0.0
 14
1589.6026320000001
 24
2570.3252399999992
 34
0.0
1001
ACAD
1000
DSTYLE
1002
{
1070
   287
1070
     3
1070
    40
1040
20.0
1070
   143
1040
0.039
1070
   172
1070
     1
1070
   271
1070
     0
1070
   279
1070
     0
1070
   288
1070
     1
1002
}
  0
DIMENSION
  5
7B42
  8
3
  6
CONTINUOUS
  2
*D2
 10
1568.6026320000001
 20
2844.8607670000001
 30
0.0
 11
1299.391644
 21
2844.8607670000001
 31
0.0
 70
   128
 13
1029.6026320000001
 23
2570.3252399999992
 33
0.0
 14
1568.6026320000001
 24
2770.3317430000002
 34
0.0
1001
ACAD
1000
DSTYLE
1002
{
1070
   287
1070
     3
1070
    40
1040
20.0
1070
   143
1040
0.039
1070
   172
1070
     1
1070
   271
1070
     0
1070
   279
1070
     0
1070
   288
1070
     1
1002
}
  0
DIMENSION
  5
7B4E
  8
3
  6
CONTINUOUS
  2
*D3
 10
1978.6026320000001
 20
2844.8607670000001
 30
0.0
 11
1773.6026320000001
 21
2894.8607670000001
 31
0.0
 70
     0
 13
1568.6026320000001
 23
2770.3317430000002
 33
0.0
 14
1978.6026320000001
 24
2525.3252399999992
 34
0.0
1001
ACAD
1000
DSTYLE
1002
{
1070
   287
1070
     4
1070
    40
1040
20.0
1070
    75
1070
     1
1070
   143
1040
0.039
1070
   172
1070
     1
1070
   271
1070
     0
1070
   279
1070
     1
1070
   288
1070
     1
1002
}
  0
DIMENSION
  5
7B5B
  8
3
  6
CONTINUOUS
  2
*D4
 10
2157.4827770000002
 20
2165.3252399999992
 30
0.0
 11
2157.4827770000002
 21
2381.3588829999999
 31
0.0
 70
   128
 13
1616.6026320000001
 23
2570.3252399999992
 33
0.0
 14
2055.1381989999991
 24
2165.3252399999992
 34
0.0
 50
90.0
1001
ACAD
1000
DSTYLE
1002
{
1070
   287
1070
     3
1070
    40
1040
20.0
1070
   143
1040
0.039
1070
   172
1070
     1
1070
   271
1070
     0
1070
   279
1070
     0
1070
   288
1070
     1
1002
}
  0
DIMENSION
  5
7B67
  8
3
  6
CONTINUOUS
  2
*D5
 10
2157.4827770000002
 20
1610.3252399999999
 30
0.0
 11
2107.4827769999988
 21
1887.8252399999999
 31
0.0
 70
     0
 13
2055.1381989999991
 23
2165.3252399999992
 33
0.0
 14
1913.6026320000001
 24
1610.3252399999999
 34
0.0
 50
90.0
1001
ACAD
1000
DSTYLE
1002
{
1070
   287
1070
     4
1070
    40
1040
20.0
1070
    75
1070
     1
1070
   143
1040
0.039
1070
   172
1070
     1
1070
   271
1070
     0
1070
   279
1070
     1
1070
   288
1070
     1
1002
}
  0
DIMENSION
  5
7B77
  8
3
  6
CONTINUOUS
  2
*D6
 10
2157.4827770000002
 20
1523.3252399999999
 30
0.0
 11
2252.6949698877688
 21
1572.8071856804449
 31
0.0
 70
   128
 13
1913.6026320000001
 23
1610.3252399999999
 33
0.0
 14
1913.6026320000001
 24
1523.3252399999999
 34
0.0
 50
90.0
1001
ACAD
1000
DSTYLE
1002
{
1070
   288
1070
     1
1070
   172
1070
     1
1070
    75
1070
     1
1070
    40
1040
20.0
1070
   271
1070
     0
1070
     7
1000
_DOT
1070
   143
1040
0.039
1002
}
  0
DIMENSION
  5
7B84
  8
3
  6
CONTINUOUS
  2
*D7
 10
2343.1274880000001
 20
1483.3252399999999
 30
0.0
 11
2343.1274879999992
 21
2064.005987999999
 31
0.0
 70
   128
 13
1626.6026320000001
 23
2570.3252399999992
 33
0.0
 14
1913.6026320000001
 24
1483.3252399999999
 34
0.0
 50
90.0
1001
ACAD
1000
DSTYLE
1002
{
1070
   287
1070
     3
1070
    40
1040
20.0
1070
   143
1040
0.039
1070
   172
1070
     1
1070
   271
1070
     0
1070
   279
1070
     0
1070
   288
1070
     1
1002
}
  0
DIMENSION
  5
7B91
  8
3
  6
CONTINUOUS
  2
*D8
 10
1568.6026320000001
 20
1345.3465989999991
 30
0.0
 11
1130.248691
 21
1345.3465989999991
 31
0.0
 70
   128
 13
663.60263199999997
 23
1483.3252399999999
 33
0.0
 14
1568.6026320000001
 24
1397.522026298089
 34
0.0
1001
ACAD
1000
DSTYLE
1002
{
1070
   287
1070
     3
1070
    40
1040
20.0
1070
   143
1040
0.039
1070
   172
1070
     1
1070
   271
1070
     0
1070
   279
1070
     0
1070
   288
1070
     1
1002
}
  0
DIMENSION
  5
7B9D
  8
3
  6
CONTINUOUS
  2
*D9
 10
1913.6026320000001
 20
1345.3465989999991
 30
0.0
 11
1741.1026320000001
 21
1395.346599
 31
0.0
 70
     0
 13
1568.6026320000001
 23
1397.522026298089
 33
0.0
 14
1913.6026320000001
 24
1483.3252399999999
 34
0.0
1001
ACAD
1000
DSTYLE
1002
{
1070
   287
1070
     4
1070
    40
1040
20.0
1070
    75
1070
     1
1070
   143
1040
0.039
1070
   172
1070
     1
1070
   271
1070
     0
1070
   279
1070
     1
1070
   288
1070
     1
1002
}
  0
DIMENSION
  5
7BAA
  8
3
  6
CONTINUOUS
  2
*D10
 10
2900.7688750928842
 20
2614.9907846992701
 30
0.0
 11
3108.287499405862
 21
2614.9907846992701
 31
0.0
 70
   128
 13
3320.7688750928842
 23
2570.3252399999992
 33
0.0
 14
2900.7688750928842
 24
2570.3252399999992
 34
0.0
1001
ACAD
1000
DSTYLE
1002
{
1070
   287
1070
     3
1070
    40
1040
20.0
1070
   143
1040
0.039
1070
   172
1070
     1
1070
   271
1070
     0
1070
   279
1070
     0
1070
   288
1070
     1
1002
}
  0
DIMENSION
  5
7BB9
  8
3
  6
CONTINUOUS
  2
*D11
 10
3511.3708440928849
 20
1870.3252399999999
 30
0.0
 11
3511.370844092884
 21
2171.164115999999
 31
0.0
 70
   128
 13
3322.7688750928842
 23
2460.3252399999992
 33
0.0
 14
3320.7688750928842
 24
1870.3252399999999
 34
0.0
 50
90.0
1001
ACAD
1000
DSTYLE
1002
{
1070
   287
1070
     3
1070
     3
1000
φ<>
1070
    40
1040
20.0
1070
   143
1040
0.039
1070
   172
1070
     1
1070
   271
1070
     0
1070
   279
1070
     0
1070
   288
1070
     1
1002
}
  0
DIMENSION
  5
7BC8
  8
3
  6
CONTINUOUS
  2
*D12
 10
3110.7688750928842
 20
2769.2550769554559
 30
0.0
 11
3227.5192116353678
 21
2823.727490998177
 31
0.0
 70
   128
 13
3322.7688750928842
 23
2485.3252399999992
 33
0.0
 14
3110.7688750928842
 24
2707.9738170000001
 34
0.0
1001
ACAD
1000
DSTYLE
1002
{
1070
   288
1070
     1
1070
   172
1070
     1
1070
    40
1040
20.0
1070
   271
1070
     0
1070
   143
1040
0.039
1002
}
  0
DIMENSION
  5
7BD4
  8
3
  6
CONTINUOUS
  2
*D13
 10
2700.7688750928842
 20
2769.2550769554559
 30
0.0
 11
2905.7688750928842
 21
2869.2550769554559
 31
0.0
 70
     0
  1
MAX\P470
 13
3110.7688750928842
 23
2707.9738170000001
 33
0.0
 14
2700.7688750928842
 24
2525.3252399999992
 34
0.0
1001
ACAD
1000
DSTYLE
1002
{
1070
   287
1070
     4
1070
    40
1040
20.0
1070
    75
1070
     1
1070
   143
1040
0.039
1070
   172
1070
     1
1070
   271
1070
     0
1070
   279
1070
     1
1070
   288
1070
     1
1002
}
  0
DIMENSION
  5
7BE1
  8
3
  6
CONTINUOUS
  2
*D14
 10
3110.7688750928842
 20
1315.3454549999999
 30
0.0
 11
2876.0533800928838
 21
1315.3454549999999
 31
0.0
 70
   128
 13
2665.7688750928842
 23
1483.3252399999999
 33
0.0
 14
3110.7688750928842
 24
1382.0830993076099
 34
0.0
1001
ACAD
1000
DSTYLE
1002
{
1070
   287
1070
     3
1070
    40
1040
20.0
1070
   143
1040
0.039
1070
   172
1070
     1
1070
   271
1070
     0
1070
   279
1070
     0
1070
   288
1070
     1
1002
}
  0
DIMENSION
  5
7BED
  8
3
  6
CONTINUOUS
  2
*D15
 10
3445.7688750928842
 20
1315.3454549999999
 30
0.0
 11
3278.2688750928842
 21
1365.3454549999999
 31
0.0
 70
     0
 13
3110.7688750928842
 23
1382.0830993076099
 33
0.0
 14
3445.7688750928842
 24
1483.3252399999999
 34
0.0
1001
ACAD
1000
DSTYLE
1002
{
1070
   287
1070
     4
1070
    40
1040
20.0
1070
    75
1070
     1
1070
   143
1040
0.039
1070
   172
1070
     1
1070
   271
1070
     0
1070
   279
1070
     1
1070
   288
1070
     1
1002
}
  0
DIMENSION
  5
7BFA
  8
3
  6
CONTINUOUS
  2
*D16
 10
1913.6026320000001
 20
4227.1322499999987
 30
0.0
 11
1315.8934019999999
 21
4227.1322499999987
 31
0.0
 70
   128
 13
663.60263199999997
 23
4100.3252400000001
 33
0.0
 14
1913.6026320000001
 24
4100.3252400000001
 34
0.0
1001
ACAD
1000
DSTYLE
1002
{
1070
   287
1070
     3
1070
    40
1040
20.0
1070
   143
1040
0.039
1070
   172
1070
     1
1070
   271
1070
     0
1070
   279
1070
     0
1070
   288
1070
     1
1002
}
  0
DIMENSION
  5
7C07
  8
3
  6
CONTINUOUS
  2
*D17
 10
2206.9880280000002
 20
3320.3252399999992
 30
0.0
 11
2206.9880280000002
 21
3710.9068090000001
 31
0.0
 70
   128
 13
1913.6026320000001
 23
4100.3252400000001
 33
0.0
 14
1913.6026320000001
 24
3320.3252399999992
 34
0.0
 50
90.0
1001
ACAD
1000
DSTYLE
1002
{
1070
   287
1070
     3
1070
    40
1040
20.0
1070
   143
1040
0.039
1070
   172
1070
     1
1070
   271
1070
     0
1070
   279
1070
     0
1070
   288
1070
     1
1002
}
  0
DIMENSION
  5
7C31
  8
3
  6
CONTINUOUS
  2
*D18
 10
2157.4827770000002
 20
1483.3252399999999
 30
0.0
 11
2157.4827770000002
 21
1334.753811428571
 31
0.0
 70
   128
 13
1913.6026320000001
 23
1523.3252399999999
 33
0.0
 14
1913.6026320000001
 24
1483.3252399999999
 34
0.0
 50
90.0
1001
ACAD
1000
DSTYLE
1002
{
1070
   287
1070
     3
1070
    40
1040
20.0
1070
   143
1040
0.039
1070
   172
1070
     1
1070
   271
1070
     0
1070
   279
1070
     0
1070
   288
1070
     1
1070
     6
1000
DOT
1002
}
  0
DIMENSION
  5
7DBE
  8
3
  2
*D20
 10
663.60263200000009
 20
2971.1453768994938
 30
0.0
 11
1400.928108524098
 21
2971.1453768994938
 31
0.0
 70
   128
 13
1978.6026320000001
 23
2525.3252399999992
 33
0.0
 14
663.60263199999997
 24
1690.325239999999
 34
0.0
1001
ACAD
1000
DSTYLE
1002
{
1070
   287
1070
     3
1070
    40
1040
20.0
1070
   143
1040
0.039
1070
   172
1070
     1
1070
   271
1070
     0
1070
   279
1070
     0
1070
   288
1070
     1
1002
}
  0
ENDSEC
  0
EOF
