  0
SECTION
  2
HEADER
  9
$ACADVER
  1
AC1009
  9
$INSBASE
 10
0.0
 20
0.0
 30
0.0
  9
$EXTMIN
 10
500.0
 20
600.0
 30
0.0
  9
$EXTMAX
 10
3700.0
 20
5573.3045229999998
 30
0.0
  9
$LIMMIN
 10
0.0
 20
0.0
  9
$LIMMAX
 10
297.0
 20
210.0
  9
$ORTHOMODE
 70
     0
  9
$REGENMODE
 70
     1
  9
$FILLMODE
 70
     0
  9
$QTEXTMODE
 70
     0
  9
$MIRRTEXT
 70
     1
  9
$DRAGMODE
 70
     2
  9
$LTSCALE
 40
100.0
  9
$OSMODE
 70
    37
  9
$ATTMODE
 70
     1
  9
$TEXTSIZE
 40
180.0
  9
$TRACEWID
 40
0.05
  9
$TEXTSTYLE
  7
STANDARD
  9
$CLAYER
  8
3
  9
$CELTYPE
  6
BYLAYER
  9
$CECOLOR
 62
   256
  9
$DIMSCALE
 40
20.0
  9
$DIMASZ
 40
2.0
  9
$DIMEXO
 40
0.5
  9
$DIMDLI
 40
10.0
  9
$DIMRND
 40
0.0
  9
$DIMDLE
 40
0.0
  9
$DIMEXE
 40
1.0
  9
$DIMTP
 40
1.0
  9
$DIMTM
 40
1.0
  9
$DIMTXT
 40
3.0
  9
$DIMCEN
 40
0.0
  9
$DIMTSZ
 40
0.0
  9
$DIMTOL
 70
     0
  9
$DIMLIM
 70
     0
  9
$DIMTIH
 70
     0
  9
$DIMTOH
 70
     0
  9
$DIMSE1
 70
     0
  9
$DIMSE2
 70
     0
  9
$DIMTAD
 70
     1
  9
$DIMZIN
 70
     8
  9
$DIMBLK
  1

  9
$DIMASO
 70
     1
  9
$DIMSHO
 70
     1
  9
$DIMPOST
  1

  9
$DIMAPOST
  1

  9
$DIMALT
 70
     0
  9
$DIMALTD
 70
     2
  9
$DIMALTF
 40
0.039
  9
$DIMLFAC
 40
1.0
  9
$DIMTOFL
 70
     1
  9
$DIMTVP
 40
0.0
  9
$DIMTIX
 70
     0
  9
$DIMSOXD
 70
     0
  9
$DIMSAH
 70
     1
  9
$DIMBLK1
  1
OPEN
  9
$DIMBLK2
  1
OPEN
  9
$DIMSTYLE
  2
IGA
  9
$DIMCLRD
 70
     0
  9
$DIMCLRE
 70
     0
  9
$DIMCLRT
 70
     0
  9
$DIMTFAC
 40
10.0
  9
$DIMGAP
 40
1.0
  9
$LUNITS
 70
     2
  9
$LUPREC
 70
     3
  9
$SKETCHINC
 40
0.1
  9
$FILLETRAD
 40
50.0
  9
$AUNITS
 70
     0
  9
$AUPREC
 70
     0
  9
$MENU
  1
acad
  9
$ELEVATION
 40
0.0
  9
$PELEVATION
 40
0.0
  9
$THICKNESS
 40
0.0
  9
$LIMCHECK
 70
     0
  9
$BLIPMODE
 70
     0
  9
$CHAMFERA
 40
0.5
  9
$CHAMFERB
 40
0.5
  9
$SKPOLY
 70
     0
  9
$TDCREATE
 40
2450737.4973795139
  9
$TDUPDATE
 40
2454953.7689847331
  9
$TDINDWG
 40
0.0126841551
  9
$TDUSRTIMER
 40
0.0126841551
  9
$USRTIMER
 70
     1
  9
$ANGBASE
 50
0.0
  9
$ANGDIR
 70
     0
  9
$PDMODE
 70
     0
  9
$PDSIZE
 40
0.0
  9
$PLINEWID
 40
0.0
  9
$COORDS
 70
     1
  9
$SPLFRAME
 70
     0
  9
$SPLINETYPE
 70
     6
  9
$SPLINESEGS
 70
     8
  9
$ATTDIA
 70
     0
  9
$ATTREQ
 70
     1
  9
$HANDLING
 70
 10241
  9
$HANDSEED
  5
7F3B
  9
$SURFTAB1
 70
     6
  9
$SURFTAB2
 70
     6
  9
$SURFTYPE
 70
     6
  9
$SURFU
 70
     6
  9
$SURFV
 70
     6
  9
$UCSNAME
  2

  9
$UCSORG
 10
0.0
 20
0.0
 30
0.0
  9
$UCSXDIR
 10
1.0
 20
0.0
 30
0.0
  9
$UCSYDIR
 10
0.0
 20
1.0
 30
0.0
  9
$PUCSNAME
  2

  9
$PUCSORG
 10
0.0
 20
0.0
 30
0.0
  9
$PUCSXDIR
 10
1.0
 20
0.0
 30
0.0
  9
$PUCSYDIR
 10
0.0
 20
1.0
 30
0.0
  9
$USERI1
 70
     0
  9
$USERI2
 70
     0
  9
$USERI3
 70
     0
  9
$USERI4
 70
     0
  9
$USERI5
 70
     0
  9
$USERR1
 40
0.0
  9
$USERR2
 40
0.0
  9
$USERR3
 40
0.0
  9
$USERR4
 40
0.0
  9
$USERR5
 40
0.0
  9
$WORLDVIEW
 70
     1
  9
$SHADEDGE
 70
     3
  9
$SHADEDIF
 70
    70
  9
$TILEMODE
 70
     1
  9
$MAXACTVP
 70
    16
  9
$PLIMCHECK
 70
     0
  9
$PEXTMIN
 10
1.0000000000000000E+020
 20
1.0000000000000000E+020
 30
1.0000000000000000E+020
  9
$PEXTMAX
 10
-1.0000000000000000E+020
 20
-1.0000000000000000E+020
 30
-1.0000000000000000E+020
  9
$PLIMMIN
 10
0.0
 20
0.0
  9
$PLIMMAX
 10
12.0
 20
9.0
  9
$UNITMODE
 70
     0
  9
$VISRETAIN
 70
     0
  9
$PLINEGEN
 70
     0
  9
$PSLTSCALE
 70
     1
  0
ENDSEC
  0
SECTION
  2
TABLES
  0
TABLE
  2
VPORT
 70
     2
  0
VPORT
  2
*ACTIVE
 70
     0
 10
0.0
 20
0.0
 11
1.0
 21
1.0
 12
6292.1124769529506
 22
3086.6374998146398
 13
0.0
 23
0.0
 14
10.0
 24
10.0
 15
10.0
 25
10.0
 16
0.0
 26
0.0
 36
1.0
 17
0.0
 27
0.0
 37
0.0
 40
5011.4968576296578
 41
3.1666666666666661
 42
50.0
 43
0.0
 44
0.0
 50
0.0
 51
0.0
 71
     0
 72
   100
 73
     1
 74
     0
 75
     0
 76
     0
 77
     0
 78
     0
  0
ENDTAB
  0
TABLE
  2
LTYPE
 70
     2
  0
LTYPE
  2
CONTINUOUS
 70
     0
  3
Solid line
 72
    65
 73
     0
 40
0.0
  0
LTYPE
  2
CENTER
 70
     0
  3
____ _ ____ _ ____ _ ____ _ ____ _ ____ _ ____ 
 72
    65
 73
     4
 40
2.0
 49
1.25
 49
-0.25
 49
0.25
 49
-0.25
  0
ENDTAB
  0
TABLE
  2
LAYER
 70
     6
  0
LAYER
  2
0
 70
     0
 62
     7
  6
CONTINUOUS
  0
LAYER
  2
3
 70
     0
 62
     2
  6
CONTINUOUS
  0
LAYER
  2
2
 70
     0
 62
     3
  6
CENTER
  0
LAYER
  2
1
 70
     0
 62
     4
  6
CONTINUOUS
  0
LAYER
  2
4
 70
     0
 62
     7
  6
CONTINUOUS
  0
LAYER
  2
DEFPOINTS
 70
     0
 62
     7
  6
CONTINUOUS
  0
ENDTAB
  0
TABLE
  2
STYLE
 70
     1
  0
STYLE
  2
STANDARD
 70
     0
 40
0.0
 41
1.0
 50
0.0
 71
     0
 42
180.0
  3
simplex.shx
  4
extfont.shx
  0
ENDTAB
  0
TABLE
  2
VIEW
 70
     0
  0
ENDTAB
  0
TABLE
  2
UCS
 70
     0
  0
ENDTAB
  0
TABLE
  2
APPID
 70
     1
  0
APPID
  2
ACAD
 70
     0
  0
ENDTAB
  0
TABLE
  2
DIMSTYLE
 70
     1
  0
DIMSTYLE
  2
IGA
 70
     0
  3

  4

  5

  6
OPEN
  7
OPEN
 40
2.0
 41
2.0
 42
0.5
 43
10.0
 44
1.0
 45
0.0
 46
0.0
 47
1.0
 48
1.0
140
3.0
141
0.0
142
0.0
143
0.03937
144
1.0
145
0.0
146
10.0
147
1.0
 71
     0
 72
     0
 73
     0
 74
     0
 75
     0
 76
     0
 77
     1
 78
     8
170
     0
171
     2
172
     0
173
     1
174
     0
175
     0
176
     0
177
     0
178
     0
  0
ENDTAB
  0
ENDSEC
  0
SECTION
  2
BLOCKS
  0
BLOCK
  8
0
  2
$MODEL_SPACE
 70
     0
 10
0.0
 20
0.0
 30
0.0
  3
$MODEL_SPACE
  1

  0
ENDBLK
  5
1B
  8
0
  0
BLOCK
 67
     1
  8
0
  2
$PAPER_SPACE
 70
     0
 10
0.0
 20
0.0
 30
0.0
  3
$PAPER_SPACE
  1

  0
ENDBLK
  5
18
 67
     1
  8
0
  0
BLOCK
  8
0
  2
_OPEN
 70
     0
 10
0.0
 20
0.0
 30
0.0
  3
_OPEN
  1

  0
LINE
  5
7B22
  8
0
  6
BYBLOCK
 62
     0
 10
-1.0
 20
0.166667
 30
0.0
 11
0.0
 21
0.0
 31
0.0
  0
LINE
  5
7B23
  8
0
  6
BYBLOCK
 62
     0
 10
0.0
 20
0.0
 30
0.0
 11
-1.0
 21
-0.166667
 31
0.0
  0
LINE
  5
7B24
  8
0
  6
BYBLOCK
 62
     0
 10
0.0
 20
0.0
 30
0.0
 11
-1.0
 21
0.0
 31
0.0
  0
ENDBLK
  5
7B25
  8
0
  0
BLOCK
  8
0
  2
*D1
 70
     1
 10
0.0
 20
0.0
 30
0.0
  3
*D1
  1

  0
LINE
  5
7E8F
  8
3
  6
CONTINUOUS
 62
     0
 10
1887.090606
 20
2522.802287999999
 30
0.0
 11
2030.0590340000001
 21
2522.802287999999
 31
0.0
  0
LINE
  5
7E90
  8
3
  6
CONTINUOUS
 62
     0
 10
1887.090606
 20
1962.802287999999
 30
0.0
 11
2030.0590340000001
 21
1962.802287999999
 31
0.0
  0
LINE
  5
7E91
  8
3
  6
CONTINUOUS
 62
     0
 10
2010.0590340000001
 20
2482.8022879999999
 30
0.0
 11
2010.0590340000001
 21
2002.802287999999
 31
0.0
  0
INSERT
  5
7E92
  8
3
  6
CONTINUOUS
 62
     0
  2
_OPEN
 10
2010.0590340000001
 20
2522.802287999999
 30
0.0
 41
40.0
 42
40.0
 43
40.0
 50
90.0
  0
INSERT
  5
7E93
  8
3
  6
CONTINUOUS
 62
     0
  2
_OPEN
 10
2010.0590340000001
 20
1962.802287999999
 30
0.0
 41
40.0
 42
40.0
 43
40.0
 50
270.0
  0
TEXT
  8
3
  40
60
  5
7F29
  62
0
  72
0
  71
0
 10
1840.06
 20
2124.00
 30
0.000000
  1
560
  0
POINT
  5
7E95
  8
DEFPOINTS
  6
CONTINUOUS
 62
     0
 10
1877.0906059999991
 20
2522.802287999999
 30
0.0
  0
POINT
  5
7E96
  8
DEFPOINTS
  6
CONTINUOUS
 62
     0
 10
1877.0906059999991
 20
1962.802287999999
 30
0.0
  0
POINT
  5
7E97
  8
DEFPOINTS
  6
CONTINUOUS
 62
     0
 10
2010.0590340000001
 20
1962.802287999999
 30
0.0
  0
ENDBLK
  5
7B3F
  8
0
  0
BLOCK
  8
0
  2
*D2
 70
     1
 10
0.0
 20
0.0
 30
0.0
  3
*D2
  1

  0
LINE
  5
7E98
  8
3
  6
CONTINUOUS
 62
     0
 10
1887.090606
 20
2522.802287999999
 30
0.0
 11
2147.9980230000001
 21
2522.802287999999
 31
0.0
  0
LINE
  5
7E99
  8
3
  6
CONTINUOUS
 62
     0
 10
1979.9077139999999
 20
1983.8022880000001
 30
0.0
 11
2147.9980230000001
 21
1983.8022880000001
 31
0.0
  0
LINE
  5
7E9A
  8
3
  6
CONTINUOUS
 62
     0
 10
2127.9980230000001
 20
2482.8022879999999
 30
0.0
 11
2127.9980230000001
 21
2023.8022880000001
 31
0.0
  0
INSERT
  5
7E9B
  8
3
  6
CONTINUOUS
 62
     0
  2
_OPEN
 10
2127.9980230000001
 20
2522.802287999999
 30
0.0
 41
40.0
 42
40.0
 43
40.0
 50
90.0
  0
INSERT
  5
7E9C
  8
3
  6
CONTINUOUS
 62
     0
  2
_OPEN
 10
2127.9980230000001
 20
1983.8022880000001
 30
0.0
 41
40.0
 42
40.0
 43
40.0
 50
270.0
  0
TEXT
  8
3
  40
60
  5
7F2A
  62
0
  72
0
  71
0
 10
1958.00
 20
2124.00
 30
0.000000
  1
539
  0
POINT
  5
7E9E
  8
DEFPOINTS
  6
CONTINUOUS
 62
     0
 10
1877.0906059999991
 20
2522.802287999999
 30
0.0
  0
POINT
  5
7E9F
  8
DEFPOINTS
  6
CONTINUOUS
 62
     0
 10
1969.9077139999999
 20
1983.8022880000001
 30
0.0
  0
POINT
  5
7EA0
  8
DEFPOINTS
  6
CONTINUOUS
 62
     0
 10
2127.9980230000001
 20
1983.8022880000001
 30
0.0
  0
ENDBLK
  5
7B4C
  8
0
  0
BLOCK
  8
0
  2
*D3
 70
     1
 10
0.0
 20
0.0
 30
0.0
  3
*D3
  1

  0
LINE
  5
7EA1
  8
3
  6
CONTINUOUS
 62
     0
 10
1827.0906059999991
 20
1493.8022880000001
 30
0.0
 11
2147.9980230000001
 21
1493.8022880000001
 31
0.0
  0
LINE
  5
7EA2
  8
3
  6
CONTINUOUS
 62
     0
 10
2127.9980230000001
 20
1943.802287999999
 30
0.0
 11
2127.9980230000001
 21
1533.8022880000001
 31
0.0
  0
INSERT
  5
7EA3
  8
3
  6
CONTINUOUS
 62
     0
  2
_OPEN
 10
2127.9980230000001
 20
1983.8022880000001
 30
0.0
 41
40.0
 42
40.0
 43
40.0
 50
90.0
  0
INSERT
  5
7EA4
  8
3
  6
CONTINUOUS
 62
     0
  2
_OPEN
 10
2127.9980230000001
 20
1493.8022880000001
 30
0.0
 41
40.0
 42
40.0
 43
40.0
 50
270.0
  0
TEXT
  8
3
  40
60
  5
7F2B
  62
0
  72
0
  71
0
 10
1958.00
 20
1632.60
 30
0.000000
  1
490
  0
POINT
  5
7EA6
  8
DEFPOINTS
  6
CONTINUOUS
 62
     0
 10
1969.9077139999999
 20
1983.8022880000001
 30
0.0
  0
POINT
  5
7EA7
  8
DEFPOINTS
  6
CONTINUOUS
 62
     0
 10
1817.0906059999991
 20
1493.8022880000001
 30
0.0
  0
POINT
  5
7EA8
  8
DEFPOINTS
  6
CONTINUOUS
 62
     0
 10
2127.9980230000001
 20
1493.8022880000001
 30
0.0
  0
ENDBLK
  5
7B64
  8
0
  0
BLOCK
  8
0
  2
*D4
 70
     1
 10
0.0
 20
0.0
 30
0.0
  3
*D4
  1

  0
LINE
  5
7DF7
  8
0
  6
BYBLOCK
 62
     0
 10
1827.0906059999991
 20
1406.8022880000001
 30
0.0
 11
2147.9980230000001
 21
1406.8022880000001
 31
0.0
  0
LINE
  5
7DF8
  8
0
  6
BYBLOCK
 62
     0
 10
2127.9980230000001
 20
1533.8022880000001
 30
0.0
 11
2127.9980230000001
 21
1573.8022880000001
 31
0.0
  0
LINE
  5
7DF9
  8
0
  6
BYBLOCK
 62
     0
 10
2127.9980230000001
 20
1366.8022880000001
 30
0.0
 11
2127.9980230000001
 21
1326.8022880000001
 31
0.0
  0
TEXT
  5
7DFA
  8
3
 62
     0
 10
2238.1343140579438
 20
1404.1691894285709
 30
0.0
 40
60.0
  1
87
 50
90.0
  0
LINE
  5
7DFB
  8
0
  6
BYBLOCK
 62
     0
 10
2127.9980230000001
 20
1493.8022880000001
 30
0.0
 11
2127.9980230000001
 21
1406.8022880000001
 31
0.0
  0
INSERT
  5
7DFC
  8
0
  6
BYBLOCK
 62
     0
  2
_OPEN
 10
2127.9980230000001
 20
1493.8022880000001
 30
0.0
 41
40.0
 42
40.0
 43
40.0
 50
270.0
  0
INSERT
  5
7DFD
  8
0
  6
BYBLOCK
 62
     0
  2
_DOT
 10
2127.9980230000001
 20
1406.8022880000001
 30
0.0
 41
40.0
 42
40.0
 43
40.0
 50
90.0
  0
POINT
  5
7DFE
  8
DEFPOINTS
  6
BYBLOCK
 62
     0
 10
1817.0906059999991
 20
1493.8022880000001
 30
0.0
  0
POINT
  5
7DFF
  8
DEFPOINTS
  6
BYBLOCK
 62
     0
 10
1817.0906059999991
 20
1406.8022880000001
 30
0.0
  0
POINT
  5
7E00
  8
DEFPOINTS
  6
BYBLOCK
 62
     0
 10
2127.9980230000001
 20
1406.8022880000001
 30
0.0
  0
ENDBLK
  5
7E01
  8
0
  0
BLOCK
  8
0
  2
*D5
 70
     1
 10
0.0
 20
0.0
 30
0.0
  3
*D5
  1

  0
LINE
  5
7EA9
  8
3
  6
CONTINUOUS
 62
     0
 10
1887.090606
 20
2549.8022879999999
 30
0.0
 11
2297.521902
 21
2549.8022879999999
 31
0.0
  0
LINE
  5
7EAA
  8
3
  6
CONTINUOUS
 62
     0
 10
1827.0906059999991
 20
1366.8022880000001
 30
0.0
 11
2297.521902
 21
1366.8022880000001
 31
0.0
  0
LINE
  5
7EAB
  8
3
  6
CONTINUOUS
 62
     0
 10
2277.521902
 20
2509.802287999999
 30
0.0
 11
2277.521902
 21
1406.8022880000001
 31
0.0
  0
INSERT
  5
7EAC
  8
3
  6
CONTINUOUS
 62
     0
  2
_OPEN
 10
2277.521902
 20
2549.8022879999999
 30
0.0
 41
40.0
 42
40.0
 43
40.0
 50
90.0
  0
INSERT
  5
7EAD
  8
3
  6
CONTINUOUS
 62
     0
  2
_OPEN
 10
2277.521902
 20
1366.8022880000001
 30
0.0
 41
40.0
 42
40.0
 43
40.0
 50
270.0
  0
TEXT
  8
3
  40
60
  5
7F2C
  62
0
  72
0
  71
0
 10
2107.52
 20
1824.55
 30
0.000000
  1
1183
  0
POINT
  5
7EAF
  8
DEFPOINTS
  6
CONTINUOUS
 62
     0
 10
1877.0906059999991
 20
2549.8022879999999
 30
0.0
  0
POINT
  5
7EB0
  8
DEFPOINTS
  6
CONTINUOUS
 62
     0
 10
1817.0906059999991
 20
1366.8022880000001
 30
0.0
  0
POINT
  5
7EB1
  8
DEFPOINTS
  6
CONTINUOUS
 62
     0
 10
2277.521902
 20
1366.8022880000001
 30
0.0
  0
ENDBLK
  5
7C75
  8
0
  0
BLOCK
  8
0
  2
*D6
 70
     1
 10
0.0
 20
0.0
 30
0.0
  3
*D6
  1

  0
LINE
  5
7EB2
  8
3
  6
CONTINUOUS
 62
     0
 10
1472.090606
 20
2599.4708568397709
 30
0.0
 11
1472.090606
 21
2647.3134439999999
 31
0.0
  0
LINE
  5
7EB3
  8
3
  6
CONTINUOUS
 62
     0
 10
997.09060599999998
 20
2403.8022879999999
 30
0.0
 11
997.09060599999998
 21
2647.3134439999999
 31
0.0
  0
LINE
  5
7EB4
  8
3
  6
CONTINUOUS
 62
     0
 10
1432.090606
 20
2627.3134439999999
 30
0.0
 11
1037.090606
 21
2627.3134439999999
 31
0.0
  0
INSERT
  5
7EB5
  8
3
  6
CONTINUOUS
 62
     0
  2
_OPEN
 10
1472.090606
 20
2627.3134439999999
 30
0.0
 41
40.0
 42
40.0
 43
40.0
  0
INSERT
  5
7EB6
  8
3
  6
CONTINUOUS
 62
     0
  2
_OPEN
 10
997.09060599999998
 20
2627.3134439999999
 30
0.0
 41
40.0
 42
40.0
 43
40.0
 50
180.0
  0
TEXT
  8
3
  40
60
  5
7F2D
  62
0
  72
0
  71
0
 10
1114.59
 20
2571.11
 30
0.000000
  1
475
  0
POINT
  5
7EB8
  8
DEFPOINTS
  6
CONTINUOUS
 62
     0
 10
1472.090606
 20
2589.4708568397709
 30
0.0
  0
POINT
  5
7EB9
  8
DEFPOINTS
  6
CONTINUOUS
 62
     0
 10
997.09060599999998
 20
2393.802287999999
 30
0.0
  0
POINT
  5
7EBA
  8
DEFPOINTS
  6
CONTINUOUS
 62
     0
 10
997.09060599999998
 20
2627.3134439999999
 30
0.0
  0
ENDBLK
  5
7E3F
  8
0
  0
BLOCK
  8
0
  2
*D7
 70
     1
 10
0.0
 20
0.0
 30
0.0
  3
*D7
  1

  0
LINE
  5
7EBB
  8
3
  6
CONTINUOUS
 62
     0
 10
567.09060599999998
 20
1356.8022880000001
 30
0.0
 11
567.09060599999998
 21
1206.5005664257039
 31
0.0
  0
LINE
  5
7EBC
  8
3
  6
CONTINUOUS
 62
     0
 10
1472.090606
 20
1292.4772874257039
 30
0.0
 11
1472.090606
 21
1206.5005664257039
 31
0.0
  0
LINE
  5
7EBD
  8
3
  6
CONTINUOUS
 62
     0
 10
607.09060599999987
 20
1226.5005664257039
 30
0.0
 11
1432.090606
 21
1226.5005664257039
 31
0.0
  0
INSERT
  5
7EBE
  8
3
  6
CONTINUOUS
 62
     0
  2
_OPEN
 10
567.09060599999998
 20
1226.5005664257039
 30
0.0
 41
40.0
 42
40.0
 43
40.0
 50
180.0
  0
INSERT
  5
7EBF
  8
3
  6
CONTINUOUS
 62
     0
  2
_OPEN
 10
1472.090606
 20
1226.5005664257039
 30
0.0
 41
40.0
 42
40.0
 43
40.0
  0
TEXT
  8
3
  40
60
  5
7F2E
  62
0
  72
0
  71
0
 10
902.866
 20
1170.30
 30
0.000000
  1
905
  0
POINT
  5
7EC1
  8
DEFPOINTS
  6
CONTINUOUS
 62
     0
 10
567.09060599999998
 20
1366.8022880000001
 30
0.0
  0
POINT
  5
7EC2
  8
DEFPOINTS
  6
CONTINUOUS
 62
     0
 10
1472.090606
 20
1302.4772874257039
 30
0.0
  0
POINT
  5
7EC3
  8
DEFPOINTS
  6
CONTINUOUS
 62
     0
 10
1472.090606
 20
1226.5005664257039
 30
0.0
  0
ENDBLK
  5
7D91
  8
0
  0
BLOCK
  8
0
  2
*D8
 70
     1
 10
0.0
 20
0.0
 30
0.0
  3
*D8
  1

  0
LINE
  5
7EC4
  8
3
  6
CONTINUOUS
 62
     0
 10
1817.0906059999991
 20
1356.8022880000001
 30
0.0
 11
1817.0906059999991
 21
1206.5005664257039
 31
0.0
  0
LINE
  5
7EC5
  8
3
  6
CONTINUOUS
 62
     0
 10
1512.090606
 20
1226.5005664257039
 30
0.0
 11
1777.0906059999991
 21
1226.5005664257039
 31
0.0
  0
INSERT
  5
7EC6
  8
3
  6
CONTINUOUS
 62
     0
  2
_OPEN
 10
1472.090606
 20
1226.5005664257039
 30
0.0
 41
40.0
 42
40.0
 43
40.0
 50
180.0
  0
INSERT
  5
7EC7
  8
3
  6
CONTINUOUS
 62
     0
  2
_OPEN
 10
1817.0906059999991
 20
1226.5005664257039
 30
0.0
 41
40.0
 42
40.0
 43
40.0
  0
TEXT
  8
3
  40
60
  5
7F2F
  62
0
  72
0
  71
0
 10
1524.59
 20
1170.30
 30
0.000000
  1
345
  0
POINT
  5
7EC9
  8
DEFPOINTS
  6
CONTINUOUS
 62
     0
 10
1472.090606
 20
1302.4772874257039
 30
0.0
  0
POINT
  5
7ECA
  8
DEFPOINTS
  6
CONTINUOUS
 62
     0
 10
1817.0906059999991
 20
1366.8022880000001
 30
0.0
  0
POINT
  5
7ECB
  8
DEFPOINTS
  6
CONTINUOUS
 62
     0
 10
1817.0906059999991
 20
1226.5005664257039
 30
0.0
  0
ENDBLK
  5
7D9B
  8
0
  0
BLOCK
  8
0
  2
*D9
 70
     1
 10
0.0
 20
0.0
 30
0.0
  3
*D9
  1

  0
LINE
  5
7ECC
  8
3
  6
CONTINUOUS
 62
     0
 10
3474.3389420000012
 20
2278.8022879999999
 30
0.0
 11
3659.3644359999998
 21
2278.8022879999999
 31
0.0
  0
LINE
  5
7ECD
  8
3
  6
CONTINUOUS
 62
     0
 10
3474.3389420000012
 20
1688.802287999999
 30
0.0
 11
3659.3644359999998
 21
1688.802287999999
 31
0.0
  0
LINE
  5
7ECE
  8
3
  6
CONTINUOUS
 62
     0
 10
3639.3644359999998
 20
2238.8022879999999
 30
0.0
 11
3639.3644359999998
 21
1728.802287999999
 31
0.0
  0
INSERT
  5
7ECF
  8
3
  6
CONTINUOUS
 62
     0
  2
_OPEN
 10
3639.3644359999998
 20
2278.8022879999999
 30
0.0
 41
40.0
 42
40.0
 43
40.0
 50
90.0
  0
INSERT
  5
7ED0
  8
3
  6
CONTINUOUS
 62
     0
  2
_OPEN
 10
3639.3644359999998
 20
1688.802287999999
 30
0.0
 41
40.0
 42
40.0
 43
40.0
 50
270.0
  0
TEXT
  8
3
  40
60
  5
7F30
  62
0
  72
0
  71
0
 10
3469.36
 20
1870.89
 30
0.000000
  1
φ590
  0
POINT
  5
7ED2
  8
DEFPOINTS
  6
CONTINUOUS
 62
     0
 10
3464.3389419999999
 20
2278.8022879999999
 30
0.0
  0
POINT
  5
7ED3
  8
DEFPOINTS
  6
CONTINUOUS
 62
     0
 10
3464.3389419999999
 20
1688.802287999999
 30
0.0
  0
POINT
  5
7ED4
  8
DEFPOINTS
  6
CONTINUOUS
 62
     0
 10
3639.3644359999998
 20
1688.802287999999
 30
0.0
  0
ENDBLK
  5
7D66
  8
0
  0
BLOCK
  8
0
  2
*D10
 70
     1
 10
0.0
 20
0.0
 30
0.0
  3
*D10
  1

  0
LINE
  5
7E63
  8
0
  6
BYBLOCK
 62
     0
 10
3464.3389419999999
 20
2313.802287999999
 30
0.0
 11
3464.3389419999999
 21
2774.9724209999999
 31
0.0
  0
LINE
  5
7E64
  8
0
  6
BYBLOCK
 62
     0
 10
3252.3389419999999
 20
2687.5168695593438
 30
0.0
 11
3252.3389419999999
 21
2774.9724209999999
 31
0.0
  0
LINE
  5
7E65
  8
0
  6
BYBLOCK
 62
     0
 10
3424.3389419999999
 20
2754.9724209999999
 30
0.0
 11
3292.3389419999999
 21
2754.9724209999999
 31
0.0
  0
TEXT
  5
7E66
  8
3
 62
     0
 10
3286.9103705714278
 20
2786.468898014798
 30
0.0
 40
60.0
  1
212
  0
INSERT
  5
7E67
  8
0
  6
BYBLOCK
 62
     0
  2
_OPEN
 10
3464.3389419999999
 20
2754.9724209999999
 30
0.0
 41
40.0
 42
40.0
 43
40.0
  0
INSERT
  5
7E68
  8
0
  6
BYBLOCK
 62
     0
  2
_OPEN
 10
3252.3389419999999
 20
2754.9724209999999
 30
0.0
 41
40.0
 42
40.0
 43
40.0
 50
180.0
  0
POINT
  5
7E69
  8
DEFPOINTS
  6
BYBLOCK
 62
     0
 10
3464.3389419999999
 20
2303.802287999999
 30
0.0
  0
POINT
  5
7E6A
  8
DEFPOINTS
  6
BYBLOCK
 62
     0
 10
3252.3389419999999
 20
2677.5168695593438
 30
0.0
  0
POINT
  5
7E6B
  8
DEFPOINTS
  6
BYBLOCK
 62
     0
 10
3252.3389419999999
 20
2754.9724209999999
 30
0.0
  0
ENDBLK
  5
7E6C
  8
0
  0
BLOCK
  8
0
  2
*D11
 70
     1
 10
0.0
 20
0.0
 30
0.0
  3
*D11
  1

  0
LINE
  5
7ED5
  8
3
  6
CONTINUOUS
 62
     0
 10
2842.3389419999999
 20
2418.8022879999999
 30
0.0
 11
2842.3389419999999
 21
2774.9724209999999
 31
0.0
  0
LINE
  5
7ED6
  8
3
  6
CONTINUOUS
 62
     0
 10
3212.3389419999999
 20
2754.9724209999999
 30
0.0
 11
2882.3389419999999
 21
2754.9724209999999
 31
0.0
  0
INSERT
  5
7ED7
  8
3
  6
CONTINUOUS
 62
     0
  2
_OPEN
 10
3252.3389419999999
 20
2754.9724209999999
 30
0.0
 41
40.0
 42
40.0
 43
40.0
  0
INSERT
  5
7ED8
  8
3
  6
CONTINUOUS
 62
     0
  2
_OPEN
 10
2842.3389419999999
 20
2754.9724209999999
 30
0.0
 41
40.0
 42
40.0
 43
40.0
 50
180.0
  0
TEXT
  8
3
  40
60
  5
7F31
  62
0
  72
0
  71
0
 10
2927.34
 20
2748.77
 30
0.000000
  1
MAX
  0
TEXT
  8
3
  40
60
  5
7F32
  62
0
  72
0
  71
0
 10
2927.34
 20
2670.77
 30
0.000000
  1
470
  0
POINT
  5
7EDA
  8
DEFPOINTS
  6
CONTINUOUS
 62
     0
 10
3252.3389419999999
 20
2677.5168695593438
 30
0.0
  0
POINT
  5
7EDB
  8
DEFPOINTS
  6
CONTINUOUS
 62
     0
 10
2842.3389419999999
 20
2408.8022879999999
 30
0.0
  0
POINT
  5
7EDC
  8
DEFPOINTS
  6
CONTINUOUS
 62
     0
 10
2842.3389419999999
 20
2754.9724209999999
 30
0.0
  0
ENDBLK
  5
7E61
  8
0
  0
BLOCK
  8
0
  2
*D12
 70
     1
 10
0.0
 20
0.0
 30
0.0
  3
*D12
  1

  0
LINE
  5
7EDD
  8
3
  6
CONTINUOUS
 62
     0
 10
2807.3389419999999
 20
1356.8022880000001
 30
0.0
 11
2807.3389419999999
 21
1185.676903
 31
0.0
  0
LINE
  5
7EDE
  8
3
  6
CONTINUOUS
 62
     0
 10
3252.3389419999999
 20
1263.457861017037
 30
0.0
 11
3252.3389419999999
 21
1185.676903
 31
0.0
  0
LINE
  5
7EDF
  8
3
  6
CONTINUOUS
 62
     0
 10
2847.3389419999999
 20
1205.676903
 30
0.0
 11
3212.3389419999999
 21
1205.676903
 31
0.0
  0
INSERT
  5
7EE0
  8
3
  6
CONTINUOUS
 62
     0
  2
_OPEN
 10
2807.3389419999999
 20
1205.676903
 30
0.0
 41
40.0
 42
40.0
 43
40.0
 50
180.0
  0
INSERT
  5
7EE1
  8
3
  6
CONTINUOUS
 62
     0
  2
_OPEN
 10
3252.3389419999999
 20
1205.676903
 30
0.0
 41
40.0
 42
40.0
 43
40.0
  0
TEXT
  8
3
  40
60
  5
7F33
  62
0
  72
0
  71
0
 10
2907.83
 20
1149.48
 30
0.000000
  1
445
  0
POINT
  5
7EE3
  8
DEFPOINTS
  6
CONTINUOUS
 62
     0
 10
2807.3389419999999
 20
1366.8022880000001
 30
0.0
  0
POINT
  5
7EE4
  8
DEFPOINTS
  6
CONTINUOUS
 62
     0
 10
3252.3389419999999
 20
1273.457861017037
 30
0.0
  0
POINT
  5
7EE5
  8
DEFPOINTS
  6
CONTINUOUS
 62
     0
 10
3252.3389419999999
 20
1205.676903
 30
0.0
  0
ENDBLK
  5
7D7C
  8
0
  0
BLOCK
  8
0
  2
*D13
 70
     1
 10
0.0
 20
0.0
 30
0.0
  3
*D13
  1

  0
LINE
  5
7EE6
  8
3
  6
CONTINUOUS
 62
     0
 10
3587.3389419999999
 20
1356.8022880000001
 30
0.0
 11
3587.3389419999999
 21
1185.676903
 31
0.0
  0
LINE
  5
7EE7
  8
3
  6
CONTINUOUS
 62
     0
 10
3292.3389419999999
 20
1205.676903
 30
0.0
 11
3547.3389419999999
 21
1205.676903
 31
0.0
  0
INSERT
  5
7EE8
  8
3
  6
CONTINUOUS
 62
     0
  2
_OPEN
 10
3252.3389419999999
 20
1205.676903
 30
0.0
 41
40.0
 42
40.0
 43
40.0
 50
180.0
  0
INSERT
  5
7EE9
  8
3
  6
CONTINUOUS
 62
     0
  2
_OPEN
 10
3587.3389419999999
 20
1205.676903
 30
0.0
 41
40.0
 42
40.0
 43
40.0
  0
TEXT
  8
3
  40
60
  5
7F34
  62
0
  72
0
  71
0
 10
3299.84
 20
1149.48
 30
0.000000
  1
335
  0
POINT
  5
7EEB
  8
DEFPOINTS
  6
CONTINUOUS
 62
     0
 10
3252.3389419999999
 20
1207.916387
 30
0.0
  0
POINT
  5
7EEC
  8
DEFPOINTS
  6
CONTINUOUS
 62
     0
 10
3587.3389419999999
 20
1366.8022880000001
 30
0.0
  0
POINT
  5
7EED
  8
DEFPOINTS
  6
CONTINUOUS
 62
     0
 10
3587.3389419999999
 20
1205.676903
 30
0.0
  0
ENDBLK
  5
7C8A
  8
0
  0
BLOCK
  8
0
  2
*D14
 70
     1
 10
0.0
 20
0.0
 30
0.0
  3
*D14
  1

  0
LINE
  5
7EEE
  8
3
  6
CONTINUOUS
 62
     0
 10
567.09060599999998
 20
3993.8022879999999
 30
0.0
 11
567.09060599999998
 21
4123.5637689999994
 31
0.0
  0
LINE
  5
7EEF
  8
3
  6
CONTINUOUS
 62
     0
 10
1817.0906059999991
 20
3993.8022879999999
 30
0.0
 11
1817.0906059999991
 21
4123.5637689999994
 31
0.0
  0
LINE
  5
7EF0
  8
3
  6
CONTINUOUS
 62
     0
 10
607.09060599999987
 20
4103.5637689999994
 30
0.0
 11
1777.0906059999991
 21
4103.5637689999994
 31
0.0
  0
INSERT
  5
7EF1
  8
3
  6
CONTINUOUS
 62
     0
  2
_OPEN
 10
567.09060599999998
 20
4103.5637689999994
 30
0.0
 41
40.0
 42
40.0
 43
40.0
 50
180.0
  0
INSERT
  5
7EF2
  8
3
  6
CONTINUOUS
 62
     0
  2
_OPEN
 10
1817.0906059999991
 20
4103.5637689999994
 30
0.0
 41
40.0
 42
40.0
 43
40.0
  0
TEXT
  8
3
  40
60
  5
7F35
  62
0
  72
0
  71
0
 10
1099.43
 20
4047.36
 30
0.000000
  1
1250
  0
POINT
  5
7EF4
  8
DEFPOINTS
  6
CONTINUOUS
 62
     0
 10
567.09060599999998
 20
3983.8022879999999
 30
0.0
  0
POINT
  5
7EF5
  8
DEFPOINTS
  6
CONTINUOUS
 62
     0
 10
1817.0906059999991
 20
3983.8022879999999
 30
0.0
  0
POINT
  5
7EF6
  8
DEFPOINTS
  6
CONTINUOUS
 62
     0
 10
1817.0906059999991
 20
4103.5637689999994
 30
0.0
  0
ENDBLK
  5
7C80
  8
0
  0
BLOCK
  8
0
  2
*D15
 70
     1
 10
0.0
 20
0.0
 30
0.0
  3
*D15
  1

  0
LINE
  5
7EF7
  8
3
  6
CONTINUOUS
 62
     0
 10
1827.0906059999991
 20
3983.8022879999999
 30
0.0
 11
2095.5807080000009
 21
3983.8022879999999
 31
0.0
  0
LINE
  5
7EF8
  8
3
  6
CONTINUOUS
 62
     0
 10
1827.0906059999991
 20
3203.8022879999999
 30
0.0
 11
2095.5807080000009
 21
3203.8022879999999
 31
0.0
  0
LINE
  5
7EF9
  8
3
  6
CONTINUOUS
 62
     0
 10
2075.580708
 20
3943.8022879999999
 30
0.0
 11
2075.580708
 21
3243.802287999999
 31
0.0
  0
INSERT
  5
7EFA
  8
3
  6
CONTINUOUS
 62
     0
  2
_OPEN
 10
2075.580708
 20
3983.8022879999999
 30
0.0
 41
40.0
 42
40.0
 43
40.0
 50
90.0
  0
INSERT
  5
7EFB
  8
3
  6
CONTINUOUS
 62
     0
  2
_OPEN
 10
2075.580708
 20
3203.8022879999999
 30
0.0
 41
40.0
 42
40.0
 43
40.0
 50
270.0
  0
TEXT
  8
3
  40
60
  5
7F36
  62
0
  72
0
  71
0
 10
1905.58
 20
3514.30
 30
0.000000
  1
780
  0
POINT
  5
7EFD
  8
DEFPOINTS
  6
CONTINUOUS
 62
     0
 10
1817.0906059999991
 20
3983.8022879999999
 30
0.0
  0
POINT
  5
7EFE
  8
DEFPOINTS
  6
CONTINUOUS
 62
     0
 10
1817.0906059999991
 20
3203.8022879999999
 30
0.0
  0
POINT
  5
7EFF
  8
DEFPOINTS
  6
CONTINUOUS
 62
     0
 10
2075.580708
 20
3203.8022879999999
 30
0.0
  0
ENDBLK
  5
7C1D
  8
0
  0
BLOCK
  8
0
  2
*D16
 70
     1
 10
0.0
 20
0.0
 30
0.0
  3
*D16
  1

  0
LINE
  5
7F00
  8
3
  6
CONTINUOUS
 62
     0
 10
3042.3389419999999
 20
2532.8022879999999
 30
0.0
 11
3042.3389419999999
 21
2607.8403531052841
 31
0.0
  0
LINE
  5
7F01
  8
3
  6
CONTINUOUS
 62
     0
 10
3462.3389419999999
 20
2532.8022879999999
 30
0.0
 11
3462.3389419999999
 21
2607.8403531052841
 31
0.0
  0
LINE
  5
7F02
  8
3
  6
CONTINUOUS
 62
     0
 10
3082.3389419999999
 20
2587.8403531052841
 30
0.0
 11
3422.3389419999999
 21
2587.8403531052841
 31
0.0
  0
INSERT
  5
7F03
  8
3
  6
CONTINUOUS
 62
     0
  2
_OPEN
 10
3042.3389419999999
 20
2587.8403531052841
 30
0.0
 41
40.0
 42
40.0
 43
40.0
 50
180.0
  0
INSERT
  5
7F04
  8
3
  6
CONTINUOUS
 62
     0
  2
_OPEN
 10
3462.3389419999999
 20
2587.8403531052841
 30
0.0
 41
40.0
 42
40.0
 43
40.0
  0
TEXT
  8
3
  40
60
  5
7F37
  62
0
  72
0
  71
0
 10
3116.45
 20
2531.64
 30
0.000000
  1
420
  0
POINT
  5
7F06
  8
DEFPOINTS
  6
CONTINUOUS
 62
     0
 10
3042.3389419999999
 20
2522.802287999999
 30
0.0
  0
POINT
  5
7F07
  8
DEFPOINTS
  6
CONTINUOUS
 62
     0
 10
3462.3389419999999
 20
2522.802287999999
 30
0.0
  0
POINT
  5
7F08
  8
DEFPOINTS
  6
CONTINUOUS
 62
     0
 10
3462.3389419999999
 20
2587.8403531052841
 30
0.0
  0
ENDBLK
  5
7E57
  8
0
  0
BLOCK
  8
0
  2
*D17
 70
     1
 10
0.0
 20
0.0
 30
0.0
  3
*D17
  1

  0
LINE
  5
7F09
  8
3
  6
CONTINUOUS
 62
     0
 10
1472.090606
 20
2599.4708568397709
 30
0.0
 11
1472.090606
 21
2647.3134439999999
 31
0.0
  0
LINE
  5
7F0A
  8
3
  6
CONTINUOUS
 62
     0
 10
1877.0906059999991
 20
2559.8022879999999
 30
0.0
 11
1877.0906059999991
 21
2647.3134439999999
 31
0.0
  0
LINE
  5
7F0B
  8
3
  6
CONTINUOUS
 62
     0
 10
1512.090606
 20
2627.3134439999999
 30
0.0
 11
1837.090606
 21
2627.3134439999999
 31
0.0
  0
INSERT
  5
7F0C
  8
3
  6
CONTINUOUS
 62
     0
  2
_OPEN
 10
1472.090606
 20
2627.3134439999999
 30
0.0
 41
40.0
 42
40.0
 43
40.0
 50
180.0
  0
INSERT
  5
7F0D
  8
3
  6
CONTINUOUS
 62
     0
  2
_OPEN
 10
1877.0906059999991
 20
2627.3134439999999
 30
0.0
 41
40.0
 42
40.0
 43
40.0
  0
TEXT
  8
3
  40
60
  5
7F38
  62
0
  72
0
  71
0
 10
1554.59
 20
2571.11
 30
0.000000
  1
405
  0
POINT
  5
7F0F
  8
DEFPOINTS
  6
CONTINUOUS
 62
     0
 10
1472.090606
 20
2589.4708568397709
 30
0.0
  0
POINT
  5
7F10
  8
DEFPOINTS
  6
CONTINUOUS
 62
     0
 10
1877.0906059999991
 20
2549.8022879999999
 30
0.0
  0
POINT
  5
7F11
  8
DEFPOINTS
  6
CONTINUOUS
 62
     0
 10
1877.0906059999991
 20
2627.3134439999999
 30
0.0
  0
ENDBLK
  5
7E34
  8
0
  0
BLOCK
  8
0
  2
*D18
 70
     1
 10
0.0
 20
0.0
 30
0.0
  3
*D18
  1

  0
LINE
  5
7F12
  8
3
  6
CONTINUOUS
 62
     0
 10
1827.0906059999991
 20
1406.8022880000001
 30
0.0
 11
2147.9980230000001
 21
1406.8022880000001
 31
0.0
  0
LINE
  5
7F13
  8
3
  6
CONTINUOUS
 62
     0
 10
1827.0906059999991
 20
1366.8022880000001
 30
0.0
 11
2147.9980230000001
 21
1366.8022880000001
 31
0.0
  0
LINE
  5
7F14
  8
3
  6
CONTINUOUS
 62
     0
 10
2127.9980230000001
 20
1446.8022880000001
 30
0.0
 11
2127.9980230000001
 21
1486.8022880000001
 31
0.0
  0
LINE
  5
7F15
  8
3
  6
CONTINUOUS
 62
     0
 10
2127.9980230000001
 20
1326.8022880000001
 30
0.0
 11
2127.9980230000001
 21
1149.659430857143
 31
0.0
  0
LINE
  5
7F16
  8
3
  6
CONTINUOUS
 62
     0
 10
2127.9980230000001
 20
1406.8022880000001
 30
0.0
 11
2127.9980230000001
 21
1366.8022880000001
 31
0.0
  0
INSERT
  5
7F17
  8
3
  6
CONTINUOUS
 62
     0
  2
_DOT
 10
2127.9980230000001
 20
1406.8022880000001
 30
0.0
 41
40.0
 42
40.0
 43
40.0
 50
270.0
  0
INSERT
  5
7F18
  8
3
  6
CONTINUOUS
 62
     0
  2
_OPEN
 10
2127.9980230000001
 20
1366.8022880000001
 30
0.0
 41
40.0
 42
40.0
 43
40.0
 50
90.0
  0
TEXT
  8
3
  40
60
  5
7F39
  62
0
  72
0
  71
0
 10
1958.00
 20
1112.03
 30
0.000000
  1
40
  0
POINT
  5
7F1A
  8
DEFPOINTS
  6
CONTINUOUS
 62
     0
 10
1817.0906059999991
 20
1406.8022880000001
 30
0.0
  0
POINT
  5
7F1B
  8
DEFPOINTS
  6
CONTINUOUS
 62
     0
 10
1817.0906059999991
 20
1366.8022880000001
 30
0.0
  0
POINT
  5
7F1C
  8
DEFPOINTS
  6
CONTINUOUS
 62
     0
 10
2127.9980230000001
 20
1366.8022880000001
 30
0.0
  0
ENDBLK
  5
7E0E
  8
0
  0
BLOCK
  8
0
  2
_DOT
 70
     0
 10
0.0
 20
0.0
 30
0.0
  3
_DOT
  1

  0
LINE
  5
7E0F
  8
0
  6
BYBLOCK
 62
     0
 10
0.0
 20
0.0
 30
0.0
 11
-1.0
 21
-0.0000000000000284
 31
0.0
  0
POLYLINE
  5
7E10
  8
0
  6
BYBLOCK
 62
     0
 66
     1
 10
0.0
 20
0.0
 30
0.0
 70
     1
 40
0.1666666666666666
 41
0.1666666666666666
  0
VERTEX
  5
7F1D
  8
0
  6
BYBLOCK
 62
     0
 10
-0.0833333333333286
 20
-0.0000000000000284
 30
0.0
 42
1.0
  0
VERTEX
  5
7F1E
  8
0
  6
BYBLOCK
 62
     0
 10
0.0833333333333286
 20
-0.0000000000000284
 30
0.0
 42
1.0
  0
SEQEND
  5
7F1F
  8
0
  6
BYBLOCK
 62
     0
  0
ENDBLK
  5
7DF5
  8
0
  0
BLOCK
  8
0
  2
*D20
 70
     1
 10
0.0
 20
0.0
 30
0.0
  3
*D20
  1

  0
LINE
  5
7F20
  8
3
 62
     0
 10
1877.0906059999991
 20
2559.8022879999999
 30
0.0
 11
1877.0906059999991
 21
2772.4690086926448
 31
0.0
  0
LINE
  5
7F21
  8
3
 62
     0
 10
567.09060599999998
 20
1583.8022880000001
 30
0.0
 11
567.09060599999998
 21
2772.4690086926448
 31
0.0
  0
LINE
  5
7F22
  8
3
 62
     0
 10
1837.090606
 20
2752.4690086926462
 30
0.0
 11
607.09060600000009
 21
2752.4690086926462
 31
0.0
  0
INSERT
  5
7F23
  8
3
 62
     0
  2
_OPEN
 10
1877.0906059999991
 20
2752.4690086926462
 30
0.0
 41
40.0
 42
40.0
 43
40.0
  0
INSERT
  5
7F24
  8
3
 62
     0
  2
_OPEN
 10
567.09060599999998
 20
2752.4690086926462
 30
0.0
 41
40.0
 42
40.0
 43
40.0
 50
180.0
  0
TEXT
  8
3
  40
60
  5
7F3A
  62
0
  72
0
  71
0
 10
1172.03
 20
2696.27
 30
0.000000
  1
1310
  0
POINT
  5
7F26
  8
DEFPOINTS
 62
     0
 10
1877.0906059999991
 20
2549.8022879999999
 30
0.0
  0
POINT
  5
7F27
  8
DEFPOINTS
 62
     0
 10
567.09060599999998
 20
1573.8022880000001
 30
0.0
  0
POINT
  5
7F28
  8
DEFPOINTS
 62
     0
 10
567.09060599999998
 20
2752.4690086926462
 30
0.0
  0
ENDBLK
  5
7E4B
  8
0
  0
ENDSEC
  0
SECTION
  2
ENTITIES
  0
LINE
  5
7A82
  8
1
  6
CONTINUOUS
 10
1472.5906059999991
 20
2408.8022879999999
 30
0.0
 11
612.59060599999998
 21
1803.802287999999
 31
0.0
  0
LINE
  5
7A83
  8
1
  6
CONTINUOUS
 10
642.09060599999998
 20
1573.8022880000001
 30
0.0
 11
902.09060600000009
 21
1573.8022880000001
 31
0.0
  0
ARC
  5
7A84
  8
1
  6
CONTINUOUS
 10
772.09060599999987
 20
1755.802287999999
 30
0.0
 40
142.0
 50
324.59875699999998
 51
215.40124299999999
  0
LINE
  5
7A85
  8
1
  6
CONTINUOUS
 10
1817.0906059999991
 20
1493.8022880000001
 30
0.0
 11
567.09060599999998
 21
1493.8022880000001
 31
0.0
  0
LINE
  5
7A86
  8
1
  6
CONTINUOUS
 10
1832.0906059999991
 20
1573.8022880000001
 30
0.0
 11
567.09060599999998
 21
1573.8022880000001
 31
0.0
  0
LINE
  5
7A87
  8
1
  6
CONTINUOUS
 10
1817.0906059999991
 20
1471.8022880000001
 30
0.0
 11
567.09060599999998
 21
1471.8022880000001
 31
0.0
  0
LINE
  5
7A88
  8
1
  6
CONTINUOUS
 10
1817.0906059999991
 20
1406.8022880000001
 30
0.0
 11
567.09060599999998
 21
1406.8022880000001
 31
0.0
  0
LINE
  5
7A89
  8
1
  6
CONTINUOUS
 10
607.09060599999987
 20
1406.8022880000001
 30
0.0
 11
607.09060599999987
 21
1366.8022880000001
 31
0.0
  0
LINE
  5
7A8A
  8
1
  6
CONTINUOUS
 10
567.09060599999998
 20
1471.8022880000001
 30
0.0
 11
567.09060599999998
 21
1366.8022880000001
 31
0.0
  0
LINE
  5
7A8B
  8
1
  6
CONTINUOUS
 10
607.09060599999987
 20
1366.8022880000001
 30
0.0
 11
567.09060599999998
 21
1366.8022880000001
 31
0.0
  0
LINE
  5
7A8C
  8
1
  6
CONTINUOUS
 10
612.59060599999998
 20
1573.8022880000001
 30
0.0
 11
612.59060599999998
 21
1803.802287999999
 31
0.0
  0
LINE
  5
7A8D
  8
1
  6
CONTINUOUS
 10
642.09060599999998
 20
1573.8022880000001
 30
0.0
 11
642.09060599999998
 21
1638.8022880000001
 31
0.0
  0
LINE
  5
7A8E
  8
1
  6
CONTINUOUS
 10
642.09060599999998
 20
1638.8022880000001
 30
0.0
 11
656.34424300000001
 21
1673.541850999999
 31
0.0
  0
LINE
  5
7A8F
  8
1
  6
CONTINUOUS
 10
567.09060599999998
 20
1573.8022880000001
 30
0.0
 11
567.09060599999998
 21
1493.8022880000001
 31
0.0
  0
LINE
  5
7A90
  8
1
  6
CONTINUOUS
 10
791.03936199999987
 20
1688.415755999999
 30
0.0
 11
1499.1602569999991
 21
1887.5358139999989
 31
0.0
  0
LINE
  5
7A91
  8
1
  6
CONTINUOUS
 10
747.71733600000005
 20
1821.4219780000001
 30
0.0
 11
1437.2716479999999
 21
2077.5447020000001
 31
0.0
  0
CIRCLE
  5
7A92
  8
1
  6
CONTINUOUS
 10
1472.090606
 20
1983.8022880000001
 30
0.0
 40
320.0
  0
CIRCLE
  5
7A93
  8
1
  6
CONTINUOUS
 10
1472.090606
 20
1983.8022880000001
 30
0.0
 40
295.0
  0
ARC
  5
7A94
  8
1
  6
CONTINUOUS
 10
1509.090606
 20
2020.8022880000001
 30
0.0
 40
501.36713099999992
 50
94.232174000000001
 51
185.042451
  0
ARC
  5
7A95
  8
1
  6
CONTINUOUS
 10
1441.090606
 20
2014.802287999999
 30
0.0
 40
433.10293799999999
 50
185.042451
 51
277.25319500000001
  0
LINE
  5
7A96
  8
1
  6
CONTINUOUS
 10
1832.0906059999991
 20
2393.802287999999
 30
0.0
 11
997.09060599999998
 21
2393.802287999999
 31
0.0
  0
LINE
  5
7A97
  8
1
  6
CONTINUOUS
 10
997.09060599999998
 20
2393.802287999999
 30
0.0
 11
997.09060599999998
 21
1573.8022880000001
 31
0.0
  0
CIRCLE
  5
7A98
  8
1
  6
CONTINUOUS
 10
772.09060599999987
 20
1755.802287999999
 30
0.0
 40
70.0
  0
LINE
  5
7A99
  8
2
  6
CENTER
 10
702.09060599999987
 20
1755.802287999999
 30
0.0
 11
842.09060600000009
 21
1755.802287999999
 31
0.0
  0
LINE
  5
7A9A
  8
2
  6
CENTER
 10
772.09060599999987
 20
1685.8022880000001
 30
0.0
 11
772.09060599999987
 21
1825.8022880000001
 31
0.0
  0
LINE
  5
7A9B
  8
1
  6
CONTINUOUS
 10
902.09060600000009
 20
1638.8022880000001
 30
0.0
 11
887.83696899999995
 21
1673.541850999999
 31
0.0
  0
LINE
  5
7A9C
  8
1
  6
CONTINUOUS
 10
902.09060600000009
 20
1573.8022880000001
 30
0.0
 11
902.09060600000009
 21
1638.8022880000001
 31
0.0
  0
LINE
  5
7A9D
  8
1
  6
CONTINUOUS
 10
1742.590606
 20
1573.8022880000001
 30
0.0
 11
1742.590606
 21
2323.802287999999
 31
0.0
  0
ARC
  5
7A9E
  8
1
  6
CONTINUOUS
 10
1448.090606
 20
1959.802287999999
 30
0.0
 40
377.65927299999993
 50
277.25319500000001
 51
0.455143
  0
LINE
  5
7A9F
  8
1
  6
CONTINUOUS
 10
1832.0906059999991
 20
2393.802287999999
 30
0.0
 11
1832.0906059999991
 21
1573.8022880000001
 31
0.0
  0
LINE
  5
7AA0
  8
1
  6
CONTINUOUS
 10
1777.0906059999991
 20
1406.8022880000001
 30
0.0
 11
1777.0906059999991
 21
1366.8022880000001
 31
0.0
  0
LINE
  5
7AA1
  8
1
  6
CONTINUOUS
 10
1817.0906059999991
 20
1471.8022880000001
 30
0.0
 11
1817.0906059999991
 21
1366.8022880000001
 31
0.0
  0
LINE
  5
7AA2
  8
1
  6
CONTINUOUS
 10
1817.0906059999991
 20
1366.8022880000001
 30
0.0
 11
1777.0906059999991
 21
1366.8022880000001
 31
0.0
  0
LINE
  5
7AA3
  8
1
  6
CONTINUOUS
 10
1817.0906059999991
 20
1573.8022880000001
 30
0.0
 11
1817.0906059999991
 21
1493.8022880000001
 31
0.0
  0
LINE
  5
7AA4
  8
1
  6
CONTINUOUS
 10
1742.590606
 20
2323.802287999999
 30
0.0
 11
1472.5906059999991
 21
2408.8022879999999
 31
0.0
  0
LINE
  5
7AA5
  8
1
  6
CONTINUOUS
 10
1877.0906059999991
 20
2522.802287999999
 30
0.0
 11
1472.090606
 21
2520.8022879999999
 31
0.0
  0
CIRCLE
  5
7AA6
  8
1
  6
CONTINUOUS
 10
1472.090606
 20
1983.8022880000001
 30
0.0
 40
100.0
  0
LINE
  5
7AA7
  8
2
  6
CENTER
 10
3512.689206
 20
1983.8022880000001
 30
0.0
 11
2791.3396640000001
 21
1983.8022880000001
 31
0.0
  0
LINE
  5
7AA8
  8
2
  6
CENTER
 10
1472.090606
 20
4003.0360690000002
 30
0.0
 11
1472.090606
 21
3143.927431999999
 31
0.0
  0
LINE
  5
7AA9
  8
1
  6
CONTINUOUS
 10
1852.0906059999991
 20
1962.802287999999
 30
0.0
 11
1852.0906059999991
 21
2522.6788309999988
 31
0.0
  0
LINE
  5
7AAA
  8
1
  6
CONTINUOUS
 10
1877.0906059999991
 20
1935.8022880000001
 30
0.0
 11
1877.0906059999991
 21
2549.8022879999999
 31
0.0
  0
LINE
  5
7AAB
  8
1
  6
CONTINUOUS
 10
1825.7379629999989
 20
1962.802287999999
 30
0.0
 11
1877.0906059999991
 21
1962.802287999999
 31
0.0
  0
LINE
  5
7AAC
  8
1
  6
CONTINUOUS
 10
753.09060599999987
 20
3393.8022879999999
 30
0.0
 11
567.09060599999998
 21
3393.8022879999999
 31
0.0
  0
LINE
  5
7AAD
  8
1
  6
CONTINUOUS
 10
1742.590606
 20
3358.8022879999999
 30
0.0
 11
612.59060599999998
 21
3358.8022879999999
 31
0.0
  0
LINE
  5
7AAE
  8
1
  6
CONTINUOUS
 10
1742.590606
 20
3238.8022879999999
 30
0.0
 11
612.59060599999998
 21
3238.8022879999999
 31
0.0
  0
LINE
  5
7AAF
  8
1
  6
CONTINUOUS
 10
1817.0906059999991
 20
3903.8022880000012
 30
0.0
 11
567.09060599999998
 21
3903.8022880000012
 31
0.0
  0
LINE
  5
7AB0
  8
1
  6
CONTINUOUS
 10
630.09060599999987
 20
3812.5401209999991
 30
0.0
 11
914.09060599999998
 21
3812.5401209999991
 31
0.0
  0
LINE
  5
7AB1
  8
1
  6
CONTINUOUS
 10
630.09060599999987
 20
3412.540121
 30
0.0
 11
914.09060599999998
 21
3412.540121
 31
0.0
  0
LINE
  5
7AB2
  8
1
  6
CONTINUOUS
 10
567.09060599999998
 20
3983.8022879999999
 30
0.0
 11
567.09060599999998
 21
3203.8022879999999
 31
0.0
  0
LINE
  5
7AB3
  8
1
  6
CONTINUOUS
 10
630.09060599999987
 20
3812.5401209999991
 30
0.0
 11
630.09060599999987
 21
3412.540121
 31
0.0
  0
LINE
  5
7AB4
  8
1
  6
CONTINUOUS
 10
612.59060599999998
 20
3238.8022879999999
 30
0.0
 11
612.59060599999998
 21
3358.8022879999999
 31
0.0
  0
LINE
  5
7AB5
  8
1
  6
CONTINUOUS
 10
607.09060599999987
 20
3203.8022879999999
 30
0.0
 11
567.09060599999998
 21
3203.8022879999999
 31
0.0
  0
LINE
  5
7AB6
  8
1
  6
CONTINUOUS
 10
607.09060599999987
 20
3393.8022879999999
 30
0.0
 11
607.09060599999987
 21
3203.8022879999999
 31
0.0
  0
LINE
  5
7AB7
  8
1
  6
CONTINUOUS
 10
607.09060599999987
 20
3983.8022879999999
 30
0.0
 11
567.09060599999998
 21
3983.8022879999999
 31
0.0
  0
LINE
  5
7AB8
  8
1
  6
CONTINUOUS
 10
607.09060599999987
 20
3983.8022879999999
 30
0.0
 11
607.09060599999987
 21
3903.8022880000012
 31
0.0
  0
LINE
  5
7AB9
  8
1
  6
CONTINUOUS
 10
1152.090606
 20
3860.8022879999999
 30
0.0
 11
1792.0906059999991
 21
3860.8022879999999
 31
0.0
  0
LINE
  5
7ABA
  8
1
  6
CONTINUOUS
 10
1456.090606
 20
3393.8022879999999
 30
0.0
 11
791.09060599999998
 21
3393.8022879999999
 31
0.0
  0
LINE
  5
7ABB
  8
1
  6
CONTINUOUS
 10
997.09060599999998
 20
3858.8022879999999
 30
0.0
 11
1877.0906059999991
 21
3858.8022879999999
 31
0.0
  0
LINE
  5
7ABC
  8
1
  6
CONTINUOUS
 10
997.09060599999998
 20
3438.8022879999999
 30
0.0
 11
1877.0906059999991
 21
3438.8022879999999
 31
0.0
  0
LINE
  5
7ABD
  8
1
  6
CONTINUOUS
 10
997.09060599999998
 20
3438.8022879999999
 30
0.0
 11
997.09060599999998
 21
3858.8022879999999
 31
0.0
  0
LINE
  5
7ABE
  8
1
  6
CONTINUOUS
 10
914.09060599999998
 20
3812.5401209999991
 30
0.0
 11
914.09060599999998
 21
3412.540121
 31
0.0
  0
LINE
  5
7ABF
  8
1
  6
CONTINUOUS
 10
702.09060599999987
 20
3268.802287999999
 30
0.0
 11
842.09060600000009
 21
3268.802287999999
 31
0.0
  0
LINE
  5
7AC0
  8
1
  6
CONTINUOUS
 10
702.09060599999987
 20
3328.8022879999999
 30
0.0
 11
842.09060600000009
 21
3328.8022879999999
 31
0.0
  0
LINE
  5
7AC1
  8
1
  6
CONTINUOUS
 10
702.09060599999987
 20
3268.802287999999
 30
0.0
 11
702.09060599999987
 21
3328.8022879999999
 31
0.0
  0
LINE
  5
7AC2
  8
1
  6
CONTINUOUS
 10
791.09060599999998
 20
3328.8022879999999
 30
0.0
 11
791.09060599999998
 21
3412.540121
 31
0.0
  0
LINE
  5
7AC3
  8
1
  6
CONTINUOUS
 10
753.09060599999987
 20
3328.8022879999999
 30
0.0
 11
753.09060599999987
 21
3412.540121
 31
0.0
  0
LINE
  5
7AC4
  8
1
  6
CONTINUOUS
 10
842.09060600000009
 20
3268.802287999999
 30
0.0
 11
842.09060600000009
 21
3328.8022879999999
 31
0.0
  0
LINE
  5
7AC5
  8
1
  6
CONTINUOUS
 10
1152.090606
 20
3858.8022879999999
 30
0.0
 11
1152.090606
 21
3860.8022879999999
 31
0.0
  0
LINE
  5
7AC6
  8
1
  6
CONTINUOUS
 10
1852.0906059999991
 20
3858.8022879999999
 30
0.0
 11
1852.0906059999991
 21
3438.8022879999999
 31
0.0
  0
LINE
  5
7AC7
  8
1
  6
CONTINUOUS
 10
1877.0906059999991
 20
3885.8022879999999
 30
0.0
 11
1877.0906059999991
 21
3411.8022879999999
 31
0.0
  0
LINE
  5
7AC8
  8
1
  6
CONTINUOUS
 10
1817.0906059999991
 20
3393.8022879999999
 30
0.0
 11
1488.090606
 21
3393.8022879999999
 31
0.0
  0
LINE
  5
7AC9
  8
1
  6
CONTINUOUS
 10
1372.090606
 20
3328.8022879999999
 30
0.0
 11
1572.090606
 21
3328.8022879999999
 31
0.0
  0
LINE
  5
7ACA
  8
1
  6
CONTINUOUS
 10
1372.090606
 20
3268.802287999999
 30
0.0
 11
1572.090606
 21
3268.802287999999
 31
0.0
  0
LINE
  5
7ACB
  8
1
  6
CONTINUOUS
 10
1372.090606
 20
3268.802287999999
 30
0.0
 11
1372.090606
 21
3328.8022879999999
 31
0.0
  0
LINE
  5
7ACC
  8
1
  6
CONTINUOUS
 10
1572.090606
 20
3268.802287999999
 30
0.0
 11
1572.090606
 21
3328.8022879999999
 31
0.0
  0
LINE
  5
7ACD
  8
1
  6
CONTINUOUS
 10
1488.090606
 20
3438.8022879999999
 30
0.0
 11
1488.090606
 21
3328.8022879999999
 31
0.0
  0
LINE
  5
7ACE
  8
1
  6
CONTINUOUS
 10
1456.090606
 20
3438.8022879999999
 30
0.0
 11
1456.090606
 21
3328.8022879999999
 31
0.0
  0
LINE
  5
7ACF
  8
1
  6
CONTINUOUS
 10
1742.590606
 20
3238.8022879999999
 30
0.0
 11
1742.590606
 21
3358.8022879999999
 31
0.0
  0
LINE
  5
7AD0
  8
1
  6
CONTINUOUS
 10
1817.0906059999991
 20
3438.8022879999999
 30
0.0
 11
1817.0906059999991
 21
3203.8022879999999
 31
0.0
  0
LINE
  5
7AD1
  8
1
  6
CONTINUOUS
 10
1777.0906059999991
 20
3203.8022879999999
 30
0.0
 11
1817.0906059999991
 21
3203.8022879999999
 31
0.0
  0
LINE
  5
7AD2
  8
1
  6
CONTINUOUS
 10
1777.0906059999991
 20
3393.8022879999999
 30
0.0
 11
1777.0906059999991
 21
3203.8022879999999
 31
0.0
  0
LINE
  5
7AD3
  8
1
  6
CONTINUOUS
 10
1792.0906059999991
 20
3858.8022879999999
 30
0.0
 11
1792.0906059999991
 21
3860.8022879999999
 31
0.0
  0
LINE
  5
7AD4
  8
1
  6
CONTINUOUS
 10
1817.0906059999991
 20
3983.8022879999999
 30
0.0
 11
1817.0906059999991
 21
3858.8022879999999
 31
0.0
  0
LINE
  5
7AD5
  8
1
  6
CONTINUOUS
 10
1777.0906059999991
 20
3983.8022879999999
 30
0.0
 11
1777.0906059999991
 21
3903.8022880000012
 31
0.0
  0
LINE
  5
7AD6
  8
1
  6
CONTINUOUS
 10
1777.0906059999991
 20
3983.8022879999999
 30
0.0
 11
1817.0906059999991
 21
3983.8022879999999
 31
0.0
  0
LINE
  5
7AD7
  8
1
  6
CONTINUOUS
 10
3587.3389419999999
 20
1366.8022880000001
 30
0.0
 11
2807.3389419999999
 21
1366.8022880000001
 31
0.0
  0
LINE
  5
7AD8
  8
1
  6
CONTINUOUS
 10
3042.3389419999999
 20
1962.802287999999
 30
0.0
 11
3462.3389419999999
 21
2522.802287999999
 31
0.0
  0
LINE
  5
7AD9
  8
1
  6
CONTINUOUS
 10
3042.3389419999999
 20
2522.802287999999
 30
0.0
 11
3462.3389419999999
 21
1962.802287999999
 31
0.0
  0
LINE
  5
7ADA
  8
1
  6
CONTINUOUS
 10
3042.3389419999999
 20
1962.802287999999
 30
0.0
 11
3462.3389419999999
 21
1962.802287999999
 31
0.0
  0
LINE
  5
7ADB
  8
1
  6
CONTINUOUS
 10
3042.3389419999999
 20
2522.802287999999
 30
0.0
 11
3462.3389419999999
 21
2522.802287999999
 31
0.0
  0
LINE
  5
7ADC
  8
1
  6
CONTINUOUS
 10
3507.3389419999999
 20
1573.8022880000001
 30
0.0
 11
2842.3389419999999
 21
1573.8022880000001
 31
0.0
  0
LINE
  5
7ADD
  8
1
  6
CONTINUOUS
 10
3507.3389419999999
 20
1493.8022880000001
 30
0.0
 11
2997.3389419999999
 21
1493.8022880000001
 31
0.0
  0
LINE
  5
7ADE
  8
1
  6
CONTINUOUS
 10
3587.3389419999999
 20
1406.8022880000001
 30
0.0
 11
2807.3389419999999
 21
1406.8022880000001
 31
0.0
  0
LINE
  5
7ADF
  8
1
  6
CONTINUOUS
 10
3507.3389419999999
 20
1471.8022880000001
 30
0.0
 11
2997.3389419999999
 21
1471.8022880000001
 31
0.0
  0
LINE
  5
7AE0
  8
1
  6
CONTINUOUS
 10
2962.3389419999999
 20
1573.8022880000001
 30
0.0
 11
2962.3389419999999
 21
2408.8022879999999
 31
0.0
  0
LINE
  5
7AE1
  8
1
  6
CONTINUOUS
 10
2842.3389419999999
 20
1573.8022880000001
 30
0.0
 11
2842.3389419999999
 21
2408.8022879999999
 31
0.0
  0
LINE
  5
7AE2
  8
1
  6
CONTINUOUS
 10
3042.3389419999999
 20
1573.8022880000001
 30
0.0
 11
3042.3389419999999
 21
2522.802287999999
 31
0.0
  0
LINE
  5
7AE5
  8
1
  6
CONTINUOUS
 10
2872.3389419999999
 20
1685.8022880000001
 30
0.0
 11
2932.3389419999999
 21
1685.8022880000001
 31
0.0
  0
LINE
  5
7AE6
  8
1
  6
CONTINUOUS
 10
2872.3389419999999
 20
1825.8022880000001
 30
0.0
 11
2932.3389419999999
 21
1825.8022880000001
 31
0.0
  0
LINE
  5
7AE8
  8
1
  6
CONTINUOUS
 10
2807.3389419999999
 20
1406.8022880000001
 30
0.0
 11
2807.3389419999999
 21
1366.8022880000001
 31
0.0
  0
LINE
  5
7AE9
  8
1
  6
CONTINUOUS
 10
2872.3389419999999
 20
1825.8022880000001
 30
0.0
 11
2872.3389419999999
 21
1685.8022880000001
 31
0.0
  0
LINE
  5
7AEA
  8
1
  6
CONTINUOUS
 10
2932.3389419999999
 20
1739.802287999999
 30
0.0
 11
3042.3389419999999
 21
1739.802287999999
 31
0.0
  0
LINE
  5
7AEB
  8
1
  6
CONTINUOUS
 10
2932.3389419999999
 20
1771.802287999999
 30
0.0
 11
3042.3389419999999
 21
1771.802287999999
 31
0.0
  0
LINE
  5
7AEC
  8
1
  6
CONTINUOUS
 10
2932.3389419999999
 20
1825.8022880000001
 30
0.0
 11
2932.3389419999999
 21
1685.8022880000001
 31
0.0
  0
LINE
  5
7AED
  8
1
  6
CONTINUOUS
 10
2997.3389419999999
 20
1493.8022880000001
 30
0.0
 11
2997.3389419999999
 21
1573.8022880000001
 31
0.0
  0
LINE
  5
7AEE
  8
1
  6
CONTINUOUS
 10
2997.3389419999999
 20
1406.8022880000001
 30
0.0
 11
2997.3389419999999
 21
1471.8022880000001
 31
0.0
  0
LINE
  5
7AEF
  8
1
  6
CONTINUOUS
 10
2872.3389419999999
 20
1883.8022880000001
 30
0.0
 11
2932.3389419999999
 21
1883.8022880000001
 31
0.0
  0
LINE
  5
7AF0
  8
1
  6
CONTINUOUS
 10
2872.3389419999999
 20
2083.8022879999999
 30
0.0
 11
2932.3389419999999
 21
2083.8022879999999
 31
0.0
  0
LINE
  5
7AF1
  8
1
  6
CONTINUOUS
 10
2842.3389419999999
 20
2408.8022879999999
 30
0.0
 11
2962.3389419999999
 21
2408.8022879999999
 31
0.0
  0
LINE
  5
7AF2
  8
1
  6
CONTINUOUS
 10
2872.3389419999999
 20
2083.8022879999999
 30
0.0
 11
2872.3389419999999
 21
1883.8022880000001
 31
0.0
  0
LINE
  5
7AF3
  8
1
  6
CONTINUOUS
 10
3042.3389419999999
 20
1967.8022880000001
 30
0.0
 11
2932.3389419999999
 21
1967.8022880000001
 31
0.0
  0
LINE
  5
7AF4
  8
1
  6
CONTINUOUS
 10
3042.3389419999999
 20
1999.8022880000001
 30
0.0
 11
2932.3389419999999
 21
1999.8022880000001
 31
0.0
  0
LINE
  5
7AF5
  8
1
  6
CONTINUOUS
 10
2932.3389419999999
 20
2083.8022879999999
 30
0.0
 11
2932.3389419999999
 21
1883.8022880000001
 31
0.0
  0
LINE
  5
7AF6
  8
1
  6
CONTINUOUS
 10
3464.3389419999999
 20
1663.8022880000001
 30
0.0
 11
3464.3389419999999
 21
2303.802287999999
 31
0.0
  0
LINE
  5
7AF7
  8
1
  6
CONTINUOUS
 10
3462.3389419999999
 20
1573.8022880000001
 30
0.0
 11
3462.3389419999999
 21
2522.802287999999
 31
0.0
  0
LINE
  5
7AF8
  8
1
  6
CONTINUOUS
 10
3462.3389419999999
 20
1663.8022880000001
 30
0.0
 11
3464.3389419999999
 21
1663.8022880000001
 31
0.0
  0
LINE
  5
7AF9
  8
1
  6
CONTINUOUS
 10
3587.3389419999999
 20
1406.8022880000001
 30
0.0
 11
3587.3389419999999
 21
1366.8022880000001
 31
0.0
  0
LINE
  5
7AFA
  8
1
  6
CONTINUOUS
 10
3507.3389419999999
 20
1493.8022880000001
 30
0.0
 11
3507.3389419999999
 21
1573.8022880000001
 31
0.0
  0
LINE
  5
7AFB
  8
1
  6
CONTINUOUS
 10
3507.3389419999999
 20
1406.8022880000001
 30
0.0
 11
3507.3389419999999
 21
1471.8022880000001
 31
0.0
  0
LINE
  5
7AFC
  8
1
  6
CONTINUOUS
 10
3462.3389419999999
 20
2303.802287999999
 30
0.0
 11
3464.3389419999999
 21
2303.802287999999
 31
0.0
  0
LINE
  5
7AFD
  8
2
  6
CENTER
 10
504.51555599999989
 20
3648.8022879999999
 30
0.0
 11
1944.537384
 21
3648.8022879999999
 31
0.0
  0
LINE
  5
7AFE
  8
2
  6
CENTER
 10
3252.3389419999999
 20
2564.996318
 30
0.0
 11
3252.3389419999999
 21
1273.457861017037
 31
0.0
  0
LINE
  5
7AFF
  8
2
  6
CENTER
 10
1472.090606
 20
2589.4708568397709
 30
0.0
 11
1472.090606
 21
1302.4772874257039
 31
0.0
  0
LINE
  5
7B00
  8
2
  6
CENTER
 10
1969.9077139999999
 20
1983.8022880000001
 30
0.0
 11
699.25515999999993
 21
1983.8022880000001
 31
0.0
  0
LINE
  5
7B01
  8
4
  6
CONTINUOUS
 10
3700.0
 20
1000.0
 30
0.0
 11
3700.0
 21
600.0
 31
0.0
  0
LINE
  5
7B02
  8
4
  6
CONTINUOUS
 10
2300.0
 20
1000.0
 30
0.0
 11
2300.0
 21
600.0
 31
0.0
  0
LINE
  5
7B03
  8
4
  6
CONTINUOUS
 10
1300.0
 20
1000.0
 30
0.0
 11
1300.0
 21
600.0
 31
0.0
  0
LINE
  5
7B06
  8
4
  6
CONTINUOUS
 10
1300.0
 20
600.0
 30
0.0
 11
3700.0
 21
600.0
 31
0.0
  0
LINE
  5
7B07
  8
4
  6
CONTINUOUS
 10
1300.0
 20
800.0
 30
0.0
 11
3700.0
 21
800.0
 31
0.0
  0
TEXT
  5
7B08
  8
4
  6
CONTINUOUS
 10
1377.004162
 20
863.086052
 30
0.0
 40
100.0
  1
機器名称
  0
TEXT
  5
7B09
  8
4
  6
CONTINUOUS
 10
1372.516212
 20
643.29031299999986
 30
0.0
 40
100.0
  1
機器型番
  0
TEXT
  5
7B0A
  8
4
  6
CONTINUOUS
 10
2355.3574910000002
 20
845.14353800000015
 30
0.0
 40
100.0
  1
ミツヤ多翼送風機
  0
TEXT
  5
7B0B
  8
4
  6
CONTINUOUS
 10
2373.3089909999999
 20
634.31916899999999
 30
0.0
 40
100.0
  1
MF#3 1/2-4
  0
TEXT
  5
7B0D
  8
4
  6
CONTINUOUS
 10
1491.9580550000001
 20
4766.8576830000002
 30
0.0
 40
108.0
  1
天井吊防振ベット
  0
TEXT
  5
7B0E
  8
4
  6
CONTINUOUS
 10
632.33518700000002
 20
5067.7619520000007
 30
0.0
 40
144.0
  1
ベルト駆動式片吸込両持多翼ファン
  0
LINE
  5
7B0F
  8
4
  6
CONTINUOUS
 10
500.0
 20
4938.8175090000004
 30
0.0
 11
3700.0
 21
4938.8175090000004
 31
0.0
  0
LINE
  5
7B10
  8
4
  6
CONTINUOUS
 10
500.0
 20
5338.8175090000004
 30
0.0
 11
3700.0
 21
5338.8175090000004
 31
0.0
  0
LINE
  5
7B11
  8
4
  6
CONTINUOUS
 10
1300.0
 20
1000.0
 30
0.0
 11
3700.0
 21
1000.0
 31
0.0
  0
LINE
  5
7B12
  8
4
  6
CONTINUOUS
 10
500.0
 20
5338.8175090000004
 30
0.0
 11
500.0
 21
4938.8175090000004
 31
0.0
  0
TEXT
  5
7B13
  8
4
  6
CONTINUOUS
 10
620.24039000000005
 20
4764.6389549999994
 30
0.0
 40
108.0
  1
右回転右横向
  0
TEXT
  5
7B14
  8
4
  6
CONTINUOUS
 10
2937.9391179999998
 20
5412.122163
 30
0.0
 40
112.0
  1
No.
  0
TEXT
  5
7B15
  8
4
  6
CONTINUOUS
 10
2622.5921250000001
 20
4766.8576830000002
 30
0.0
 40
108.0
  1
縮尺：1/20
  0
LINE
  5
7B16
  8
4
  6
CONTINUOUS
 10
3700.0
 20
5338.8175090000004
 30
0.0
 11
3700.0
 21
4938.8175090000004
 31
0.0
  0
LINE
  5
7B18
  8
4
  6
CONTINUOUS
 10
2881.234845
 20
5362.5271659999999
 30
0.0
 11
2881.234845
 21
5573.3045229999998
 31
0.0
  0
LINE
  5
7B19
  8
4
  6
CONTINUOUS
 10
2881.234845
 20
5573.3045229999998
 30
0.0
 11
3700.0
 21
5573.3045229999998
 31
0.0
  0
LINE
  5
7B1A
  8
4
  6
CONTINUOUS
 10
3700.0
 20
5573.3045229999998
 30
0.0
 11
3700.0
 21
5362.5271659999999
 31
0.0
  0
LINE
  5
7B1B
  8
4
  6
CONTINUOUS
 10
3700.0
 20
5362.5271659999999
 30
0.0
 11
2881.234845
 21
5362.5271659999999
 31
0.0
  0
DIMENSION
  5
7B40
  8
3
  6
CONTINUOUS
  2
*D1
 10
2010.0590340000001
 20
1962.802287999999
 30
0.0
 11
2010.0590340000001
 21
2230.1980559999988
 31
0.0
 70
   128
 13
1877.0906059999991
 23
2522.802287999999
 33
0.0
 14
1877.0906059999991
 24
1962.802287999999
 34
0.0
 50
90.0
1001
ACAD
1000
DSTYLE
1002
{
1070
   287
1070
     3
1070
    40
1040
20.0
1070
   143
1040
0.039
1070
   172
1070
     1
1070
   271
1070
     0
1070
   279
1070
     0
1070
   288
1070
     1
1002
}
  0
DIMENSION
  5
7B4D
  8
3
  6
CONTINUOUS
  2
*D2
 10
2127.9980230000001
 20
1983.8022880000001
 30
0.0
 11
2127.9980230000001
 21
2230.1980559999988
 31
0.0
 70
   128
 13
1877.0906059999991
 23
2522.802287999999
 33
0.0
 14
1969.9077139999999
 24
1983.8022880000001
 34
0.0
 50
90.0
1001
ACAD
1000
DSTYLE
1002
{
1070
   287
1070
     3
1070
    40
1040
20.0
1070
   143
1040
0.039
1070
   172
1070
     1
1070
   271
1070
     0
1070
   279
1070
     0
1070
   288
1070
     1
1002
}
  0
DIMENSION
  5
7B65
  8
3
  6
CONTINUOUS
  2
*D3
 10
2127.9980230000001
 20
1493.8022880000001
 30
0.0
 11
2077.9980229999992
 21
1738.8022880000001
 31
0.0
 70
     0
 13
1969.9077139999999
 23
1983.8022880000001
 33
0.0
 14
1817.0906059999991
 24
1493.8022880000001
 34
0.0
 50
90.0
1001
ACAD
1000
DSTYLE
1002
{
1070
   287
1070
     4
1070
    40
1040
20.0
1070
    75
1070
     1
1070
   143
1040
0.039
1070
   172
1070
     1
1070
   271
1070
     0
1070
   279
1070
     1
1070
   288
1070
     1
1002
}
  0
DIMENSION
  5
7B75
  8
3
  6
CONTINUOUS
  2
*D4
 10
2127.9980230000001
 20
1406.8022880000001
 30
0.0
 11
2208.1343140579438
 21
1452.7406179999989
 31
0.0
 70
   128
 13
1817.0906059999991
 23
1493.8022880000001
 33
0.0
 14
1817.0906059999991
 24
1406.8022880000001
 34
0.0
 50
90.0
1001
ACAD
1000
DSTYLE
1002
{
1070
   288
1070
     1
1070
   172
1070
     1
1070
    75
1070
     1
1070
    40
1040
20.0
1070
   271
1070
     0
1070
     7
1000
_DOT
1070
   143
1040
0.039
1002
}
  0
DIMENSION
  5
7B82
  8
3
  6
CONTINUOUS
  2
*D5
 10
2277.521902
 20
1366.8022880000001
 30
0.0
 11
2277.521902
 21
1930.749593
 31
0.0
 70
   128
 13
1877.0906059999991
 23
2549.8022879999999
 33
0.0
 14
1817.0906059999991
 24
1366.8022880000001
 34
0.0
 50
90.0
1001
ACAD
1000
DSTYLE
1002
{
1070
   287
1070
     3
1070
    40
1040
20.0
1070
   143
1040
0.039
1070
   172
1070
     1
1070
   271
1070
     0
1070
   279
1070
     0
1070
   288
1070
     1
1002
}
  0
DIMENSION
  5
7B9B
  8
3
  6
CONTINUOUS
  2
*D6
 10
997.09060599999998
 20
2627.3134439999999
 30
0.0
 11
1234.590606
 21
2677.3134439999999
 31
0.0
 70
     0
 13
1472.090606
 23
2589.4708568397709
 33
0.0
 14
997.09060599999998
 24
2393.802287999999
 34
0.0
1001
ACAD
1000
DSTYLE
1002
{
1070
   287
1070
     3
1070
    40
1040
20.0
1070
   143
1040
0.039
1070
   172
1070
     1
1070
   271
1070
     0
1070
   279
1070
     0
1070
   288
1070
     1
1002
}
  0
DIMENSION
  5
7BA8
  8
3
  6
CONTINUOUS
  2
*D7
 10
1472.090606
 20
1226.5005664257039
 30
0.0
 11
1022.865968
 21
1226.5005664257039
 31
0.0
 70
   128
 13
567.09060599999998
 23
1366.8022880000001
 33
0.0
 14
1472.090606
 24
1302.4772874257039
 34
0.0
1001
ACAD
1000
DSTYLE
1002
{
1070
   287
1070
     3
1070
    40
1040
20.0
1070
   143
1040
0.039
1070
   172
1070
     1
1070
   271
1070
     0
1070
   279
1070
     0
1070
   288
1070
     1
1002
}
  0
DIMENSION
  5
7BB4
  8
3
  6
CONTINUOUS
  2
*D8
 10
1817.0906059999991
 20
1226.5005664257039
 30
0.0
 11
1644.5906059999991
 21
1276.5005664257039
 31
0.0
 70
     0
 13
1472.090606
 23
1302.4772874257039
 33
0.0
 14
1817.0906059999991
 24
1366.8022880000001
 34
0.0
1001
ACAD
1000
DSTYLE
1002
{
1070
   287
1070
     4
1070
    40
1040
20.0
1070
    75
1070
     1
1070
   143
1040
0.039
1070
   172
1070
     1
1070
   271
1070
     0
1070
   279
1070
     1
1070
   288
1070
     1
1002
}
  0
DIMENSION
  5
7BD0
  8
3
  6
CONTINUOUS
  2
*D9
 10
3639.3644359999998
 20
1688.802287999999
 30
0.0
 11
3639.3644359999989
 21
1977.091541
 31
0.0
 70
   128
 13
3464.3389419999999
 23
2278.8022879999999
 33
0.0
 14
3464.3389419999999
 24
1688.802287999999
 34
0.0
 50
90.0
1001
ACAD
1000
DSTYLE
1002
{
1070
   287
1070
     3
1070
     3
1000
φ<>
1070
    40
1040
20.0
1070
   143
1040
0.039
1070
   172
1070
     1
1070
   271
1070
     0
1070
   279
1070
     0
1070
   288
1070
     1
1002
}
  0
DIMENSION
  5
7BDF
  8
3
  6
CONTINUOUS
  2
*D10
 10
3252.3389419999999
 20
2754.9724209999999
 30
0.0
 11
3358.3389419999999
 21
2816.468898014798
 31
0.0
 70
   128
 13
3464.3389419999999
 23
2303.802287999999
 33
0.0
 14
3252.3389419999999
 24
2677.5168695593438
 34
0.0
1001
ACAD
1000
DSTYLE
1002
{
1070
   288
1070
     1
1070
   172
1070
     1
1070
    40
1040
20.0
1070
   271
1070
     0
1070
   143
1040
0.039
1002
}
  0
DIMENSION
  5
7BEB
  8
3
  6
CONTINUOUS
  2
*D11
 10
2842.3389419999999
 20
2754.9724209999999
 30
0.0
 11
3047.3389419999999
 21
2854.9724209999999
 31
0.0
 70
     0
  1
MAX\P470
 13
3252.3389419999999
 23
2677.5168695593438
 33
0.0
 14
2842.3389419999999
 24
2408.8022879999999
 34
0.0
1001
ACAD
1000
DSTYLE
1002
{
1070
   287
1070
     4
1070
    40
1040
20.0
1070
    75
1070
     1
1070
   143
1040
0.039
1070
   172
1070
     1
1070
   271
1070
     0
1070
   279
1070
     1
1070
   288
1070
     1
1002
}
  0
DIMENSION
  5
7BF8
  8
3
  6
CONTINUOUS
  2
*D12
 10
3252.3389419999999
 20
1205.676903
 30
0.0
 11
3027.8288889999999
 21
1205.676903
 31
0.0
 70
   128
 13
2807.3389419999999
 23
1366.8022880000001
 33
0.0
 14
3252.3389419999999
 24
1273.457861017037
 34
0.0
1001
ACAD
1000
DSTYLE
1002
{
1070
   287
1070
     3
1070
    40
1040
20.0
1070
   143
1040
0.039
1070
   172
1070
     1
1070
   271
1070
     0
1070
   279
1070
     0
1070
   288
1070
     1
1002
}
  0
DIMENSION
  5
7C04
  8
3
  6
CONTINUOUS
  2
*D13
 10
3587.3389419999999
 20
1205.676903
 30
0.0
 11
3419.8389419999999
 21
1255.676903
 31
0.0
 70
     0
 13
3252.3389419999999
 23
1207.916387
 33
0.0
 14
3587.3389419999999
 24
1366.8022880000001
 34
0.0
1001
ACAD
1000
DSTYLE
1002
{
1070
   287
1070
     4
1070
    40
1040
20.0
1070
    75
1070
     1
1070
   143
1040
0.039
1070
   172
1070
     1
1070
   271
1070
     0
1070
   279
1070
     1
1070
   288
1070
     1
1002
}
  0
DIMENSION
  5
7C11
  8
3
  6
CONTINUOUS
  2
*D14
 10
1817.0906059999991
 20
4103.5637689999994
 30
0.0
 11
1219.430967
 21
4103.5637689999994
 31
0.0
 70
   128
 13
567.09060599999998
 23
3983.8022879999999
 33
0.0
 14
1817.0906059999991
 24
3983.8022879999999
 34
0.0
1001
ACAD
1000
DSTYLE
1002
{
1070
   287
1070
     3
1070
    40
1040
20.0
1070
   143
1040
0.039
1070
   172
1070
     1
1070
   271
1070
     0
1070
   279
1070
     0
1070
   288
1070
     1
1002
}
  0
DIMENSION
  5
7C1E
  8
3
  6
CONTINUOUS
  2
*D15
 10
2075.580708
 20
3203.8022879999999
 30
0.0
 11
2075.580707999999
 21
3620.4990670000002
 31
0.0
 70
   128
 13
1817.0906059999991
 23
3983.8022879999999
 33
0.0
 14
1817.0906059999991
 24
3203.8022879999999
 34
0.0
 50
90.0
1001
ACAD
1000
DSTYLE
1002
{
1070
   287
1070
     3
1070
    40
1040
20.0
1070
   143
1040
0.039
1070
   172
1070
     1
1070
   271
1070
     0
1070
   279
1070
     0
1070
   288
1070
     1
1002
}
  0
DIMENSION
  5
7CB9
  8
3
  6
CONTINUOUS
  2
*D16
 10
3462.3389419999999
 20
2587.8403531052841
 30
0.0
 11
3236.4472470000001
 21
2587.8403531052841
 31
0.0
 70
   128
 13
3042.3389419999999
 23
2522.802287999999
 33
0.0
 14
3462.3389419999999
 24
2522.802287999999
 34
0.0
1001
ACAD
1000
DSTYLE
1002
{
1070
   287
1070
     3
1070
    40
1040
20.0
1070
   143
1040
0.039
1070
   172
1070
     1
1070
   271
1070
     0
1070
   279
1070
     0
1070
   288
1070
     1
1002
}
  0
DIMENSION
  5
7CC6
  8
3
  6
CONTINUOUS
  2
*D17
 10
1877.0906059999991
 20
2627.3134439999999
 30
0.0
 11
1674.5906059999991
 21
2677.3134439999999
 31
0.0
 70
     0
 13
1472.090606
 23
2589.4708568397709
 33
0.0
 14
1877.0906059999991
 24
2549.8022879999999
 34
0.0
1001
ACAD
1000
DSTYLE
1002
{
1070
   287
1070
     3
1070
    40
1040
20.0
1070
   143
1040
0.039
1070
   172
1070
     1
1070
   271
1070
     0
1070
   279
1070
     0
1070
   288
1070
     1
1002
}
  0
DIMENSION
  5
7CF8
  8
3
  6
CONTINUOUS
  2
*D18
 10
2127.9980230000001
 20
1366.8022880000001
 30
0.0
 11
2127.9980230000001
 21
1218.230859428571
 31
0.0
 70
   128
 13
1817.0906059999991
 23
1406.8022880000001
 33
0.0
 14
1817.0906059999991
 24
1366.8022880000001
 34
0.0
 50
90.0
1001
ACAD
1000
DSTYLE
1002
{
1070
   287
1070
     3
1070
    40
1040
20.0
1070
   143
1040
0.039
1070
   172
1070
     1
1070
   271
1070
     0
1070
   279
1070
     0
1070
   288
1070
     1
1070
     6
1000
DOT
1002
}
  0
DIMENSION
  5
7E4C
  8
3
  2
*D20
 10
567.09060599999998
 20
2752.4690086926462
 30
0.0
 11
1292.028368826413
 21
2752.4690086926462
 31
0.0
 70
   128
 13
1877.0906059999991
 23
2549.8022879999999
 33
0.0
 14
567.09060599999998
 24
1573.8022880000001
 34
0.0
1001
ACAD
1000
DSTYLE
1002
{
1070
   287
1070
     3
1070
    40
1040
20.0
1070
   143
1040
0.039
1070
   172
1070
     1
1070
   271
1070
     0
1070
   279
1070
     0
1070
   288
1070
     1
1002
}
  0
ENDSEC
  0
EOF
