  0
SECTION
  2
HEADER
  9
$ACADVER
  1
AC1009
  9
$INSBASE
 10
0.0
 20
0.0
 30
0.0
  9
$EXTMIN
 10
465.82414699999981
 20
600.0
 30
0.0
  9
$EXTMAX
 10
3700.0
 20
5573.3045229999998
 30
0.0
  9
$LIMMIN
 10
0.0
 20
0.0
  9
$LIMMAX
 10
297.0
 20
210.0
  9
$ORTHOMODE
 70
     0
  9
$REGENMODE
 70
     1
  9
$FILLMODE
 70
     0
  9
$QTEXTMODE
 70
     0
  9
$MIRRTEXT
 70
     1
  9
$DRAGMODE
 70
     2
  9
$LTSCALE
 40
100.0
  9
$OSMODE
 70
    37
  9
$ATTMODE
 70
     1
  9
$TEXTSIZE
 40
180.0
  9
$TRACEWID
 40
0.05
  9
$TEXTSTYLE
  7
STANDARD
  9
$CLAYER
  8
3
  9
$CELTYPE
  6
BYLAYER
  9
$CECOLOR
 62
   256
  9
$DIMSCALE
 40
20.0
  9
$DIMASZ
 40
2.0
  9
$DIMEXO
 40
0.5
  9
$DIMDLI
 40
10.0
  9
$DIMRND
 40
0.0
  9
$DIMDLE
 40
0.0
  9
$DIMEXE
 40
1.0
  9
$DIMTP
 40
1.0
  9
$DIMTM
 40
1.0
  9
$DIMTXT
 40
3.0
  9
$DIMCEN
 40
0.0
  9
$DIMTSZ
 40
0.0
  9
$DIMTOL
 70
     0
  9
$DIMLIM
 70
     0
  9
$DIMTIH
 70
     0
  9
$DIMTOH
 70
     0
  9
$DIMSE1
 70
     0
  9
$DIMSE2
 70
     0
  9
$DIMTAD
 70
     1
  9
$DIMZIN
 70
     8
  9
$DIMBLK
  1

  9
$DIMASO
 70
     1
  9
$DIMSHO
 70
     1
  9
$DIMPOST
  1

  9
$DIMAPOST
  1

  9
$DIMALT
 70
     0
  9
$DIMALTD
 70
     2
  9
$DIMALTF
 40
0.039
  9
$DIMLFAC
 40
1.0
  9
$DIMTOFL
 70
     1
  9
$DIMTVP
 40
0.0
  9
$DIMTIX
 70
     0
  9
$DIMSOXD
 70
     0
  9
$DIMSAH
 70
     1
  9
$DIMBLK1
  1
OPEN
  9
$DIMBLK2
  1
OPEN
  9
$DIMSTYLE
  2
IGA
  9
$DIMCLRD
 70
     0
  9
$DIMCLRE
 70
     0
  9
$DIMCLRT
 70
     0
  9
$DIMTFAC
 40
10.0
  9
$DIMGAP
 40
1.0
  9
$LUNITS
 70
     2
  9
$LUPREC
 70
     3
  9
$SKETCHINC
 40
0.1
  9
$FILLETRAD
 40
50.0
  9
$AUNITS
 70
     0
  9
$AUPREC
 70
     0
  9
$MENU
  1
acad
  9
$ELEVATION
 40
0.0
  9
$PELEVATION
 40
0.0
  9
$THICKNESS
 40
0.0
  9
$LIMCHECK
 70
     0
  9
$BLIPMODE
 70
     0
  9
$CHAMFERA
 40
0.5
  9
$CHAMFERB
 40
0.5
  9
$SKPOLY
 70
     0
  9
$TDCREATE
 40
2450737.5836672452
  9
$TDUPDATE
 40
2454953.7689322908
  9
$TDINDWG
 40
0.0044039815
  9
$TDUSRTIMER
 40
0.0044039815
  9
$USRTIMER
 70
     1
  9
$ANGBASE
 50
0.0
  9
$ANGDIR
 70
     0
  9
$PDMODE
 70
     0
  9
$PDSIZE
 40
0.0
  9
$PLINEWID
 40
0.0
  9
$COORDS
 70
     1
  9
$SPLFRAME
 70
     0
  9
$SPLINETYPE
 70
     6
  9
$SPLINESEGS
 70
     8
  9
$ATTDIA
 70
     0
  9
$ATTREQ
 70
     1
  9
$HANDLING
 70
 10241
  9
$HANDSEED
  5
7EB5
  9
$SURFTAB1
 70
     6
  9
$SURFTAB2
 70
     6
  9
$SURFTYPE
 70
     6
  9
$SURFU
 70
     6
  9
$SURFV
 70
     6
  9
$UCSNAME
  2

  9
$UCSORG
 10
0.0
 20
0.0
 30
0.0
  9
$UCSXDIR
 10
1.0
 20
0.0
 30
0.0
  9
$UCSYDIR
 10
0.0
 20
1.0
 30
0.0
  9
$PUCSNAME
  2

  9
$PUCSORG
 10
0.0
 20
0.0
 30
0.0
  9
$PUCSXDIR
 10
1.0
 20
0.0
 30
0.0
  9
$PUCSYDIR
 10
0.0
 20
1.0
 30
0.0
  9
$USERI1
 70
     0
  9
$USERI2
 70
     0
  9
$USERI3
 70
     0
  9
$USERI4
 70
     0
  9
$USERI5
 70
     0
  9
$USERR1
 40
0.0
  9
$USERR2
 40
0.0
  9
$USERR3
 40
0.0
  9
$USERR4
 40
0.0
  9
$USERR5
 40
0.0
  9
$WORLDVIEW
 70
     1
  9
$SHADEDGE
 70
     3
  9
$SHADEDIF
 70
    70
  9
$TILEMODE
 70
     1
  9
$MAXACTVP
 70
    16
  9
$PLIMCHECK
 70
     0
  9
$PEXTMIN
 10
1.0000000000000000E+020
 20
1.0000000000000000E+020
 30
1.0000000000000000E+020
  9
$PEXTMAX
 10
-1.0000000000000000E+020
 20
-1.0000000000000000E+020
 30
-1.0000000000000000E+020
  9
$PLIMMIN
 10
0.0
 20
0.0
  9
$PLIMMAX
 10
12.0
 20
9.0
  9
$UNITMODE
 70
     0
  9
$VISRETAIN
 70
     0
  9
$PLINEGEN
 70
     0
  9
$PSLTSCALE
 70
     1
  0
ENDSEC
  0
SECTION
  2
TABLES
  0
TABLE
  2
VPORT
 70
     2
  0
VPORT
  2
*ACTIVE
 70
     0
 10
0.0
 20
0.0
 11
1.0
 21
1.0
 12
6275.0340772748659
 22
3086.6374998146398
 13
0.0
 23
0.0
 14
10.0
 24
10.0
 15
10.0
 25
10.0
 16
0.0
 26
0.0
 36
1.0
 17
0.0
 27
0.0
 37
0.0
 40
5011.4968576296578
 41
3.1666666666666661
 42
50.0
 43
0.0
 44
0.0
 50
0.0
 51
0.0
 71
     0
 72
   100
 73
     1
 74
     0
 75
     0
 76
     0
 77
     0
 78
     0
  0
ENDTAB
  0
TABLE
  2
LTYPE
 70
     2
  0
LTYPE
  2
CONTINUOUS
 70
     0
  3
Solid line
 72
    65
 73
     0
 40
0.0
  0
LTYPE
  2
CENTER
 70
     0
  3
____ _ ____ _ ____ _ ____ _ ____ _ ____ _ ____ 
 72
    65
 73
     4
 40
2.0
 49
1.25
 49
-0.25
 49
0.25
 49
-0.25
  0
ENDTAB
  0
TABLE
  2
LAYER
 70
     6
  0
LAYER
  2
0
 70
     0
 62
     7
  6
CONTINUOUS
  0
LAYER
  2
3
 70
     0
 62
     2
  6
CONTINUOUS
  0
LAYER
  2
2
 70
     0
 62
     3
  6
CENTER
  0
LAYER
  2
1
 70
     0
 62
     4
  6
CONTINUOUS
  0
LAYER
  2
4
 70
     0
 62
     7
  6
CONTINUOUS
  0
LAYER
  2
DEFPOINTS
 70
     0
 62
     7
  6
CONTINUOUS
  0
ENDTAB
  0
TABLE
  2
STYLE
 70
     1
  0
STYLE
  2
STANDARD
 70
     0
 40
0.0
 41
1.0
 50
0.0
 71
     0
 42
180.0
  3
simplex.shx
  4
extfont.shx
  0
ENDTAB
  0
TABLE
  2
VIEW
 70
     0
  0
ENDTAB
  0
TABLE
  2
UCS
 70
     0
  0
ENDTAB
  0
TABLE
  2
APPID
 70
     1
  0
APPID
  2
ACAD
 70
     0
  0
ENDTAB
  0
TABLE
  2
DIMSTYLE
 70
     1
  0
DIMSTYLE
  2
IGA
 70
     0
  3

  4

  5

  6
OPEN
  7
OPEN
 40
2.0
 41
2.0
 42
0.5
 43
10.0
 44
1.0
 45
0.0
 46
0.0
 47
1.0
 48
1.0
140
3.0
141
0.0
142
0.0
143
0.03937
144
1.0
145
0.0
146
10.0
147
1.0
 71
     0
 72
     0
 73
     0
 74
     0
 75
     0
 76
     0
 77
     1
 78
     8
170
     0
171
     2
172
     0
173
     1
174
     0
175
     0
176
     0
177
     0
178
     0
  0
ENDTAB
  0
ENDSEC
  0
SECTION
  2
BLOCKS
  0
BLOCK
  8
0
  2
$MODEL_SPACE
 70
     0
 10
0.0
 20
0.0
 30
0.0
  3
$MODEL_SPACE
  1

  0
ENDBLK
  5
1B
  8
0
  0
BLOCK
 67
     1
  8
0
  2
$PAPER_SPACE
 70
     0
 10
0.0
 20
0.0
 30
0.0
  3
$PAPER_SPACE
  1

  0
ENDBLK
  5
18
 67
     1
  8
0
  0
BLOCK
  8
0
  2
_OPEN
 70
     0
 10
0.0
 20
0.0
 30
0.0
  3
_OPEN
  1

  0
LINE
  5
7B26
  8
0
  6
BYBLOCK
 62
     0
 10
-1.0
 20
0.166667
 30
0.0
 11
0.0
 21
0.0
 31
0.0
  0
LINE
  5
7B27
  8
0
  6
BYBLOCK
 62
     0
 10
0.0
 20
0.0
 30
0.0
 11
-1.0
 21
-0.166667
 31
0.0
  0
LINE
  5
7B28
  8
0
  6
BYBLOCK
 62
     0
 10
0.0
 20
0.0
 30
0.0
 11
-1.0
 21
0.0
 31
0.0
  0
ENDBLK
  5
7B29
  8
0
  0
BLOCK
  8
0
  2
*D1
 70
     1
 10
0.0
 20
0.0
 30
0.0
  3
*D1
  1

  0
LINE
  5
7E00
  8
3
  6
CONTINUOUS
 62
     0
 10
1875.0061139999989
 20
2361.336880401524
 30
0.0
 11
2027.7979760000001
 21
2361.336880401524
 31
0.0
  0
LINE
  5
7E01
  8
3
  6
CONTINUOUS
 62
     0
 10
1875.0061139999989
 20
1801.336880401524
 30
0.0
 11
2027.7979760000001
 21
1801.336880401524
 31
0.0
  0
LINE
  5
7E02
  8
3
  6
CONTINUOUS
 62
     0
 10
2007.7979760000001
 20
2321.336880401524
 30
0.0
 11
2007.7979760000001
 21
1841.336880401524
 31
0.0
  0
INSERT
  5
7E03
  8
3
  6
CONTINUOUS
 62
     0
  2
_OPEN
 10
2007.7979760000001
 20
2361.336880401524
 30
0.0
 41
40.0
 42
40.0
 43
40.0
 50
90.0
  0
INSERT
  5
7E04
  8
3
  6
CONTINUOUS
 62
     0
  2
_OPEN
 10
2007.7979760000001
 20
1801.336880401524
 30
0.0
 41
40.0
 42
40.0
 43
40.0
 50
270.0
  0
TEXT
  8
3
  40
60
  5
7EA2
  62
0
  72
0
  71
0
 10
1837.80
 20
1999.15
 30
0.000000
  1
560
  0
POINT
  5
7E06
  8
DEFPOINTS
  6
CONTINUOUS
 62
     0
 10
1865.006114
 20
2361.336880401524
 30
0.0
  0
POINT
  5
7E07
  8
DEFPOINTS
  6
CONTINUOUS
 62
     0
 10
1865.006114
 20
1801.336880401524
 30
0.0
  0
POINT
  5
7E08
  8
DEFPOINTS
  6
CONTINUOUS
 62
     0
 10
2007.7979760000001
 20
1801.336880401524
 30
0.0
  0
ENDBLK
  5
7B36
  8
0
  0
BLOCK
  8
0
  2
*D2
 70
     1
 10
0.0
 20
0.0
 30
0.0
  3
*D2
  1

  0
LINE
  5
7E09
  8
3
  6
CONTINUOUS
 62
     0
 10
1966.107776999999
 20
2340.336880401524
 30
0.0
 11
2167.4075699999999
 21
2340.336880401524
 31
0.0
  0
LINE
  5
7E0A
  8
3
  6
CONTINUOUS
 62
     0
 10
1875.0061139999989
 20
1801.336880401524
 30
0.0
 11
2167.4075699999999
 21
1801.336880401524
 31
0.0
  0
LINE
  5
7E0B
  8
3
  6
CONTINUOUS
 62
     0
 10
2147.4075699999999
 20
2300.336880401524
 30
0.0
 11
2147.4075699999999
 21
1841.336880401524
 31
0.0
  0
INSERT
  5
7E0C
  8
3
  6
CONTINUOUS
 62
     0
  2
_OPEN
 10
2147.4075699999999
 20
2340.336880401524
 30
0.0
 41
40.0
 42
40.0
 43
40.0
 50
90.0
  0
INSERT
  5
7E0D
  8
3
  6
CONTINUOUS
 62
     0
  2
_OPEN
 10
2147.4075699999999
 20
1801.336880401524
 30
0.0
 41
40.0
 42
40.0
 43
40.0
 50
270.0
  0
TEXT
  8
3
  40
60
  5
7EA3
  62
0
  72
0
  71
0
 10
1977.41
 20
2003.14
 30
0.000000
  1
539
  0
POINT
  5
7E0F
  8
DEFPOINTS
  6
CONTINUOUS
 62
     0
 10
1956.1077769999999
 20
2340.336880401524
 30
0.0
  0
POINT
  5
7E10
  8
DEFPOINTS
  6
CONTINUOUS
 62
     0
 10
1865.006114
 20
1801.336880401524
 30
0.0
  0
POINT
  5
7E11
  8
DEFPOINTS
  6
CONTINUOUS
 62
     0
 10
2147.4075699999999
 20
1801.336880401524
 30
0.0
  0
ENDBLK
  5
7B43
  8
0
  0
BLOCK
  8
0
  2
*D3
 70
     1
 10
0.0
 20
0.0
 30
0.0
  3
*D3
  1

  0
LINE
  5
7E12
  8
3
  6
CONTINUOUS
 62
     0
 10
1830.006114
 20
2750.336880401524
 30
0.0
 11
2342.916792
 21
2750.336880401524
 31
0.0
  0
LINE
  5
7E13
  8
3
  6
CONTINUOUS
 62
     0
 10
1966.107776999999
 20
2340.336880401524
 30
0.0
 11
2342.916792
 21
2340.336880401524
 31
0.0
  0
LINE
  5
7E14
  8
3
  6
CONTINUOUS
 62
     0
 10
2322.916792
 20
2710.336880401524
 30
0.0
 11
2322.916792
 21
2380.336880401524
 31
0.0
  0
INSERT
  5
7E15
  8
3
  6
CONTINUOUS
 62
     0
  2
_OPEN
 10
2322.916792
 20
2750.336880401524
 30
0.0
 41
40.0
 42
40.0
 43
40.0
 50
90.0
  0
INSERT
  5
7E16
  8
3
  6
CONTINUOUS
 62
     0
  2
_OPEN
 10
2322.916792
 20
2340.336880401524
 30
0.0
 41
40.0
 42
40.0
 43
40.0
 50
270.0
  0
TEXT
  8
3
  40
60
  5
7EA4
  62
0
  72
0
  71
0
 10
2152.92
 20
2457.43
 30
0.000000
  1
410
  0
POINT
  5
7E18
  8
DEFPOINTS
  6
CONTINUOUS
 62
     0
 10
1820.0061139999989
 20
2750.336880401524
 30
0.0
  0
POINT
  5
7E19
  8
DEFPOINTS
  6
CONTINUOUS
 62
     0
 10
1956.1077769999999
 20
2340.336880401524
 30
0.0
  0
POINT
  5
7E1A
  8
DEFPOINTS
  6
CONTINUOUS
 62
     0
 10
2322.916792
 20
2340.336880401524
 30
0.0
  0
ENDBLK
  5
7B5E
  8
0
  0
BLOCK
  8
0
  2
*D4
 70
     1
 10
0.0
 20
0.0
 30
0.0
  3
*D4
  1

  0
LINE
  5
7E1B
  8
3
  6
CONTINUOUS
 62
     0
 10
1830.006114
 20
2750.336880401524
 30
0.0
 11
2534.3813789999999
 21
2750.336880401524
 31
0.0
  0
LINE
  5
7E1C
  8
3
  6
CONTINUOUS
 62
     0
 10
1815.006114
 20
1543.336880401524
 30
0.0
 11
2534.3813789999999
 21
1543.336880401524
 31
0.0
  0
LINE
  5
7E1D
  8
3
  6
CONTINUOUS
 62
     0
 10
2514.3813789999999
 20
2710.336880401524
 30
0.0
 11
2514.3813789999999
 21
1583.336880401524
 31
0.0
  0
INSERT
  5
7E1E
  8
3
  6
CONTINUOUS
 62
     0
  2
_OPEN
 10
2514.3813789999999
 20
2750.336880401524
 30
0.0
 41
40.0
 42
40.0
 43
40.0
 50
90.0
  0
INSERT
  5
7E1F
  8
3
  6
CONTINUOUS
 62
     0
  2
_OPEN
 10
2514.3813789999999
 20
1543.336880401524
 30
0.0
 41
40.0
 42
40.0
 43
40.0
 50
270.0
  0
TEXT
  8
3
  40
60
  5
7EA5
  62
0
  72
0
  71
0
 10
2344.38
 20
2070.88
 30
0.000000
  1
1207
  0
POINT
  5
7E21
  8
DEFPOINTS
  6
CONTINUOUS
 62
     0
 10
1820.0061139999989
 20
2750.336880401524
 30
0.0
  0
POINT
  5
7E22
  8
DEFPOINTS
  6
CONTINUOUS
 62
     0
 10
1805.006114
 20
1543.336880401524
 30
0.0
  0
POINT
  5
7E23
  8
DEFPOINTS
  6
CONTINUOUS
 62
     0
 10
2514.3813789999999
 20
1543.336880401524
 30
0.0
  0
ENDBLK
  5
7B85
  8
0
  0
BLOCK
  8
0
  2
*D5
 70
     1
 10
0.0
 20
0.0
 30
0.0
  3
*D5
  1

  0
LINE
  5
7E24
  8
3
  6
CONTINUOUS
 62
     0
 10
3464.2641800000001
 20
2635.336880401524
 30
0.0
 11
3657.2789870000001
 21
2635.336880401524
 31
0.0
  0
LINE
  5
7E25
  8
3
  6
CONTINUOUS
 62
     0
 10
3466.2641799999992
 20
2045.336880401524
 30
0.0
 11
3657.2789870000001
 21
2045.336880401524
 31
0.0
  0
LINE
  5
7E26
  8
3
  6
CONTINUOUS
 62
     0
 10
3637.2789870000001
 20
2595.336880401524
 30
0.0
 11
3637.2789870000001
 21
2085.336880401524
 31
0.0
  0
INSERT
  5
7E27
  8
3
  6
CONTINUOUS
 62
     0
  2
_OPEN
 10
3637.2789870000001
 20
2635.336880401524
 30
0.0
 41
40.0
 42
40.0
 43
40.0
 50
90.0
  0
INSERT
  5
7E28
  8
3
  6
CONTINUOUS
 62
     0
  2
_OPEN
 10
3637.2789870000001
 20
2045.336880401524
 30
0.0
 41
40.0
 42
40.0
 43
40.0
 50
270.0
  0
TEXT
  8
3
  40
60
  5
7EA6
  62
0
  72
0
  71
0
 10
3467.28
 20
2234.27
 30
0.000000
  1
φ590
  0
POINT
  5
7E2A
  8
DEFPOINTS
  6
CONTINUOUS
 62
     0
 10
3454.2641800000001
 20
2635.336880401524
 30
0.0
  0
POINT
  5
7E2B
  8
DEFPOINTS
  6
CONTINUOUS
 62
     0
 10
3456.2641799999992
 20
2045.336880401524
 30
0.0
  0
POINT
  5
7E2C
  8
DEFPOINTS
  6
CONTINUOUS
 62
     0
 10
3637.2789870000001
 20
2045.336880401524
 30
0.0
  0
ENDBLK
  5
7D44
  8
0
  0
BLOCK
  8
0
  2
*D6
 70
     1
 10
0.0
 20
0.0
 30
0.0
  3
*D6
  1

  0
LINE
  5
7D30
  8
0
  6
BYBLOCK
 62
     0
 10
3456.2641799999992
 20
2670.336880401524
 30
0.0
 11
3456.2641799999992
 21
2932.0357274015241
 31
0.0
  0
LINE
  5
7D31
  8
0
  6
BYBLOCK
 62
     0
 10
3244.2641800000001
 20
2888.5241874015242
 30
0.0
 11
3244.2641800000001
 21
2932.0357274015241
 31
0.0
  0
LINE
  5
7D32
  8
0
  6
BYBLOCK
 62
     0
 10
3416.2641799999992
 20
2912.035727401525
 30
0.0
 11
3284.2641800000001
 21
2912.035727401525
 31
0.0
  0
TEXT
  5
7D33
  8
3
 62
     0
 10
3278.8356085714281
 20
2938.617039059689
 30
0.0
 40
60.0
  1
212
  0
INSERT
  5
7D34
  8
0
  6
BYBLOCK
 62
     0
  2
_OPEN
 10
3456.2641799999992
 20
2912.035727401525
 30
0.0
 41
40.0
 42
40.0
 43
40.0
  0
INSERT
  5
7D35
  8
0
  6
BYBLOCK
 62
     0
  2
_OPEN
 10
3244.2641800000001
 20
2912.035727401525
 30
0.0
 41
40.0
 42
40.0
 43
40.0
 50
180.0
  0
POINT
  5
7D36
  8
DEFPOINTS
  6
BYBLOCK
 62
     0
 10
3456.2641799999992
 20
2660.3368804015249
 30
0.0
  0
POINT
  5
7D37
  8
DEFPOINTS
  6
BYBLOCK
 62
     0
 10
3244.2641800000001
 20
2878.5241874015242
 30
0.0
  0
POINT
  5
7D38
  8
DEFPOINTS
  6
BYBLOCK
 62
     0
 10
3244.2641800000001
 20
2912.035727401525
 30
0.0
  0
ENDBLK
  5
7D39
  8
0
  0
BLOCK
  8
0
  2
*D7
 70
     1
 10
0.0
 20
0.0
 30
0.0
  3
*D7
  1

  0
LINE
  5
7E2D
  8
3
  6
CONTINUOUS
 62
     0
 10
2834.2641800000001
 20
2595.336880401524
 30
0.0
 11
2834.2641800000001
 21
2932.0357274015241
 31
0.0
  0
LINE
  5
7E2E
  8
3
  6
CONTINUOUS
 62
     0
 10
3204.2641800000001
 20
2912.035727401525
 30
0.0
 11
2874.2641800000001
 21
2912.035727401525
 31
0.0
  0
INSERT
  5
7E2F
  8
3
  6
CONTINUOUS
 62
     0
  2
_OPEN
 10
3244.2641800000001
 20
2912.035727401525
 30
0.0
 41
40.0
 42
40.0
 43
40.0
  0
INSERT
  5
7E30
  8
3
  6
CONTINUOUS
 62
     0
  2
_OPEN
 10
2834.2641800000001
 20
2912.035727401525
 30
0.0
 41
40.0
 42
40.0
 43
40.0
 50
180.0
  0
TEXT
  8
3
  40
60
  5
7EA7
  62
0
  72
0
  71
0
 10
2919.26
 20
2905.84
 30
0.000000
  1
MAX
  0
TEXT
  8
3
  40
60
  5
7EA8
  62
0
  72
0
  71
0
 10
2919.26
 20
2827.84
 30
0.000000
  1
470
  0
POINT
  5
7E32
  8
DEFPOINTS
  6
CONTINUOUS
 62
     0
 10
3244.2641800000001
 20
2878.5241874015242
 30
0.0
  0
POINT
  5
7E33
  8
DEFPOINTS
  6
CONTINUOUS
 62
     0
 10
2834.2641800000001
 20
2585.336880401524
 30
0.0
  0
POINT
  5
7E34
  8
DEFPOINTS
  6
CONTINUOUS
 62
     0
 10
2834.2641800000001
 20
2912.035727401525
 30
0.0
  0
ENDBLK
  5
7DBA
  8
0
  0
BLOCK
  8
0
  2
*D8
 70
     1
 10
0.0
 20
0.0
 30
0.0
  3
*D8
  1

  0
LINE
  5
7E35
  8
3
  6
CONTINUOUS
 62
     0
 10
2799.2641800000001
 20
1533.336880401524
 30
0.0
 11
2799.2641800000001
 21
1369.0331724015241
 31
0.0
  0
LINE
  5
7E36
  8
3
  6
CONTINUOUS
 62
     0
 10
3244.2641800000001
 20
1409.716038592509
 30
0.0
 11
3244.2641800000001
 21
1369.0331724015241
 31
0.0
  0
LINE
  5
7E37
  8
3
  6
CONTINUOUS
 62
     0
 10
2839.2641800000001
 20
1389.0331724015241
 30
0.0
 11
3204.2641800000001
 21
1389.0331724015241
 31
0.0
  0
INSERT
  5
7E38
  8
3
  6
CONTINUOUS
 62
     0
  2
_OPEN
 10
2799.2641800000001
 20
1389.0331724015241
 30
0.0
 41
40.0
 42
40.0
 43
40.0
 50
180.0
  0
INSERT
  5
7E39
  8
3
  6
CONTINUOUS
 62
     0
  2
_OPEN
 10
3244.2641800000001
 20
1389.0331724015241
 30
0.0
 41
40.0
 42
40.0
 43
40.0
  0
TEXT
  8
3
  40
60
  5
7EA9
  62
0
  72
0
  71
0
 10
2903.00
 20
1332.83
 30
0.000000
  1
445
  0
POINT
  5
7E3B
  8
DEFPOINTS
  6
CONTINUOUS
 62
     0
 10
2799.2641800000001
 20
1543.336880401524
 30
0.0
  0
POINT
  5
7E3C
  8
DEFPOINTS
  6
CONTINUOUS
 62
     0
 10
3244.2641800000001
 20
1419.7160385925081
 30
0.0
  0
POINT
  5
7E3D
  8
DEFPOINTS
  6
CONTINUOUS
 62
     0
 10
3244.2641800000001
 20
1389.0331724015241
 30
0.0
  0
ENDBLK
  5
7DDC
  8
0
  0
BLOCK
  8
0
  2
*D9
 70
     1
 10
0.0
 20
0.0
 30
0.0
  3
*D9
  1

  0
LINE
  5
7E3E
  8
3
  6
CONTINUOUS
 62
     0
 10
3579.2641800000001
 20
1533.336880401524
 30
0.0
 11
3579.2641800000001
 21
1369.0331724015241
 31
0.0
  0
LINE
  5
7E3F
  8
3
  6
CONTINUOUS
 62
     0
 10
3284.2641800000001
 20
1389.0331724015241
 30
0.0
 11
3539.2641799999992
 21
1389.0331724015241
 31
0.0
  0
INSERT
  5
7E40
  8
3
  6
CONTINUOUS
 62
     0
  2
_OPEN
 10
3244.2641800000001
 20
1389.0331724015241
 30
0.0
 41
40.0
 42
40.0
 43
40.0
 50
180.0
  0
INSERT
  5
7E41
  8
3
  6
CONTINUOUS
 62
     0
  2
_OPEN
 10
3579.2641800000001
 20
1389.0331724015241
 30
0.0
 41
40.0
 42
40.0
 43
40.0
  0
TEXT
  8
3
  40
60
  5
7EAA
  62
0
  72
0
  71
0
 10
3291.76
 20
1332.83
 30
0.000000
  1
335
  0
POINT
  5
7E43
  8
DEFPOINTS
  6
CONTINUOUS
 62
     0
 10
3244.2641800000001
 20
1390.074591401524
 30
0.0
  0
POINT
  5
7E44
  8
DEFPOINTS
  6
CONTINUOUS
 62
     0
 10
3579.2641800000001
 20
1543.336880401524
 30
0.0
  0
POINT
  5
7E45
  8
DEFPOINTS
  6
CONTINUOUS
 62
     0
 10
3579.2641800000001
 20
1389.0331724015241
 30
0.0
  0
ENDBLK
  5
7CAB
  8
0
  0
BLOCK
  8
0
  2
*D10
 70
     1
 10
0.0
 20
0.0
 30
0.0
  3
*D10
  1

  0
LINE
  5
7E46
  8
3
  6
CONTINUOUS
 62
     0
 10
555.00611399999968
 20
4311.8810024015238
 30
0.0
 11
555.00611399999968
 21
4444.6865524015248
 31
0.0
  0
LINE
  5
7E47
  8
3
  6
CONTINUOUS
 62
     0
 10
1805.006114
 20
4311.8810024015238
 30
0.0
 11
1805.006114
 21
4444.6865524015248
 31
0.0
  0
LINE
  5
7E48
  8
3
  6
CONTINUOUS
 62
     0
 10
595.0061139999998
 20
4424.6865524015238
 30
0.0
 11
1765.006114
 21
4424.6865524015238
 31
0.0
  0
INSERT
  5
7E49
  8
3
  6
CONTINUOUS
 62
     0
  2
_OPEN
 10
555.00611399999968
 20
4424.6865524015238
 30
0.0
 41
40.0
 42
40.0
 43
40.0
 50
180.0
  0
INSERT
  5
7E4A
  8
3
  6
CONTINUOUS
 62
     0
  2
_OPEN
 10
1805.006114
 20
4424.6865524015238
 30
0.0
 41
40.0
 42
40.0
 43
40.0
  0
TEXT
  8
3
  40
60
  5
7EAB
  62
0
  72
0
  71
0
 10
1074.07
 20
4368.49
 30
0.000000
  1
1250
  0
POINT
  5
7E4C
  8
DEFPOINTS
  6
CONTINUOUS
 62
     0
 10
555.00611399999968
 20
4301.8810024015247
 30
0.0
  0
POINT
  5
7E4D
  8
DEFPOINTS
  6
CONTINUOUS
 62
     0
 10
1805.006114
 20
4301.8810024015247
 30
0.0
  0
POINT
  5
7E4E
  8
DEFPOINTS
  6
CONTINUOUS
 62
     0
 10
1805.006114
 20
4424.6865524015238
 30
0.0
  0
ENDBLK
  5
7CA1
  8
0
  0
BLOCK
  8
0
  2
*D11
 70
     1
 10
0.0
 20
0.0
 30
0.0
  3
*D11
  1

  0
LINE
  5
7E4F
  8
3
  6
CONTINUOUS
 62
     0
 10
1815.006114
 20
4301.8810024015247
 30
0.0
 11
2079.6529959999998
 21
4301.8810024015238
 31
0.0
  0
LINE
  5
7E50
  8
3
  6
CONTINUOUS
 62
     0
 10
1815.006114
 20
3521.8810024015238
 30
0.0
 11
2079.6529959999998
 21
3521.8810024015238
 31
0.0
  0
LINE
  5
7E51
  8
3
  6
CONTINUOUS
 62
     0
 10
2059.6529959999998
 20
4261.8810024015238
 30
0.0
 11
2059.6529959999998
 21
3561.8810024015238
 31
0.0
  0
INSERT
  5
7E52
  8
3
  6
CONTINUOUS
 62
     0
  2
_OPEN
 10
2059.6529959999998
 20
4301.8810024015238
 30
0.0
 41
40.0
 42
40.0
 43
40.0
 50
90.0
  0
INSERT
  5
7E53
  8
3
  6
CONTINUOUS
 62
     0
  2
_OPEN
 10
2059.6529959999998
 20
3521.8810024015238
 30
0.0
 41
40.0
 42
40.0
 43
40.0
 50
270.0
  0
TEXT
  8
3
  40
60
  5
7EAC
  62
0
  72
0
  71
0
 10
1889.65
 20
3793.24
 30
0.000000
  1
780
  0
POINT
  5
7E55
  8
DEFPOINTS
  6
CONTINUOUS
 62
     0
 10
1805.006114
 20
4301.8810024015247
 30
0.0
  0
POINT
  5
7E56
  8
DEFPOINTS
  6
CONTINUOUS
 62
     0
 10
1805.006114
 20
3521.8810024015238
 30
0.0
  0
POINT
  5
7E57
  8
DEFPOINTS
  6
CONTINUOUS
 62
     0
 10
2059.6529959999998
 20
3521.8810024015238
 30
0.0
  0
ENDBLK
  5
7BEF
  8
0
  0
BLOCK
  8
0
  2
*D12
 70
     1
 10
0.0
 20
0.0
 30
0.0
  3
*D12
  1

  0
LINE
  5
7E58
  8
3
  6
CONTINUOUS
 62
     0
 10
997.0061139999998
 20
2350.336880401524
 30
0.0
 11
997.0061139999998
 21
2872.5628904015248
 31
0.0
  0
LINE
  5
7E59
  8
3
  6
CONTINUOUS
 62
     0
 10
1460.006114
 20
2834.165185401524
 30
0.0
 11
1460.006114
 21
2872.5628904015248
 31
0.0
  0
LINE
  5
7E5A
  8
3
  6
CONTINUOUS
 62
     0
 10
1037.0061139999989
 20
2852.5628904015248
 30
0.0
 11
1420.006114
 21
2852.5628904015248
 31
0.0
  0
INSERT
  5
7E5B
  8
3
  6
CONTINUOUS
 62
     0
  2
_OPEN
 10
997.0061139999998
 20
2852.5628904015248
 30
0.0
 41
40.0
 42
40.0
 43
40.0
 50
180.0
  0
INSERT
  5
7E5C
  8
3
  6
CONTINUOUS
 62
     0
  2
_OPEN
 10
1460.006114
 20
2852.5628904015248
 30
0.0
 41
40.0
 42
40.0
 43
40.0
  0
TEXT
  8
3
  40
60
  5
7EAD
  62
0
  72
0
  71
0
 10
1109.08
 20
2796.36
 30
0.000000
  1
463
  0
POINT
  5
7E5E
  8
DEFPOINTS
  6
CONTINUOUS
 62
     0
 10
997.0061139999998
 20
2340.336880401524
 30
0.0
  0
POINT
  5
7E5F
  8
DEFPOINTS
  6
CONTINUOUS
 62
     0
 10
1460.006114
 20
2824.165185401524
 30
0.0
  0
POINT
  5
7E60
  8
DEFPOINTS
  6
CONTINUOUS
 62
     0
 10
1460.006114
 20
2852.5628904015248
 30
0.0
  0
ENDBLK
  5
7C02
  8
0
  0
BLOCK
  8
0
  2
*D13
 70
     1
 10
0.0
 20
0.0
 30
0.0
  3
*D13
  1

  0
LINE
  5
7E61
  8
3
  6
CONTINUOUS
 62
     0
 10
1865.006114
 20
2398.336880401524
 30
0.0
 11
1865.006114
 21
2872.5628904015248
 31
0.0
  0
LINE
  5
7E62
  8
3
  6
CONTINUOUS
 62
     0
 10
1500.006114
 20
2852.5628904015248
 30
0.0
 11
1825.0061139999989
 21
2852.5628904015248
 31
0.0
  0
INSERT
  5
7E63
  8
3
  6
CONTINUOUS
 62
     0
  2
_OPEN
 10
1460.006114
 20
2852.5628904015248
 30
0.0
 41
40.0
 42
40.0
 43
40.0
 50
180.0
  0
INSERT
  5
7E64
  8
3
  6
CONTINUOUS
 62
     0
  2
_OPEN
 10
1865.006114
 20
2852.5628904015248
 30
0.0
 41
40.0
 42
40.0
 43
40.0
  0
TEXT
  8
3
  40
60
  5
7EAE
  62
0
  72
0
  71
0
 10
1542.51
 20
2796.36
 30
0.000000
  1
405
  0
POINT
  5
7E66
  8
DEFPOINTS
  6
CONTINUOUS
 62
     0
 10
1460.006114
 20
2824.165185401524
 30
0.0
  0
POINT
  5
7E67
  8
DEFPOINTS
  6
CONTINUOUS
 62
     0
 10
1865.006114
 20
2388.336880401524
 30
0.0
  0
POINT
  5
7E68
  8
DEFPOINTS
  6
CONTINUOUS
 62
     0
 10
1865.006114
 20
2852.5628904015248
 30
0.0
  0
ENDBLK
  5
7C0E
  8
0
  0
BLOCK
  8
0
  2
*D14
 70
     1
 10
0.0
 20
0.0
 30
0.0
  3
*D14
  1

  0
LINE
  5
7E69
  8
3
  6
CONTINUOUS
 62
     0
 10
555.00611399999968
 20
1533.336880401524
 30
0.0
 11
555.00611399999968
 21
1359.798757401524
 31
0.0
  0
LINE
  5
7E6A
  8
3
  6
CONTINUOUS
 62
     0
 10
1460.006114
 20
1468.6544604015239
 30
0.0
 11
1460.006114
 21
1359.798757401524
 31
0.0
  0
LINE
  5
7E6B
  8
3
  6
CONTINUOUS
 62
     0
 10
595.0061139999998
 20
1379.798757401524
 30
0.0
 11
1420.006114
 21
1379.798757401524
 31
0.0
  0
INSERT
  5
7E6C
  8
3
  6
CONTINUOUS
 62
     0
  2
_OPEN
 10
555.00611399999968
 20
1379.798757401524
 30
0.0
 41
40.0
 42
40.0
 43
40.0
 50
180.0
  0
INSERT
  5
7E6D
  8
3
  6
CONTINUOUS
 62
     0
  2
_OPEN
 10
1460.006114
 20
1379.798757401524
 30
0.0
 41
40.0
 42
40.0
 43
40.0
  0
TEXT
  8
3
  40
60
  5
7EAF
  62
0
  72
0
  71
0
 10
874.761
 20
1323.60
 30
0.000000
  1
905
  0
POINT
  5
7E6F
  8
DEFPOINTS
  6
CONTINUOUS
 62
     0
 10
555.00611399999968
 20
1543.336880401524
 30
0.0
  0
POINT
  5
7E70
  8
DEFPOINTS
  6
CONTINUOUS
 62
     0
 10
1460.006114
 20
1478.6544604015239
 30
0.0
  0
POINT
  5
7E71
  8
DEFPOINTS
  6
CONTINUOUS
 62
     0
 10
1460.006114
 20
1379.798757401524
 30
0.0
  0
ENDBLK
  5
7C1B
  8
0
  0
BLOCK
  8
0
  2
*D15
 70
     1
 10
0.0
 20
0.0
 30
0.0
  3
*D15
  1

  0
LINE
  5
7E72
  8
3
  6
CONTINUOUS
 62
     0
 10
1805.006114
 20
1533.336880401524
 30
0.0
 11
1805.006114
 21
1359.798757401524
 31
0.0
  0
LINE
  5
7E73
  8
3
  6
CONTINUOUS
 62
     0
 10
1500.006114
 20
1379.798757401524
 30
0.0
 11
1765.006114
 21
1379.798757401524
 31
0.0
  0
INSERT
  5
7E74
  8
3
  6
CONTINUOUS
 62
     0
  2
_OPEN
 10
1460.006114
 20
1379.798757401524
 30
0.0
 41
40.0
 42
40.0
 43
40.0
 50
180.0
  0
INSERT
  5
7E75
  8
3
  6
CONTINUOUS
 62
     0
  2
_OPEN
 10
1805.006114
 20
1379.798757401524
 30
0.0
 41
40.0
 42
40.0
 43
40.0
  0
TEXT
  8
3
  40
60
  5
7EB0
  62
0
  72
0
  71
0
 10
1512.51
 20
1323.60
 30
0.000000
  1
345
  0
POINT
  5
7E77
  8
DEFPOINTS
  6
CONTINUOUS
 62
     0
 10
1460.006114
 20
1478.6544604015239
 30
0.0
  0
POINT
  5
7E78
  8
DEFPOINTS
  6
CONTINUOUS
 62
     0
 10
1805.006114
 20
1543.336880401524
 30
0.0
  0
POINT
  5
7E79
  8
DEFPOINTS
  6
CONTINUOUS
 62
     0
 10
1805.006114
 20
1379.798757401524
 30
0.0
  0
ENDBLK
  5
7C3F
  8
0
  0
BLOCK
  8
0
  2
*D16
 70
     1
 10
0.0
 20
0.0
 30
0.0
  3
*D16
  1

  0
LINE
  5
7E7A
  8
3
  6
CONTINUOUS
 62
     0
 10
1815.006114
 20
1670.336880401524
 30
0.0
 11
2342.916792
 21
1670.336880401524
 31
0.0
  0
LINE
  5
7E7B
  8
3
  6
CONTINUOUS
 62
     0
 10
2322.916792
 20
2300.336880401524
 30
0.0
 11
2322.916792
 21
1710.336880401524
 31
0.0
  0
INSERT
  5
7E7C
  8
3
  6
CONTINUOUS
 62
     0
  2
_OPEN
 10
2322.916792
 20
2340.336880401524
 30
0.0
 41
40.0
 42
40.0
 43
40.0
 50
90.0
  0
INSERT
  5
7E7D
  8
3
  6
CONTINUOUS
 62
     0
  2
_OPEN
 10
2322.916792
 20
1670.336880401524
 30
0.0
 41
40.0
 42
40.0
 43
40.0
 50
270.0
  0
TEXT
  8
3
  40
60
  5
7EB1
  62
0
  72
0
  71
0
 10
2152.92
 20
1899.14
 30
0.000000
  1
670
  0
POINT
  5
7E7F
  8
DEFPOINTS
  6
CONTINUOUS
 62
     0
 10
1956.1077769999999
 20
2340.336880401524
 30
0.0
  0
POINT
  5
7E80
  8
DEFPOINTS
  6
CONTINUOUS
 62
     0
 10
1805.006114
 20
1670.336880401524
 30
0.0
  0
POINT
  5
7E81
  8
DEFPOINTS
  6
CONTINUOUS
 62
     0
 10
2322.916792
 20
1670.336880401524
 30
0.0
  0
ENDBLK
  5
7C4B
  8
0
  0
BLOCK
  8
0
  2
*D17
 70
     1
 10
0.0
 20
0.0
 30
0.0
  3
*D17
  1

  0
LINE
  5
7DA1
  8
0
  6
BYBLOCK
 62
     0
 10
1815.006114
 20
1583.336880401524
 30
0.0
 11
2342.916792
 21
1583.336880401524
 31
0.0
  0
LINE
  5
7DA2
  8
0
  6
BYBLOCK
 62
     0
 10
2322.916792
 20
1710.336880401524
 30
0.0
 11
2322.916792
 21
1750.336880401524
 31
0.0
  0
LINE
  5
7DA3
  8
0
  6
BYBLOCK
 62
     0
 10
2322.916792
 20
1543.336880401524
 30
0.0
 11
2322.916792
 21
1503.336880401524
 31
0.0
  0
TEXT
  5
7DA4
  8
3
 62
     0
 10
2440.113731499699
 20
1597.6819028300949
 30
0.0
 40
60.0
  1
87
 50
90.0
  0
LINE
  5
7DA5
  8
0
  6
BYBLOCK
 62
     0
 10
2322.916792
 20
1670.336880401524
 30
0.0
 11
2322.916792
 21
1583.336880401524
 31
0.0
  0
INSERT
  5
7DA6
  8
0
  6
BYBLOCK
 62
     0
  2
_OPEN
 10
2322.916792
 20
1670.336880401524
 30
0.0
 41
40.0
 42
40.0
 43
40.0
 50
270.0
  0
INSERT
  5
7DA7
  8
0
  6
BYBLOCK
 62
     0
  2
_DOT
 10
2322.916792
 20
1583.336880401524
 30
0.0
 41
40.0
 42
40.0
 43
40.0
 50
90.0
  0
POINT
  5
7DA8
  8
DEFPOINTS
  6
BYBLOCK
 62
     0
 10
1805.006114
 20
1670.336880401524
 30
0.0
  0
POINT
  5
7DA9
  8
DEFPOINTS
  6
BYBLOCK
 62
     0
 10
1805.006114
 20
1583.336880401524
 30
0.0
  0
POINT
  5
7DAA
  8
DEFPOINTS
  6
BYBLOCK
 62
     0
 10
2322.916792
 20
1583.336880401524
 30
0.0
  0
ENDBLK
  5
7DAB
  8
0
  0
BLOCK
  8
0
  2
*D18
 70
     1
 10
0.0
 20
0.0
 30
0.0
  3
*D18
  1

  0
LINE
  5
7E82
  8
3
  6
CONTINUOUS
 62
     0
 10
1815.006114
 20
1583.336880401524
 30
0.0
 11
2342.916792
 21
1583.336880401524
 31
0.0
  0
LINE
  5
7E83
  8
3
  6
CONTINUOUS
 62
     0
 10
1815.006114
 20
1543.336880401524
 30
0.0
 11
2342.916792
 21
1543.336880401524
 31
0.0
  0
LINE
  5
7E84
  8
3
  6
CONTINUOUS
 62
     0
 10
2322.916792
 20
1623.336880401524
 30
0.0
 11
2322.916792
 21
1663.336880401524
 31
0.0
  0
LINE
  5
7E85
  8
3
  6
CONTINUOUS
 62
     0
 10
2322.916792
 20
1503.336880401524
 30
0.0
 11
2322.916792
 21
1326.1940232586669
 31
0.0
  0
LINE
  5
7E86
  8
3
  6
CONTINUOUS
 62
     0
 10
2322.916792
 20
1583.336880401524
 30
0.0
 11
2322.916792
 21
1543.336880401524
 31
0.0
  0
INSERT
  5
7E87
  8
3
  6
CONTINUOUS
 62
     0
  2
_DOT
 10
2322.916792
 20
1583.336880401524
 30
0.0
 41
40.0
 42
40.0
 43
40.0
 50
270.0
  0
INSERT
  5
7E88
  8
3
  6
CONTINUOUS
 62
     0
  2
_OPEN
 10
2322.916792
 20
1543.336880401524
 30
0.0
 41
40.0
 42
40.0
 43
40.0
 50
90.0
  0
TEXT
  8
3
  40
60
  5
7EB2
  62
0
  72
0
  71
0
 10
2152.92
 20
1288.57
 30
0.000000
  1
40
  0
POINT
  5
7E8A
  8
DEFPOINTS
  6
CONTINUOUS
 62
     0
 10
1805.006114
 20
1583.336880401524
 30
0.0
  0
POINT
  5
7E8B
  8
DEFPOINTS
  6
CONTINUOUS
 62
     0
 10
1805.006114
 20
1543.336880401524
 30
0.0
  0
POINT
  5
7E8C
  8
DEFPOINTS
  6
CONTINUOUS
 62
     0
 10
2322.916792
 20
1543.336880401524
 30
0.0
  0
ENDBLK
  5
7D9F
  8
0
  0
BLOCK
  8
0
  2
*D19
 70
     1
 10
0.0
 20
0.0
 30
0.0
  3
*D19
  1

  0
LINE
  5
7E8D
  8
3
  6
CONTINUOUS
 62
     0
 10
3034.2641800000001
 20
2709.336880401524
 30
0.0
 11
3034.2641800000001
 21
2805.266456401524
 31
0.0
  0
LINE
  5
7E8E
  8
3
  6
CONTINUOUS
 62
     0
 10
3454.2641800000001
 20
2709.336880401524
 30
0.0
 11
3454.2641800000001
 21
2805.266456401524
 31
0.0
  0
LINE
  5
7E8F
  8
3
  6
CONTINUOUS
 62
     0
 10
3074.2641800000001
 20
2785.266456401524
 30
0.0
 11
3414.2641799999992
 21
2785.266456401524
 31
0.0
  0
INSERT
  5
7E90
  8
3
  6
CONTINUOUS
 62
     0
  2
_OPEN
 10
3034.2641800000001
 20
2785.266456401524
 30
0.0
 41
40.0
 42
40.0
 43
40.0
 50
180.0
  0
INSERT
  5
7E91
  8
3
  6
CONTINUOUS
 62
     0
  2
_OPEN
 10
3454.2641800000001
 20
2785.266456401524
 30
0.0
 41
40.0
 42
40.0
 43
40.0
  0
TEXT
  8
3
  40
60
  5
7EB3
  62
0
  72
0
  71
0
 10
3116.65
 20
2729.07
 30
0.000000
  1
420
  0
POINT
  5
7E93
  8
DEFPOINTS
  6
CONTINUOUS
 62
     0
 10
3034.2641800000001
 20
2699.336880401524
 30
0.0
  0
POINT
  5
7E94
  8
DEFPOINTS
  6
CONTINUOUS
 62
     0
 10
3454.2641800000001
 20
2699.336880401524
 30
0.0
  0
POINT
  5
7E95
  8
DEFPOINTS
  6
CONTINUOUS
 62
     0
 10
3454.2641800000001
 20
2785.266456401524
 30
0.0
  0
ENDBLK
  5
7CFB
  8
0
  0
BLOCK
  8
0
  2
_DOT
 70
     0
 10
0.0
 20
0.0
 30
0.0
  3
_DOT
  1

  0
LINE
  5
7DAC
  8
0
  6
BYBLOCK
 62
     0
 10
0.0
 20
0.0
 30
0.0
 11
-1.0
 21
-0.0000000000000284
 31
0.0
  0
POLYLINE
  5
7DAD
  8
0
  6
BYBLOCK
 62
     0
 66
     1
 10
0.0
 20
0.0
 30
0.0
 70
     1
 40
0.1666666666666666
 41
0.1666666666666666
  0
VERTEX
  5
7E96
  8
0
  6
BYBLOCK
 62
     0
 10
-0.0833333333333286
 20
-0.0000000000000284
 30
0.0
 42
1.0
  0
VERTEX
  5
7E97
  8
0
  6
BYBLOCK
 62
     0
 10
0.0833333333333286
 20
-0.0000000000000284
 30
0.0
 42
1.0
  0
SEQEND
  5
7E98
  8
0
  6
BYBLOCK
 62
     0
  0
ENDBLK
  5
7D86
  8
0
  0
BLOCK
  8
0
  2
*D21
 70
     1
 10
0.0
 20
0.0
 30
0.0
  3
*D21
  1

  0
LINE
  5
7E99
  8
3
 62
     0
 10
1865.006114
 20
2398.336880401524
 30
0.0
 11
1865.006114
 21
2993.0570208269492
 31
0.0
  0
LINE
  5
7E9A
  8
3
 62
     0
 10
555.00611399999968
 20
1760.336880401524
 30
0.0
 11
555.00611399999991
 21
2993.0570208269492
 31
0.0
  0
LINE
  5
7E9B
  8
3
 62
     0
 10
1825.0061139999989
 20
2973.0570208269492
 30
0.0
 11
595.0061139999998
 21
2973.0570208269492
 31
0.0
  0
INSERT
  5
7E9C
  8
3
 62
     0
  2
_OPEN
 10
1865.006114
 20
2973.0570208269492
 30
0.0
 41
40.0
 42
40.0
 43
40.0
  0
INSERT
  5
7E9D
  8
3
 62
     0
  2
_OPEN
 10
555.00611399999991
 20
2973.0570208269492
 30
0.0
 41
40.0
 42
40.0
 43
40.0
 50
180.0
  0
TEXT
  8
3
  40
60
  5
7EB4
  62
0
  72
0
  71
0
 10
1103.66
 20
2916.86
 30
0.000000
  1
1310
  0
POINT
  5
7E9F
  8
DEFPOINTS
 62
     0
 10
1865.006114
 20
2388.336880401524
 30
0.0
  0
POINT
  5
7EA0
  8
DEFPOINTS
 62
     0
 10
555.00611399999968
 20
1750.336880401524
 30
0.0
  0
POINT
  5
7EA1
  8
DEFPOINTS
 62
     0
 10
555.00611399999991
 20
2973.0570208269492
 30
0.0
  0
ENDBLK
  5
7DC6
  8
0
  0
ENDSEC
  0
SECTION
  2
ENTITIES
  0
LINE
  5
7A83
  8
1
  6
CONTINUOUS
 10
3579.2641800000001
 20
1543.336880401524
 30
0.0
 11
2799.2641800000001
 21
1543.336880401524
 31
0.0
  0
LINE
  5
7A84
  8
1
  6
CONTINUOUS
 10
3034.2641800000001
 20
2361.336880401524
 30
0.0
 11
3454.2641800000001
 21
2361.336880401524
 31
0.0
  0
LINE
  5
7A85
  8
1
  6
CONTINUOUS
 10
3034.2641800000001
 20
1801.336880401524
 30
0.0
 11
3454.2641800000001
 21
1801.336880401524
 31
0.0
  0
LINE
  5
7A86
  8
1
  6
CONTINUOUS
 10
3499.2641799999992
 20
1670.336880401524
 30
0.0
 11
2989.2641800000001
 21
1670.336880401524
 31
0.0
  0
LINE
  5
7A87
  8
1
  6
CONTINUOUS
 10
3499.2641799999992
 20
1750.336880401524
 30
0.0
 11
2834.2641800000001
 21
1750.336880401524
 31
0.0
  0
LINE
  5
7A88
  8
1
  6
CONTINUOUS
 10
3034.2641800000001
 20
2699.336880401524
 30
0.0
 11
3454.2641800000001
 21
2699.336880401524
 31
0.0
  0
LINE
  5
7A89
  8
1
  6
CONTINUOUS
 10
3034.2641800000001
 20
2361.336880401524
 30
0.0
 11
3454.2641800000001
 21
1801.336880401524
 31
0.0
  0
LINE
  5
7A8A
  8
1
  6
CONTINUOUS
 10
3034.2641800000001
 20
1801.336880401524
 30
0.0
 11
3454.2641800000001
 21
2361.336880401524
 31
0.0
  0
LINE
  5
7A8B
  8
1
  6
CONTINUOUS
 10
3499.2641799999992
 20
1648.336880401524
 30
0.0
 11
2989.2641800000001
 21
1648.336880401524
 31
0.0
  0
LINE
  5
7A8C
  8
1
  6
CONTINUOUS
 10
3579.2641800000001
 20
1583.336880401524
 30
0.0
 11
2799.2641800000001
 21
1583.336880401524
 31
0.0
  0
LINE
  5
7A8D
  8
1
  6
CONTINUOUS
 10
792.99215499999991
 20
1870.596123401524
 30
0.0
 11
1507.1290300000001
 21
2252.135798401524
 31
0.0
  0
LINE
  5
7A8E
  8
1
  6
CONTINUOUS
 10
722.54153299999996
 20
1991.467288401524
 30
0.0
 11
1406.4852840000001
 21
2424.8088924015242
 31
0.0
  0
LINE
  5
7A8F
  8
1
  6
CONTINUOUS
 10
1820.0061139999989
 20
1750.336880401524
 30
0.0
 11
555.00611399999968
 21
1750.336880401524
 31
0.0
  0
LINE
  5
7A90
  8
1
  6
CONTINUOUS
 10
1460.506114
 20
2585.336880401524
 30
0.0
 11
600.50611399999968
 21
1980.336880401524
 31
0.0
  0
LINE
  5
7A91
  8
1
  6
CONTINUOUS
 10
1805.006114
 20
1670.336880401524
 30
0.0
 11
555.00611399999968
 21
1670.336880401524
 31
0.0
  0
CIRCLE
  5
7A92
  8
1
  6
CONTINUOUS
 10
1460.006114
 20
2340.336880401524
 30
0.0
 40
295.0
  0
LINE
  5
7A93
  8
2
  6
CENTER
 10
3525.5913019999998
 20
2340.336880401524
 30
0.0
 11
2782.5112840000002
 21
2340.336880401524
 31
0.0
  0
CIRCLE
  5
7A94
  8
1
  6
CONTINUOUS
 10
1460.006114
 20
2340.336880401524
 30
0.0
 40
100.0
  0
CIRCLE
  5
7A95
  8
1
  6
CONTINUOUS
 10
1460.006114
 20
2340.336880401524
 30
0.0
 40
320.0
  0
LINE
  5
7A96
  8
1
  6
CONTINUOUS
 10
1820.0061139999989
 20
1750.336880401524
 30
0.0
 11
1100.0061139999989
 21
1750.336880401524
 31
0.0
  0
LINE
  5
7A97
  8
1
  6
CONTINUOUS
 10
1820.0061139999989
 20
2750.336880401524
 30
0.0
 11
1100.0061139999989
 21
2750.336880401524
 31
0.0
  0
ARC
  5
7A98
  8
1
  6
CONTINUOUS
 10
1497.006114
 20
2303.336880401524
 30
0.0
 40
501.36713099999992
 50
174.95754899999989
 51
265.7678259999999
  0
ARC
  5
7A99
  8
1
  6
CONTINUOUS
 10
1429.006114
 20
2309.336880401524
 30
0.0
 40
433.10293799999999
 50
82.746804999999995
 51
174.95754899999989
  0
LINE
  5
7A9A
  8
1
  6
CONTINUOUS
 10
1805.006114
 20
1583.336880401524
 30
0.0
 11
555.00611399999968
 21
1583.336880401524
 31
0.0
  0
LINE
  5
7A9B
  8
1
  6
CONTINUOUS
 10
1805.006114
 20
1648.336880401524
 30
0.0
 11
555.00611399999968
 21
1648.336880401524
 31
0.0
  0
ARC
  5
7A9C
  8
1
  6
CONTINUOUS
 10
760.0061139999998
 20
1932.336880401524
 30
0.0
 40
142.0
 50
324.59875699999998
 51
215.40124299999999
  0
LINE
  5
7A9D
  8
2
  6
CENTER
 10
690.0061139999998
 20
1932.336880401524
 30
0.0
 11
830.0061139999998
 21
1932.336880401524
 31
0.0
  0
LINE
  5
7A9E
  8
1
  6
CONTINUOUS
 10
630.00611399999968
 20
1750.336880401524
 30
0.0
 11
890.0061139999998
 21
1750.336880401524
 31
0.0
  0
CIRCLE
  5
7A9F
  8
1
  6
CONTINUOUS
 10
760.0061139999998
 20
1932.336880401524
 30
0.0
 40
70.0
  0
LINE
  5
7AA0
  8
1
  6
CONTINUOUS
 10
595.0061139999998
 20
1583.336880401524
 30
0.0
 11
595.0061139999998
 21
1543.336880401524
 31
0.0
  0
LINE
  5
7AA1
  8
1
  6
CONTINUOUS
 10
555.00611399999968
 20
1648.336880401524
 30
0.0
 11
555.00611399999968
 21
1543.336880401524
 31
0.0
  0
LINE
  5
7AA2
  8
1
  6
CONTINUOUS
 10
595.0061139999998
 20
1543.336880401524
 30
0.0
 11
555.00611399999968
 21
1543.336880401524
 31
0.0
  0
LINE
  5
7AA3
  8
1
  6
CONTINUOUS
 10
600.50611399999968
 20
1750.336880401524
 30
0.0
 11
600.50611399999968
 21
1980.336880401524
 31
0.0
  0
LINE
  5
7AA4
  8
1
  6
CONTINUOUS
 10
555.00611399999968
 20
1750.336880401524
 30
0.0
 11
555.00611399999968
 21
1670.336880401524
 31
0.0
  0
LINE
  5
7AA5
  8
1
  6
CONTINUOUS
 10
630.00611399999968
 20
1815.336880401524
 30
0.0
 11
644.25975100000005
 21
1850.0764434015241
 31
0.0
  0
LINE
  5
7AA6
  8
1
  6
CONTINUOUS
 10
630.00611399999968
 20
1750.336880401524
 30
0.0
 11
630.00611399999968
 21
1815.336880401524
 31
0.0
  0
LINE
  5
7AA7
  8
1
  6
CONTINUOUS
 10
1100.0061139999989
 20
1750.336880401524
 30
0.0
 11
1100.0061139999989
 21
2750.336880401524
 31
0.0
  0
LINE
  5
7AA8
  8
2
  6
CENTER
 10
760.0061139999998
 20
1862.336880401524
 30
0.0
 11
760.0061139999998
 21
2002.336880401524
 31
0.0
  0
LINE
  5
7AA9
  8
1
  6
CONTINUOUS
 10
890.0061139999998
 20
1750.336880401524
 30
0.0
 11
890.0061139999998
 21
1815.336880401524
 31
0.0
  0
LINE
  5
7AAA
  8
1
  6
CONTINUOUS
 10
890.0061139999998
 20
1815.336880401524
 30
0.0
 11
875.75247699999989
 21
1850.0764434015241
 31
0.0
  0
LINE
  5
7AAC
  8
1
  6
CONTINUOUS
 10
1730.5061139999989
 20
1750.336880401524
 30
0.0
 11
1730.5061139999989
 21
2500.336880401524
 31
0.0
  0
LINE
  5
7AAD
  8
1
  6
CONTINUOUS
 10
1840.006114
 20
2361.336880401524
 30
0.0
 11
1840.006114
 21
1801.4603374015239
 31
0.0
  0
LINE
  5
7AAE
  8
1
  6
CONTINUOUS
 10
1820.0061139999989
 20
1750.336880401524
 30
0.0
 11
1820.0061139999989
 21
2750.336880401524
 31
0.0
  0
LINE
  5
7AAF
  8
1
  6
CONTINUOUS
 10
1865.006114
 20
2388.336880401524
 30
0.0
 11
1865.006114
 21
1774.336880401524
 31
0.0
  0
LINE
  5
7AB0
  8
1
  6
CONTINUOUS
 10
1865.006114
 20
1801.336880401524
 30
0.0
 11
1460.006114
 21
1803.336880401524
 31
0.0
  0
LINE
  5
7AB1
  8
1
  6
CONTINUOUS
 10
1765.006114
 20
1583.336880401524
 30
0.0
 11
1765.006114
 21
1543.336880401524
 31
0.0
  0
LINE
  5
7AB2
  8
1
  6
CONTINUOUS
 10
1805.006114
 20
1648.336880401524
 30
0.0
 11
1805.006114
 21
1543.336880401524
 31
0.0
  0
LINE
  5
7AB3
  8
1
  6
CONTINUOUS
 10
1805.006114
 20
1543.336880401524
 30
0.0
 11
1765.006114
 21
1543.336880401524
 31
0.0
  0
LINE
  5
7AB4
  8
1
  6
CONTINUOUS
 10
1805.006114
 20
1750.336880401524
 30
0.0
 11
1805.006114
 21
1670.336880401524
 31
0.0
  0
LINE
  5
7AB5
  8
1
  6
CONTINUOUS
 10
1730.5061139999989
 20
2500.336880401524
 30
0.0
 11
1460.506114
 21
2585.336880401524
 31
0.0
  0
ARC
  5
7AB6
  8
1
  6
CONTINUOUS
 10
1436.006114
 20
2364.336880401524
 30
0.0
 40
377.65927299999993
 50
359.54485699999992
 51
82.746804999999995
  0
LINE
  5
7AB7
  8
2
  6
CENTER
 10
1460.006114
 20
4308.3359434015247
 30
0.0
 11
1460.006114
 21
3469.1942924015252
 31
0.0
  0
LINE
  5
7AB8
  8
1
  6
CONTINUOUS
 10
1813.6534710000001
 20
2361.336880401524
 30
0.0
 11
1865.006114
 21
2361.336880401524
 31
0.0
  0
LINE
  5
7AB9
  8
1
  6
CONTINUOUS
 10
2834.2641800000001
 20
1750.336880401524
 30
0.0
 11
2834.2641800000001
 21
2585.336880401524
 31
0.0
  0
LINE
  5
7ABA
  8
1
  6
CONTINUOUS
 10
2954.2641800000001
 20
1750.336880401524
 30
0.0
 11
2954.2641800000001
 21
2585.336880401524
 31
0.0
  0
LINE
  5
7ABB
  8
1
  6
CONTINUOUS
 10
3034.2641800000001
 20
1750.336880401524
 30
0.0
 11
3034.2641800000001
 21
2699.336880401524
 31
0.0
  0
LINE
  5
7ABE
  8
1
  6
CONTINUOUS
 10
2924.2641800000001
 20
1948.336880401524
 30
0.0
 11
3034.2641800000001
 21
1948.336880401524
 31
0.0
  0
LINE
  5
7ABF
  8
1
  6
CONTINUOUS
 10
2924.2641800000001
 20
1916.336880401524
 30
0.0
 11
3034.2641800000001
 21
1916.336880401524
 31
0.0
  0
LINE
  5
7AC1
  8
1
  6
CONTINUOUS
 10
2799.2641800000001
 20
1583.336880401524
 30
0.0
 11
2799.2641800000001
 21
1543.336880401524
 31
0.0
  0
LINE
  5
7AC2
  8
1
  6
CONTINUOUS
 10
2864.2641800000001
 20
2002.336880401524
 30
0.0
 11
2924.2641800000001
 21
2002.336880401524
 31
0.0
  0
LINE
  5
7AC3
  8
1
  6
CONTINUOUS
 10
2864.2641800000001
 20
1862.336880401524
 30
0.0
 11
2924.2641800000001
 21
1862.336880401524
 31
0.0
  0
LINE
  5
7AC4
  8
1
  6
CONTINUOUS
 10
2864.2641800000001
 20
2002.336880401524
 30
0.0
 11
2864.2641800000001
 21
1862.336880401524
 31
0.0
  0
LINE
  5
7AC5
  8
1
  6
CONTINUOUS
 10
2924.2641800000001
 20
2002.336880401524
 30
0.0
 11
2924.2641800000001
 21
1862.336880401524
 31
0.0
  0
LINE
  5
7AC6
  8
1
  6
CONTINUOUS
 10
2989.2641800000001
 20
1670.336880401524
 30
0.0
 11
2989.2641800000001
 21
1750.336880401524
 31
0.0
  0
LINE
  5
7AC7
  8
1
  6
CONTINUOUS
 10
2989.2641800000001
 20
1583.336880401524
 30
0.0
 11
2989.2641800000001
 21
1648.336880401524
 31
0.0
  0
LINE
  5
7AC8
  8
1
  6
CONTINUOUS
 10
3034.2641800000001
 20
2356.336880401524
 30
0.0
 11
2924.2641800000001
 21
2356.336880401524
 31
0.0
  0
LINE
  5
7AC9
  8
1
  6
CONTINUOUS
 10
3034.2641800000001
 20
2324.336880401524
 30
0.0
 11
2924.2641800000001
 21
2324.336880401524
 31
0.0
  0
LINE
  5
7ACA
  8
1
  6
CONTINUOUS
 10
2864.2641800000001
 20
2440.336880401524
 30
0.0
 11
2924.2641800000001
 21
2440.336880401524
 31
0.0
  0
LINE
  5
7ACB
  8
1
  6
CONTINUOUS
 10
2864.2641800000001
 20
2240.336880401524
 30
0.0
 11
2924.2641800000001
 21
2240.336880401524
 31
0.0
  0
LINE
  5
7ACC
  8
1
  6
CONTINUOUS
 10
2864.2641800000001
 20
2440.336880401524
 30
0.0
 11
2864.2641800000001
 21
2240.336880401524
 31
0.0
  0
LINE
  5
7ACD
  8
1
  6
CONTINUOUS
 10
2924.2641800000001
 20
2440.336880401524
 30
0.0
 11
2924.2641800000001
 21
2240.336880401524
 31
0.0
  0
LINE
  5
7ACE
  8
1
  6
CONTINUOUS
 10
2834.2641800000001
 20
2585.336880401524
 30
0.0
 11
2954.2641800000001
 21
2585.336880401524
 31
0.0
  0
LINE
  5
7ACF
  8
1
  6
CONTINUOUS
 10
1780.006114
 20
4178.8810024015229
 30
0.0
 11
1140.0061139999989
 21
4178.8810024015229
 31
0.0
  0
LINE
  5
7AD0
  8
1
  6
CONTINUOUS
 10
1444.006114
 20
3711.8810024015238
 30
0.0
 11
779.00611399999968
 21
3711.8810024015238
 31
0.0
  0
LINE
  5
7AD1
  8
1
  6
CONTINUOUS
 10
1360.006114
 20
3586.8810024015238
 30
0.0
 11
1560.006114
 21
3586.8810024015238
 31
0.0
  0
LINE
  5
7AD2
  8
1
  6
CONTINUOUS
 10
1360.006114
 20
3646.8810024015238
 30
0.0
 11
1560.006114
 21
3646.8810024015238
 31
0.0
  0
LINE
  5
7AD3
  8
1
  6
CONTINUOUS
 10
1805.006114
 20
4221.8810024015238
 30
0.0
 11
555.00611399999968
 21
4221.8810024015238
 31
0.0
  0
LINE
  5
7AD4
  8
1
  6
CONTINUOUS
 10
1730.5061139999989
 20
3556.8810024015238
 30
0.0
 11
600.50611399999968
 21
3556.8810024015238
 31
0.0
  0
LINE
  5
7AD5
  8
1
  6
CONTINUOUS
 10
1730.5061139999989
 20
3676.8810024015238
 30
0.0
 11
600.50611399999968
 21
3676.8810024015238
 31
0.0
  0
LINE
  5
7AD6
  8
1
  6
CONTINUOUS
 10
995.63898299999994
 20
3756.8810024015238
 30
0.0
 11
1865.006114
 21
3756.8810024015238
 31
0.0
  0
LINE
  5
7AD7
  8
1
  6
CONTINUOUS
 10
995.63898299999994
 20
4176.8810024015238
 30
0.0
 11
1865.006114
 21
4176.8810024015238
 31
0.0
  0
LINE
  5
7AD8
  8
1
  6
CONTINUOUS
 10
618.0061139999998
 20
3730.6188354015248
 30
0.0
 11
902.00611399999968
 21
3730.6188354015248
 31
0.0
  0
LINE
  5
7AD9
  8
1
  6
CONTINUOUS
 10
618.0061139999998
 20
4130.6188354015239
 30
0.0
 11
902.00611399999968
 21
4130.6188354015239
 31
0.0
  0
LINE
  5
7ADA
  8
1
  6
CONTINUOUS
 10
690.0061139999998
 20
3646.8810024015238
 30
0.0
 11
830.0061139999998
 21
3646.8810024015238
 31
0.0
  0
LINE
  5
7ADB
  8
1
  6
CONTINUOUS
 10
690.0061139999998
 20
3586.8810024015238
 30
0.0
 11
830.0061139999998
 21
3586.8810024015238
 31
0.0
  0
LINE
  5
7ADC
  8
1
  6
CONTINUOUS
 10
618.0061139999998
 20
4130.6188354015239
 30
0.0
 11
618.0061139999998
 21
3730.6188354015248
 31
0.0
  0
LINE
  5
7ADD
  8
1
  6
CONTINUOUS
 10
555.00611399999968
 20
4301.8810024015247
 30
0.0
 11
555.00611399999968
 21
3521.8810024015238
 31
0.0
  0
LINE
  5
7ADE
  8
1
  6
CONTINUOUS
 10
741.0061139999998
 20
3711.8810024015238
 30
0.0
 11
555.00611399999968
 21
3711.8810024015238
 31
0.0
  0
LINE
  5
7ADF
  8
1
  6
CONTINUOUS
 10
600.50611399999968
 20
3556.8810024015238
 30
0.0
 11
600.50611399999968
 21
3676.8810024015238
 31
0.0
  0
LINE
  5
7AE0
  8
1
  6
CONTINUOUS
 10
595.0061139999998
 20
3521.8810024015238
 30
0.0
 11
555.00611399999968
 21
3521.8810024015238
 31
0.0
  0
LINE
  5
7AE1
  8
1
  6
CONTINUOUS
 10
595.0061139999998
 20
3711.8810024015238
 30
0.0
 11
595.0061139999998
 21
3521.8810024015238
 31
0.0
  0
LINE
  5
7AE2
  8
1
  6
CONTINUOUS
 10
741.0061139999998
 20
3646.8810024015238
 30
0.0
 11
741.0061139999998
 21
3730.6188354015248
 31
0.0
  0
LINE
  5
7AE3
  8
1
  6
CONTINUOUS
 10
690.0061139999998
 20
3586.8810024015238
 30
0.0
 11
690.0061139999998
 21
3646.8810024015238
 31
0.0
  0
LINE
  5
7AE4
  8
1
  6
CONTINUOUS
 10
595.0061139999998
 20
4301.8810024015247
 30
0.0
 11
555.00611399999968
 21
4301.8810024015247
 31
0.0
  0
LINE
  5
7AE5
  8
1
  6
CONTINUOUS
 10
595.0061139999998
 20
4301.8810024015247
 30
0.0
 11
595.0061139999998
 21
4221.8810024015238
 31
0.0
  0
LINE
  5
7AE6
  8
1
  6
CONTINUOUS
 10
902.00611399999968
 20
4130.6188354015239
 30
0.0
 11
902.00611399999968
 21
3730.6188354015248
 31
0.0
  0
LINE
  5
7AE7
  8
1
  6
CONTINUOUS
 10
995.63898299999994
 20
3756.8810024015238
 30
0.0
 11
995.63898299999994
 21
4176.8810024015238
 31
0.0
  0
LINE
  5
7AE8
  8
1
  6
CONTINUOUS
 10
779.00611399999968
 20
3646.8810024015238
 30
0.0
 11
779.00611399999968
 21
3730.6188354015248
 31
0.0
  0
LINE
  5
7AE9
  8
1
  6
CONTINUOUS
 10
830.0061139999998
 20
3586.8810024015238
 30
0.0
 11
830.0061139999998
 21
3646.8810024015238
 31
0.0
  0
LINE
  5
7AEA
  8
1
  6
CONTINUOUS
 10
1360.006114
 20
3586.8810024015238
 30
0.0
 11
1360.006114
 21
3646.8810024015238
 31
0.0
  0
LINE
  5
7AEB
  8
1
  6
CONTINUOUS
 10
1140.0061139999989
 20
4176.8810024015238
 30
0.0
 11
1140.0061139999989
 21
4178.8810024015229
 31
0.0
  0
LINE
  5
7AEC
  8
1
  6
CONTINUOUS
 10
1865.006114
 20
4203.8810024015238
 30
0.0
 11
1865.006114
 21
3729.8810024015238
 31
0.0
  0
LINE
  5
7AED
  8
1
  6
CONTINUOUS
 10
1840.006114
 20
4176.8810024015238
 30
0.0
 11
1840.006114
 21
3756.8810024015238
 31
0.0
  0
LINE
  5
7AEE
  8
1
  6
CONTINUOUS
 10
1805.006114
 20
3711.8810024015238
 30
0.0
 11
1476.006114
 21
3711.8810024015238
 31
0.0
  0
LINE
  5
7AEF
  8
1
  6
CONTINUOUS
 10
1444.006114
 20
3756.8810024015238
 30
0.0
 11
1444.006114
 21
3646.8810024015238
 31
0.0
  0
LINE
  5
7AF0
  8
1
  6
CONTINUOUS
 10
1476.006114
 20
3756.8810024015238
 30
0.0
 11
1476.006114
 21
3646.8810024015238
 31
0.0
  0
LINE
  5
7AF1
  8
1
  6
CONTINUOUS
 10
1560.006114
 20
3586.8810024015238
 30
0.0
 11
1560.006114
 21
3646.8810024015238
 31
0.0
  0
LINE
  5
7AF2
  8
1
  6
CONTINUOUS
 10
1805.006114
 20
3756.8810024015238
 30
0.0
 11
1805.006114
 21
3521.8810024015238
 31
0.0
  0
LINE
  5
7AF3
  8
1
  6
CONTINUOUS
 10
1730.5061139999989
 20
3556.8810024015238
 30
0.0
 11
1730.5061139999989
 21
3676.8810024015238
 31
0.0
  0
LINE
  5
7AF4
  8
1
  6
CONTINUOUS
 10
1765.006114
 20
3521.8810024015238
 30
0.0
 11
1805.006114
 21
3521.8810024015238
 31
0.0
  0
LINE
  5
7AF5
  8
1
  6
CONTINUOUS
 10
1765.006114
 20
3711.8810024015238
 30
0.0
 11
1765.006114
 21
3521.8810024015238
 31
0.0
  0
LINE
  5
7AF6
  8
1
  6
CONTINUOUS
 10
1780.006114
 20
4176.8810024015238
 30
0.0
 11
1780.006114
 21
4178.8810024015229
 31
0.0
  0
LINE
  5
7AF7
  8
1
  6
CONTINUOUS
 10
1805.006114
 20
4301.8810024015247
 30
0.0
 11
1805.006114
 21
4176.8810024015238
 31
0.0
  0
LINE
  5
7AF8
  8
1
  6
CONTINUOUS
 10
1765.006114
 20
4301.8810024015247
 30
0.0
 11
1805.006114
 21
4301.8810024015247
 31
0.0
  0
LINE
  5
7AF9
  8
1
  6
CONTINUOUS
 10
1765.006114
 20
4301.8810024015247
 30
0.0
 11
1765.006114
 21
4221.8810024015238
 31
0.0
  0
LINE
  5
7AFA
  8
1
  6
CONTINUOUS
 10
3456.2641799999992
 20
2020.336880401524
 30
0.0
 11
3456.2641799999992
 21
2660.3368804015249
 31
0.0
  0
LINE
  5
7AFB
  8
1
  6
CONTINUOUS
 10
3454.2641800000001
 20
1750.336880401524
 30
0.0
 11
3454.2641800000001
 21
2699.336880401524
 31
0.0
  0
LINE
  5
7AFC
  8
1
  6
CONTINUOUS
 10
3454.2641800000001
 20
2020.336880401524
 30
0.0
 11
3456.2641799999992
 21
2020.336880401524
 31
0.0
  0
LINE
  5
7AFD
  8
1
  6
CONTINUOUS
 10
3499.2641799999992
 20
1670.336880401524
 30
0.0
 11
3499.2641799999992
 21
1750.336880401524
 31
0.0
  0
LINE
  5
7AFE
  8
1
  6
CONTINUOUS
 10
3499.2641799999992
 20
1583.336880401524
 30
0.0
 11
3499.2641799999992
 21
1648.336880401524
 31
0.0
  0
LINE
  5
7AFF
  8
1
  6
CONTINUOUS
 10
3579.2641800000001
 20
1583.336880401524
 30
0.0
 11
3579.2641800000001
 21
1543.336880401524
 31
0.0
  0
LINE
  5
7B00
  8
1
  6
CONTINUOUS
 10
3454.2641800000001
 20
2660.3368804015249
 30
0.0
 11
3456.2641799999992
 21
2660.3368804015249
 31
0.0
  0
LINE
  5
7B01
  8
2
  6
CENTER
 10
465.82414699999981
 20
3966.8810024015238
 30
0.0
 11
1921.0603344350559
 21
3966.8810024015229
 31
0.0
  0
LINE
  5
7B02
  8
2
  6
CENTER
 10
3244.2641800000001
 20
2736.820163401525
 30
0.0
 11
3244.2641800000001
 21
1419.7160385925081
 31
0.0
  0
LINE
  5
7B03
  8
2
  6
CENTER
 10
1460.006114
 20
2824.165185401524
 30
0.0
 11
1460.006114
 21
1478.6544604015239
 31
0.0
  0
LINE
  5
7B04
  8
2
  6
CENTER
 10
1956.1077769999999
 20
2340.336880401524
 30
0.0
 11
741.41035199999976
 21
2340.336880401524
 31
0.0
  0
LINE
  5
7B05
  8
4
  6
CONTINUOUS
 10
3700.0
 20
1000.0
 30
0.0
 11
3700.0
 21
600.0
 31
0.0
  0
LINE
  5
7B06
  8
4
  6
CONTINUOUS
 10
2300.0
 20
1000.0
 30
0.0
 11
2300.0
 21
600.0
 31
0.0
  0
LINE
  5
7B07
  8
4
  6
CONTINUOUS
 10
1300.0
 20
1000.0
 30
0.0
 11
1300.0
 21
600.0
 31
0.0
  0
LINE
  5
7B0A
  8
4
  6
CONTINUOUS
 10
1300.0
 20
600.0
 30
0.0
 11
3700.0
 21
600.0
 31
0.0
  0
LINE
  5
7B0B
  8
4
  6
CONTINUOUS
 10
1300.0
 20
800.0
 30
0.0
 11
3700.0
 21
800.0
 31
0.0
  0
TEXT
  5
7B0C
  8
4
  6
CONTINUOUS
 10
1377.004162
 20
863.086052
 30
0.0
 40
100.0
  1
機器名称
  0
TEXT
  5
7B0D
  8
4
  6
CONTINUOUS
 10
1372.516212
 20
643.29031299999986
 30
0.0
 40
100.0
  1
機器型番
  0
TEXT
  5
7B0E
  8
4
  6
CONTINUOUS
 10
2355.3574910000002
 20
845.14353800000015
 30
0.0
 40
100.0
  1
ミツヤ多翼送風機
  0
TEXT
  5
7B0F
  8
4
  6
CONTINUOUS
 10
2373.3089909999999
 20
634.31916899999999
 30
0.0
 40
100.0
  1
MF#3 1/2-4
  0
TEXT
  5
7B11
  8
4
  6
CONTINUOUS
 10
1456.6676520000001
 20
4766.8576830000002
 30
0.0
 40
108.0
  1
天井吊防振ベット
  0
TEXT
  5
7B12
  8
4
  6
CONTINUOUS
 10
632.33518700000002
 20
5067.7619520000007
 30
0.0
 40
144.0
  1
ベルト駆動式片吸込両持多翼ファン
  0
LINE
  5
7B13
  8
4
  6
CONTINUOUS
 10
500.0
 20
4938.8175090000004
 30
0.0
 11
3700.0
 21
4938.8175090000004
 31
0.0
  0
LINE
  5
7B14
  8
4
  6
CONTINUOUS
 10
500.0
 20
5338.8175090000004
 30
0.0
 11
3700.0
 21
5338.8175090000004
 31
0.0
  0
LINE
  5
7B15
  8
4
  6
CONTINUOUS
 10
1300.0
 20
1000.0
 30
0.0
 11
3700.0
 21
1000.0
 31
0.0
  0
LINE
  5
7B16
  8
4
  6
CONTINUOUS
 10
500.0
 20
5338.8175090000004
 30
0.0
 11
500.0
 21
4938.8175090000004
 31
0.0
  0
TEXT
  5
7B17
  8
4
  6
CONTINUOUS
 10
584.94998699999985
 20
4764.6389549999994
 30
0.0
 40
108.0
  1
左回転右横向
  0
TEXT
  5
7B18
  8
4
  6
CONTINUOUS
 10
2937.9391179999998
 20
5412.122163
 30
0.0
 40
112.0
  1
No.
  0
TEXT
  5
7B19
  8
4
  6
CONTINUOUS
 10
2622.5921250000001
 20
4766.8576830000002
 30
0.0
 40
108.0
  1
縮尺：1/20
  0
LINE
  5
7B1A
  8
4
  6
CONTINUOUS
 10
3700.0
 20
5338.8175090000004
 30
0.0
 11
3700.0
 21
4938.8175090000004
 31
0.0
  0
LINE
  5
7B1C
  8
4
  6
CONTINUOUS
 10
2881.234845
 20
5362.5271659999999
 30
0.0
 11
2881.234845
 21
5573.3045229999998
 31
0.0
  0
LINE
  5
7B1D
  8
4
  6
CONTINUOUS
 10
2881.234845
 20
5573.3045229999998
 30
0.0
 11
3700.0
 21
5573.3045229999998
 31
0.0
  0
LINE
  5
7B1E
  8
4
  6
CONTINUOUS
 10
3700.0
 20
5573.3045229999998
 30
0.0
 11
3700.0
 21
5362.5271659999999
 31
0.0
  0
LINE
  5
7B1F
  8
4
  6
CONTINUOUS
 10
3700.0
 20
5362.5271659999999
 30
0.0
 11
2881.234845
 21
5362.5271659999999
 31
0.0
  0
DIMENSION
  5
7B37
  8
3
  6
CONTINUOUS
  2
*D1
 10
2007.7979760000001
 20
1801.336880401524
 30
0.0
 11
2007.7979760000001
 21
2105.3536574015238
 31
0.0
 70
   128
 13
1865.006114
 23
2361.336880401524
 33
0.0
 14
1865.006114
 24
1801.336880401524
 34
0.0
 50
90.0
1001
ACAD
1000
DSTYLE
1002
{
1070
   287
1070
     3
1070
    40
1040
20.0
1070
   143
1040
0.039
1070
   172
1070
     1
1070
   271
1070
     0
1070
   279
1070
     0
1070
   288
1070
     1
1002
}
  0
DIMENSION
  5
7B44
  8
3
  6
CONTINUOUS
  2
*D2
 10
2147.4075699999999
 20
1801.336880401524
 30
0.0
 11
2147.4075699999989
 21
2109.3386674015242
 31
0.0
 70
   128
 13
1956.1077769999999
 23
2340.336880401524
 33
0.0
 14
1865.006114
 24
1801.336880401524
 34
0.0
 50
90.0
1001
ACAD
1000
DSTYLE
1002
{
1070
   287
1070
     3
1070
    40
1040
20.0
1070
   143
1040
0.039
1070
   172
1070
     1
1070
   271
1070
     0
1070
   279
1070
     0
1070
   288
1070
     1
1002
}
  0
DIMENSION
  5
7B5F
  8
3
  6
CONTINUOUS
  2
*D3
 10
2322.916792
 20
2340.336880401524
 30
0.0
 11
2322.916792
 21
2563.629255401524
 31
0.0
 70
   128
 13
1820.0061139999989
 23
2750.336880401524
 33
0.0
 14
1956.1077769999999
 24
2340.336880401524
 34
0.0
 50
90.0
1001
ACAD
1000
DSTYLE
1002
{
1070
   287
1070
     3
1070
    40
1040
20.0
1070
   143
1040
0.039
1070
   172
1070
     1
1070
   271
1070
     0
1070
   279
1070
     0
1070
   288
1070
     1
1002
}
  0
DIMENSION
  5
7B86
  8
3
  6
CONTINUOUS
  2
*D4
 10
2514.3813789999999
 20
1543.336880401524
 30
0.0
 11
2514.3813789999999
 21
2177.0837524015242
 31
0.0
 70
   128
 13
1820.0061139999989
 23
2750.336880401524
 33
0.0
 14
1805.006114
 24
1543.336880401524
 34
0.0
 50
90.0
1001
ACAD
1000
DSTYLE
1002
{
1070
   287
1070
     3
1070
    40
1040
20.0
1070
   143
1040
0.039
1070
   172
1070
     1
1070
   271
1070
     0
1070
   279
1070
     0
1070
   288
1070
     1
1002
}
  0
DIMENSION
  5
7BA2
  8
3
  6
CONTINUOUS
  2
*D5
 10
3637.2789870000001
 20
2045.336880401524
 30
0.0
 11
3637.2789870000001
 21
2340.4689644015239
 31
0.0
 70
   128
 13
3454.2641800000001
 23
2635.336880401524
 33
0.0
 14
3456.2641799999992
 24
2045.336880401524
 34
0.0
 50
90.0
1001
ACAD
1000
DSTYLE
1002
{
1070
   287
1070
     3
1070
     3
1000
φ<>
1070
    40
1040
20.0
1070
   143
1040
0.039
1070
   172
1070
     1
1070
   271
1070
     0
1070
   279
1070
     0
1070
   288
1070
     1
1002
}
  0
DIMENSION
  5
7BB1
  8
3
  6
CONTINUOUS
  2
*D6
 10
3244.2641800000001
 20
2912.035727401525
 30
0.0
 11
3350.2641799999992
 21
2968.6170390596881
 31
0.0
 70
   128
 13
3456.2641799999992
 23
2660.3368804015249
 33
0.0
 14
3244.2641800000001
 24
2878.5241874015242
 34
0.0
1001
ACAD
1000
DSTYLE
1002
{
1070
   288
1070
     1
1070
   172
1070
     1
1070
    40
1040
20.0
1070
   271
1070
     0
1070
   143
1040
0.039
1002
}
  0
DIMENSION
  5
7BBD
  8
3
  6
CONTINUOUS
  2
*D7
 10
2834.2641800000001
 20
2912.035727401525
 30
0.0
 11
3039.2641800000001
 21
3012.0357274015241
 31
0.0
 70
     0
  1
MAX\P470
 13
3244.2641800000001
 23
2878.5241874015242
 33
0.0
 14
2834.2641800000001
 24
2585.336880401524
 34
0.0
1001
ACAD
1000
DSTYLE
1002
{
1070
   287
1070
     4
1070
    40
1040
20.0
1070
    75
1070
     1
1070
   143
1040
0.039
1070
   172
1070
     1
1070
   271
1070
     0
1070
   279
1070
     1
1070
   288
1070
     1
1002
}
  0
DIMENSION
  5
7BCA
  8
3
  6
CONTINUOUS
  2
*D8
 10
3244.2641800000001
 20
1389.0331724015241
 30
0.0
 11
3022.996772
 21
1389.0331724015241
 31
0.0
 70
   128
 13
2799.2641800000001
 23
1543.336880401524
 33
0.0
 14
3244.2641800000001
 24
1419.7160385925081
 34
0.0
1001
ACAD
1000
DSTYLE
1002
{
1070
   287
1070
     3
1070
    40
1040
20.0
1070
   143
1040
0.039
1070
   172
1070
     1
1070
   271
1070
     0
1070
   279
1070
     0
1070
   288
1070
     1
1002
}
  0
DIMENSION
  5
7BD6
  8
3
  6
CONTINUOUS
  2
*D9
 10
3579.2641800000001
 20
1389.0331724015241
 30
0.0
 11
3411.7641800000001
 21
1439.0331724015241
 31
0.0
 70
     0
 13
3244.2641800000001
 23
1390.074591401524
 33
0.0
 14
3579.2641800000001
 24
1543.336880401524
 34
0.0
1001
ACAD
1000
DSTYLE
1002
{
1070
   287
1070
     4
1070
    40
1040
20.0
1070
    75
1070
     1
1070
   143
1040
0.039
1070
   172
1070
     1
1070
   271
1070
     0
1070
   279
1070
     1
1070
   288
1070
     1
1002
}
  0
DIMENSION
  5
7BE3
  8
3
  6
CONTINUOUS
  2
*D10
 10
1805.006114
 20
4424.6865524015238
 30
0.0
 11
1194.073504
 21
4424.6865524015238
 31
0.0
 70
   128
 13
555.00611399999968
 23
4301.8810024015247
 33
0.0
 14
1805.006114
 24
4301.8810024015247
 34
0.0
1001
ACAD
1000
DSTYLE
1002
{
1070
   287
1070
     3
1070
    40
1040
20.0
1070
   143
1040
0.039
1070
   172
1070
     1
1070
   271
1070
     0
1070
   279
1070
     0
1070
   288
1070
     1
1002
}
  0
DIMENSION
  5
7BF0
  8
3
  6
CONTINUOUS
  2
*D11
 10
2059.6529959999998
 20
3521.8810024015238
 30
0.0
 11
2059.6529959999998
 21
3899.4375594015241
 31
0.0
 70
   128
 13
1805.006114
 23
4301.8810024015247
 33
0.0
 14
1805.006114
 24
3521.8810024015238
 34
0.0
 50
90.0
1001
ACAD
1000
DSTYLE
1002
{
1070
   287
1070
     3
1070
    40
1040
20.0
1070
   143
1040
0.039
1070
   172
1070
     1
1070
   271
1070
     0
1070
   279
1070
     0
1070
   288
1070
     1
1002
}
  0
DIMENSION
  5
7C03
  8
3
  6
CONTINUOUS
  2
*D12
 10
1460.006114
 20
2852.5628904015248
 30
0.0
 11
1229.078917
 21
2852.5628904015248
 31
0.0
 70
   128
 13
997.0061139999998
 23
2340.336880401524
 33
0.0
 14
1460.006114
 24
2824.165185401524
 34
0.0
1001
ACAD
1000
DSTYLE
1002
{
1070
   287
1070
     3
1070
    40
1040
20.0
1070
   143
1040
0.039
1070
   172
1070
     1
1070
   271
1070
     0
1070
   279
1070
     0
1070
   288
1070
     1
1002
}
  0
DIMENSION
  5
7C0F
  8
3
  6
CONTINUOUS
  2
*D13
 10
1865.006114
 20
2852.5628904015248
 30
0.0
 11
1662.506114
 21
2902.5628904015239
 31
0.0
 70
     0
 13
1460.006114
 23
2824.165185401524
 33
0.0
 14
1865.006114
 24
2388.336880401524
 34
0.0
1001
ACAD
1000
DSTYLE
1002
{
1070
   287
1070
     4
1070
    40
1040
20.0
1070
    75
1070
     1
1070
   143
1040
0.039
1070
   172
1070
     1
1070
   271
1070
     0
1070
   279
1070
     1
1070
   288
1070
     1
1002
}
  0
DIMENSION
  5
7C1C
  8
3
  6
CONTINUOUS
  2
*D14
 10
1460.006114
 20
1379.798757401524
 30
0.0
 11
994.76058899999998
 21
1379.798757401524
 31
0.0
 70
   128
 13
555.00611399999968
 23
1543.336880401524
 33
0.0
 14
1460.006114
 24
1478.6544604015239
 34
0.0
1001
ACAD
1000
DSTYLE
1002
{
1070
   287
1070
     3
1070
    40
1040
20.0
1070
   143
1040
0.039
1070
   172
1070
     1
1070
   271
1070
     0
1070
   279
1070
     0
1070
   288
1070
     1
1002
}
  0
DIMENSION
  5
7C40
  8
3
  6
CONTINUOUS
  2
*D15
 10
1805.006114
 20
1379.798757401524
 30
0.0
 11
1632.5061139999989
 21
1429.798757401524
 31
0.0
 70
     0
 13
1460.006114
 23
1478.6544604015239
 33
0.0
 14
1805.006114
 24
1543.336880401524
 34
0.0
1001
ACAD
1000
DSTYLE
1002
{
1070
   287
1070
     4
1070
    40
1040
20.0
1070
    75
1070
     1
1070
   143
1040
0.039
1070
   172
1070
     1
1070
   271
1070
     0
1070
   279
1070
     1
1070
   288
1070
     1
1002
}
  0
DIMENSION
  5
7C4C
  8
3
  6
CONTINUOUS
  2
*D16
 10
2322.916792
 20
1670.336880401524
 30
0.0
 11
2272.9167919999991
 21
2005.336880401524
 31
0.0
 70
     0
 13
1956.1077769999999
 23
2340.336880401524
 33
0.0
 14
1805.006114
 24
1670.336880401524
 34
0.0
 50
90.0
1001
ACAD
1000
DSTYLE
1002
{
1070
   287
1070
     4
1070
    40
1040
20.0
1070
    75
1070
     1
1070
   143
1040
0.039
1070
   172
1070
     1
1070
   271
1070
     0
1070
   279
1070
     1
1070
   288
1070
     1
1002
}
  0
DIMENSION
  5
7C5C
  8
3
  6
CONTINUOUS
  2
*D17
 10
2322.916792
 20
1583.336880401524
 30
0.0
 11
2410.113731499699
 21
1646.2533314015241
 31
0.0
 70
   128
 13
1805.006114
 23
1670.336880401524
 33
0.0
 14
1805.006114
 24
1583.336880401524
 34
0.0
 50
90.0
1001
ACAD
1000
DSTYLE
1002
{
1070
   288
1070
     1
1070
   172
1070
     1
1070
    75
1070
     1
1070
    40
1040
20.0
1070
   271
1070
     0
1070
     7
1000
_DOT
1070
   143
1040
0.039
1002
}
  0
DIMENSION
  5
7C6C
  8
3
  6
CONTINUOUS
  2
*D18
 10
2322.916792
 20
1543.336880401524
 30
0.0
 11
2322.916792
 21
1394.765451830096
 31
0.0
 70
   128
 13
1805.006114
 23
1583.336880401524
 33
0.0
 14
1805.006114
 24
1543.336880401524
 34
0.0
 50
90.0
1001
ACAD
1000
DSTYLE
1002
{
1070
   287
1070
     3
1070
    40
1040
20.0
1070
   143
1040
0.039
1070
   172
1070
     1
1070
   271
1070
     0
1070
   279
1070
     0
1070
   288
1070
     1
1070
     6
1000
DOT
1002
}
  0
DIMENSION
  5
7CFC
  8
3
  6
CONTINUOUS
  2
*D19
 10
3454.2641800000001
 20
2785.266456401524
 30
0.0
 11
3236.6473030000002
 21
2785.266456401524
 31
0.0
 70
   128
 13
3034.2641800000001
 23
2699.336880401524
 33
0.0
 14
3454.2641800000001
 24
2699.336880401524
 34
0.0
1001
ACAD
1000
DSTYLE
1002
{
1070
   287
1070
     3
1070
    40
1040
20.0
1070
   143
1040
0.039
1070
   172
1070
     1
1070
   271
1070
     0
1070
   279
1070
     0
1070
   288
1070
     1
1002
}
  0
DIMENSION
  5
7DC7
  8
3
  2
*D21
 10
555.00611399999991
 20
2973.0570208269492
 30
0.0
 11
1223.6596283639151
 21
2973.0570208269492
 31
0.0
 70
   128
 13
1865.006114
 23
2388.336880401524
 33
0.0
 14
555.00611399999968
 24
1750.336880401524
 34
0.0
1001
ACAD
1000
DSTYLE
1002
{
1070
   287
1070
     3
1070
    40
1040
20.0
1070
   143
1040
0.039
1070
   172
1070
     1
1070
   271
1070
     0
1070
   279
1070
     0
1070
   288
1070
     1
1002
}
  0
ENDSEC
  0
EOF
