  0
SECTION
  2
HEADER
  9
$ACADVER
  1
AC1009
  9
$INSBASE
 10
0.0
 20
0.0
 30
0.0
  9
$EXTMIN
 10
500.0
 20
600.0
 30
0.0
  9
$EXTMAX
 10
3700.0
 20
5573.3045229999998
 30
0.0
  9
$LIMMIN
 10
0.0
 20
0.0
  9
$LIMMAX
 10
297.0
 20
210.0
  9
$ORTHOMODE
 70
     0
  9
$REGENMODE
 70
     1
  9
$FILLMODE
 70
     0
  9
$QTEXTMODE
 70
     0
  9
$MIRRTEXT
 70
     1
  9
$DRAGMODE
 70
     2
  9
$LTSCALE
 40
100.0
  9
$OSMODE
 70
    37
  9
$ATTMODE
 70
     1
  9
$TEXTSIZE
 40
180.0
  9
$TRACEWID
 40
0.05
  9
$TEXTSTYLE
  7
STANDARD
  9
$CLAYER
  8
3
  9
$CELTYPE
  6
BYLAYER
  9
$CECOLOR
 62
   256
  9
$DIMSCALE
 40
20.0
  9
$DIMASZ
 40
2.0
  9
$DIMEXO
 40
0.5
  9
$DIMDLI
 40
10.0
  9
$DIMRND
 40
0.0
  9
$DIMDLE
 40
0.0
  9
$DIMEXE
 40
1.0
  9
$DIMTP
 40
1.0
  9
$DIMTM
 40
1.0
  9
$DIMTXT
 40
3.0
  9
$DIMCEN
 40
0.0
  9
$DIMTSZ
 40
0.0
  9
$DIMTOL
 70
     0
  9
$DIMLIM
 70
     0
  9
$DIMTIH
 70
     0
  9
$DIMTOH
 70
     0
  9
$DIMSE1
 70
     0
  9
$DIMSE2
 70
     0
  9
$DIMTAD
 70
     1
  9
$DIMZIN
 70
     8
  9
$DIMBLK
  1

  9
$DIMASO
 70
     1
  9
$DIMSHO
 70
     1
  9
$DIMPOST
  1

  9
$DIMAPOST
  1

  9
$DIMALT
 70
     0
  9
$DIMALTD
 70
     2
  9
$DIMALTF
 40
0.039
  9
$DIMLFAC
 40
1.0
  9
$DIMTOFL
 70
     1
  9
$DIMTVP
 40
0.0
  9
$DIMTIX
 70
     0
  9
$DIMSOXD
 70
     0
  9
$DIMSAH
 70
     1
  9
$DIMBLK1
  1
OPEN
  9
$DIMBLK2
  1
OPEN
  9
$DIMSTYLE
  2
IGA
  9
$DIMCLRD
 70
     0
  9
$DIMCLRE
 70
     0
  9
$DIMCLRT
 70
     0
  9
$DIMTFAC
 40
10.0
  9
$DIMGAP
 40
1.0
  9
$LUNITS
 70
     2
  9
$LUPREC
 70
     3
  9
$SKETCHINC
 40
0.1
  9
$FILLETRAD
 40
50.0
  9
$AUNITS
 70
     0
  9
$AUPREC
 70
     0
  9
$MENU
  1
acad
  9
$ELEVATION
 40
0.0
  9
$PELEVATION
 40
0.0
  9
$THICKNESS
 40
0.0
  9
$LIMCHECK
 70
     0
  9
$BLIPMODE
 70
     0
  9
$CHAMFERA
 40
0.5
  9
$CHAMFERB
 40
0.5
  9
$SKPOLY
 70
     0
  9
$TDCREATE
 40
2450737.4836233798
  9
$TDUPDATE
 40
2454953.768827396
  9
$TDINDWG
 40
0.0075078125
  9
$TDUSRTIMER
 40
0.0075078125
  9
$USRTIMER
 70
     1
  9
$ANGBASE
 50
0.0
  9
$ANGDIR
 70
     0
  9
$PDMODE
 70
     0
  9
$PDSIZE
 40
0.0
  9
$PLINEWID
 40
0.0
  9
$COORDS
 70
     1
  9
$SPLFRAME
 70
     0
  9
$SPLINETYPE
 70
     6
  9
$SPLINESEGS
 70
     8
  9
$ATTDIA
 70
     0
  9
$ATTREQ
 70
     1
  9
$HANDLING
 70
 10241
  9
$HANDSEED
  5
7F9A
  9
$SURFTAB1
 70
     6
  9
$SURFTAB2
 70
     6
  9
$SURFTYPE
 70
     6
  9
$SURFU
 70
     6
  9
$SURFV
 70
     6
  9
$UCSNAME
  2

  9
$UCSORG
 10
0.0
 20
0.0
 30
0.0
  9
$UCSXDIR
 10
1.0
 20
0.0
 30
0.0
  9
$UCSYDIR
 10
0.0
 20
1.0
 30
0.0
  9
$PUCSNAME
  2

  9
$PUCSORG
 10
0.0
 20
0.0
 30
0.0
  9
$PUCSXDIR
 10
1.0
 20
0.0
 30
0.0
  9
$PUCSYDIR
 10
0.0
 20
1.0
 30
0.0
  9
$USERI1
 70
     0
  9
$USERI2
 70
     0
  9
$USERI3
 70
     0
  9
$USERI4
 70
     0
  9
$USERI5
 70
     0
  9
$USERR1
 40
0.0
  9
$USERR2
 40
0.0
  9
$USERR3
 40
0.0
  9
$USERR4
 40
0.0
  9
$USERR5
 40
0.0
  9
$WORLDVIEW
 70
     1
  9
$SHADEDGE
 70
     3
  9
$SHADEDIF
 70
    70
  9
$TILEMODE
 70
     1
  9
$MAXACTVP
 70
    16
  9
$PLIMCHECK
 70
     0
  9
$PEXTMIN
 10
1.0000000000000000E+020
 20
1.0000000000000000E+020
 30
1.0000000000000000E+020
  9
$PEXTMAX
 10
-1.0000000000000000E+020
 20
-1.0000000000000000E+020
 30
-1.0000000000000000E+020
  9
$PLIMMIN
 10
0.0
 20
0.0
  9
$PLIMMAX
 10
12.0
 20
9.0
  9
$UNITMODE
 70
     0
  9
$VISRETAIN
 70
     0
  9
$PLINEGEN
 70
     0
  9
$PSLTSCALE
 70
     1
  0
ENDSEC
  0
SECTION
  2
TABLES
  0
TABLE
  2
VPORT
 70
     2
  0
VPORT
  2
*ACTIVE
 70
     0
 10
0.0
 20
0.0
 11
1.0
 21
1.0
 12
6292.1124769529506
 22
3086.6374998146398
 13
0.0
 23
0.0
 14
10.0
 24
10.0
 15
10.0
 25
10.0
 16
0.0
 26
0.0
 36
1.0
 17
0.0
 27
0.0
 37
0.0
 40
5011.4968576296578
 41
3.1666666666666661
 42
50.0
 43
0.0
 44
0.0
 50
0.0
 51
0.0
 71
     0
 72
   100
 73
     1
 74
     0
 75
     0
 76
     0
 77
     0
 78
     0
  0
ENDTAB
  0
TABLE
  2
LTYPE
 70
     2
  0
LTYPE
  2
CONTINUOUS
 70
     0
  3
Solid line
 72
    65
 73
     0
 40
0.0
  0
LTYPE
  2
CENTER
 70
     0
  3
____ _ ____ _ ____ _ ____ _ ____ _ ____ _ ____ 
 72
    65
 73
     4
 40
2.0
 49
1.25
 49
-0.25
 49
0.25
 49
-0.25
  0
ENDTAB
  0
TABLE
  2
LAYER
 70
     6
  0
LAYER
  2
0
 70
     0
 62
     7
  6
CONTINUOUS
  0
LAYER
  2
3
 70
     0
 62
     2
  6
CONTINUOUS
  0
LAYER
  2
2
 70
     0
 62
     3
  6
CENTER
  0
LAYER
  2
1
 70
     0
 62
     4
  6
CONTINUOUS
  0
LAYER
  2
4
 70
     0
 62
     7
  6
CONTINUOUS
  0
LAYER
  2
DEFPOINTS
 70
     0
 62
     7
  6
CONTINUOUS
  0
ENDTAB
  0
TABLE
  2
STYLE
 70
     1
  0
STYLE
  2
STANDARD
 70
     0
 40
0.0
 41
1.0
 50
0.0
 71
     0
 42
180.0
  3
simplex.shx
  4
extfont.shx
  0
ENDTAB
  0
TABLE
  2
VIEW
 70
     0
  0
ENDTAB
  0
TABLE
  2
UCS
 70
     0
  0
ENDTAB
  0
TABLE
  2
APPID
 70
     1
  0
APPID
  2
ACAD
 70
     0
  0
ENDTAB
  0
TABLE
  2
DIMSTYLE
 70
     1
  0
DIMSTYLE
  2
IGA
 70
     0
  3

  4

  5

  6
OPEN
  7
OPEN
 40
2.0
 41
2.0
 42
0.5
 43
10.0
 44
1.0
 45
0.0
 46
0.0
 47
1.0
 48
1.0
140
3.0
141
0.0
142
0.0
143
0.03937
144
1.0
145
0.0
146
10.0
147
1.0
 71
     0
 72
     0
 73
     0
 74
     0
 75
     0
 76
     0
 77
     1
 78
     8
170
     0
171
     2
172
     0
173
     1
174
     0
175
     0
176
     0
177
     0
178
     0
  0
ENDTAB
  0
ENDSEC
  0
SECTION
  2
BLOCKS
  0
BLOCK
  8
0
  2
$MODEL_SPACE
 70
     0
 10
0.0
 20
0.0
 30
0.0
  3
$MODEL_SPACE
  1

  0
ENDBLK
  5
1B
  8
0
  0
BLOCK
 67
     1
  8
0
  2
$PAPER_SPACE
 70
     0
 10
0.0
 20
0.0
 30
0.0
  3
$PAPER_SPACE
  1

  0
ENDBLK
  5
18
 67
     1
  8
0
  0
BLOCK
  8
0
  2
_OPEN
 70
     0
 10
0.0
 20
0.0
 30
0.0
  3
_OPEN
  1

  0
LINE
  5
7BC6
  8
0
  6
BYBLOCK
 62
     0
 10
-1.0
 20
0.166667
 30
0.0
 11
0.0
 21
0.0
 31
0.0
  0
LINE
  5
7BC7
  8
0
  6
BYBLOCK
 62
     0
 10
0.0
 20
0.0
 30
0.0
 11
-1.0
 21
-0.166667
 31
0.0
  0
LINE
  5
7BC8
  8
0
  6
BYBLOCK
 62
     0
 10
0.0
 20
0.0
 30
0.0
 11
-1.0
 21
0.0
 31
0.0
  0
ENDBLK
  5
7BC9
  8
0
  0
BLOCK
  8
0
  2
*D1
 70
     1
 10
0.0
 20
0.0
 30
0.0
  3
*D1
  1

  0
LINE
  5
7EE3
  8
3
  6
CONTINUOUS
 62
     0
 10
1006.725307
 20
2533.0192910000001
 30
0.0
 11
918.80048400000044
 21
2533.0192910000001
 31
0.0
  0
LINE
  5
7EE4
  8
3
  6
CONTINUOUS
 62
     0
 10
1006.725307
 20
1973.0192909999989
 30
0.0
 11
918.80048400000032
 21
1973.0192909999989
 31
0.0
  0
LINE
  5
7EE5
  8
3
  6
CONTINUOUS
 62
     0
 10
938.80048400000044
 20
2493.0192910000001
 30
0.0
 11
938.80048400000044
 21
2013.0192910000001
 31
0.0
  0
INSERT
  5
7EE6
  8
3
  6
CONTINUOUS
 62
     0
  2
_OPEN
 10
938.80048400000044
 20
2533.0192910000001
 30
0.0
 41
40.0
 42
40.0
 43
40.0
 50
90.0
  0
INSERT
  5
7EE7
  8
3
  6
CONTINUOUS
 62
     0
  2
_OPEN
 10
938.80048400000044
 20
1973.0192909999989
 30
0.0
 41
40.0
 42
40.0
 43
40.0
 50
270.0
  0
TEXT
  8
3
  40
60
  5
7F87
  62
0
  72
0
  71
0
 10
768.800
 20
2145.24
 30
0.000000
  1
560
  0
POINT
  5
7EE9
  8
DEFPOINTS
  6
CONTINUOUS
 62
     0
 10
1016.725307
 20
2533.0192910000001
 30
0.0
  0
POINT
  5
7EEA
  8
DEFPOINTS
  6
CONTINUOUS
 62
     0
 10
1016.725307
 20
1973.0192909999989
 30
0.0
  0
POINT
  5
7EEB
  8
DEFPOINTS
  6
CONTINUOUS
 62
     0
 10
938.80048400000044
 20
1973.0192909999989
 30
0.0
  0
ENDBLK
  5
7BD6
  8
0
  0
BLOCK
  8
0
  2
*D2
 70
     1
 10
0.0
 20
0.0
 30
0.0
  3
*D2
  1

  0
LINE
  5
7EEC
  8
3
  6
CONTINUOUS
 62
     0
 10
1006.725307
 20
2533.0192910000001
 30
0.0
 11
792.38816300000042
 21
2533.0192910000001
 31
0.0
  0
LINE
  5
7EED
  8
3
  6
CONTINUOUS
 62
     0
 10
948.10516699999994
 20
1994.0192910000001
 30
0.0
 11
792.3881630000003
 21
1994.0192910000001
 31
0.0
  0
LINE
  5
7EEE
  8
3
  6
CONTINUOUS
 62
     0
 10
812.38816300000042
 20
2493.0192910000001
 30
0.0
 11
812.3881630000003
 21
2034.0192910000001
 31
0.0
  0
INSERT
  5
7EEF
  8
3
  6
CONTINUOUS
 62
     0
  2
_OPEN
 10
812.38816300000042
 20
2533.0192910000001
 30
0.0
 41
40.0
 42
40.0
 43
40.0
 50
90.0
  0
INSERT
  5
7EF0
  8
3
  6
CONTINUOUS
 62
     0
  2
_OPEN
 10
812.3881630000003
 20
1994.0192910000001
 30
0.0
 41
40.0
 42
40.0
 43
40.0
 50
270.0
  0
TEXT
  8
3
  40
60
  5
7F88
  62
0
  72
0
  71
0
 10
642.388
 20
2149.31
 30
0.000000
  1
539
  0
POINT
  5
7EF2
  8
DEFPOINTS
  6
CONTINUOUS
 62
     0
 10
1016.725307
 20
2533.0192910000001
 30
0.0
  0
POINT
  5
7EF3
  8
DEFPOINTS
  6
CONTINUOUS
 62
     0
 10
958.10516699999994
 20
1994.0192910000001
 30
0.0
  0
POINT
  5
7EF4
  8
DEFPOINTS
  6
CONTINUOUS
 62
     0
 10
812.3881630000003
 20
1994.0192910000001
 30
0.0
  0
ENDBLK
  5
7BE3
  8
0
  0
BLOCK
  8
0
  2
*D3
 70
     1
 10
0.0
 20
0.0
 30
0.0
  3
*D3
  1

  0
LINE
  5
7EF5
  8
3
  6
CONTINUOUS
 62
     0
 10
1066.7253069999999
 20
1504.0192910000001
 30
0.0
 11
792.38816299999985
 21
1504.0192910000001
 31
0.0
  0
LINE
  5
7EF6
  8
3
  6
CONTINUOUS
 62
     0
 10
812.38816300000008
 20
1954.0192910000001
 30
0.0
 11
812.38816299999985
 21
1544.0192910000001
 31
0.0
  0
INSERT
  5
7EF7
  8
3
  6
CONTINUOUS
 62
     0
  2
_OPEN
 10
812.38816300000008
 20
1994.0192910000001
 30
0.0
 41
40.0
 42
40.0
 43
40.0
 50
90.0
  0
INSERT
  5
7EF8
  8
3
  6
CONTINUOUS
 62
     0
  2
_OPEN
 10
812.38816299999985
 20
1504.0192910000001
 30
0.0
 41
40.0
 42
40.0
 43
40.0
 50
270.0
  0
TEXT
  8
3
  40
60
  5
7F89
  62
0
  72
0
  71
0
 10
642.388
 20
1642.82
 30
0.000000
  1
490
  0
POINT
  5
7EFA
  8
DEFPOINTS
  6
CONTINUOUS
 62
     0
 10
958.10516699999994
 20
1994.0192910000001
 30
0.0
  0
POINT
  5
7EFB
  8
DEFPOINTS
  6
CONTINUOUS
 62
     0
 10
1076.7253069999999
 20
1504.0192910000001
 30
0.0
  0
POINT
  5
7EFC
  8
DEFPOINTS
  6
CONTINUOUS
 62
     0
 10
812.38816299999985
 20
1504.0192910000001
 30
0.0
  0
ENDBLK
  5
7BEF
  8
0
  0
BLOCK
  8
0
  2
*D4
 70
     1
 10
0.0
 20
0.0
 30
0.0
  3
*D4
  1

  0
LINE
  5
7EFD
  8
3
  6
CONTINUOUS
 62
     0
 10
1066.7253069999999
 20
1417.0192910000001
 30
0.0
 11
792.38816299999985
 21
1417.0192910000001
 31
0.0
  0
LINE
  5
7EFE
  8
3
  6
CONTINUOUS
 62
     0
 10
812.38816299999985
 20
1544.0192910000001
 30
0.0
 11
812.38816299999985
 21
1584.0192910000001
 31
0.0
  0
LINE
  5
7EFF
  8
3
  6
CONTINUOUS
 62
     0
 10
812.38816299999985
 20
1377.0192910000001
 30
0.0
 11
812.38816299999985
 21
1337.0192910000001
 31
0.0
  0
TEXT
  8
3
  40
60
  5
7F8A
  62
0
  72
0
  71
0
 10
637.699
 20
1368.12
 30
0.000000
  1
87
  0
LINE
  5
7F01
  8
3
  6
CONTINUOUS
 62
     0
 10
812.38816299999985
 20
1504.0192910000001
 30
0.0
 11
812.38816299999985
 21
1417.0192910000001
 31
0.0
  0
INSERT
  5
7F02
  8
3
  6
CONTINUOUS
 62
     0
  2
_OPEN
 10
812.38816299999985
 20
1504.0192910000001
 30
0.0
 41
40.0
 42
40.0
 43
40.0
 50
270.0
  0
INSERT
  5
7F03
  8
3
  6
CONTINUOUS
 62
     0
  2
_DOT
 10
812.38816299999985
 20
1417.0192910000001
 30
0.0
 41
40.0
 42
40.0
 43
40.0
 50
90.0
  0
POINT
  5
7F04
  8
DEFPOINTS
  6
CONTINUOUS
 62
     0
 10
1076.7253069999999
 20
1504.0192910000001
 30
0.0
  0
POINT
  5
7F05
  8
DEFPOINTS
  6
CONTINUOUS
 62
     0
 10
1076.7253069999999
 20
1417.0192910000001
 30
0.0
  0
POINT
  5
7F06
  8
DEFPOINTS
  6
CONTINUOUS
 62
     0
 10
812.38816299999985
 20
1417.0192910000001
 30
0.0
  0
ENDBLK
  5
7E57
  8
0
  0
BLOCK
  8
0
  2
*D5
 70
     1
 10
0.0
 20
0.0
 30
0.0
  3
*D5
  1

  0
LINE
  5
7F07
  8
3
  6
CONTINUOUS
 62
     0
 10
1006.725307
 20
2560.0192910000001
 30
0.0
 11
678.62539500000048
 21
2560.0192910000001
 31
0.0
  0
LINE
  5
7F08
  8
3
  6
CONTINUOUS
 62
     0
 10
1066.7253069999999
 20
1377.0192910000001
 30
0.0
 11
678.62539500000025
 21
1377.0192910000001
 31
0.0
  0
LINE
  5
7F09
  8
3
  6
CONTINUOUS
 62
     0
 10
698.62539500000048
 20
2520.0192910000001
 30
0.0
 11
698.62539500000025
 21
1417.0192910000001
 31
0.0
  0
INSERT
  5
7F0A
  8
3
  6
CONTINUOUS
 62
     0
  2
_OPEN
 10
698.62539500000048
 20
2560.0192910000001
 30
0.0
 41
40.0
 42
40.0
 43
40.0
 50
90.0
  0
INSERT
  5
7F0B
  8
3
  6
CONTINUOUS
 62
     0
  2
_OPEN
 10
698.62539500000025
 20
1377.0192910000001
 30
0.0
 41
40.0
 42
40.0
 43
40.0
 50
270.0
  0
TEXT
  8
3
  40
60
  5
7F8B
  62
0
  72
0
  71
0
 10
528.625
 20
1860.07
 30
0.000000
  1
1183
  0
POINT
  5
7F0D
  8
DEFPOINTS
  6
CONTINUOUS
 62
     0
 10
1016.725307
 20
2560.0192910000001
 30
0.0
  0
POINT
  5
7F0E
  8
DEFPOINTS
  6
CONTINUOUS
 62
     0
 10
1076.7253069999999
 20
1377.0192910000001
 30
0.0
  0
POINT
  5
7F0F
  8
DEFPOINTS
  6
CONTINUOUS
 62
     0
 10
698.62539500000025
 20
1377.0192910000001
 30
0.0
  0
ENDBLK
  5
7D0F
  8
0
  0
BLOCK
  8
0
  2
*D6
 70
     1
 10
0.0
 20
0.0
 30
0.0
  3
*D6
  1

  0
LINE
  5
7F10
  8
3
  6
CONTINUOUS
 62
     0
 10
1421.725306999999
 20
2600.142800790687
 30
0.0
 11
1421.725306999999
 21
2674.754093
 31
0.0
  0
LINE
  5
7F11
  8
3
  6
CONTINUOUS
 62
     0
 10
1896.725306999999
 20
2414.0192910000001
 30
0.0
 11
1896.725306999999
 21
2674.754093
 31
0.0
  0
LINE
  5
7F12
  8
3
  6
CONTINUOUS
 62
     0
 10
1461.7253069999999
 20
2654.754093
 30
0.0
 11
1856.725306999999
 21
2654.754093
 31
0.0
  0
INSERT
  5
7F13
  8
3
  6
CONTINUOUS
 62
     0
  2
_OPEN
 10
1421.725306999999
 20
2654.754093
 30
0.0
 41
40.0
 42
40.0
 43
40.0
 50
180.0
  0
INSERT
  5
7F14
  8
3
  6
CONTINUOUS
 62
     0
  2
_OPEN
 10
1896.725306999999
 20
2654.754093
 30
0.0
 41
40.0
 42
40.0
 43
40.0
  0
TEXT
  8
3
  40
60
  5
7F8C
  62
0
  72
0
  71
0
 10
1539.23
 20
2598.55
 30
0.000000
  1
475
  0
POINT
  5
7F16
  8
DEFPOINTS
  6
CONTINUOUS
 62
     0
 10
1421.725306999999
 20
2590.142800790687
 30
0.0
  0
POINT
  5
7F17
  8
DEFPOINTS
  6
CONTINUOUS
 62
     0
 10
1896.725306999999
 20
2404.0192910000001
 30
0.0
  0
POINT
  5
7F18
  8
DEFPOINTS
  6
CONTINUOUS
 62
     0
 10
1896.725306999999
 20
2654.754093
 30
0.0
  0
ENDBLK
  5
7DB4
  8
0
  0
BLOCK
  8
0
  2
*D7
 70
     1
 10
0.0
 20
0.0
 30
0.0
  3
*D7
  1

  0
LINE
  5
7F19
  8
3
  6
CONTINUOUS
 62
     0
 10
1076.7253069999999
 20
1367.0192910000001
 30
0.0
 11
1076.7253069999999
 21
1222.371625
 31
0.0
  0
LINE
  5
7F1A
  8
3
  6
CONTINUOUS
 62
     0
 10
1421.725306999999
 20
1329.0890308817311
 30
0.0
 11
1421.725306999999
 21
1222.371625
 31
0.0
  0
LINE
  5
7F1B
  8
3
  6
CONTINUOUS
 62
     0
 10
1116.7253069999999
 20
1242.371625
 30
0.0
 11
1381.725306999999
 21
1242.371625
 31
0.0
  0
INSERT
  5
7F1C
  8
3
  6
CONTINUOUS
 62
     0
  2
_OPEN
 10
1076.7253069999999
 20
1242.371625
 30
0.0
 41
40.0
 42
40.0
 43
40.0
 50
180.0
  0
INSERT
  5
7F1D
  8
3
  6
CONTINUOUS
 62
     0
  2
_OPEN
 10
1421.725306999999
 20
1242.371625
 30
0.0
 41
40.0
 42
40.0
 43
40.0
  0
TEXT
  8
3
  40
60
  5
7F8D
  62
0
  72
0
  71
0
 10
1136.87
 20
1186.17
 30
0.000000
  1
345
  0
POINT
  5
7F1F
  8
DEFPOINTS
  6
CONTINUOUS
 62
     0
 10
1076.7253069999999
 20
1377.0192910000001
 30
0.0
  0
POINT
  5
7F20
  8
DEFPOINTS
  6
CONTINUOUS
 62
     0
 10
1421.725306999999
 20
1339.0890308817311
 30
0.0
  0
POINT
  5
7F21
  8
DEFPOINTS
  6
CONTINUOUS
 62
     0
 10
1421.725306999999
 20
1242.371625
 30
0.0
  0
ENDBLK
  5
7EA5
  8
0
  0
BLOCK
  8
0
  2
*D8
 70
     1
 10
0.0
 20
0.0
 30
0.0
  3
*D8
  1

  0
LINE
  5
7F22
  8
3
  6
CONTINUOUS
 62
     0
 10
2326.7253070000002
 20
1367.0192910000001
 30
0.0
 11
2326.7253070000002
 21
1222.371625
 31
0.0
  0
LINE
  5
7F23
  8
3
  6
CONTINUOUS
 62
     0
 10
1461.7253069999999
 20
1242.371625
 30
0.0
 11
2286.7253070000002
 21
1242.371625
 31
0.0
  0
INSERT
  5
7F24
  8
3
  6
CONTINUOUS
 62
     0
  2
_OPEN
 10
1421.725306999999
 20
1242.371625
 30
0.0
 41
40.0
 42
40.0
 43
40.0
 50
180.0
  0
INSERT
  5
7F25
  8
3
  6
CONTINUOUS
 62
     0
  2
_OPEN
 10
2326.7253070000002
 20
1242.371625
 30
0.0
 41
40.0
 42
40.0
 43
40.0
  0
TEXT
  8
3
  40
60
  5
7F8E
  62
0
  72
0
  71
0
 10
1754.23
 20
1186.17
 30
0.000000
  1
905
  0
POINT
  5
7F27
  8
DEFPOINTS
  6
CONTINUOUS
 62
     0
 10
1421.725306999999
 20
1339.0890308817311
 30
0.0
  0
POINT
  5
7F28
  8
DEFPOINTS
  6
CONTINUOUS
 62
     0
 10
2326.7253070000002
 20
1377.0192910000001
 30
0.0
  0
POINT
  5
7F29
  8
DEFPOINTS
  6
CONTINUOUS
 62
     0
 10
2326.7253070000002
 20
1242.371625
 30
0.0
  0
ENDBLK
  5
7E9A
  8
0
  0
BLOCK
  8
0
  2
*D9
 70
     1
 10
0.0
 20
0.0
 30
0.0
  3
*D9
  1

  0
LINE
  5
7F2A
  8
3
  6
CONTINUOUS
 62
     0
 10
3373.085763
 20
2543.0192910000001
 30
0.0
 11
3373.085763
 21
2610.0432942372991
 31
0.0
  0
LINE
  5
7F2B
  8
3
  6
CONTINUOUS
 62
     0
 10
2953.085763
 20
2543.0192910000001
 30
0.0
 11
2953.085763
 21
2610.0432942372991
 31
0.0
  0
LINE
  5
7F2C
  8
3
  6
CONTINUOUS
 62
     0
 10
3333.085763
 20
2590.0432942372991
 30
0.0
 11
2993.085763
 21
2590.0432942372991
 31
0.0
  0
INSERT
  5
7F2D
  8
3
  6
CONTINUOUS
 62
     0
  2
_OPEN
 10
3373.085763
 20
2590.0432942372991
 30
0.0
 41
40.0
 42
40.0
 43
40.0
  0
INSERT
  5
7F2E
  8
3
  6
CONTINUOUS
 62
     0
  2
_OPEN
 10
2953.085763
 20
2590.0432942372991
 30
0.0
 41
40.0
 42
40.0
 43
40.0
 50
180.0
  0
TEXT
  8
3
  40
60
  5
7F8F
  62
0
  72
0
  71
0
 10
3033.83
 20
2533.84
 30
0.000000
  1
420
  0
POINT
  5
7F30
  8
DEFPOINTS
  6
CONTINUOUS
 62
     0
 10
3373.085763
 20
2533.0192910000001
 30
0.0
  0
POINT
  5
7F31
  8
DEFPOINTS
  6
CONTINUOUS
 62
     0
 10
2953.085763
 20
2533.0192910000001
 30
0.0
  0
POINT
  5
7F32
  8
DEFPOINTS
  6
CONTINUOUS
 62
     0
 10
2953.085763
 20
2590.0432942372991
 30
0.0
  0
ENDBLK
  5
7DED
  8
0
  0
BLOCK
  8
0
  2
*D10
 70
     1
 10
0.0
 20
0.0
 30
0.0
  3
*D10
  1

  0
LINE
  5
7F33
  8
3
  6
CONTINUOUS
 62
     0
 10
3383.085763
 20
2289.0192910000001
 30
0.0
 11
3581.6090349999999
 21
2289.0192910000001
 31
0.0
  0
LINE
  5
7F34
  8
3
  6
CONTINUOUS
 62
     0
 10
3385.085763
 20
1699.0192910000001
 30
0.0
 11
3581.6090349999999
 21
1699.0192910000001
 31
0.0
  0
LINE
  5
7F35
  8
3
  6
CONTINUOUS
 62
     0
 10
3561.6090349999999
 20
2249.0192910000001
 30
0.0
 11
3561.6090349999999
 21
1739.0192909999989
 31
0.0
  0
INSERT
  5
7F36
  8
3
  6
CONTINUOUS
 62
     0
  2
_OPEN
 10
3561.6090349999999
 20
2289.0192910000001
 30
0.0
 41
40.0
 42
40.0
 43
40.0
 50
90.0
  0
INSERT
  5
7F37
  8
3
  6
CONTINUOUS
 62
     0
  2
_OPEN
 10
3561.6090349999999
 20
1699.0192910000001
 30
0.0
 41
40.0
 42
40.0
 43
40.0
 50
270.0
  0
TEXT
  8
3
  40
60
  5
7F90
  62
0
  72
0
  71
0
 10
3391.61
 20
1876.36
 30
0.000000
  1
φ590
  0
POINT
  5
7F39
  8
DEFPOINTS
  6
CONTINUOUS
 62
     0
 10
3373.085763
 20
2289.0192910000001
 30
0.0
  0
POINT
  5
7F3A
  8
DEFPOINTS
  6
CONTINUOUS
 62
     0
 10
3375.0857629999991
 20
1699.0192910000001
 30
0.0
  0
POINT
  5
7F3B
  8
DEFPOINTS
  6
CONTINUOUS
 62
     0
 10
3561.6090349999999
 20
1699.0192910000001
 30
0.0
  0
ENDBLK
  5
7E0D
  8
0
  0
BLOCK
  8
0
  2
*D11
 70
     1
 10
0.0
 20
0.0
 30
0.0
  3
*D11
  1

  0
LINE
  5
7DEF
  8
0
  6
BYBLOCK
 62
     0
 10
3375.0857629999991
 20
2324.0192910000001
 30
0.0
 11
3375.0857629999991
 21
2756.2318869999999
 31
0.0
  0
LINE
  5
7DF0
  8
0
  6
BYBLOCK
 62
     0
 10
3163.085763
 20
2691.1932168625831
 30
0.0
 11
3163.085763
 21
2756.2318869999999
 31
0.0
  0
LINE
  5
7DF1
  8
0
  6
BYBLOCK
 62
     0
 10
3335.085763
 20
2736.2318869999999
 30
0.0
 11
3203.085763
 21
2736.2318869999999
 31
0.0
  0
TEXT
  5
7DF2
  8
3
 62
     0
 10
3197.657191571428
 20
2763.3432075401201
 30
0.0
 40
60.0
  1
212
  0
INSERT
  5
7DF3
  8
0
  6
BYBLOCK
 62
     0
  2
_OPEN
 10
3375.0857629999991
 20
2736.2318869999999
 30
0.0
 41
40.0
 42
40.0
 43
40.0
  0
INSERT
  5
7DF4
  8
0
  6
BYBLOCK
 62
     0
  2
_OPEN
 10
3163.085763
 20
2736.2318869999999
 30
0.0
 41
40.0
 42
40.0
 43
40.0
 50
180.0
  0
POINT
  5
7DF5
  8
DEFPOINTS
  6
BYBLOCK
 62
     0
 10
3375.0857629999991
 20
2314.0192910000001
 30
0.0
  0
POINT
  5
7DF6
  8
DEFPOINTS
  6
BYBLOCK
 62
     0
 10
3163.085763
 20
2681.1932168625822
 30
0.0
  0
POINT
  5
7DF7
  8
DEFPOINTS
  6
BYBLOCK
 62
     0
 10
3163.085763
 20
2736.2318869999999
 30
0.0
  0
ENDBLK
  5
7DF8
  8
0
  0
BLOCK
  8
0
  2
*D12
 70
     1
 10
0.0
 20
0.0
 30
0.0
  3
*D12
  1

  0
LINE
  5
7F3C
  8
3
  6
CONTINUOUS
 62
     0
 10
2753.085763
 20
2429.0192910000001
 30
0.0
 11
2753.085763
 21
2756.2318869999999
 31
0.0
  0
LINE
  5
7F3D
  8
3
  6
CONTINUOUS
 62
     0
 10
3123.085763
 20
2736.2318869999999
 30
0.0
 11
2793.085763
 21
2736.2318869999999
 31
0.0
  0
INSERT
  5
7F3E
  8
3
  6
CONTINUOUS
 62
     0
  2
_OPEN
 10
3163.085763
 20
2736.2318869999999
 30
0.0
 41
40.0
 42
40.0
 43
40.0
  0
INSERT
  5
7F3F
  8
3
  6
CONTINUOUS
 62
     0
  2
_OPEN
 10
2753.085763
 20
2736.2318869999999
 30
0.0
 41
40.0
 42
40.0
 43
40.0
 50
180.0
  0
TEXT
  8
3
  40
60
  5
7F91
  62
0
  72
0
  71
0
 10
2838.09
 20
2730.03
 30
0.000000
  1
MAX
  0
TEXT
  8
3
  40
60
  5
7F92
  62
0
  72
0
  71
0
 10
2838.09
 20
2652.03
 30
0.000000
  1
470
  0
POINT
  5
7F41
  8
DEFPOINTS
  6
CONTINUOUS
 62
     0
 10
3163.085763
 20
2681.1932168625822
 30
0.0
  0
POINT
  5
7F42
  8
DEFPOINTS
  6
CONTINUOUS
 62
     0
 10
2753.085763
 20
2419.0192910000001
 30
0.0
  0
POINT
  5
7F43
  8
DEFPOINTS
  6
CONTINUOUS
 62
     0
 10
2753.085763
 20
2736.2318869999999
 30
0.0
  0
ENDBLK
  5
7E7B
  8
0
  0
BLOCK
  8
0
  2
*D13
 70
     1
 10
0.0
 20
0.0
 30
0.0
  3
*D13
  1

  0
LINE
  5
7F44
  8
3
  6
CONTINUOUS
 62
     0
 10
1076.7253069999999
 20
4004.0192909999992
 30
0.0
 11
1076.7253069999999
 21
4097.7979090000008
 31
0.0
  0
LINE
  5
7F45
  8
3
  6
CONTINUOUS
 62
     0
 10
2326.7253070000002
 20
4004.0192909999992
 30
0.0
 11
2326.7253070000002
 21
4097.7979090000008
 31
0.0
  0
LINE
  5
7F46
  8
3
  6
CONTINUOUS
 62
     0
 10
1116.7253069999999
 20
4077.7979089999999
 30
0.0
 11
2286.7253070000002
 21
4077.7979089999999
 31
0.0
  0
INSERT
  5
7F47
  8
3
  6
CONTINUOUS
 62
     0
  2
_OPEN
 10
1076.7253069999999
 20
4077.7979089999999
 30
0.0
 41
40.0
 42
40.0
 43
40.0
 50
180.0
  0
INSERT
  5
7F48
  8
3
  6
CONTINUOUS
 62
     0
  2
_OPEN
 10
2326.7253070000002
 20
4077.7979089999999
 30
0.0
 41
40.0
 42
40.0
 43
40.0
  0
TEXT
  8
3
  40
60
  5
7F93
  62
0
  72
0
  71
0
 10
1552.81
 20
4021.60
 30
0.000000
  1
1250
  0
POINT
  5
7F4A
  8
DEFPOINTS
  6
CONTINUOUS
 62
     0
 10
1076.7253069999999
 20
3994.0192910000001
 30
0.0
  0
POINT
  5
7F4B
  8
DEFPOINTS
  6
CONTINUOUS
 62
     0
 10
2326.7253070000002
 20
3994.0192910000001
 30
0.0
  0
POINT
  5
7F4C
  8
DEFPOINTS
  6
CONTINUOUS
 62
     0
 10
2326.7253070000002
 20
4077.7979089999999
 30
0.0
  0
ENDBLK
  5
7CAE
  8
0
  0
BLOCK
  8
0
  2
*D14
 70
     1
 10
0.0
 20
0.0
 30
0.0
  3
*D14
  1

  0
LINE
  5
7F4D
  8
3
  6
CONTINUOUS
 62
     0
 10
2336.7253070000002
 20
3994.0192910000001
 30
0.0
 11
2536.915300000001
 21
3994.0192910000001
 31
0.0
  0
LINE
  5
7F4E
  8
3
  6
CONTINUOUS
 62
     0
 10
2336.7253070000002
 20
3214.0192910000001
 30
0.0
 11
2536.915300000001
 21
3214.0192910000001
 31
0.0
  0
LINE
  5
7F4F
  8
3
  6
CONTINUOUS
 62
     0
 10
2516.915300000001
 20
3954.0192909999992
 30
0.0
 11
2516.915300000001
 21
3254.0192910000001
 31
0.0
  0
INSERT
  5
7F50
  8
3
  6
CONTINUOUS
 62
     0
  2
_OPEN
 10
2516.915300000001
 20
3994.0192910000001
 30
0.0
 41
40.0
 42
40.0
 43
40.0
 50
90.0
  0
INSERT
  5
7F51
  8
3
  6
CONTINUOUS
 62
     0
  2
_OPEN
 10
2516.915300000001
 20
3214.0192910000001
 30
0.0
 41
40.0
 42
40.0
 43
40.0
 50
270.0
  0
TEXT
  8
3
  40
60
  5
7F94
  62
0
  72
0
  71
0
 10
2346.92
 20
3494.95
 30
0.000000
  1
780
  0
POINT
  5
7F53
  8
DEFPOINTS
  6
CONTINUOUS
 62
     0
 10
2326.7253070000002
 20
3994.0192910000001
 30
0.0
  0
POINT
  5
7F54
  8
DEFPOINTS
  6
CONTINUOUS
 62
     0
 10
2326.7253070000002
 20
3214.0192910000001
 30
0.0
  0
POINT
  5
7F55
  8
DEFPOINTS
  6
CONTINUOUS
 62
     0
 10
2516.915300000001
 20
3214.0192910000001
 30
0.0
  0
ENDBLK
  5
7CBB
  8
0
  0
BLOCK
  8
0
  2
*D15
 70
     1
 10
0.0
 20
0.0
 30
0.0
  3
*D15
  1

  0
LINE
  5
7F56
  8
3
  6
CONTINUOUS
 62
     0
 10
1066.7253069999999
 20
1417.0192910000001
 30
0.0
 11
792.3881630000003
 21
1417.0192910000001
 31
0.0
  0
LINE
  5
7F57
  8
3
  6
CONTINUOUS
 62
     0
 10
1066.7253069999999
 20
1377.0192910000001
 30
0.0
 11
792.3881630000003
 21
1377.0192910000001
 31
0.0
  0
LINE
  5
7F58
  8
3
  6
CONTINUOUS
 62
     0
 10
812.3881630000003
 20
1457.0192910000001
 30
0.0
 11
812.3881630000003
 21
1497.0192910000001
 31
0.0
  0
LINE
  5
7F59
  8
3
  6
CONTINUOUS
 62
     0
 10
812.3881630000003
 20
1337.0192910000001
 30
0.0
 11
812.38816300000008
 21
1159.876433857143
 31
0.0
  0
LINE
  5
7F5A
  8
3
  6
CONTINUOUS
 62
     0
 10
812.3881630000003
 20
1417.0192910000001
 30
0.0
 11
812.3881630000003
 21
1377.0192910000001
 31
0.0
  0
INSERT
  5
7F5B
  8
3
  6
CONTINUOUS
 62
     0
  2
_DOT
 10
812.3881630000003
 20
1417.0192910000001
 30
0.0
 41
40.0
 42
40.0
 43
40.0
 50
270.0
  0
INSERT
  5
7F5C
  8
3
  6
CONTINUOUS
 62
     0
  2
_OPEN
 10
812.3881630000003
 20
1377.0192910000001
 30
0.0
 41
40.0
 42
40.0
 43
40.0
 50
90.0
  0
TEXT
  8
3
  40
60
  5
7F95
  62
0
  72
0
  71
0
 10
642.388
 20
1122.25
 30
0.000000
  1
40
  0
POINT
  5
7F5E
  8
DEFPOINTS
  6
CONTINUOUS
 62
     0
 10
1076.7253069999999
 20
1417.0192910000001
 30
0.0
  0
POINT
  5
7F5F
  8
DEFPOINTS
  6
CONTINUOUS
 62
     0
 10
1076.7253069999999
 20
1377.0192910000001
 30
0.0
  0
POINT
  5
7F60
  8
DEFPOINTS
  6
CONTINUOUS
 62
     0
 10
812.3881630000003
 20
1377.0192910000001
 30
0.0
  0
ENDBLK
  5
7E64
  8
0
  0
BLOCK
  8
0
  2
*D16
 70
     1
 10
0.0
 20
0.0
 30
0.0
  3
*D16
  1

  0
LINE
  5
7F61
  8
3
  6
CONTINUOUS
 62
     0
 10
1421.725306999999
 20
2600.142800790687
 30
0.0
 11
1421.725306999999
 21
2674.754093
 31
0.0
  0
LINE
  5
7F62
  8
3
  6
CONTINUOUS
 62
     0
 10
1016.725307
 20
2570.0192910000001
 30
0.0
 11
1016.725307
 21
2674.754093
 31
0.0
  0
LINE
  5
7F63
  8
3
  6
CONTINUOUS
 62
     0
 10
1381.725306999999
 20
2654.754093
 30
0.0
 11
1056.7253069999999
 21
2654.754093
 31
0.0
  0
INSERT
  5
7F64
  8
3
  6
CONTINUOUS
 62
     0
  2
_OPEN
 10
1421.725306999999
 20
2654.754093
 30
0.0
 41
40.0
 42
40.0
 43
40.0
  0
INSERT
  5
7F65
  8
3
  6
CONTINUOUS
 62
     0
  2
_OPEN
 10
1016.725307
 20
2654.754093
 30
0.0
 41
40.0
 42
40.0
 43
40.0
 50
180.0
  0
TEXT
  8
3
  40
60
  5
7F96
  62
0
  72
0
  71
0
 10
1099.23
 20
2598.55
 30
0.000000
  1
405
  0
POINT
  5
7F67
  8
DEFPOINTS
  6
CONTINUOUS
 62
     0
 10
1421.725306999999
 20
2590.142800790687
 30
0.0
  0
POINT
  5
7F68
  8
DEFPOINTS
  6
CONTINUOUS
 62
     0
 10
1016.725307
 20
2560.0192910000001
 30
0.0
  0
POINT
  5
7F69
  8
DEFPOINTS
  6
CONTINUOUS
 62
     0
 10
1016.725307
 20
2654.754093
 30
0.0
  0
ENDBLK
  5
7DBF
  8
0
  0
BLOCK
  8
0
  2
*D17
 70
     1
 10
0.0
 20
0.0
 30
0.0
  3
*D17
  1

  0
LINE
  5
7F6A
  8
3
  6
CONTINUOUS
 62
     0
 10
2718.085763
 20
1367.0192910000001
 30
0.0
 11
2718.085763
 21
1206.45384356866
 31
0.0
  0
LINE
  5
7F6B
  8
3
  6
CONTINUOUS
 62
     0
 10
3163.085763
 20
1303.9365252141311
 30
0.0
 11
3163.085763
 21
1206.45384356866
 31
0.0
  0
LINE
  5
7F6C
  8
3
  6
CONTINUOUS
 62
     0
 10
2758.085763
 20
1226.45384356866
 30
0.0
 11
3123.085763
 21
1226.45384356866
 31
0.0
  0
INSERT
  5
7F6D
  8
3
  6
CONTINUOUS
 62
     0
  2
_OPEN
 10
2718.085763
 20
1226.45384356866
 30
0.0
 41
40.0
 42
40.0
 43
40.0
 50
180.0
  0
INSERT
  5
7F6E
  8
3
  6
CONTINUOUS
 62
     0
  2
_OPEN
 10
3163.085763
 20
1226.45384356866
 30
0.0
 41
40.0
 42
40.0
 43
40.0
  0
TEXT
  8
3
  40
60
  5
7F97
  62
0
  72
0
  71
0
 10
2839.80
 20
1170.25
 30
0.000000
  1
445
  0
POINT
  5
7F70
  8
DEFPOINTS
  6
CONTINUOUS
 62
     0
 10
2718.085763
 20
1377.0192910000001
 30
0.0
  0
POINT
  5
7F71
  8
DEFPOINTS
  6
CONTINUOUS
 62
     0
 10
3163.085763
 20
1313.9365252141311
 30
0.0
  0
POINT
  5
7F72
  8
DEFPOINTS
  6
CONTINUOUS
 62
     0
 10
3163.085763
 20
1226.45384356866
 30
0.0
  0
ENDBLK
  5
7EB5
  8
0
  0
BLOCK
  8
0
  2
*D18
 70
     1
 10
0.0
 20
0.0
 30
0.0
  3
*D18
  1

  0
LINE
  5
7F73
  8
3
  6
CONTINUOUS
 62
     0
 10
3498.085763
 20
1367.0192910000001
 30
0.0
 11
3498.085763
 21
1206.45384356866
 31
0.0
  0
LINE
  5
7F74
  8
3
  6
CONTINUOUS
 62
     0
 10
3203.085763
 20
1226.45384356866
 30
0.0
 11
3458.085763
 21
1226.45384356866
 31
0.0
  0
INSERT
  5
7F75
  8
3
  6
CONTINUOUS
 62
     0
  2
_OPEN
 10
3163.085763
 20
1226.45384356866
 30
0.0
 41
40.0
 42
40.0
 43
40.0
 50
180.0
  0
INSERT
  5
7F76
  8
3
  6
CONTINUOUS
 62
     0
  2
_OPEN
 10
3498.085763
 20
1226.45384356866
 30
0.0
 41
40.0
 42
40.0
 43
40.0
  0
TEXT
  8
3
  40
60
  5
7F98
  62
0
  72
0
  71
0
 10
3210.59
 20
1170.25
 30
0.000000
  1
335
  0
POINT
  5
7F78
  8
DEFPOINTS
  6
CONTINUOUS
 62
     0
 10
3163.085763
 20
1313.9365252141311
 30
0.0
  0
POINT
  5
7F79
  8
DEFPOINTS
  6
CONTINUOUS
 62
     0
 10
3498.085763
 20
1377.0192910000001
 30
0.0
  0
POINT
  5
7F7A
  8
DEFPOINTS
  6
CONTINUOUS
 62
     0
 10
3498.085763
 20
1226.45384356866
 30
0.0
  0
ENDBLK
  5
7EBF
  8
0
  0
BLOCK
  8
0
  2
_DOT
 70
     0
 10
0.0
 20
0.0
 30
0.0
  3
_DOT
  1

  0
LINE
  5
7EA6
  8
0
  6
BYBLOCK
 62
     0
 10
0.0
 20
0.0
 30
0.0
 11
-1.0
 21
-0.0000000000000284
 31
0.0
  0
POLYLINE
  5
7EA7
  8
0
  6
BYBLOCK
 62
     0
 66
     1
 10
0.0
 20
0.0
 30
0.0
 70
     1
 40
0.1666666666666666
 41
0.1666666666666666
  0
VERTEX
  5
7F84
  8
0
  6
BYBLOCK
 62
     0
 10
-0.0833333333333286
 20
-0.0000000000000284
 30
0.0
 42
1.0
  0
VERTEX
  5
7F85
  8
0
  6
BYBLOCK
 62
     0
 10
0.0833333333333286
 20
-0.0000000000000284
 30
0.0
 42
1.0
  0
SEQEND
  5
7F86
  8
0
  6
BYBLOCK
 62
     0
  0
ENDBLK
  5
7E4B
  8
0
  0
BLOCK
  8
0
  2
*D20
 70
     1
 10
0.0
 20
0.0
 30
0.0
  3
*D20
  1

  0
LINE
  5
7F7B
  8
3
 62
     0
 10
1016.725307
 20
2570.0192910000001
 30
0.0
 11
1016.725307
 21
2793.0762743939808
 31
0.0
  0
LINE
  5
7F7C
  8
3
 62
     0
 10
2326.7253070000002
 20
1594.0192910000001
 30
0.0
 11
2326.7253070000002
 21
2793.0762743939808
 31
0.0
  0
LINE
  5
7F7D
  8
3
 62
     0
 10
1056.7253069999999
 20
2773.0762743939808
 30
0.0
 11
2286.7253070000002
 21
2773.0762743939808
 31
0.0
  0
INSERT
  5
7F7E
  8
3
 62
     0
  2
_OPEN
 10
1016.725307
 20
2773.0762743939808
 30
0.0
 41
40.0
 42
40.0
 43
40.0
 50
180.0
  0
INSERT
  5
7F7F
  8
3
 62
     0
  2
_OPEN
 10
2326.7253070000002
 20
2773.0762743939808
 30
0.0
 41
40.0
 42
40.0
 43
40.0
  0
TEXT
  8
3
  40
60
  5
7F99
  62
0
  72
0
  71
0
 10
1567.93
 20
2716.88
 30
0.000000
  1
1310
  0
POINT
  5
7F81
  8
DEFPOINTS
 62
     0
 10
1016.725307
 20
2560.0192910000001
 30
0.0
  0
POINT
  5
7F82
  8
DEFPOINTS
 62
     0
 10
2326.7253070000002
 20
1584.0192910000001
 30
0.0
  0
POINT
  5
7F83
  8
DEFPOINTS
 62
     0
 10
2326.7253070000002
 20
2773.0762743939808
 30
0.0
  0
ENDBLK
  5
7E70
  8
0
  0
ENDSEC
  0
SECTION
  2
ENTITIES
  0
LINE
  5
7AD3
  8
1
  6
CONTINUOUS
 10
1076.7253069999999
 20
1417.0192910000001
 30
0.0
 11
2326.7253070000002
 21
1417.0192910000001
 31
0.0
  0
LINE
  5
7AD4
  8
1
  6
CONTINUOUS
 10
1076.7253069999999
 20
1482.0192910000001
 30
0.0
 11
2326.7253070000002
 21
1482.0192910000001
 31
0.0
  0
LINE
  5
7AD5
  8
1
  6
CONTINUOUS
 10
1061.7253069999999
 20
2404.0192910000001
 30
0.0
 11
1896.725306999999
 21
2404.0192910000001
 31
0.0
  0
LINE
  5
7AD6
  8
1
  6
CONTINUOUS
 10
1061.7253069999999
 20
1584.0192910000001
 30
0.0
 11
2326.7253070000002
 21
1584.0192910000001
 31
0.0
  0
ARC
  5
7AD7
  8
1
  6
CONTINUOUS
 10
1452.7253069999999
 20
2025.0192910000001
 30
0.0
 40
433.10293799999999
 50
262.74680499999999
 51
354.95754899999997
  0
ARC
  5
7AD8
  8
1
  6
CONTINUOUS
 10
1384.7253069999999
 20
2031.0192910000001
 30
0.0
 40
501.36713099999992
 50
354.95754899999997
 51
85.767825999999985
  0
LINE
  5
7AD9
  8
1
  6
CONTINUOUS
 10
1076.7253069999999
 20
1504.0192910000001
 30
0.0
 11
2326.7253070000002
 21
1504.0192910000001
 31
0.0
  0
LINE
  5
7ADA
  8
1
  6
CONTINUOUS
 10
1421.2253069999999
 20
2419.0192910000001
 30
0.0
 11
2281.2253070000002
 21
1814.0192910000001
 31
0.0
  0
CIRCLE
  5
7ADB
  8
1
  6
CONTINUOUS
 10
1421.725306999999
 20
1994.0192910000001
 30
0.0
 40
295.0
  0
CIRCLE
  5
7ADC
  8
1
  6
CONTINUOUS
 10
1421.725306999999
 20
1994.0192910000001
 30
0.0
 40
320.0
  0
LINE
  5
7ADD
  8
1
  6
CONTINUOUS
 10
2146.0985769999988
 20
1831.6389810000001
 30
0.0
 11
1456.5442649999991
 21
2087.761704999999
 31
0.0
  0
LINE
  5
7ADE
  8
1
  6
CONTINUOUS
 10
2102.7765509999999
 20
1698.6327590000001
 30
0.0
 11
1394.6556559999999
 21
1897.7528170000001
 31
0.0
  0
LINE
  5
7ADF
  8
1
  6
CONTINUOUS
 10
1896.725306999999
 20
3449.0192909999992
 30
0.0
 11
1016.725307
 21
3449.0192909999992
 31
0.0
  0
LINE
  5
7AE0
  8
1
  6
CONTINUOUS
 10
1896.725306999999
 20
3869.0192910000001
 30
0.0
 11
1016.725307
 21
3869.0192910000001
 31
0.0
  0
LINE
  5
7AE1
  8
1
  6
CONTINUOUS
 10
1076.7253069999999
 20
3914.0192909999992
 30
0.0
 11
2326.7253070000002
 21
3914.0192909999992
 31
0.0
  0
LINE
  5
7AE2
  8
1
  6
CONTINUOUS
 10
1151.2253069999999
 20
3249.0192910000001
 30
0.0
 11
2281.2253070000002
 21
3249.0192910000001
 31
0.0
  0
LINE
  5
7AE3
  8
1
  6
CONTINUOUS
 10
1151.2253069999999
 20
3369.0192909999992
 30
0.0
 11
2281.2253070000002
 21
3369.0192909999992
 31
0.0
  0
LINE
  5
7AE4
  8
1
  6
CONTINUOUS
 10
1437.7253069999999
 20
3404.0192909999992
 30
0.0
 11
2102.7253070000002
 21
3404.0192909999992
 31
0.0
  0
LINE
  5
7AE5
  8
1
  6
CONTINUOUS
 10
1741.7253069999999
 20
3871.0192909999992
 30
0.0
 11
1101.725306999999
 21
3871.0192909999992
 31
0.0
  0
ARC
  5
7AE6
  8
1
  6
CONTINUOUS
 10
1445.7253069999999
 20
1970.0192910000001
 30
0.0
 40
377.65927299999993
 50
179.54485700000001
 51
262.74680499999999
  0
LINE
  5
7AE7
  8
1
  6
CONTINUOUS
 10
1016.725307
 20
2533.0192910000001
 30
0.0
 11
1421.725306999999
 21
2531.0192910000001
 31
0.0
  0
LINE
  5
7AE8
  8
1
  6
CONTINUOUS
 10
1068.0779500000001
 20
1973.0192909999989
 30
0.0
 11
1016.725307
 21
1973.0192909999989
 31
0.0
  0
LINE
  5
7AE9
  8
1
  6
CONTINUOUS
 10
1016.725307
 20
1946.0192909999989
 30
0.0
 11
1016.725307
 21
2560.0192910000001
 31
0.0
  0
LINE
  5
7AEA
  8
1
  6
CONTINUOUS
 10
1061.7253069999999
 20
2404.0192910000001
 30
0.0
 11
1061.7253069999999
 21
1584.0192910000001
 31
0.0
  0
LINE
  5
7AEB
  8
1
  6
CONTINUOUS
 10
1151.2253069999999
 20
1584.0192910000001
 30
0.0
 11
1151.2253069999999
 21
2334.0192910000001
 31
0.0
  0
LINE
  5
7AEC
  8
1
  6
CONTINUOUS
 10
1076.7253069999999
 20
1482.0192910000001
 30
0.0
 11
1076.7253069999999
 21
1377.0192910000001
 31
0.0
  0
LINE
  5
7AED
  8
1
  6
CONTINUOUS
 10
1116.7253069999999
 20
1417.0192910000001
 30
0.0
 11
1116.7253069999999
 21
1377.0192910000001
 31
0.0
  0
LINE
  5
7AEE
  8
1
  6
CONTINUOUS
 10
1076.7253069999999
 20
1377.0192910000001
 30
0.0
 11
1116.7253069999999
 21
1377.0192910000001
 31
0.0
  0
LINE
  5
7AEF
  8
1
  6
CONTINUOUS
 10
1076.7253069999999
 20
1584.0192910000001
 30
0.0
 11
1076.7253069999999
 21
1504.0192910000001
 31
0.0
  0
LINE
  5
7AF0
  8
2
  6
CENTER
 10
958.10516699999994
 20
1994.0192910000001
 30
0.0
 11
2152.5106011780081
 21
1994.0192910000001
 31
0.0
  0
LINE
  5
7AF1
  8
1
  6
CONTINUOUS
 10
1151.2253069999999
 20
2334.0192910000001
 30
0.0
 11
1421.2253069999999
 21
2419.0192910000001
 31
0.0
  0
CIRCLE
  5
7AF2
  8
1
  6
CONTINUOUS
 10
1421.725306999999
 20
1994.0192910000001
 30
0.0
 40
100.0
  0
LINE
  5
7AF3
  8
1
  6
CONTINUOUS
 10
1041.725306999999
 20
1973.0192909999989
 30
0.0
 11
1041.725306999999
 21
2532.8958339999999
 31
0.0
  0
LINE
  5
7AF4
  8
2
  6
CENTER
 10
1421.725306999999
 20
4026.4541199999999
 30
0.0
 11
1421.725306999999
 21
3131.2529420000001
 31
0.0
  0
LINE
  5
7AF5
  8
1
  6
CONTINUOUS
 10
1016.725307
 20
3896.0192909999992
 30
0.0
 11
1016.725307
 21
3422.0192909999992
 31
0.0
  0
LINE
  5
7AF6
  8
1
  6
CONTINUOUS
 10
1041.725306999999
 20
3869.0192910000001
 30
0.0
 11
1041.725306999999
 21
3449.0192909999992
 31
0.0
  0
LINE
  5
7AF7
  8
1
  6
CONTINUOUS
 10
1076.7253069999999
 20
3404.0192909999992
 30
0.0
 11
1405.725306999999
 21
3404.0192909999992
 31
0.0
  0
LINE
  5
7AF8
  8
1
  6
CONTINUOUS
 10
1521.7253069999999
 20
3279.0192910000001
 30
0.0
 11
1321.7253069999999
 21
3279.0192910000001
 31
0.0
  0
LINE
  5
7AF9
  8
1
  6
CONTINUOUS
 10
1521.7253069999999
 20
3339.0192910000001
 30
0.0
 11
1321.7253069999999
 21
3339.0192910000001
 31
0.0
  0
LINE
  5
7AFA
  8
1
  6
CONTINUOUS
 10
1116.7253069999999
 20
3404.0192909999992
 30
0.0
 11
1116.7253069999999
 21
3214.0192910000001
 31
0.0
  0
LINE
  5
7AFB
  8
1
  6
CONTINUOUS
 10
1116.7253069999999
 20
3214.0192910000001
 30
0.0
 11
1076.7253069999999
 21
3214.0192910000001
 31
0.0
  0
LINE
  5
7AFC
  8
1
  6
CONTINUOUS
 10
1151.2253069999999
 20
3249.0192910000001
 30
0.0
 11
1151.2253069999999
 21
3369.0192909999992
 31
0.0
  0
LINE
  5
7AFD
  8
1
  6
CONTINUOUS
 10
1076.7253069999999
 20
3449.0192909999992
 30
0.0
 11
1076.7253069999999
 21
3214.0192910000001
 31
0.0
  0
LINE
  5
7AFE
  8
1
  6
CONTINUOUS
 10
1321.7253069999999
 20
3279.0192910000001
 30
0.0
 11
1321.7253069999999
 21
3339.0192910000001
 31
0.0
  0
LINE
  5
7AFF
  8
1
  6
CONTINUOUS
 10
1437.7253069999999
 20
3449.0192909999992
 30
0.0
 11
1437.7253069999999
 21
3339.0192910000001
 31
0.0
  0
LINE
  5
7B00
  8
1
  6
CONTINUOUS
 10
1405.725306999999
 20
3449.0192909999992
 30
0.0
 11
1405.725306999999
 21
3339.0192910000001
 31
0.0
  0
LINE
  5
7B01
  8
1
  6
CONTINUOUS
 10
1521.7253069999999
 20
3279.0192910000001
 30
0.0
 11
1521.7253069999999
 21
3339.0192910000001
 31
0.0
  0
LINE
  5
7B02
  8
1
  6
CONTINUOUS
 10
1116.7253069999999
 20
3994.0192910000001
 30
0.0
 11
1076.7253069999999
 21
3994.0192910000001
 31
0.0
  0
LINE
  5
7B03
  8
1
  6
CONTINUOUS
 10
1116.7253069999999
 20
3994.0192910000001
 30
0.0
 11
1116.7253069999999
 21
3914.0192909999992
 31
0.0
  0
LINE
  5
7B04
  8
1
  6
CONTINUOUS
 10
1076.7253069999999
 20
3994.0192910000001
 30
0.0
 11
1076.7253069999999
 21
3869.0192910000001
 31
0.0
  0
LINE
  5
7B05
  8
1
  6
CONTINUOUS
 10
1101.725306999999
 20
3869.0192910000001
 30
0.0
 11
1101.725306999999
 21
3871.0192909999992
 31
0.0
  0
ARC
  5
7B0E
  8
1
  6
CONTINUOUS
 10
2121.7253070000002
 20
1766.0192910000001
 30
0.0
 40
142.0
 50
324.59875699999998
 51
215.40124299999999
  0
LINE
  5
7B0F
  8
1
  6
CONTINUOUS
 10
2251.7253070000002
 20
1649.0192910000001
 30
0.0
 11
2237.4716699999999
 21
1683.758853999999
 31
0.0
  0
LINE
  5
7B10
  8
1
  6
CONTINUOUS
 10
2251.7253070000002
 20
1584.0192910000001
 30
0.0
 11
1991.7253069999999
 21
1584.0192910000001
 31
0.0
  0
LINE
  5
7B11
  8
1
  6
CONTINUOUS
 10
1896.725306999999
 20
2404.0192910000001
 30
0.0
 11
1896.725306999999
 21
1584.0192910000001
 31
0.0
  0
LINE
  5
7B12
  8
2
  6
CENTER
 10
2191.7253070000002
 20
1766.0192910000001
 30
0.0
 11
2051.7253070000002
 21
1766.0192910000001
 31
0.0
  0
CIRCLE
  5
7B13
  8
1
  6
CONTINUOUS
 10
2121.7253070000002
 20
1766.0192910000001
 30
0.0
 40
70.0
  0
LINE
  5
7B14
  8
1
  6
CONTINUOUS
 10
1991.7253069999999
 20
1584.0192910000001
 30
0.0
 11
1991.7253069999999
 21
1649.0192910000001
 31
0.0
  0
LINE
  5
7B15
  8
1
  6
CONTINUOUS
 10
1991.7253069999999
 20
1649.0192910000001
 30
0.0
 11
2005.978944
 21
1683.758853999999
 31
0.0
  0
LINE
  5
7B16
  8
2
  6
CENTER
 10
2121.7253070000002
 20
1696.0192909999989
 30
0.0
 11
2121.7253070000002
 21
1836.0192910000001
 31
0.0
  0
LINE
  5
7B17
  8
1
  6
CONTINUOUS
 10
2326.7253070000002
 20
1482.0192910000001
 30
0.0
 11
2326.7253070000002
 21
1377.0192910000001
 31
0.0
  0
LINE
  5
7B18
  8
1
  6
CONTINUOUS
 10
2286.7253070000002
 20
1417.0192910000001
 30
0.0
 11
2286.7253070000002
 21
1377.0192910000001
 31
0.0
  0
LINE
  5
7B19
  8
1
  6
CONTINUOUS
 10
2286.7253070000002
 20
1377.0192910000001
 30
0.0
 11
2326.7253070000002
 21
1377.0192910000001
 31
0.0
  0
LINE
  5
7B1A
  8
1
  6
CONTINUOUS
 10
2326.7253070000002
 20
1584.0192910000001
 30
0.0
 11
2326.7253070000002
 21
1504.0192910000001
 31
0.0
  0
LINE
  5
7B1B
  8
1
  6
CONTINUOUS
 10
2251.7253070000002
 20
1584.0192910000001
 30
0.0
 11
2251.7253070000002
 21
1649.0192910000001
 31
0.0
  0
LINE
  5
7B1C
  8
1
  6
CONTINUOUS
 10
2281.2253070000002
 20
1584.0192910000001
 30
0.0
 11
2281.2253070000002
 21
1814.0192910000001
 31
0.0
  0
LINE
  5
7B46
  8
1
  6
CONTINUOUS
 10
2263.7253070000002
 20
3422.7571240000002
 30
0.0
 11
1979.7253069999999
 21
3422.7571240000002
 31
0.0
  0
LINE
  5
7B47
  8
1
  6
CONTINUOUS
 10
2263.7253070000002
 20
3822.7571240000002
 30
0.0
 11
1979.7253069999999
 21
3822.7571240000002
 31
0.0
  0
LINE
  5
7B48
  8
1
  6
CONTINUOUS
 10
2140.7253070000002
 20
3404.0192909999992
 30
0.0
 11
2326.7253070000002
 21
3404.0192909999992
 31
0.0
  0
LINE
  5
7B49
  8
1
  6
CONTINUOUS
 10
1979.7253069999999
 20
3822.7571240000002
 30
0.0
 11
1979.7253069999999
 21
3422.7571240000002
 31
0.0
  0
LINE
  5
7B4A
  8
1
  6
CONTINUOUS
 10
1896.725306999999
 20
3449.0192909999992
 30
0.0
 11
1896.725306999999
 21
3869.0192910000001
 31
0.0
  0
LINE
  5
7B4B
  8
1
  6
CONTINUOUS
 10
2191.7253070000002
 20
3339.0192910000001
 30
0.0
 11
2051.7253070000002
 21
3339.0192910000001
 31
0.0
  0
LINE
  5
7B4C
  8
1
  6
CONTINUOUS
 10
2191.7253070000002
 20
3279.0192910000001
 30
0.0
 11
2051.7253070000002
 21
3279.0192910000001
 31
0.0
  0
LINE
  5
7B4D
  8
1
  6
CONTINUOUS
 10
2051.7253070000002
 20
3279.0192910000001
 30
0.0
 11
2051.7253070000002
 21
3339.0192910000001
 31
0.0
  0
LINE
  5
7B4E
  8
1
  6
CONTINUOUS
 10
2140.7253070000002
 20
3339.0192910000001
 30
0.0
 11
2140.7253070000002
 21
3422.7571240000002
 31
0.0
  0
LINE
  5
7B4F
  8
1
  6
CONTINUOUS
 10
2102.7253070000002
 20
3339.0192910000001
 30
0.0
 11
2102.7253070000002
 21
3422.7571240000002
 31
0.0
  0
LINE
  5
7B50
  8
1
  6
CONTINUOUS
 10
2191.7253070000002
 20
3279.0192910000001
 30
0.0
 11
2191.7253070000002
 21
3339.0192910000001
 31
0.0
  0
LINE
  5
7B51
  8
1
  6
CONTINUOUS
 10
1741.7253069999999
 20
3869.0192910000001
 30
0.0
 11
1741.7253069999999
 21
3871.0192909999992
 31
0.0
  0
LINE
  5
7B52
  8
1
  6
CONTINUOUS
 10
2263.7253070000002
 20
3822.7571240000002
 30
0.0
 11
2263.7253070000002
 21
3422.7571240000002
 31
0.0
  0
LINE
  5
7B53
  8
1
  6
CONTINUOUS
 10
2326.7253070000002
 20
3994.0192910000001
 30
0.0
 11
2326.7253070000002
 21
3214.0192910000001
 31
0.0
  0
LINE
  5
7B56
  8
1
  6
CONTINUOUS
 10
2286.7253070000002
 20
3404.0192909999992
 30
0.0
 11
2286.7253070000002
 21
3214.0192910000001
 31
0.0
  0
LINE
  5
7B57
  8
1
  6
CONTINUOUS
 10
2286.7253070000002
 20
3214.0192910000001
 30
0.0
 11
2326.7253070000002
 21
3214.0192910000001
 31
0.0
  0
LINE
  5
7B58
  8
1
  6
CONTINUOUS
 10
2281.2253070000002
 20
3249.0192910000001
 30
0.0
 11
2281.2253070000002
 21
3369.0192909999992
 31
0.0
  0
LINE
  5
7B5C
  8
1
  6
CONTINUOUS
 10
2286.7253070000002
 20
3994.0192910000001
 30
0.0
 11
2286.7253070000002
 21
3914.0192909999992
 31
0.0
  0
LINE
  5
7B5D
  8
1
  6
CONTINUOUS
 10
2286.7253070000002
 20
3994.0192910000001
 30
0.0
 11
2326.7253070000002
 21
3994.0192910000001
 31
0.0
  0
LINE
  5
7B7E
  8
1
  6
CONTINUOUS
 10
2953.085763
 20
1973.0192909999989
 30
0.0
 11
3373.085763
 21
2533.0192910000001
 31
0.0
  0
LINE
  5
7B7F
  8
1
  6
CONTINUOUS
 10
2953.085763
 20
2533.0192910000001
 30
0.0
 11
3373.085763
 21
1973.0192909999989
 31
0.0
  0
LINE
  5
7B80
  8
1
  6
CONTINUOUS
 10
2953.085763
 20
1973.0192909999989
 30
0.0
 11
3373.085763
 21
1973.0192909999989
 31
0.0
  0
LINE
  5
7B81
  8
1
  6
CONTINUOUS
 10
2953.085763
 20
2533.0192910000001
 30
0.0
 11
3373.085763
 21
2533.0192910000001
 31
0.0
  0
LINE
  5
7B82
  8
1
  6
CONTINUOUS
 10
3418.085763
 20
1584.0192910000001
 30
0.0
 11
2753.085763
 21
1584.0192910000001
 31
0.0
  0
LINE
  5
7B83
  8
1
  6
CONTINUOUS
 10
3418.085763
 20
1504.0192910000001
 30
0.0
 11
2908.085763
 21
1504.0192910000001
 31
0.0
  0
LINE
  5
7B84
  8
1
  6
CONTINUOUS
 10
3418.085763
 20
1482.0192910000001
 30
0.0
 11
2908.085763
 21
1482.0192910000001
 31
0.0
  0
LINE
  5
7B85
  8
1
  6
CONTINUOUS
 10
2873.085763
 20
1584.0192910000001
 30
0.0
 11
2873.085763
 21
2419.0192910000001
 31
0.0
  0
LINE
  5
7B86
  8
1
  6
CONTINUOUS
 10
2753.085763
 20
1584.0192910000001
 30
0.0
 11
2753.085763
 21
2419.0192910000001
 31
0.0
  0
LINE
  5
7B87
  8
1
  6
CONTINUOUS
 10
2953.085763
 20
1584.0192910000001
 30
0.0
 11
2953.085763
 21
2533.0192910000001
 31
0.0
  0
LINE
  5
7B8A
  8
1
  6
CONTINUOUS
 10
2783.085763
 20
1696.0192909999989
 30
0.0
 11
2843.085763
 21
1696.0192909999989
 31
0.0
  0
LINE
  5
7B8B
  8
1
  6
CONTINUOUS
 10
2783.085763
 20
1836.0192910000001
 30
0.0
 11
2843.085763
 21
1836.0192910000001
 31
0.0
  0
LINE
  5
7B8E
  8
1
  6
CONTINUOUS
 10
2783.085763
 20
1836.0192910000001
 30
0.0
 11
2783.085763
 21
1696.0192909999989
 31
0.0
  0
LINE
  5
7B8F
  8
1
  6
CONTINUOUS
 10
2843.085763
 20
1750.0192910000001
 30
0.0
 11
2953.085763
 21
1750.0192910000001
 31
0.0
  0
LINE
  5
7B90
  8
1
  6
CONTINUOUS
 10
2843.085763
 20
1782.0192910000001
 30
0.0
 11
2953.085763
 21
1782.0192910000001
 31
0.0
  0
LINE
  5
7B91
  8
1
  6
CONTINUOUS
 10
2843.085763
 20
1836.0192910000001
 30
0.0
 11
2843.085763
 21
1696.0192909999989
 31
0.0
  0
LINE
  5
7B92
  8
1
  6
CONTINUOUS
 10
2908.085763
 20
1504.0192910000001
 30
0.0
 11
2908.085763
 21
1584.0192910000001
 31
0.0
  0
LINE
  5
7B93
  8
1
  6
CONTINUOUS
 10
2908.085763
 20
1417.0192910000001
 30
0.0
 11
2908.085763
 21
1482.0192910000001
 31
0.0
  0
LINE
  5
7B94
  8
1
  6
CONTINUOUS
 10
2783.085763
 20
1894.0192910000001
 30
0.0
 11
2843.085763
 21
1894.0192910000001
 31
0.0
  0
LINE
  5
7B95
  8
1
  6
CONTINUOUS
 10
2783.085763
 20
2094.0192909999992
 30
0.0
 11
2843.085763
 21
2094.0192909999992
 31
0.0
  0
LINE
  5
7B96
  8
1
  6
CONTINUOUS
 10
2753.085763
 20
2419.0192910000001
 30
0.0
 11
2873.085763
 21
2419.0192910000001
 31
0.0
  0
LINE
  5
7B97
  8
1
  6
CONTINUOUS
 10
2783.085763
 20
2094.0192909999992
 30
0.0
 11
2783.085763
 21
1894.0192910000001
 31
0.0
  0
LINE
  5
7B98
  8
1
  6
CONTINUOUS
 10
2953.085763
 20
1978.0192910000001
 30
0.0
 11
2843.085763
 21
1978.0192910000001
 31
0.0
  0
LINE
  5
7B99
  8
1
  6
CONTINUOUS
 10
2953.085763
 20
2010.0192910000001
 30
0.0
 11
2843.085763
 21
2010.0192910000001
 31
0.0
  0
LINE
  5
7B9A
  8
1
  6
CONTINUOUS
 10
2843.085763
 20
2094.0192909999992
 30
0.0
 11
2843.085763
 21
1894.0192910000001
 31
0.0
  0
LINE
  5
7B9B
  8
1
  6
CONTINUOUS
 10
3375.0857629999991
 20
1674.0192910000001
 30
0.0
 11
3375.0857629999991
 21
2314.0192910000001
 31
0.0
  0
LINE
  5
7B9C
  8
1
  6
CONTINUOUS
 10
3373.085763
 20
1584.0192910000001
 30
0.0
 11
3373.085763
 21
2533.0192910000001
 31
0.0
  0
LINE
  5
7B9D
  8
1
  6
CONTINUOUS
 10
3373.085763
 20
1674.0192910000001
 30
0.0
 11
3375.0857629999991
 21
1674.0192910000001
 31
0.0
  0
LINE
  5
7B9E
  8
1
  6
CONTINUOUS
 10
3418.085763
 20
1504.0192910000001
 30
0.0
 11
3418.085763
 21
1584.0192910000001
 31
0.0
  0
LINE
  5
7B9F
  8
1
  6
CONTINUOUS
 10
3418.085763
 20
1417.0192910000001
 30
0.0
 11
3418.085763
 21
1482.0192910000001
 31
0.0
  0
LINE
  5
7BA0
  8
1
  6
CONTINUOUS
 10
3373.085763
 20
2314.0192910000001
 30
0.0
 11
3375.0857629999991
 21
2314.0192910000001
 31
0.0
  0
LINE
  5
7BA1
  8
2
  6
CENTER
 10
3163.085763
 20
2579.2839072525908
 30
0.0
 11
3163.085763
 21
1313.9365252141311
 31
0.0
  0
LINE
  5
7BA2
  8
2
  6
CENTER
 10
2416.1826309999992
 20
3659.0192909999992
 30
0.0
 11
900.63853099999994
 21
3659.0192909999992
 31
0.0
  0
LINE
  5
7BA3
  8
2
  6
CENTER
 10
1421.725306999999
 20
2590.142800790687
 30
0.0
 11
1421.725306999999
 21
1339.0890308817311
 31
0.0
  0
LINE
  5
7BA4
  8
2
  6
CENTER
 10
2730.5062535890361
 20
1994.0192910000001
 30
0.0
 11
3436.3780321505542
 21
1994.0192910000001
 31
0.0
  0
LINE
  5
7BA5
  8
4
  6
CONTINUOUS
 10
3700.0
 20
1000.0
 30
0.0
 11
3700.0
 21
600.0
 31
0.0
  0
LINE
  5
7BA6
  8
4
  6
CONTINUOUS
 10
2300.0
 20
1000.0
 30
0.0
 11
2300.0
 21
600.0
 31
0.0
  0
LINE
  5
7BA7
  8
4
  6
CONTINUOUS
 10
1300.0
 20
1000.0
 30
0.0
 11
1300.0
 21
600.0
 31
0.0
  0
LINE
  5
7BAA
  8
4
  6
CONTINUOUS
 10
1300.0
 20
600.0
 30
0.0
 11
3700.0
 21
600.0
 31
0.0
  0
LINE
  5
7BAB
  8
4
  6
CONTINUOUS
 10
1300.0
 20
800.0
 30
0.0
 11
3700.0
 21
800.0
 31
0.0
  0
TEXT
  5
7BAC
  8
4
  6
CONTINUOUS
 10
1377.004162
 20
863.086052
 30
0.0
 40
100.0
  1
機器名称
  0
TEXT
  5
7BAD
  8
4
  6
CONTINUOUS
 10
1372.516212
 20
643.29031299999986
 30
0.0
 40
100.0
  1
機器型番
  0
TEXT
  5
7BAE
  8
4
  6
CONTINUOUS
 10
2355.3574910000002
 20
845.14353800000015
 30
0.0
 40
100.0
  1
ミツヤ多翼送風機
  0
TEXT
  5
7BAF
  8
4
  6
CONTINUOUS
 10
2373.3089909999999
 20
634.31916899999999
 30
0.0
 40
100.0
  1
MF#3 1/2-4
  0
TEXT
  5
7BB1
  8
4
  6
CONTINUOUS
 10
1506.7158460000001
 20
4766.8576830000002
 30
0.0
 40
108.0
  1
天井吊防振ベット
  0
TEXT
  5
7BB2
  8
4
  6
CONTINUOUS
 10
632.33518700000002
 20
5067.7619520000007
 30
0.0
 40
144.0
  1
ベルト駆動式片吸込両持多翼ファン
  0
LINE
  5
7BB3
  8
4
  6
CONTINUOUS
 10
500.0
 20
4938.8175090000004
 30
0.0
 11
3700.0
 21
4938.8175090000004
 31
0.0
  0
LINE
  5
7BB4
  8
4
  6
CONTINUOUS
 10
500.0
 20
5338.8175090000004
 30
0.0
 11
3700.0
 21
5338.8175090000004
 31
0.0
  0
LINE
  5
7BB5
  8
4
  6
CONTINUOUS
 10
1300.0
 20
1000.0
 30
0.0
 11
3700.0
 21
1000.0
 31
0.0
  0
LINE
  5
7BB6
  8
4
  6
CONTINUOUS
 10
500.0
 20
5338.8175090000004
 30
0.0
 11
500.0
 21
4938.8175090000004
 31
0.0
  0
TEXT
  5
7BB7
  8
4
  6
CONTINUOUS
 10
634.99818099999993
 20
4764.6389549999994
 30
0.0
 40
108.0
  1
左回転左横向
  0
TEXT
  5
7BB8
  8
4
  6
CONTINUOUS
 10
2937.9391179999998
 20
5412.122163
 30
0.0
 40
112.0
  1
No.
  0
TEXT
  5
7BB9
  8
4
  6
CONTINUOUS
 10
2622.5921250000001
 20
4766.8576830000002
 30
0.0
 40
108.0
  1
縮尺：1/20
  0
LINE
  5
7BBA
  8
4
  6
CONTINUOUS
 10
3700.0
 20
5338.8175090000004
 30
0.0
 11
3700.0
 21
4938.8175090000004
 31
0.0
  0
LINE
  5
7BBC
  8
4
  6
CONTINUOUS
 10
2881.234845
 20
5362.5271659999999
 30
0.0
 11
2881.234845
 21
5573.3045229999998
 31
0.0
  0
LINE
  5
7BBD
  8
4
  6
CONTINUOUS
 10
2881.234845
 20
5573.3045229999998
 30
0.0
 11
3700.0
 21
5573.3045229999998
 31
0.0
  0
LINE
  5
7BBE
  8
4
  6
CONTINUOUS
 10
3700.0
 20
5573.3045229999998
 30
0.0
 11
3700.0
 21
5362.5271659999999
 31
0.0
  0
LINE
  5
7BBF
  8
4
  6
CONTINUOUS
 10
3700.0
 20
5362.5271659999999
 30
0.0
 11
2881.234845
 21
5362.5271659999999
 31
0.0
  0
DIMENSION
  5
7BD7
  8
3
  6
CONTINUOUS
  2
*D1
 10
938.80048400000044
 20
1973.0192909999989
 30
0.0
 11
938.80048399999998
 21
2251.4389869999991
 31
0.0
 70
   128
 13
1016.725307
 23
2533.0192910000001
 33
0.0
 14
1016.725307
 24
1973.0192909999989
 34
0.0
 50
90.0
1001
ACAD
1000
DSTYLE
1002
{
1070
   287
1070
     3
1070
    40
1040
20.0
1070
   143
1040
0.039
1070
   172
1070
     1
1070
   271
1070
     0
1070
   279
1070
     0
1070
   288
1070
     1
1002
}
  0
DIMENSION
  5
7BE4
  8
3
  6
CONTINUOUS
  2
*D2
 10
812.3881630000003
 20
1994.0192910000001
 30
0.0
 11
812.38816299999985
 21
2255.512874999999
 31
0.0
 70
   128
 13
1016.725307
 23
2533.0192910000001
 33
0.0
 14
958.10516699999994
 24
1994.0192910000001
 34
0.0
 50
90.0
1001
ACAD
1000
DSTYLE
1002
{
1070
   287
1070
     3
1070
    40
1040
20.0
1070
   143
1040
0.039
1070
   172
1070
     1
1070
   271
1070
     0
1070
   279
1070
     0
1070
   288
1070
     1
1002
}
  0
DIMENSION
  5
7BF0
  8
3
  6
CONTINUOUS
  2
*D3
 10
812.38816299999985
 20
1504.0192910000001
 30
0.0
 11
762.38816299999974
 21
1749.0192910000001
 31
0.0
 70
     0
 13
958.10516699999994
 23
1994.0192910000001
 33
0.0
 14
1076.7253069999999
 24
1504.0192910000001
 34
0.0
 50
90.0
1001
ACAD
1000
DSTYLE
1002
{
1070
   287
1070
     4
1070
    40
1040
20.0
1070
    75
1070
     1
1070
   143
1040
0.039
1070
   172
1070
     1
1070
   271
1070
     0
1070
   279
1070
     1
1070
   288
1070
     1
1002
}
  0
DIMENSION
  5
7C0E
  8
3
  6
CONTINUOUS
  2
*D4
 10
812.38816299999985
 20
1417.0192910000001
 30
0.0
 11
807.6986619999999
 21
1474.322144999999
 31
0.0
 70
   128
 13
1076.7253069999999
 23
1504.0192910000001
 33
0.0
 14
1076.7253069999999
 24
1417.0192910000001
 34
0.0
 50
90.0
1001
ACAD
1000
DSTYLE
1002
{
1070
   287
1070
     4
1070
    40
1040
20.0
1070
    75
1070
     1
1070
   143
1040
0.039
1070
   172
1070
     1
1070
   271
1070
     0
1070
   279
1070
     1
1070
   288
1070
     1
1070
     7
1000
DOT
1002
}
  0
DIMENSION
  5
7C1B
  8
3
  6
CONTINUOUS
  2
*D5
 10
698.62539500000025
 20
1377.0192910000001
 30
0.0
 11
698.62539500000003
 21
1966.266681999999
 31
0.0
 70
   128
 13
1016.725307
 23
2560.0192910000001
 33
0.0
 14
1076.7253069999999
 24
1377.0192910000001
 34
0.0
 50
90.0
1001
ACAD
1000
DSTYLE
1002
{
1070
   287
1070
     3
1070
    40
1040
20.0
1070
   143
1040
0.039
1070
   172
1070
     1
1070
   271
1070
     0
1070
   279
1070
     0
1070
   288
1070
     1
1002
}
  0
DIMENSION
  5
7C34
  8
3
  6
CONTINUOUS
  2
*D6
 10
1896.725306999999
 20
2654.754093
 30
0.0
 11
1659.225306999999
 21
2704.754093
 31
0.0
 70
     0
 13
1421.725306999999
 23
2590.142800790687
 33
0.0
 14
1896.725306999999
 24
2404.0192910000001
 34
0.0
1001
ACAD
1000
DSTYLE
1002
{
1070
   287
1070
     3
1070
    40
1040
20.0
1070
   143
1040
0.039
1070
   172
1070
     1
1070
   271
1070
     0
1070
   279
1070
     0
1070
   288
1070
     1
1002
}
  0
DIMENSION
  5
7C41
  8
3
  6
CONTINUOUS
  2
*D7
 10
1421.725306999999
 20
1242.371625
 30
0.0
 11
1256.870118
 21
1242.371625
 31
0.0
 70
   128
 13
1076.7253069999999
 23
1377.0192910000001
 33
0.0
 14
1421.725306999999
 24
1339.0890308817311
 34
0.0
1001
ACAD
1000
DSTYLE
1002
{
1070
   287
1070
     3
1070
    40
1040
20.0
1070
   143
1040
0.039
1070
   172
1070
     1
1070
   271
1070
     0
1070
   279
1070
     0
1070
   288
1070
     1
1002
}
  0
DIMENSION
  5
7C4D
  8
3
  6
CONTINUOUS
  2
*D8
 10
2326.7253070000002
 20
1242.371625
 30
0.0
 11
1874.2253069999999
 21
1292.371625
 31
0.0
 70
     0
 13
1421.725306999999
 23
1339.0890308817311
 33
0.0
 14
2326.7253070000002
 24
1377.0192910000001
 34
0.0
1001
ACAD
1000
DSTYLE
1002
{
1070
   287
1070
     4
1070
    40
1040
20.0
1070
    75
1070
     1
1070
   143
1040
0.039
1070
   172
1070
     1
1070
   271
1070
     0
1070
   279
1070
     1
1070
   288
1070
     1
1002
}
  0
DIMENSION
  5
7C5A
  8
3
  6
CONTINUOUS
  2
*D9
 10
2953.085763
 20
2590.0432942372991
 30
0.0
 11
3153.8274339999998
 21
2590.0432942372991
 31
0.0
 70
   128
 13
3373.085763
 23
2533.0192910000001
 33
0.0
 14
2953.085763
 24
2533.0192910000001
 34
0.0
1001
ACAD
1000
DSTYLE
1002
{
1070
   287
1070
     3
1070
    40
1040
20.0
1070
   143
1040
0.039
1070
   172
1070
     1
1070
   271
1070
     0
1070
   279
1070
     0
1070
   288
1070
     1
1002
}
  0
LINE
  5
7C5B
  8
1
  6
CONTINUOUS
 10
2718.085763
 20
1417.0192910000001
 30
0.0
 11
3498.085763
 21
1417.0192910000001
 31
0.0
  0
DIMENSION
  5
7C6A
  8
3
  6
CONTINUOUS
  2
*D10
 10
3561.6090349999999
 20
1699.0192910000001
 30
0.0
 11
3561.6090349999999
 21
1982.5622489999989
 31
0.0
 70
   128
 13
3373.085763
 23
2289.0192910000001
 33
0.0
 14
3375.0857629999991
 24
1699.0192910000001
 34
0.0
 50
90.0
1001
ACAD
1000
DSTYLE
1002
{
1070
   287
1070
     3
1070
     3
1000
φ<>
1070
    40
1040
20.0
1070
   143
1040
0.039
1070
   172
1070
     1
1070
   271
1070
     0
1070
   279
1070
     0
1070
   288
1070
     1
1002
}
  0
DIMENSION
  5
7C79
  8
3
  6
CONTINUOUS
  2
*D11
 10
3163.085763
 20
2736.2318869999999
 30
0.0
 11
3269.085763
 21
2793.3432075401188
 31
0.0
 70
   128
 13
3375.0857629999991
 23
2314.0192910000001
 33
0.0
 14
3163.085763
 24
2681.1932168625822
 34
0.0
1001
ACAD
1000
DSTYLE
1002
{
1070
   288
1070
     1
1070
   172
1070
     1
1070
    40
1040
20.0
1070
   271
1070
     0
1070
   143
1040
0.039
1002
}
  0
DIMENSION
  5
7C85
  8
3
  6
CONTINUOUS
  2
*D12
 10
2753.085763
 20
2736.2318869999999
 30
0.0
 11
2958.085763
 21
2836.2318869999999
 31
0.0
 70
     0
  1
MAX\P470
 13
3163.085763
 23
2681.1932168625822
 33
0.0
 14
2753.085763
 24
2419.0192910000001
 34
0.0
1001
ACAD
1000
DSTYLE
1002
{
1070
   287
1070
     4
1070
    40
1040
20.0
1070
    75
1070
     1
1070
   143
1040
0.039
1070
   172
1070
     1
1070
   271
1070
     0
1070
   279
1070
     1
1070
   288
1070
     1
1002
}
  0
DIMENSION
  5
7CAF
  8
3
  6
CONTINUOUS
  2
*D13
 10
2326.7253070000002
 20
4077.7979089999999
 30
0.0
 11
1672.8073609999999
 21
4077.7979089999999
 31
0.0
 70
   128
 13
1076.7253069999999
 23
3994.0192910000001
 33
0.0
 14
2326.7253070000002
 24
3994.0192910000001
 34
0.0
1001
ACAD
1000
DSTYLE
1002
{
1070
   287
1070
     3
1070
    40
1040
20.0
1070
   143
1040
0.039
1070
   172
1070
     1
1070
   271
1070
     0
1070
   279
1070
     0
1070
   288
1070
     1
1002
}
  0
DIMENSION
  5
7CBC
  8
3
  6
CONTINUOUS
  2
*D14
 10
2516.915300000001
 20
3214.0192910000001
 30
0.0
 11
2516.9153000000001
 21
3601.1527850000002
 31
0.0
 70
   128
 13
2326.7253070000002
 23
3994.0192910000001
 33
0.0
 14
2326.7253070000002
 24
3214.0192910000001
 34
0.0
 50
90.0
1001
ACAD
1000
DSTYLE
1002
{
1070
   287
1070
     3
1070
    40
1040
20.0
1070
   143
1040
0.039
1070
   172
1070
     1
1070
   271
1070
     0
1070
   279
1070
     0
1070
   288
1070
     1
1002
}
  0
DIMENSION
  5
7CD2
  8
3
  6
CONTINUOUS
  2
*D15
 10
812.3881630000003
 20
1377.0192910000001
 30
0.0
 11
812.38816300000008
 21
1228.4478624285709
 31
0.0
 70
   128
 13
1076.7253069999999
 23
1417.0192910000001
 33
0.0
 14
1076.7253069999999
 24
1377.0192910000001
 34
0.0
 50
90.0
1001
ACAD
1000
DSTYLE
1002
{
1070
   287
1070
     3
1070
    40
1040
20.0
1070
   143
1040
0.039
1070
   172
1070
     1
1070
   271
1070
     0
1070
   279
1070
     0
1070
   288
1070
     1
1070
     6
1000
DOT
1002
}
  0
DIMENSION
  5
7D04
  8
3
  6
CONTINUOUS
  2
*D16
 10
1016.725307
 20
2654.754093
 30
0.0
 11
1219.2253069999999
 21
2704.754093
 31
0.0
 70
     0
 13
1421.725306999999
 23
2590.142800790687
 33
0.0
 14
1016.725307
 24
2560.0192910000001
 34
0.0
1001
ACAD
1000
DSTYLE
1002
{
1070
   287
1070
     3
1070
    40
1040
20.0
1070
   143
1040
0.039
1070
   172
1070
     1
1070
   271
1070
     0
1070
   279
1070
     0
1070
   288
1070
     1
1002
}
  0
LINE
  5
7D69
  8
1
  6
CONTINUOUS
 10
3498.085763
 20
1377.0192910000001
 30
0.0
 11
2718.085763
 21
1377.0192910000001
 31
0.0
  0
LINE
  5
7D6B
  8
1
  6
CONTINUOUS
 10
2718.085763
 20
1417.0192910000001
 30
0.0
 11
2718.085763
 21
1377.0192910000001
 31
0.0
  0
LINE
  5
7D6C
  8
1
  6
CONTINUOUS
 10
3498.085763
 20
1417.0192910000001
 30
0.0
 11
3498.085763
 21
1377.0192910000001
 31
0.0
  0
DIMENSION
  5
7D7D
  8
3
  6
CONTINUOUS
  2
*D17
 10
3163.085763
 20
1226.45384356866
 30
0.0
 11
2959.7983840000002
 21
1226.45384356866
 31
0.0
 70
   128
 13
2718.085763
 23
1377.0192910000001
 33
0.0
 14
3163.085763
 24
1313.9365252141311
 34
0.0
1001
ACAD
1000
DSTYLE
1002
{
1070
   287
1070
     3
1070
    40
1040
20.0
1070
   143
1040
0.039
1070
   172
1070
     1
1070
   271
1070
     0
1070
   279
1070
     0
1070
   288
1070
     1
1002
}
  0
DIMENSION
  5
7D89
  8
3
  6
CONTINUOUS
  2
*D18
 10
3498.085763
 20
1226.45384356866
 30
0.0
 11
3330.585763
 21
1276.45384356866
 31
0.0
 70
     0
 13
3163.085763
 23
1313.9365252141311
 33
0.0
 14
3498.085763
 24
1377.0192910000001
 34
0.0
1001
ACAD
1000
DSTYLE
1002
{
1070
   287
1070
     4
1070
    40
1040
20.0
1070
    75
1070
     1
1070
   143
1040
0.039
1070
   172
1070
     1
1070
   271
1070
     0
1070
   279
1070
     1
1070
   288
1070
     1
1002
}
  0
DIMENSION
  5
7E71
  8
3
  2
*D20
 10
2326.7253070000002
 20
2773.0762743939808
 30
0.0
 11
1687.925538895877
 21
2773.0762743939808
 31
0.0
 70
   128
 13
1016.725307
 23
2560.0192910000001
 33
0.0
 14
2326.7253070000002
 24
1584.0192910000001
 34
0.0
1001
ACAD
1000
DSTYLE
1002
{
1070
   287
1070
     3
1070
    40
1040
20.0
1070
   143
1040
0.039
1070
   172
1070
     1
1070
   271
1070
     0
1070
   279
1070
     0
1070
   288
1070
     1
1002
}
  0
ENDSEC
  0
EOF
