  0
SECTION
  2
HEADER
  9
$ACADVER
  1
AC1009
  9
$INSBASE
 10
0.0
 20
0.0
 30
0.0
  9
$EXTMIN
 10
500.0
 20
600.0
 30
0.0
  9
$EXTMAX
 10
3700.0
 20
5573.3045229999998
 30
0.0
  9
$LIMMIN
 10
0.0
 20
0.0
  9
$LIMMAX
 10
297.0
 20
210.0
  9
$ORTHOMODE
 70
     0
  9
$REGENMODE
 70
     1
  9
$FILLMODE
 70
     0
  9
$QTEXTMODE
 70
     0
  9
$MIRRTEXT
 70
     1
  9
$DRAGMODE
 70
     2
  9
$LTSCALE
 40
100.0
  9
$OSMODE
 70
    37
  9
$ATTMODE
 70
     1
  9
$TEXTSIZE
 40
180.0
  9
$TRACEWID
 40
0.05
  9
$TEXTSTYLE
  7
STANDARD
  9
$CLAYER
  8
3
  9
$CELTYPE
  6
BYLAYER
  9
$CECOLOR
 62
   256
  9
$DIMSCALE
 40
20.0
  9
$DIMASZ
 40
2.0
  9
$DIMEXO
 40
0.5
  9
$DIMDLI
 40
10.0
  9
$DIMRND
 40
0.0
  9
$DIMDLE
 40
0.0
  9
$DIMEXE
 40
1.0
  9
$DIMTP
 40
1.0
  9
$DIMTM
 40
1.0
  9
$DIMTXT
 40
3.0
  9
$DIMCEN
 40
0.0
  9
$DIMTSZ
 40
0.0
  9
$DIMTOL
 70
     0
  9
$DIMLIM
 70
     0
  9
$DIMTIH
 70
     0
  9
$DIMTOH
 70
     0
  9
$DIMSE1
 70
     0
  9
$DIMSE2
 70
     0
  9
$DIMTAD
 70
     1
  9
$DIMZIN
 70
     8
  9
$DIMBLK
  1

  9
$DIMASO
 70
     1
  9
$DIMSHO
 70
     1
  9
$DIMPOST
  1

  9
$DIMAPOST
  1

  9
$DIMALT
 70
     0
  9
$DIMALTD
 70
     2
  9
$DIMALTF
 40
0.039
  9
$DIMLFAC
 40
1.0
  9
$DIMTOFL
 70
     1
  9
$DIMTVP
 40
0.0
  9
$DIMTIX
 70
     0
  9
$DIMSOXD
 70
     0
  9
$DIMSAH
 70
     1
  9
$DIMBLK1
  1
OPEN
  9
$DIMBLK2
  1
OPEN
  9
$DIMSTYLE
  2
IGA
  9
$DIMCLRD
 70
     0
  9
$DIMCLRE
 70
     0
  9
$DIMCLRT
 70
     0
  9
$DIMTFAC
 40
10.0
  9
$DIMGAP
 40
1.0
  9
$LUNITS
 70
     2
  9
$LUPREC
 70
     3
  9
$SKETCHINC
 40
0.1
  9
$FILLETRAD
 40
50.0
  9
$AUNITS
 70
     0
  9
$AUPREC
 70
     0
  9
$MENU
  1
acad
  9
$ELEVATION
 40
0.0
  9
$PELEVATION
 40
0.0
  9
$THICKNESS
 40
0.0
  9
$LIMCHECK
 70
     0
  9
$BLIPMODE
 70
     0
  9
$CHAMFERA
 40
0.5
  9
$CHAMFERB
 40
0.5
  9
$SKPOLY
 70
     0
  9
$TDCREATE
 40
2450737.4285809021
  9
$TDUPDATE
 40
2454953.7686727778
  9
$TDINDWG
 40
0.0038862153
  9
$TDUSRTIMER
 40
0.0038862153
  9
$USRTIMER
 70
     1
  9
$ANGBASE
 50
0.0
  9
$ANGDIR
 70
     0
  9
$PDMODE
 70
     0
  9
$PDSIZE
 40
0.0
  9
$PLINEWID
 40
0.0
  9
$COORDS
 70
     1
  9
$SPLFRAME
 70
     0
  9
$SPLINETYPE
 70
     6
  9
$SPLINESEGS
 70
     8
  9
$ATTDIA
 70
     0
  9
$ATTREQ
 70
     1
  9
$HANDLING
 70
 10241
  9
$HANDSEED
  5
7DC3
  9
$SURFTAB1
 70
     6
  9
$SURFTAB2
 70
     6
  9
$SURFTYPE
 70
     6
  9
$SURFU
 70
     6
  9
$SURFV
 70
     6
  9
$UCSNAME
  2

  9
$UCSORG
 10
0.0
 20
0.0
 30
0.0
  9
$UCSXDIR
 10
1.0
 20
0.0
 30
0.0
  9
$UCSYDIR
 10
0.0
 20
1.0
 30
0.0
  9
$PUCSNAME
  2

  9
$PUCSORG
 10
0.0
 20
0.0
 30
0.0
  9
$PUCSXDIR
 10
1.0
 20
0.0
 30
0.0
  9
$PUCSYDIR
 10
0.0
 20
1.0
 30
0.0
  9
$USERI1
 70
     0
  9
$USERI2
 70
     0
  9
$USERI3
 70
     0
  9
$USERI4
 70
     0
  9
$USERI5
 70
     0
  9
$USERR1
 40
0.0
  9
$USERR2
 40
0.0
  9
$USERR3
 40
0.0
  9
$USERR4
 40
0.0
  9
$USERR5
 40
0.0
  9
$WORLDVIEW
 70
     1
  9
$SHADEDGE
 70
     3
  9
$SHADEDIF
 70
    70
  9
$TILEMODE
 70
     1
  9
$MAXACTVP
 70
    16
  9
$PLIMCHECK
 70
     0
  9
$PEXTMIN
 10
1.0000000000000000E+020
 20
1.0000000000000000E+020
 30
1.0000000000000000E+020
  9
$PEXTMAX
 10
-1.0000000000000000E+020
 20
-1.0000000000000000E+020
 30
-1.0000000000000000E+020
  9
$PLIMMIN
 10
0.0
 20
0.0
  9
$PLIMMAX
 10
12.0
 20
9.0
  9
$UNITMODE
 70
     0
  9
$VISRETAIN
 70
     0
  9
$PLINEGEN
 70
     0
  9
$PSLTSCALE
 70
     1
  0
ENDSEC
  0
SECTION
  2
TABLES
  0
TABLE
  2
VPORT
 70
     2
  0
VPORT
  2
*ACTIVE
 70
     0
 10
0.0
 20
0.0
 11
1.0
 21
1.0
 12
6292.1124769529506
 22
3086.6374998146398
 13
0.0
 23
0.0
 14
10.0
 24
10.0
 15
10.0
 25
10.0
 16
0.0
 26
0.0
 36
1.0
 17
0.0
 27
0.0
 37
0.0
 40
5011.4968576296578
 41
3.1666666666666661
 42
50.0
 43
0.0
 44
0.0
 50
0.0
 51
0.0
 71
     0
 72
   100
 73
     1
 74
     0
 75
     0
 76
     0
 77
     0
 78
     0
  0
ENDTAB
  0
TABLE
  2
LTYPE
 70
     2
  0
LTYPE
  2
CONTINUOUS
 70
     0
  3
Solid line
 72
    65
 73
     0
 40
0.0
  0
LTYPE
  2
CENTER
 70
     0
  3
____ _ ____ _ ____ _ ____ _ ____ _ ____ _ ____ 
 72
    65
 73
     4
 40
2.0
 49
1.25
 49
-0.25
 49
0.25
 49
-0.25
  0
ENDTAB
  0
TABLE
  2
LAYER
 70
     6
  0
LAYER
  2
0
 70
     0
 62
     7
  6
CONTINUOUS
  0
LAYER
  2
3
 70
     0
 62
     2
  6
CONTINUOUS
  0
LAYER
  2
2
 70
     0
 62
     3
  6
CENTER
  0
LAYER
  2
1
 70
     0
 62
     4
  6
CONTINUOUS
  0
LAYER
  2
4
 70
     0
 62
     7
  6
CONTINUOUS
  0
LAYER
  2
DEFPOINTS
 70
     0
 62
     7
  6
CONTINUOUS
  0
ENDTAB
  0
TABLE
  2
STYLE
 70
     1
  0
STYLE
  2
STANDARD
 70
     0
 40
0.0
 41
1.0
 50
0.0
 71
     0
 42
180.0
  3
simplex.shx
  4
extfont.shx
  0
ENDTAB
  0
TABLE
  2
VIEW
 70
     0
  0
ENDTAB
  0
TABLE
  2
UCS
 70
     0
  0
ENDTAB
  0
TABLE
  2
APPID
 70
     1
  0
APPID
  2
ACAD
 70
     0
  0
ENDTAB
  0
TABLE
  2
DIMSTYLE
 70
     1
  0
DIMSTYLE
  2
IGA
 70
     0
  3

  4

  5

  6
OPEN
  7
OPEN
 40
2.0
 41
2.0
 42
0.5
 43
10.0
 44
1.0
 45
0.0
 46
0.0
 47
1.0
 48
1.0
140
3.0
141
0.0
142
0.0
143
0.03937
144
1.0
145
0.0
146
10.0
147
1.0
 71
     0
 72
     0
 73
     0
 74
     0
 75
     0
 76
     0
 77
     1
 78
     8
170
     0
171
     2
172
     0
173
     1
174
     0
175
     0
176
     0
177
     0
178
     0
  0
ENDTAB
  0
ENDSEC
  0
SECTION
  2
BLOCKS
  0
BLOCK
  8
0
  2
$MODEL_SPACE
 70
     0
 10
0.0
 20
0.0
 30
0.0
  3
$MODEL_SPACE
  1

  0
ENDBLK
  5
1B
  8
0
  0
BLOCK
 67
     1
  8
0
  2
$PAPER_SPACE
 70
     0
 10
0.0
 20
0.0
 30
0.0
  3
$PAPER_SPACE
  1

  0
ENDBLK
  5
18
 67
     1
  8
0
  0
BLOCK
  8
0
  2
_OPEN
 70
     0
 10
0.0
 20
0.0
 30
0.0
  3
_OPEN
  1

  0
LINE
  5
7B0A
  8
0
  6
BYBLOCK
 62
     0
 10
-1.0
 20
0.166667
 30
0.0
 11
0.0
 21
0.0
 31
0.0
  0
LINE
  5
7B0B
  8
0
  6
BYBLOCK
 62
     0
 10
0.0
 20
0.0
 30
0.0
 11
-1.0
 21
-0.166667
 31
0.0
  0
LINE
  5
7B0C
  8
0
  6
BYBLOCK
 62
     0
 10
0.0
 20
0.0
 30
0.0
 11
-1.0
 21
0.0
 31
0.0
  0
ENDBLK
  5
7B0D
  8
0
  0
BLOCK
  8
0
  2
*D1
 70
     1
 10
0.0
 20
0.0
 30
0.0
  3
*D1
  1

  0
LINE
  5
7D1B
  8
3
  6
CONTINUOUS
 62
     0
 10
1949.3478210000001
 20
2651.5928009999998
 30
0.0
 11
2100.207456000001
 21
2651.5928009999998
 31
0.0
  0
LINE
  5
7D1C
  8
3
  6
CONTINUOUS
 62
     0
 10
1949.3478210000001
 20
2091.5928009999998
 30
0.0
 11
2100.207456000001
 21
2091.5928009999998
 31
0.0
  0
LINE
  5
7D1D
  8
3
  6
CONTINUOUS
 62
     0
 10
2080.2074560000001
 20
2611.5928009999998
 30
0.0
 11
2080.2074560000001
 21
2131.5928009999998
 31
0.0
  0
INSERT
  5
7D1E
  8
3
  6
CONTINUOUS
 62
     0
  2
_OPEN
 10
2080.2074560000001
 20
2651.5928009999998
 30
0.0
 41
40.0
 42
40.0
 43
40.0
 50
90.0
  0
INSERT
  5
7D1F
  8
3
  6
CONTINUOUS
 62
     0
  2
_OPEN
 10
2080.2074560000001
 20
2091.5928009999998
 30
0.0
 41
40.0
 42
40.0
 43
40.0
 50
270.0
  0
TEXT
  8
3
  40
60
  5
7DB1
  62
0
  72
0
  71
0
 10
1910.21
 20
2261.82
 30
0.000000
  1
560
  0
POINT
  5
7D21
  8
DEFPOINTS
  6
CONTINUOUS
 62
     0
 10
1939.3478210000001
 20
2651.5928009999998
 30
0.0
  0
POINT
  5
7D22
  8
DEFPOINTS
  6
CONTINUOUS
 62
     0
 10
1939.3478210000001
 20
2091.5928009999998
 30
0.0
  0
POINT
  5
7D23
  8
DEFPOINTS
  6
CONTINUOUS
 62
     0
 10
2080.2074560000001
 20
2091.5928009999998
 30
0.0
  0
ENDBLK
  5
7B1A
  8
0
  0
BLOCK
  8
0
  2
*D2
 70
     1
 10
0.0
 20
0.0
 30
0.0
  3
*D2
  1

  0
LINE
  5
7D24
  8
3
  6
CONTINUOUS
 62
     0
 10
1949.3478210000001
 20
2651.5928009999998
 30
0.0
 11
2234.1318409999999
 21
2651.5928009999998
 31
0.0
  0
LINE
  5
7D25
  8
3
  6
CONTINUOUS
 62
     0
 10
2030.8794190000001
 20
2112.5928009999998
 30
0.0
 11
2234.1318409999999
 21
2112.5928009999998
 31
0.0
  0
LINE
  5
7D26
  8
3
  6
CONTINUOUS
 62
     0
 10
2214.1318409999999
 20
2611.5928009999998
 30
0.0
 11
2214.1318409999999
 21
2152.5928009999998
 31
0.0
  0
INSERT
  5
7D27
  8
3
  6
CONTINUOUS
 62
     0
  2
_OPEN
 10
2214.1318409999999
 20
2651.5928009999998
 30
0.0
 41
40.0
 42
40.0
 43
40.0
 50
90.0
  0
INSERT
  5
7D28
  8
3
  6
CONTINUOUS
 62
     0
  2
_OPEN
 10
2214.1318409999999
 20
2112.5928009999998
 30
0.0
 41
40.0
 42
40.0
 43
40.0
 50
270.0
  0
TEXT
  8
3
  40
60
  5
7DB2
  62
0
  72
0
  71
0
 10
2044.13
 20
2253.18
 30
0.000000
  1
539
  0
POINT
  5
7D2A
  8
DEFPOINTS
  6
CONTINUOUS
 62
     0
 10
1939.3478210000001
 20
2651.5928009999998
 30
0.0
  0
POINT
  5
7D2B
  8
DEFPOINTS
  6
CONTINUOUS
 62
     0
 10
2020.8794190000001
 20
2112.5928009999998
 30
0.0
  0
POINT
  5
7D2C
  8
DEFPOINTS
  6
CONTINUOUS
 62
     0
 10
2214.1318409999999
 20
2112.5928009999998
 30
0.0
  0
ENDBLK
  5
7B27
  8
0
  0
BLOCK
  8
0
  2
*D3
 70
     1
 10
0.0
 20
0.0
 30
0.0
  3
*D3
  1

  0
LINE
  5
7D2D
  8
3
  6
CONTINUOUS
 62
     0
 10
1889.3478210000001
 20
1622.592801
 30
0.0
 11
2234.131840999999
 21
1622.592801
 31
0.0
  0
LINE
  5
7D2E
  8
3
  6
CONTINUOUS
 62
     0
 10
2214.131840999999
 20
2072.5928009999998
 30
0.0
 11
2214.131840999999
 21
1662.5928009999991
 31
0.0
  0
INSERT
  5
7D2F
  8
3
  6
CONTINUOUS
 62
     0
  2
_OPEN
 10
2214.131840999999
 20
2112.5928009999998
 30
0.0
 41
40.0
 42
40.0
 43
40.0
 50
90.0
  0
INSERT
  5
7D30
  8
3
  6
CONTINUOUS
 62
     0
  2
_OPEN
 10
2214.131840999999
 20
1622.592801
 30
0.0
 41
40.0
 42
40.0
 43
40.0
 50
270.0
  0
TEXT
  8
3
  40
60
  5
7DB3
  62
0
  72
0
  71
0
 10
2044.13
 20
1761.39
 30
0.000000
  1
490
  0
POINT
  5
7D32
  8
DEFPOINTS
  6
CONTINUOUS
 62
     0
 10
2020.8794190000001
 20
2112.5928009999998
 30
0.0
  0
POINT
  5
7D33
  8
DEFPOINTS
  6
CONTINUOUS
 62
     0
 10
1879.3478209999989
 20
1622.592801
 30
0.0
  0
POINT
  5
7D34
  8
DEFPOINTS
  6
CONTINUOUS
 62
     0
 10
2214.131840999999
 20
1622.592801
 30
0.0
  0
ENDBLK
  5
7B33
  8
0
  0
BLOCK
  8
0
  2
*D4
 70
     1
 10
0.0
 20
0.0
 30
0.0
  3
*D4
  1

  0
LINE
  5
7D35
  8
3
  6
CONTINUOUS
 62
     0
 10
1889.3478210000001
 20
1622.592801
 30
0.0
 11
2236.4777789999998
 21
1622.592801
 31
0.0
  0
LINE
  5
7D36
  8
3
  6
CONTINUOUS
 62
     0
 10
1889.3478210000001
 20
1582.592801
 30
0.0
 11
2236.4777789999998
 21
1582.592801
 31
0.0
  0
LINE
  5
7D37
  8
3
  6
CONTINUOUS
 62
     0
 10
2216.4777789999998
 20
1662.5928009999991
 30
0.0
 11
2216.4777789999998
 21
1702.592801
 31
0.0
  0
LINE
  5
7D38
  8
3
  6
CONTINUOUS
 62
     0
 10
2216.4777789999998
 20
1542.592801
 30
0.0
 11
2216.4777789999998
 21
1365.4499438571429
 31
0.0
  0
LINE
  5
7D39
  8
3
  6
CONTINUOUS
 62
     0
 10
2216.4777789999998
 20
1622.592801
 30
0.0
 11
2216.4777789999998
 21
1582.592801
 31
0.0
  0
INSERT
  5
7D3A
  8
3
  6
CONTINUOUS
 62
     0
  2
_OPEN
 10
2216.4777789999998
 20
1622.592801
 30
0.0
 41
40.0
 42
40.0
 43
40.0
 50
270.0
  0
INSERT
  5
7D3B
  8
3
  6
CONTINUOUS
 62
     0
  2
_OPEN
 10
2216.4777789999998
 20
1582.592801
 30
0.0
 41
40.0
 42
40.0
 43
40.0
 50
90.0
  0
TEXT
  8
3
  40
60
  5
7DB4
  62
0
  72
0
  71
0
 10
2046.48
 20
1327.82
 30
0.000000
  1
40
  0
POINT
  5
7D3D
  8
DEFPOINTS
  6
CONTINUOUS
 62
     0
 10
1879.3478209999989
 20
1622.592801
 30
0.0
  0
POINT
  5
7D3E
  8
DEFPOINTS
  6
CONTINUOUS
 62
     0
 10
1879.3478209999989
 20
1582.592801
 30
0.0
  0
POINT
  5
7D3F
  8
DEFPOINTS
  6
CONTINUOUS
 62
     0
 10
2216.4777789999998
 20
1582.592801
 30
0.0
  0
ENDBLK
  5
7CAB
  8
0
  0
BLOCK
  8
0
  2
*D5
 70
     1
 10
0.0
 20
0.0
 30
0.0
  3
*D5
  1

  0
LINE
  5
7D40
  8
3
  6
CONTINUOUS
 62
     0
 10
1949.3478210000001
 20
2678.5928009999998
 30
0.0
 11
2377.5556320000001
 21
2678.5928009999998
 31
0.0
  0
LINE
  5
7D41
  8
3
  6
CONTINUOUS
 62
     0
 10
1889.3478210000001
 20
1582.592801
 30
0.0
 11
2377.5556320000001
 21
1582.592801
 31
0.0
  0
LINE
  5
7D42
  8
3
  6
CONTINUOUS
 62
     0
 10
2357.5556320000001
 20
2638.5928009999998
 30
0.0
 11
2357.5556320000001
 21
1622.592801
 31
0.0
  0
INSERT
  5
7D43
  8
3
  6
CONTINUOUS
 62
     0
  2
_OPEN
 10
2357.5556320000001
 20
2678.5928009999998
 30
0.0
 41
40.0
 42
40.0
 43
40.0
 50
90.0
  0
INSERT
  5
7D44
  8
3
  6
CONTINUOUS
 62
     0
  2
_OPEN
 10
2357.5556320000001
 20
1582.592801
 30
0.0
 41
40.0
 42
40.0
 43
40.0
 50
270.0
  0
TEXT
  8
3
  40
60
  5
7DB5
  62
0
  72
0
  71
0
 10
2187.56
 20
1976.96
 30
0.000000
  1
1096
  0
POINT
  5
7D46
  8
DEFPOINTS
  6
CONTINUOUS
 62
     0
 10
1939.3478210000001
 20
2678.5928009999998
 30
0.0
  0
POINT
  5
7D47
  8
DEFPOINTS
  6
CONTINUOUS
 62
     0
 10
1879.3478209999989
 20
1582.592801
 30
0.0
  0
POINT
  5
7D48
  8
DEFPOINTS
  6
CONTINUOUS
 62
     0
 10
2357.5556320000001
 20
1582.592801
 30
0.0
  0
ENDBLK
  5
7C17
  8
0
  0
BLOCK
  8
0
  2
*D6
 70
     1
 10
0.0
 20
0.0
 30
0.0
  3
*D6
  1

  0
LINE
  5
7D49
  8
3
  6
CONTINUOUS
 62
     0
 10
629.34782099999995
 20
1572.592801
 30
0.0
 11
629.34782099999995
 21
1409.6756330000001
 31
0.0
  0
LINE
  5
7D4A
  8
3
  6
CONTINUOUS
 62
     0
 10
1534.3478210000001
 20
1492.939024
 30
0.0
 11
1534.3478210000001
 21
1409.6756330000001
 31
0.0
  0
LINE
  5
7D4B
  8
3
  6
CONTINUOUS
 62
     0
 10
669.34782099999995
 20
1429.6756330000001
 30
0.0
 11
1494.3478210000001
 21
1429.6756330000001
 31
0.0
  0
INSERT
  5
7D4C
  8
3
  6
CONTINUOUS
 62
     0
  2
_OPEN
 10
629.34782099999995
 20
1429.6756330000001
 30
0.0
 41
40.0
 42
40.0
 43
40.0
 50
180.0
  0
INSERT
  5
7D4D
  8
3
  6
CONTINUOUS
 62
     0
  2
_OPEN
 10
1534.3478210000001
 20
1429.6756330000001
 30
0.0
 41
40.0
 42
40.0
 43
40.0
  0
TEXT
  8
3
  40
60
  5
7DB6
  62
0
  72
0
  71
0
 10
975.215
 20
1373.48
 30
0.000000
  1
905
  0
POINT
  5
7D4F
  8
DEFPOINTS
  6
CONTINUOUS
 62
     0
 10
629.34782099999995
 20
1582.592801
 30
0.0
  0
POINT
  5
7D50
  8
DEFPOINTS
  6
CONTINUOUS
 62
     0
 10
1534.3478210000001
 20
1502.9390239999991
 30
0.0
  0
POINT
  5
7D51
  8
DEFPOINTS
  6
CONTINUOUS
 62
     0
 10
1534.3478210000001
 20
1429.6756330000001
 30
0.0
  0
ENDBLK
  5
7C88
  8
0
  0
BLOCK
  8
0
  2
*D7
 70
     1
 10
0.0
 20
0.0
 30
0.0
  3
*D7
  1

  0
LINE
  5
7D52
  8
3
  6
CONTINUOUS
 62
     0
 10
1879.3478209999989
 20
1572.592801
 30
0.0
 11
1879.3478209999989
 21
1409.6756330000001
 31
0.0
  0
LINE
  5
7D53
  8
3
  6
CONTINUOUS
 62
     0
 10
1574.3478210000001
 20
1429.6756330000001
 30
0.0
 11
1839.3478210000001
 21
1429.6756330000001
 31
0.0
  0
INSERT
  5
7D54
  8
3
  6
CONTINUOUS
 62
     0
  2
_OPEN
 10
1534.3478210000001
 20
1429.6756330000001
 30
0.0
 41
40.0
 42
40.0
 43
40.0
 50
180.0
  0
INSERT
  5
7D55
  8
3
  6
CONTINUOUS
 62
     0
  2
_OPEN
 10
1879.3478209999989
 20
1429.6756330000001
 30
0.0
 41
40.0
 42
40.0
 43
40.0
  0
TEXT
  8
3
  40
60
  5
7DB7
  62
0
  72
0
  71
0
 10
1586.85
 20
1373.48
 30
0.000000
  1
345
  0
POINT
  5
7D57
  8
DEFPOINTS
  6
CONTINUOUS
 62
     0
 10
1534.3478210000001
 20
1502.9390239999991
 30
0.0
  0
POINT
  5
7D58
  8
DEFPOINTS
  6
CONTINUOUS
 62
     0
 10
1879.3478209999989
 20
1582.592801
 30
0.0
  0
POINT
  5
7D59
  8
DEFPOINTS
  6
CONTINUOUS
 62
     0
 10
1879.3478209999989
 20
1429.6756330000001
 30
0.0
  0
ENDBLK
  5
7C92
  8
0
  0
BLOCK
  8
0
  2
*D8
 70
     1
 10
0.0
 20
0.0
 30
0.0
  3
*D8
  1

  0
LINE
  5
7D5A
  8
3
  6
CONTINUOUS
 62
     0
 10
1939.3478210000001
 20
2688.5928009999998
 30
0.0
 11
1939.3478210000001
 21
2818.2814020000001
 31
0.0
  0
LINE
  5
7D5B
  8
3
  6
CONTINUOUS
 62
     0
 10
1534.3478210000001
 20
2796.392233
 30
0.0
 11
1534.3478210000001
 21
2778.2814020000001
 31
0.0
  0
LINE
  5
7D5C
  8
3
  6
CONTINUOUS
 62
     0
 10
1899.3478210000001
 20
2798.2814020000001
 30
0.0
 11
1574.3478210000001
 21
2798.2814020000001
 31
0.0
  0
INSERT
  5
7D5D
  8
3
  6
CONTINUOUS
 62
     0
  2
_OPEN
 10
1939.3478210000001
 20
2798.2814020000001
 30
0.0
 41
40.0
 42
40.0
 43
40.0
  0
INSERT
  5
7D5E
  8
3
  6
CONTINUOUS
 62
     0
  2
_OPEN
 10
1534.3478210000001
 20
2798.2814020000001
 30
0.0
 41
40.0
 42
40.0
 43
40.0
 50
180.0
  0
TEXT
  8
3
  40
60
  5
7DB8
  62
0
  72
0
  71
0
 10
1614.60
 20
2742.08
 30
0.000000
  1
405
  0
POINT
  5
7D60
  8
DEFPOINTS
  6
CONTINUOUS
 62
     0
 10
1939.3478210000001
 20
2678.5928009999998
 30
0.0
  0
POINT
  5
7D61
  8
DEFPOINTS
  6
CONTINUOUS
 62
     0
 10
1534.3478210000001
 20
2806.392233
 30
0.0
  0
POINT
  5
7D62
  8
DEFPOINTS
  6
CONTINUOUS
 62
     0
 10
1534.3478210000001
 20
2798.2814020000001
 30
0.0
  0
ENDBLK
  5
7C2C
  8
0
  0
BLOCK
  8
0
  2
*D9
 70
     1
 10
0.0
 20
0.0
 30
0.0
  3
*D9
  1

  0
LINE
  5
7D63
  8
3
  6
CONTINUOUS
 62
     0
 10
1059.3478210000001
 20
2532.5928009999998
 30
0.0
 11
1059.3478210000001
 21
2818.2814020000001
 31
0.0
  0
LINE
  5
7D64
  8
3
  6
CONTINUOUS
 62
     0
 10
1494.3478210000001
 20
2798.2814020000001
 30
0.0
 11
1099.3478210000001
 21
2798.2814020000001
 31
0.0
  0
INSERT
  5
7D65
  8
3
  6
CONTINUOUS
 62
     0
  2
_OPEN
 10
1534.3478210000001
 20
2798.2814020000001
 30
0.0
 41
40.0
 42
40.0
 43
40.0
  0
INSERT
  5
7D66
  8
3
  6
CONTINUOUS
 62
     0
  2
_OPEN
 10
1059.3478210000001
 20
2798.2814020000001
 30
0.0
 41
40.0
 42
40.0
 43
40.0
 50
180.0
  0
TEXT
  8
3
  40
60
  5
7DB9
  62
0
  72
0
  71
0
 10
1176.85
 20
2742.08
 30
0.000000
  1
475
  0
POINT
  5
7D68
  8
DEFPOINTS
  6
CONTINUOUS
 62
     0
 10
1534.3478210000001
 20
2806.392233
 30
0.0
  0
POINT
  5
7D69
  8
DEFPOINTS
  6
CONTINUOUS
 62
     0
 10
1059.3478210000001
 20
2522.5928009999998
 30
0.0
  0
POINT
  5
7D6A
  8
DEFPOINTS
  6
CONTINUOUS
 62
     0
 10
1059.3478210000001
 20
2798.2814020000001
 30
0.0
  0
ENDBLK
  5
7C21
  8
0
  0
BLOCK
  8
0
  2
*D10
 70
     1
 10
0.0
 20
0.0
 30
0.0
  3
*D10
  1

  0
LINE
  5
7D6B
  8
3
  6
CONTINUOUS
 62
     0
 10
3481.4155629519778
 20
2407.5928009999998
 30
0.0
 11
3673.653547951978
 21
2407.5928009999998
 31
0.0
  0
LINE
  5
7D6C
  8
3
  6
CONTINUOUS
 62
     0
 10
3479.4155629519769
 20
1817.592801
 30
0.0
 11
3673.653547951978
 21
1817.5928009999991
 31
0.0
  0
LINE
  5
7D6D
  8
3
  6
CONTINUOUS
 62
     0
 10
3653.653547951978
 20
2367.5928009999998
 30
0.0
 11
3653.653547951978
 21
1857.592801
 31
0.0
  0
INSERT
  5
7D6E
  8
3
  6
CONTINUOUS
 62
     0
  2
_OPEN
 10
3653.653547951978
 20
2407.5928009999998
 30
0.0
 41
40.0
 42
40.0
 43
40.0
 50
90.0
  0
INSERT
  5
7D6F
  8
3
  6
CONTINUOUS
 62
     0
  2
_OPEN
 10
3653.653547951978
 20
1817.5928009999991
 30
0.0
 41
40.0
 42
40.0
 43
40.0
 50
270.0
  0
TEXT
  8
3
  40
60
  5
7DBA
  62
0
  72
0
  71
0
 10
3483.65
 20
2007.17
 30
0.000000
  1
φ590
  0
POINT
  5
7D71
  8
DEFPOINTS
  6
CONTINUOUS
 62
     0
 10
3471.4155629519778
 20
2407.5928009999998
 30
0.0
  0
POINT
  5
7D72
  8
DEFPOINTS
  6
CONTINUOUS
 62
     0
 10
3469.4155629519778
 20
1817.592801
 30
0.0
  0
POINT
  5
7D73
  8
DEFPOINTS
  6
CONTINUOUS
 62
     0
 10
3653.653547951978
 20
1817.5928009999991
 30
0.0
  0
ENDBLK
  5
7CD6
  8
0
  0
BLOCK
  8
0
  2
*D11
 70
     1
 10
0.0
 20
0.0
 30
0.0
  3
*D11
  1

  0
LINE
  5
7CB8
  8
0
  6
BYBLOCK
 62
     0
 10
3471.4155629519778
 20
2442.5928009999998
 30
0.0
 11
3471.4155629519778
 21
2901.312676
 31
0.0
  0
LINE
  5
7CB9
  8
0
  6
BYBLOCK
 62
     0
 10
3259.4155629519778
 20
2848.5354000000002
 30
0.0
 11
3259.4155629519778
 21
2901.312676
 31
0.0
  0
LINE
  5
7CBA
  8
0
  6
BYBLOCK
 62
     0
 10
3431.4155629519778
 20
2881.312676
 30
0.0
 11
3299.4155629519778
 21
2881.312676
 31
0.0
  0
TEXT
  5
7CBB
  8
3
 62
     0
 10
3293.9869915234058
 20
2897.438847537358
 30
0.0
 40
60.0
  1
212
  0
INSERT
  5
7CBC
  8
0
  6
BYBLOCK
 62
     0
  2
_OPEN
 10
3471.4155629519778
 20
2881.312676
 30
0.0
 41
40.0
 42
40.0
 43
40.0
  0
INSERT
  5
7CBD
  8
0
  6
BYBLOCK
 62
     0
  2
_OPEN
 10
3259.4155629519778
 20
2881.312676
 30
0.0
 41
40.0
 42
40.0
 43
40.0
 50
180.0
  0
POINT
  5
7CBE
  8
DEFPOINTS
  6
BYBLOCK
 62
     0
 10
3471.4155629519778
 20
2432.5928009999998
 30
0.0
  0
POINT
  5
7CBF
  8
DEFPOINTS
  6
BYBLOCK
 62
     0
 10
3259.4155629519778
 20
2838.5354000000002
 30
0.0
  0
POINT
  5
7CC0
  8
DEFPOINTS
  6
BYBLOCK
 62
     0
 10
3259.4155629519778
 20
2881.312676
 30
0.0
  0
ENDBLK
  5
7CC1
  8
0
  0
BLOCK
  8
0
  2
*D12
 70
     1
 10
0.0
 20
0.0
 30
0.0
  3
*D12
  1

  0
LINE
  5
7D74
  8
3
  6
CONTINUOUS
 62
     0
 10
2849.4155629519778
 20
2547.5928009999998
 30
0.0
 11
2849.4155629519778
 21
2901.312676
 31
0.0
  0
LINE
  5
7D75
  8
3
  6
CONTINUOUS
 62
     0
 10
3219.4155629519778
 20
2881.312676
 30
0.0
 11
2889.4155629519778
 21
2881.312676
 31
0.0
  0
INSERT
  5
7D76
  8
3
  6
CONTINUOUS
 62
     0
  2
_OPEN
 10
3259.4155629519778
 20
2881.312676
 30
0.0
 41
40.0
 42
40.0
 43
40.0
  0
INSERT
  5
7D77
  8
3
  6
CONTINUOUS
 62
     0
  2
_OPEN
 10
2849.4155629519778
 20
2881.312676
 30
0.0
 41
40.0
 42
40.0
 43
40.0
 50
180.0
  0
TEXT
  8
3
  40
60
  5
7DBB
  62
0
  72
0
  71
0
 10
2934.42
 20
2875.11
 30
0.000000
  1
MAX
  0
TEXT
  8
3
  40
60
  5
7DBC
  62
0
  72
0
  71
0
 10
2934.42
 20
2797.11
 30
0.000000
  1
470
  0
POINT
  5
7D79
  8
DEFPOINTS
  6
CONTINUOUS
 62
     0
 10
3259.4155629519778
 20
2838.5354000000002
 30
0.0
  0
POINT
  5
7D7A
  8
DEFPOINTS
  6
CONTINUOUS
 62
     0
 10
2849.4155629519778
 20
2537.5928009999998
 30
0.0
  0
POINT
  5
7D7B
  8
DEFPOINTS
  6
CONTINUOUS
 62
     0
 10
2849.4155629519778
 20
2881.312676
 30
0.0
  0
ENDBLK
  5
7CCB
  8
0
  0
BLOCK
  8
0
  2
*D13
 70
     1
 10
0.0
 20
0.0
 30
0.0
  3
*D13
  1

  0
LINE
  5
7D7C
  8
3
  6
CONTINUOUS
 62
     0
 10
2814.4155629519778
 20
1572.592801
 30
0.0
 11
2814.4155629519778
 21
1393.1136489999999
 31
0.0
  0
LINE
  5
7D7D
  8
3
  6
CONTINUOUS
 62
     0
 10
3259.4155629519778
 20
1473.990446492928
 30
0.0
 11
3259.4155629519778
 21
1393.1136489999999
 31
0.0
  0
LINE
  5
7D7E
  8
3
  6
CONTINUOUS
 62
     0
 10
2854.4155629519778
 20
1413.1136489999999
 30
0.0
 11
3219.4155629519778
 21
1413.1136489999999
 31
0.0
  0
INSERT
  5
7D7F
  8
3
  6
CONTINUOUS
 62
     0
  2
_OPEN
 10
2814.4155629519778
 20
1413.1136489999999
 30
0.0
 41
40.0
 42
40.0
 43
40.0
 50
180.0
  0
INSERT
  5
7D80
  8
3
  6
CONTINUOUS
 62
     0
  2
_OPEN
 10
3259.4155629519778
 20
1413.1136489999999
 30
0.0
 41
40.0
 42
40.0
 43
40.0
  0
TEXT
  8
3
  40
60
  5
7DBD
  62
0
  72
0
  71
0
 10
2928.83
 20
1356.91
 30
0.000000
  1
445
  0
POINT
  5
7D82
  8
DEFPOINTS
  6
CONTINUOUS
 62
     0
 10
2814.4155629519778
 20
1582.592801
 30
0.0
  0
POINT
  5
7D83
  8
DEFPOINTS
  6
CONTINUOUS
 62
     0
 10
3259.4155629519778
 20
1483.990446492928
 30
0.0
  0
POINT
  5
7D84
  8
DEFPOINTS
  6
CONTINUOUS
 62
     0
 10
3259.4155629519778
 20
1413.1136489999999
 30
0.0
  0
ENDBLK
  5
7CEE
  8
0
  0
BLOCK
  8
0
  2
*D14
 70
     1
 10
0.0
 20
0.0
 30
0.0
  3
*D14
  1

  0
LINE
  5
7D85
  8
3
  6
CONTINUOUS
 62
     0
 10
3594.4155629519778
 20
1572.592801
 30
0.0
 11
3594.4155629519778
 21
1393.1136489999999
 31
0.0
  0
LINE
  5
7D86
  8
3
  6
CONTINUOUS
 62
     0
 10
3299.4155629519778
 20
1413.1136489999999
 30
0.0
 11
3554.4155629519778
 21
1413.1136489999999
 31
0.0
  0
INSERT
  5
7D87
  8
3
  6
CONTINUOUS
 62
     0
  2
_OPEN
 10
3259.4155629519778
 20
1413.1136489999999
 30
0.0
 41
40.0
 42
40.0
 43
40.0
 50
180.0
  0
INSERT
  5
7D88
  8
3
  6
CONTINUOUS
 62
     0
  2
_OPEN
 10
3594.4155629519778
 20
1413.1136489999999
 30
0.0
 41
40.0
 42
40.0
 43
40.0
  0
TEXT
  8
3
  40
60
  5
7DBE
  62
0
  72
0
  71
0
 10
3306.92
 20
1356.91
 30
0.000000
  1
335
  0
POINT
  5
7D8A
  8
DEFPOINTS
  6
CONTINUOUS
 62
     0
 10
3259.4155629519778
 20
1483.990446492928
 30
0.0
  0
POINT
  5
7D8B
  8
DEFPOINTS
  6
CONTINUOUS
 62
     0
 10
3594.4155629519778
 20
1582.592801
 30
0.0
  0
POINT
  5
7D8C
  8
DEFPOINTS
  6
CONTINUOUS
 62
     0
 10
3594.4155629519778
 20
1413.1136489999999
 30
0.0
  0
ENDBLK
  5
7CF8
  8
0
  0
BLOCK
  8
0
  2
*D15
 70
     1
 10
0.0
 20
0.0
 30
0.0
  3
*D15
  1

  0
LINE
  5
7D8D
  8
3
  6
CONTINUOUS
 62
     0
 10
629.34782099999995
 20
4122.5928009999989
 30
0.0
 11
629.34782099999995
 21
4255.9242780000013
 31
0.0
  0
LINE
  5
7D8E
  8
3
  6
CONTINUOUS
 62
     0
 10
1879.3478209999989
 20
4122.5928009999989
 30
0.0
 11
1879.3478209999989
 21
4255.9242780000013
 31
0.0
  0
LINE
  5
7D8F
  8
3
  6
CONTINUOUS
 62
     0
 10
669.34782099999995
 20
4235.9242780000004
 30
0.0
 11
1839.3478210000001
 21
4235.9242780000004
 31
0.0
  0
INSERT
  5
7D90
  8
3
  6
CONTINUOUS
 62
     0
  2
_OPEN
 10
629.34782099999995
 20
4235.9242780000004
 30
0.0
 41
40.0
 42
40.0
 43
40.0
 50
180.0
  0
INSERT
  5
7D91
  8
3
  6
CONTINUOUS
 62
     0
  2
_OPEN
 10
1879.3478209999989
 20
4235.9242780000004
 30
0.0
 41
40.0
 42
40.0
 43
40.0
  0
TEXT
  8
3
  40
60
  5
7DBF
  62
0
  72
0
  71
0
 10
1109.14
 20
4179.72
 30
0.000000
  1
1250
  0
POINT
  5
7D93
  8
DEFPOINTS
  6
CONTINUOUS
 62
     0
 10
629.34782099999995
 20
4112.5928009999989
 30
0.0
  0
POINT
  5
7D94
  8
DEFPOINTS
  6
CONTINUOUS
 62
     0
 10
1879.3478209999989
 20
4112.5928009999989
 30
0.0
  0
POINT
  5
7D95
  8
DEFPOINTS
  6
CONTINUOUS
 62
     0
 10
1879.3478209999989
 20
4235.9242780000004
 30
0.0
  0
ENDBLK
  5
7BDF
  8
0
  0
BLOCK
  8
0
  2
*D16
 70
     1
 10
0.0
 20
0.0
 30
0.0
  3
*D16
  1

  0
LINE
  5
7D96
  8
3
  6
CONTINUOUS
 62
     0
 10
1889.3478210000001
 20
4112.5928009999989
 30
0.0
 11
2199.570732000001
 21
4112.5928009999989
 31
0.0
  0
LINE
  5
7D97
  8
3
  6
CONTINUOUS
 62
     0
 10
1889.3478210000001
 20
3332.5928009999998
 30
0.0
 11
2199.570732000001
 21
3332.5928009999998
 31
0.0
  0
LINE
  5
7D98
  8
3
  6
CONTINUOUS
 62
     0
 10
2179.570732000001
 20
4072.5928009999989
 30
0.0
 11
2179.570732000001
 21
3372.5928009999998
 31
0.0
  0
INSERT
  5
7D99
  8
3
  6
CONTINUOUS
 62
     0
  2
_OPEN
 10
2179.570732000001
 20
4112.5928009999989
 30
0.0
 41
40.0
 42
40.0
 43
40.0
 50
90.0
  0
INSERT
  5
7D9A
  8
3
  6
CONTINUOUS
 62
     0
  2
_OPEN
 10
2179.570732000001
 20
3332.5928009999998
 30
0.0
 41
40.0
 42
40.0
 43
40.0
 50
270.0
  0
TEXT
  8
3
  40
60
  5
7DC0
  62
0
  72
0
  71
0
 10
2009.57
 20
3603.17
 30
0.000000
  1
780
  0
POINT
  5
7D9C
  8
DEFPOINTS
  6
CONTINUOUS
 62
     0
 10
1879.3478209999989
 20
4112.5928009999989
 30
0.0
  0
POINT
  5
7D9D
  8
DEFPOINTS
  6
CONTINUOUS
 62
     0
 10
1879.3478209999989
 20
3332.5928009999998
 30
0.0
  0
POINT
  5
7D9E
  8
DEFPOINTS
  6
CONTINUOUS
 62
     0
 10
2179.570732000001
 20
3332.5928009999998
 30
0.0
  0
ENDBLK
  5
7BEC
  8
0
  0
BLOCK
  8
0
  2
*D17
 70
     1
 10
0.0
 20
0.0
 30
0.0
  3
*D17
  1

  0
LINE
  5
7D9F
  8
3
  6
CONTINUOUS
 62
     0
 10
3049.4155629519778
 20
2661.5928009999998
 30
0.0
 11
3049.4155629519778
 21
2759.6849309999998
 31
0.0
  0
LINE
  5
7DA0
  8
3
  6
CONTINUOUS
 62
     0
 10
3469.4155629519778
 20
2661.5928009999998
 30
0.0
 11
3469.4155629519778
 21
2759.6849309999998
 31
0.0
  0
LINE
  5
7DA1
  8
3
  6
CONTINUOUS
 62
     0
 10
3089.4155629519778
 20
2739.6849309999989
 30
0.0
 11
3429.4155629519778
 21
2739.6849309999989
 31
0.0
  0
INSERT
  5
7DA2
  8
3
  6
CONTINUOUS
 62
     0
  2
_OPEN
 10
3049.4155629519778
 20
2739.6849309999989
 30
0.0
 41
40.0
 42
40.0
 43
40.0
 50
180.0
  0
INSERT
  5
7DA3
  8
3
  6
CONTINUOUS
 62
     0
  2
_OPEN
 10
3469.4155629519778
 20
2739.6849309999989
 30
0.0
 41
40.0
 42
40.0
 43
40.0
  0
TEXT
  8
3
  40
60
  5
7DC1
  62
0
  72
0
  71
0
 10
3129.45
 20
2683.48
 30
0.000000
  1
420
  0
POINT
  5
7DA5
  8
DEFPOINTS
  6
CONTINUOUS
 62
     0
 10
3049.4155629519778
 20
2651.5928009999998
 30
0.0
  0
POINT
  5
7DA6
  8
DEFPOINTS
  6
CONTINUOUS
 62
     0
 10
3469.4155629519778
 20
2651.5928009999998
 30
0.0
  0
POINT
  5
7DA7
  8
DEFPOINTS
  6
CONTINUOUS
 62
     0
 10
3469.4155629519778
 20
2739.6849309999989
 30
0.0
  0
ENDBLK
  5
7C64
  8
0
  0
BLOCK
  8
0
  2
*D18
 70
     1
 10
0.0
 20
0.0
 30
0.0
  3
*D18
  1

  0
LINE
  5
7DA8
  8
3
 62
     0
 10
1939.3478210000001
 20
2688.5928009999998
 30
0.0
 11
1939.3478210000001
 21
2952.066274189558
 31
0.0
  0
LINE
  5
7DA9
  8
3
 62
     0
 10
629.34782099999995
 20
1712.592801
 30
0.0
 11
629.34782100000007
 21
2952.066274189558
 31
0.0
  0
LINE
  5
7DAA
  8
3
 62
     0
 10
1899.3478210000001
 20
2932.0662741895571
 30
0.0
 11
669.34782100000018
 21
2932.0662741895571
 31
0.0
  0
INSERT
  5
7DAB
  8
3
 62
     0
  2
_OPEN
 10
1939.3478210000001
 20
2932.0662741895571
 30
0.0
 41
40.0
 42
40.0
 43
40.0
  0
INSERT
  5
7DAC
  8
3
 62
     0
  2
_OPEN
 10
629.34782100000007
 20
2932.0662741895571
 30
0.0
 41
40.0
 42
40.0
 43
40.0
 50
180.0
  0
TEXT
  8
3
  40
60
  5
7DC2
  62
0
  72
0
  71
0
 10
1163.81
 20
2875.87
 30
0.000000
  1
1310
  0
POINT
  5
7DAE
  8
DEFPOINTS
 62
     0
 10
1939.3478210000001
 20
2678.5928009999998
 30
0.0
  0
POINT
  5
7DAF
  8
DEFPOINTS
 62
     0
 10
629.34782099999995
 20
1702.592801
 30
0.0
  0
POINT
  5
7DB0
  8
DEFPOINTS
 62
     0
 10
629.34782100000007
 20
2932.0662741895571
 30
0.0
  0
ENDBLK
  5
7CE2
  8
0
  0
ENDSEC
  0
SECTION
  2
ENTITIES
  0
LINE
  5
7A75
  8
1
  6
CONTINUOUS
 10
1894.3478210000001
 20
1702.592801
 30
0.0
 11
629.34782099999995
 21
1702.592801
 31
0.0
  0
LINE
  5
7A76
  8
1
  6
CONTINUOUS
 10
1879.3478209999989
 20
1622.592801
 30
0.0
 11
629.34782099999995
 21
1622.592801
 31
0.0
  0
ARC
  5
7A77
  8
1
  6
CONTINUOUS
 10
834.34782099999984
 20
1884.592801
 30
0.0
 40
142.0
 50
324.59875699999998
 51
215.40124299999999
  0
LINE
  5
7A78
  8
1
  6
CONTINUOUS
 10
704.34782099999995
 20
1702.592801
 30
0.0
 11
964.34782100000007
 21
1702.592801
 31
0.0
  0
LINE
  5
7A79
  8
1
  6
CONTINUOUS
 10
1534.8478210000001
 20
2537.5928009999998
 30
0.0
 11
674.84782099999995
 21
1932.592801
 31
0.0
  0
LINE
  5
7A7A
  8
1
  6
CONTINUOUS
 10
669.34782099999995
 20
1622.592801
 30
0.0
 11
669.34782099999995
 21
1582.592801
 31
0.0
  0
LINE
  5
7A7B
  8
1
  6
CONTINUOUS
 10
629.34782099999995
 20
1702.592801
 30
0.0
 11
629.34782099999995
 21
1582.592801
 31
0.0
  0
LINE
  5
7A7C
  8
1
  6
CONTINUOUS
 10
669.34782099999995
 20
1582.592801
 30
0.0
 11
629.34782099999995
 21
1582.592801
 31
0.0
  0
LINE
  5
7A7D
  8
1
  6
CONTINUOUS
 10
704.34782099999995
 20
1767.592801
 30
0.0
 11
718.60145799999998
 21
1802.3323640000001
 31
0.0
  0
LINE
  5
7A7E
  8
1
  6
CONTINUOUS
 10
704.34782099999995
 20
1702.592801
 30
0.0
 11
704.34782099999995
 21
1767.592801
 31
0.0
  0
LINE
  5
7A7F
  8
1
  6
CONTINUOUS
 10
674.84782099999995
 20
1702.592801
 30
0.0
 11
674.84782099999995
 21
1932.592801
 31
0.0
  0
LINE
  5
7A80
  8
1
  6
CONTINUOUS
 10
1894.3478210000001
 20
2522.5928009999998
 30
0.0
 11
1059.3478210000001
 21
2522.5928009999998
 31
0.0
  0
ARC
  5
7A81
  8
1
  6
CONTINUOUS
 10
1503.3478210000001
 20
2143.5928009999998
 30
0.0
 40
433.10293799999999
 50
185.042451
 51
277.25319500000001
  0
ARC
  5
7A82
  8
1
  6
CONTINUOUS
 10
1571.3478210000001
 20
2149.5928009999998
 30
0.0
 40
501.36713099999992
 50
94.232174000000001
 51
185.042451
  0
CIRCLE
  5
7A83
  8
1
  6
CONTINUOUS
 10
1534.3478210000001
 20
2112.5928009999998
 30
0.0
 40
295.0
  0
CIRCLE
  5
7A84
  8
1
  6
CONTINUOUS
 10
1534.3478210000001
 20
2112.5928009999998
 30
0.0
 40
320.0
  0
LINE
  5
7A85
  8
1
  6
CONTINUOUS
 10
809.97455099999991
 20
1950.212491
 30
0.0
 11
1499.528863
 21
2206.3352150000001
 31
0.0
  0
LINE
  5
7A86
  8
1
  6
CONTINUOUS
 10
853.29657699999996
 20
1817.206269
 30
0.0
 11
1561.4174720000001
 21
2016.326327
 31
0.0
  0
LINE
  5
7A87
  8
1
  6
CONTINUOUS
 10
1059.3478210000001
 20
2522.5928009999998
 30
0.0
 11
1059.3478210000001
 21
1702.592801
 31
0.0
  0
LINE
  5
7A88
  8
2
  6
CENTER
 10
764.34782099999995
 20
1884.592801
 30
0.0
 11
904.34782100000007
 21
1884.592801
 31
0.0
  0
CIRCLE
  5
7A89
  8
1
  6
CONTINUOUS
 10
834.34782099999984
 20
1884.592801
 30
0.0
 40
70.0
  0
LINE
  5
7A8A
  8
2
  6
CENTER
 10
834.34782099999984
 20
1814.592801
 30
0.0
 11
834.34782099999984
 21
1954.592801
 31
0.0
  0
LINE
  5
7A8B
  8
1
  6
CONTINUOUS
 10
964.34782100000007
 20
1702.592801
 30
0.0
 11
964.34782100000007
 21
1767.592801
 31
0.0
  0
LINE
  5
7A8C
  8
1
  6
CONTINUOUS
 10
964.34782100000007
 20
1767.592801
 30
0.0
 11
950.09418400000015
 21
1802.3323640000001
 31
0.0
  0
LINE
  5
7A8D
  8
1
  6
CONTINUOUS
 10
1894.3478210000001
 20
2522.5928009999998
 30
0.0
 11
1894.3478210000001
 21
1702.592801
 31
0.0
  0
ARC
  5
7A8E
  8
1
  6
CONTINUOUS
 10
1510.3478210000001
 20
2088.5928009999998
 30
0.0
 40
377.65927299999993
 50
277.25319500000001
 51
0.455143
  0
LINE
  5
7A8F
  8
2
  6
CENTER
 10
1534.3478210000001
 20
4129.5812649999998
 30
0.0
 11
1534.3478210000001
 21
3268.83266
 31
0.0
  0
LINE
  5
7A90
  8
1
  6
CONTINUOUS
 10
1939.3478210000001
 20
2064.5928009999998
 30
0.0
 11
1939.3478210000001
 21
2678.5928009999998
 31
0.0
  0
LINE
  5
7A91
  8
1
  6
CONTINUOUS
 10
1804.8478210000001
 20
1702.592801
 30
0.0
 11
1804.8478210000001
 21
2452.5928009999998
 31
0.0
  0
CIRCLE
  5
7A92
  8
1
  6
CONTINUOUS
 10
1534.3478210000001
 20
2112.5928009999998
 30
0.0
 40
100.0
  0
LINE
  5
7A93
  8
1
  6
CONTINUOUS
 10
1839.3478210000001
 20
1622.592801
 30
0.0
 11
1839.3478210000001
 21
1582.592801
 31
0.0
  0
LINE
  5
7A94
  8
1
  6
CONTINUOUS
 10
1879.3478209999989
 20
1702.592801
 30
0.0
 11
1879.3478209999989
 21
1582.592801
 31
0.0
  0
LINE
  5
7A95
  8
1
  6
CONTINUOUS
 10
1879.3478209999989
 20
1582.592801
 30
0.0
 11
1839.3478210000001
 21
1582.592801
 31
0.0
  0
LINE
  5
7A96
  8
1
  6
CONTINUOUS
 10
1939.3478210000001
 20
2651.5928009999998
 30
0.0
 11
1534.3478210000001
 21
2649.5928009999998
 31
0.0
  0
LINE
  5
7A97
  8
1
  6
CONTINUOUS
 10
1804.8478210000001
 20
2452.5928009999998
 30
0.0
 11
1534.8478210000001
 21
2537.5928009999998
 31
0.0
  0
LINE
  5
7A98
  8
2
  6
CENTER
 10
3549.9701709519782
 20
2112.5928009999998
 30
0.0
 11
2781.9856179519779
 21
2112.5928009999998
 31
0.0
  0
LINE
  5
7A99
  8
1
  6
CONTINUOUS
 10
1914.3478210000001
 20
2091.5928009999998
 30
0.0
 11
1914.3478210000001
 21
2651.4693440000001
 31
0.0
  0
LINE
  5
7A9A
  8
1
  6
CONTINUOUS
 10
1887.9951779999999
 20
2091.5928009999998
 30
0.0
 11
1939.3478210000001
 21
2091.5928009999998
 31
0.0
  0
LINE
  5
7A9B
  8
1
  6
CONTINUOUS
 10
3594.4155629519778
 20
1582.592801
 30
0.0
 11
2814.4155629519778
 21
1582.592801
 31
0.0
  0
LINE
  5
7A9C
  8
1
  6
CONTINUOUS
 10
3594.4155629519778
 20
1622.592801
 30
0.0
 11
2814.4155629519778
 21
1622.592801
 31
0.0
  0
LINE
  5
7A9D
  8
1
  6
CONTINUOUS
 10
3514.4155629519769
 20
1702.592801
 30
0.0
 11
2849.4155629519778
 21
1702.592801
 31
0.0
  0
LINE
  5
7A9E
  8
1
  6
CONTINUOUS
 10
3049.4155629519778
 20
2651.5928009999998
 30
0.0
 11
3469.4155629519778
 21
2651.5928009999998
 31
0.0
  0
LINE
  5
7A9F
  8
1
  6
CONTINUOUS
 10
3049.4155629519778
 20
2091.5928009999998
 30
0.0
 11
3469.4155629519778
 21
2091.5928009999998
 31
0.0
  0
LINE
  5
7AA0
  8
1
  6
CONTINUOUS
 10
3049.4155629519778
 20
2651.5928009999998
 30
0.0
 11
3469.4155629519778
 21
2091.5928009999998
 31
0.0
  0
LINE
  5
7AA1
  8
1
  6
CONTINUOUS
 10
3049.4155629519778
 20
2091.5928009999998
 30
0.0
 11
3469.4155629519778
 21
2651.5928009999998
 31
0.0
  0
LINE
  5
7AA2
  8
1
  6
CONTINUOUS
 10
3049.4155629519778
 20
1702.592801
 30
0.0
 11
3049.4155629519778
 21
2651.5928009999998
 31
0.0
  0
LINE
  5
7AA3
  8
1
  6
CONTINUOUS
 10
2849.4155629519778
 20
1702.592801
 30
0.0
 11
2849.4155629519778
 21
2537.5928009999998
 31
0.0
  0
LINE
  5
7AA4
  8
1
  6
CONTINUOUS
 10
2969.4155629519778
 20
1702.592801
 30
0.0
 11
2969.4155629519778
 21
2537.5928009999998
 31
0.0
  0
LINE
  5
7AA5
  8
1
  6
CONTINUOUS
 10
2879.4155629519778
 20
2212.5928009999998
 30
0.0
 11
2879.4155629519778
 21
2012.592801
 31
0.0
  0
LINE
  5
7AA6
  8
1
  6
CONTINUOUS
 10
2939.4155629519778
 20
2212.5928009999998
 30
0.0
 11
2939.4155629519778
 21
2012.592801
 31
0.0
  0
LINE
  5
7AA7
  8
1
  6
CONTINUOUS
 10
2879.4155629519778
 20
2012.592801
 30
0.0
 11
2939.4155629519778
 21
2012.592801
 31
0.0
  0
LINE
  5
7AA8
  8
1
  6
CONTINUOUS
 10
2879.4155629519778
 20
1954.592801
 30
0.0
 11
2939.4155629519778
 21
1954.592801
 31
0.0
  0
LINE
  5
7AA9
  8
1
  6
CONTINUOUS
 10
2879.4155629519778
 20
1814.592801
 30
0.0
 11
2939.4155629519778
 21
1814.592801
 31
0.0
  0
LINE
  5
7AAA
  8
1
  6
CONTINUOUS
 10
2814.4155629519778
 20
1622.592801
 30
0.0
 11
2814.4155629519778
 21
1582.592801
 31
0.0
  0
LINE
  5
7AAB
  8
1
  6
CONTINUOUS
 10
2879.4155629519778
 20
1954.592801
 30
0.0
 11
2879.4155629519778
 21
1814.592801
 31
0.0
  0
LINE
  5
7AAC
  8
1
  6
CONTINUOUS
 10
2939.4155629519778
 20
1900.592801
 30
0.0
 11
3049.4155629519778
 21
1900.592801
 31
0.0
  0
LINE
  5
7AAD
  8
1
  6
CONTINUOUS
 10
2939.4155629519778
 20
1868.592801
 30
0.0
 11
3049.4155629519778
 21
1868.592801
 31
0.0
  0
LINE
  5
7AAE
  8
1
  6
CONTINUOUS
 10
3004.4155629519778
 20
1622.592801
 30
0.0
 11
3004.4155629519778
 21
1702.592801
 31
0.0
  0
LINE
  5
7AAF
  8
1
  6
CONTINUOUS
 10
2939.4155629519778
 20
1954.592801
 30
0.0
 11
2939.4155629519778
 21
1814.592801
 31
0.0
  0
LINE
  5
7AB0
  8
1
  6
CONTINUOUS
 10
2849.4155629519778
 20
2537.5928009999998
 30
0.0
 11
2969.4155629519778
 21
2537.5928009999998
 31
0.0
  0
LINE
  5
7AB1
  8
1
  6
CONTINUOUS
 10
2879.4155629519778
 20
2212.5928009999998
 30
0.0
 11
2939.4155629519778
 21
2212.5928009999998
 31
0.0
  0
LINE
  5
7AB2
  8
1
  6
CONTINUOUS
 10
3049.4155629519778
 20
2128.5928009999998
 30
0.0
 11
2939.4155629519778
 21
2128.5928009999998
 31
0.0
  0
LINE
  5
7AB3
  8
1
  6
CONTINUOUS
 10
3049.4155629519778
 20
2096.5928009999998
 30
0.0
 11
2939.4155629519778
 21
2096.5928009999998
 31
0.0
  0
LINE
  5
7AB4
  8
1
  6
CONTINUOUS
 10
3469.4155629519778
 20
1702.592801
 30
0.0
 11
3469.4155629519778
 21
2651.5928009999998
 31
0.0
  0
LINE
  5
7AB5
  8
1
  6
CONTINUOUS
 10
3471.4155629519778
 20
1792.592801
 30
0.0
 11
3471.4155629519778
 21
2432.5928009999998
 31
0.0
  0
LINE
  5
7AB6
  8
1
  6
CONTINUOUS
 10
3469.4155629519778
 20
1792.592801
 30
0.0
 11
3471.4155629519778
 21
1792.592801
 31
0.0
  0
LINE
  5
7AB7
  8
1
  6
CONTINUOUS
 10
3594.4155629519778
 20
1622.592801
 30
0.0
 11
3594.4155629519778
 21
1582.592801
 31
0.0
  0
LINE
  5
7AB8
  8
1
  6
CONTINUOUS
 10
3514.4155629519769
 20
1622.592801
 30
0.0
 11
3514.4155629519769
 21
1702.592801
 31
0.0
  0
LINE
  5
7AB9
  8
1
  6
CONTINUOUS
 10
3469.4155629519778
 20
2432.5928009999998
 30
0.0
 11
3471.4155629519778
 21
2432.5928009999998
 31
0.0
  0
LINE
  5
7ABA
  8
1
  6
CONTINUOUS
 10
692.34782099999995
 20
3541.3306339999999
 30
0.0
 11
976.34782099999995
 21
3541.3306339999999
 31
0.0
  0
LINE
  5
7ABB
  8
1
  6
CONTINUOUS
 10
692.34782099999995
 20
3941.3306339999999
 30
0.0
 11
976.34782099999995
 21
3941.3306339999999
 31
0.0
  0
LINE
  5
7ABC
  8
1
  6
CONTINUOUS
 10
1879.3478209999989
 20
4032.5928009999989
 30
0.0
 11
629.34782099999995
 21
4032.5928009999989
 31
0.0
  0
LINE
  5
7ABD
  8
1
  6
CONTINUOUS
 10
1804.8478210000001
 20
3367.5928009999998
 30
0.0
 11
674.84782099999995
 21
3367.5928009999998
 31
0.0
  0
LINE
  5
7ABE
  8
1
  6
CONTINUOUS
 10
1804.8478210000001
 20
3487.5928009999989
 30
0.0
 11
674.84782099999995
 21
3487.5928009999989
 31
0.0
  0
LINE
  5
7ABF
  8
1
  6
CONTINUOUS
 10
815.34782099999995
 20
3522.5928009999998
 30
0.0
 11
629.34782099999995
 21
3522.5928009999998
 31
0.0
  0
LINE
  5
7AC0
  8
1
  6
CONTINUOUS
 10
692.34782099999995
 20
3941.3306339999999
 30
0.0
 11
692.34782099999995
 21
3541.3306339999999
 31
0.0
  0
LINE
  5
7AC1
  8
1
  6
CONTINUOUS
 10
629.34782099999995
 20
4112.5928009999989
 30
0.0
 11
629.34782099999995
 21
3332.5928009999998
 31
0.0
  0
LINE
  5
7AC2
  8
1
  6
CONTINUOUS
 10
669.34782099999995
 20
3522.5928009999998
 30
0.0
 11
669.34782099999995
 21
3332.5928009999998
 31
0.0
  0
LINE
  5
7AC3
  8
1
  6
CONTINUOUS
 10
674.84782099999995
 20
3367.5928009999998
 30
0.0
 11
674.84782099999995
 21
3487.5928009999989
 31
0.0
  0
LINE
  5
7AC4
  8
1
  6
CONTINUOUS
 10
669.34782099999995
 20
3332.5928009999998
 30
0.0
 11
629.34782099999995
 21
3332.5928009999998
 31
0.0
  0
LINE
  5
7AC5
  8
1
  6
CONTINUOUS
 10
669.34782099999995
 20
4112.5928009999989
 30
0.0
 11
669.34782099999995
 21
4032.5928009999989
 31
0.0
  0
LINE
  5
7AC6
  8
1
  6
CONTINUOUS
 10
669.34782099999995
 20
4112.5928009999989
 30
0.0
 11
629.34782099999995
 21
4112.5928009999989
 31
0.0
  0
LINE
  5
7AC7
  8
1
  6
CONTINUOUS
 10
1059.3478210000001
 20
3567.5928009999989
 30
0.0
 11
1939.3478210000001
 21
3567.5928009999989
 31
0.0
  0
LINE
  5
7AC8
  8
1
  6
CONTINUOUS
 10
1059.3478210000001
 20
3987.5928009999989
 30
0.0
 11
1939.3478210000001
 21
3987.5928009999989
 31
0.0
  0
LINE
  5
7AC9
  8
1
  6
CONTINUOUS
 10
1518.3478210000001
 20
3522.5928009999998
 30
0.0
 11
853.34782099999995
 21
3522.5928009999998
 31
0.0
  0
LINE
  5
7ACA
  8
1
  6
CONTINUOUS
 10
1214.3478210000001
 20
3989.5928009999998
 30
0.0
 11
1854.3478210000001
 21
3989.5928009999998
 31
0.0
  0
LINE
  5
7ACB
  8
1
  6
CONTINUOUS
 10
976.34782099999995
 20
3941.3306339999999
 30
0.0
 11
976.34782099999995
 21
3541.3306339999999
 31
0.0
  0
LINE
  5
7ACC
  8
1
  6
CONTINUOUS
 10
1059.3478210000001
 20
3567.5928009999989
 30
0.0
 11
1059.3478210000001
 21
3987.5928009999989
 31
0.0
  0
LINE
  5
7ACD
  8
1
  6
CONTINUOUS
 10
764.34782099999995
 20
3397.5928009999998
 30
0.0
 11
764.34782099999995
 21
3457.5928009999998
 31
0.0
  0
LINE
  5
7ACE
  8
1
  6
CONTINUOUS
 10
904.34782100000007
 20
3397.5928009999998
 30
0.0
 11
904.34782100000007
 21
3457.5928009999998
 31
0.0
  0
LINE
  5
7ACF
  8
1
  6
CONTINUOUS
 10
764.34782099999995
 20
3397.5928009999998
 30
0.0
 11
904.34782100000007
 21
3397.5928009999998
 31
0.0
  0
LINE
  5
7AD0
  8
1
  6
CONTINUOUS
 10
764.34782099999995
 20
3457.5928009999998
 30
0.0
 11
904.34782100000007
 21
3457.5928009999998
 31
0.0
  0
LINE
  5
7AD1
  8
1
  6
CONTINUOUS
 10
815.34782099999995
 20
3457.5928009999998
 30
0.0
 11
815.34782099999995
 21
3541.3306339999999
 31
0.0
  0
LINE
  5
7AD2
  8
1
  6
CONTINUOUS
 10
853.34782099999995
 20
3457.5928009999998
 30
0.0
 11
853.34782099999995
 21
3541.3306339999999
 31
0.0
  0
LINE
  5
7AD3
  8
1
  6
CONTINUOUS
 10
1214.3478210000001
 20
3987.5928009999989
 30
0.0
 11
1214.3478210000001
 21
3989.5928009999998
 31
0.0
  0
LINE
  5
7AD4
  8
1
  6
CONTINUOUS
 10
1939.3478210000001
 20
4014.5928009999998
 30
0.0
 11
1939.3478210000001
 21
3540.5928009999989
 31
0.0
  0
LINE
  5
7AD5
  8
1
  6
CONTINUOUS
 10
1914.3478210000001
 20
3987.5928009999989
 30
0.0
 11
1914.3478210000001
 21
3567.5928009999989
 31
0.0
  0
LINE
  5
7AD6
  8
1
  6
CONTINUOUS
 10
1879.3478209999989
 20
3522.5928009999998
 30
0.0
 11
1550.3478210000001
 21
3522.5928009999998
 31
0.0
  0
LINE
  5
7AD7
  8
1
  6
CONTINUOUS
 10
1434.3478210000001
 20
3397.5928009999998
 30
0.0
 11
1434.3478210000001
 21
3457.5928009999998
 31
0.0
  0
LINE
  5
7AD8
  8
1
  6
CONTINUOUS
 10
1634.3478210000001
 20
3397.5928009999998
 30
0.0
 11
1634.3478210000001
 21
3457.5928009999998
 31
0.0
  0
LINE
  5
7AD9
  8
1
  6
CONTINUOUS
 10
1434.3478210000001
 20
3397.5928009999998
 30
0.0
 11
1634.3478210000001
 21
3397.5928009999998
 31
0.0
  0
LINE
  5
7ADA
  8
1
  6
CONTINUOUS
 10
1434.3478210000001
 20
3457.5928009999998
 30
0.0
 11
1634.3478210000001
 21
3457.5928009999998
 31
0.0
  0
LINE
  5
7ADB
  8
1
  6
CONTINUOUS
 10
1518.3478210000001
 20
3567.5928009999989
 30
0.0
 11
1518.3478210000001
 21
3457.5928009999998
 31
0.0
  0
LINE
  5
7ADC
  8
1
  6
CONTINUOUS
 10
1550.3478210000001
 20
3567.5928009999989
 30
0.0
 11
1550.3478210000001
 21
3457.5928009999998
 31
0.0
  0
LINE
  5
7ADD
  8
1
  6
CONTINUOUS
 10
1839.3478210000001
 20
3522.5928009999998
 30
0.0
 11
1839.3478210000001
 21
3332.5928009999998
 31
0.0
  0
LINE
  5
7ADE
  8
1
  6
CONTINUOUS
 10
1804.8478210000001
 20
3367.5928009999998
 30
0.0
 11
1804.8478210000001
 21
3487.5928009999989
 31
0.0
  0
LINE
  5
7ADF
  8
1
  6
CONTINUOUS
 10
1879.3478209999989
 20
3567.5928009999989
 30
0.0
 11
1879.3478209999989
 21
3332.5928009999998
 31
0.0
  0
LINE
  5
7AE0
  8
1
  6
CONTINUOUS
 10
1839.3478210000001
 20
3332.5928009999998
 30
0.0
 11
1879.3478209999989
 21
3332.5928009999998
 31
0.0
  0
LINE
  5
7AE1
  8
1
  6
CONTINUOUS
 10
1839.3478210000001
 20
4112.5928009999989
 30
0.0
 11
1879.3478209999989
 21
4112.5928009999989
 31
0.0
  0
LINE
  5
7AE2
  8
1
  6
CONTINUOUS
 10
1839.3478210000001
 20
4112.5928009999989
 30
0.0
 11
1839.3478210000001
 21
4032.5928009999989
 31
0.0
  0
LINE
  5
7AE3
  8
1
  6
CONTINUOUS
 10
1879.3478209999989
 20
4112.5928009999989
 30
0.0
 11
1879.3478209999989
 21
3987.5928009999989
 31
0.0
  0
LINE
  5
7AE4
  8
1
  6
CONTINUOUS
 10
1854.3478210000001
 20
3987.5928009999989
 30
0.0
 11
1854.3478210000001
 21
3989.5928009999998
 31
0.0
  0
LINE
  5
7AE5
  8
2
  6
CENTER
 10
3259.4155629519778
 20
2730.3413620000001
 30
0.0
 11
3259.4155629519778
 21
1483.990446492928
 31
0.0
  0
LINE
  5
7AE6
  8
2
  6
CENTER
 10
515.19396900000004
 20
3777.5928009999998
 30
0.0
 11
2032.2159509999999
 21
3777.5928009999998
 31
0.0
  0
LINE
  5
7AE7
  8
2
  6
CENTER
 10
1534.3478210000001
 20
2806.392233
 30
0.0
 11
1534.3478210000001
 21
1502.9390239999991
 31
0.0
  0
LINE
  5
7AE8
  8
2
  6
CENTER
 10
2020.8794190000001
 20
2112.5928009999998
 30
0.0
 11
742.81896799999993
 21
2112.5928009999998
 31
0.0
  0
LINE
  5
7AE9
  8
4
  6
CONTINUOUS
 10
3700.0
 20
1000.0
 30
0.0
 11
3700.0
 21
600.0
 31
0.0
  0
LINE
  5
7AEA
  8
4
  6
CONTINUOUS
 10
2300.0
 20
1000.0
 30
0.0
 11
2300.0
 21
600.0
 31
0.0
  0
LINE
  5
7AEB
  8
4
  6
CONTINUOUS
 10
1300.0
 20
1000.0
 30
0.0
 11
1300.0
 21
600.0
 31
0.0
  0
LINE
  5
7AEE
  8
4
  6
CONTINUOUS
 10
1300.0
 20
600.0
 30
0.0
 11
3700.0
 21
600.0
 31
0.0
  0
LINE
  5
7AEF
  8
4
  6
CONTINUOUS
 10
1300.0
 20
800.0
 30
0.0
 11
3700.0
 21
800.0
 31
0.0
  0
TEXT
  5
7AF0
  8
4
  6
CONTINUOUS
 10
1377.004162
 20
863.086052
 30
0.0
 40
100.0
  1
機器名称
  0
TEXT
  5
7AF1
  8
4
  6
CONTINUOUS
 10
1372.516212
 20
643.29031299999986
 30
0.0
 40
100.0
  1
機器型番
  0
TEXT
  5
7AF2
  8
4
  6
CONTINUOUS
 10
2355.3574910000002
 20
845.14353800000015
 30
0.0
 40
100.0
  1
ミツヤ多翼送風機
  0
TEXT
  5
7AF3
  8
4
  6
CONTINUOUS
 10
2373.3089909999999
 20
634.31916899999999
 30
0.0
 40
100.0
  1
MF#3 1/2-4
  0
TEXT
  5
7AF5
  8
4
  6
CONTINUOUS
 10
1621.3563859999999
 20
4766.8576830000002
 30
0.0
 40
108.0
  1
天井吊ベット
  0
TEXT
  5
7AF6
  8
4
  6
CONTINUOUS
 10
632.33518700000002
 20
5067.7619520000007
 30
0.0
 40
144.0
  1
ベルト駆動式片吸込両持多翼ファン
  0
LINE
  5
7AF7
  8
4
  6
CONTINUOUS
 10
500.0
 20
4938.8175090000004
 30
0.0
 11
3700.0
 21
4938.8175090000004
 31
0.0
  0
LINE
  5
7AF8
  8
4
  6
CONTINUOUS
 10
500.0
 20
5338.8175090000004
 30
0.0
 11
3700.0
 21
5338.8175090000004
 31
0.0
  0
LINE
  5
7AF9
  8
4
  6
CONTINUOUS
 10
1300.0
 20
1000.0
 30
0.0
 11
3700.0
 21
1000.0
 31
0.0
  0
LINE
  5
7AFA
  8
4
  6
CONTINUOUS
 10
500.0
 20
5338.8175090000004
 30
0.0
 11
500.0
 21
4938.8175090000004
 31
0.0
  0
TEXT
  5
7AFB
  8
4
  6
CONTINUOUS
 10
749.63872200000003
 20
4764.6389549999994
 30
0.0
 40
108.0
  1
右回転右横向
  0
TEXT
  5
7AFC
  8
4
  6
CONTINUOUS
 10
2937.9391179999998
 20
5412.122163
 30
0.0
 40
112.0
  1
No.
  0
TEXT
  5
7AFD
  8
4
  6
CONTINUOUS
 10
2622.5921250000001
 20
4766.8576830000002
 30
0.0
 40
108.0
  1
縮尺：1/20
  0
LINE
  5
7AFE
  8
4
  6
CONTINUOUS
 10
3700.0
 20
5338.8175090000004
 30
0.0
 11
3700.0
 21
4938.8175090000004
 31
0.0
  0
LINE
  5
7B00
  8
4
  6
CONTINUOUS
 10
2881.234845
 20
5362.5271659999999
 30
0.0
 11
2881.234845
 21
5573.3045229999998
 31
0.0
  0
LINE
  5
7B01
  8
4
  6
CONTINUOUS
 10
2881.234845
 20
5573.3045229999998
 30
0.0
 11
3700.0
 21
5573.3045229999998
 31
0.0
  0
LINE
  5
7B02
  8
4
  6
CONTINUOUS
 10
3700.0
 20
5573.3045229999998
 30
0.0
 11
3700.0
 21
5362.5271659999999
 31
0.0
  0
LINE
  5
7B03
  8
4
  6
CONTINUOUS
 10
3700.0
 20
5362.5271659999999
 30
0.0
 11
2881.234845
 21
5362.5271659999999
 31
0.0
  0
DIMENSION
  5
7B1B
  8
3
  6
CONTINUOUS
  2
*D1
 10
2080.2074560000001
 20
2091.5928009999998
 30
0.0
 11
2080.2074560000001
 21
2368.0164570000002
 31
0.0
 70
   128
 13
1939.3478210000001
 23
2651.5928009999998
 33
0.0
 14
1939.3478210000001
 24
2091.5928009999998
 34
0.0
 50
90.0
1001
ACAD
1000
DSTYLE
1002
{
1070
   287
1070
     3
1070
    40
1040
20.0
1070
   143
1040
0.039
1070
   172
1070
     1
1070
   271
1070
     0
1070
   279
1070
     0
1070
   288
1070
     1
1002
}
  0
DIMENSION
  5
7B28
  8
3
  6
CONTINUOUS
  2
*D2
 10
2214.1318409999999
 20
2112.5928009999998
 30
0.0
 11
2214.131840999999
 21
2359.3844920000001
 31
0.0
 70
   128
 13
1939.3478210000001
 23
2651.5928009999998
 33
0.0
 14
2020.8794190000001
 24
2112.5928009999998
 34
0.0
 50
90.0
1001
ACAD
1000
DSTYLE
1002
{
1070
   287
1070
     3
1070
    40
1040
20.0
1070
   143
1040
0.039
1070
   172
1070
     1
1070
   271
1070
     0
1070
   279
1070
     0
1070
   288
1070
     1
1002
}
  0
DIMENSION
  5
7B34
  8
3
  6
CONTINUOUS
  2
*D3
 10
2214.131840999999
 20
1622.592801
 30
0.0
 11
2164.131840999999
 21
1867.592801
 31
0.0
 70
     0
 13
2020.8794190000001
 23
2112.5928009999998
 33
0.0
 14
1879.3478209999989
 24
1622.592801
 34
0.0
 50
90.0
1001
ACAD
1000
DSTYLE
1002
{
1070
   287
1070
     4
1070
    40
1040
20.0
1070
    75
1070
     1
1070
   143
1040
0.039
1070
   172
1070
     1
1070
   271
1070
     0
1070
   279
1070
     1
1070
   288
1070
     1
1002
}
  0
DIMENSION
  5
7B44
  8
3
  6
CONTINUOUS
  2
*D4
 10
2216.4777789999998
 20
1582.592801
 30
0.0
 11
2216.4777789999989
 21
1434.0213724285711
 31
0.0
 70
   128
 13
1879.3478209999989
 23
1622.592801
 33
0.0
 14
1879.3478209999989
 24
1582.592801
 34
0.0
 50
90.0
1001
ACAD
1000
DSTYLE
1002
{
1070
   287
1070
     3
1070
    40
1040
20.0
1070
   143
1040
0.039
1070
   172
1070
     1
1070
   271
1070
     0
1070
   279
1070
     0
1070
   288
1070
     1
1002
}
  0
DIMENSION
  5
7B51
  8
3
  6
CONTINUOUS
  2
*D5
 10
2357.5556320000001
 20
1582.592801
 30
0.0
 11
2357.5556319999992
 21
2083.1612569999988
 31
0.0
 70
   128
 13
1939.3478210000001
 23
2678.5928009999998
 33
0.0
 14
1879.3478209999989
 24
1582.592801
 34
0.0
 50
90.0
1001
ACAD
1000
DSTYLE
1002
{
1070
   287
1070
     3
1070
    40
1040
20.0
1070
   143
1040
0.039
1070
   172
1070
     1
1070
   271
1070
     0
1070
   279
1070
     0
1070
   288
1070
     1
1002
}
  0
DIMENSION
  5
7B5E
  8
3
  6
CONTINUOUS
  2
*D6
 10
1534.3478210000001
 20
1429.6756330000001
 30
0.0
 11
1095.2152249999999
 21
1429.6756330000001
 31
0.0
 70
   128
 13
629.34782099999995
 23
1582.592801
 33
0.0
 14
1534.3478210000001
 24
1502.9390239999991
 34
0.0
1001
ACAD
1000
DSTYLE
1002
{
1070
   287
1070
     3
1070
    40
1040
20.0
1070
   143
1040
0.039
1070
   172
1070
     1
1070
   271
1070
     0
1070
   279
1070
     0
1070
   288
1070
     1
1002
}
  0
DIMENSION
  5
7B6A
  8
3
  6
CONTINUOUS
  2
*D7
 10
1879.3478209999989
 20
1429.6756330000001
 30
0.0
 11
1706.8478210000001
 21
1479.6756330000001
 31
0.0
 70
     0
 13
1534.3478210000001
 23
1502.9390239999991
 33
0.0
 14
1879.3478209999989
 24
1582.592801
 34
0.0
1001
ACAD
1000
DSTYLE
1002
{
1070
   287
1070
     4
1070
    40
1040
20.0
1070
    75
1070
     1
1070
   143
1040
0.039
1070
   172
1070
     1
1070
   271
1070
     0
1070
   279
1070
     1
1070
   288
1070
     1
1002
}
  0
DIMENSION
  5
7B77
  8
3
  6
CONTINUOUS
  2
*D8
 10
1534.3478210000001
 20
2798.2814020000001
 30
0.0
 11
1734.596141
 21
2798.2814020000001
 31
0.0
 70
   128
 13
1939.3478210000001
 23
2678.5928009999998
 33
0.0
 14
1534.3478210000001
 24
2806.392233
 34
0.0
1001
ACAD
1000
DSTYLE
1002
{
1070
   287
1070
     3
1070
    40
1040
20.0
1070
   143
1040
0.039
1070
   172
1070
     1
1070
   271
1070
     0
1070
   279
1070
     0
1070
   288
1070
     1
1002
}
  0
DIMENSION
  5
7B83
  8
3
  6
CONTINUOUS
  2
*D9
 10
1059.3478210000001
 20
2798.2814020000001
 30
0.0
 11
1296.8478210000001
 21
2848.2814020000001
 31
0.0
 70
     0
 13
1534.3478210000001
 23
2806.392233
 33
0.0
 14
1059.3478210000001
 24
2522.5928009999998
 34
0.0
1001
ACAD
1000
DSTYLE
1002
{
1070
   287
1070
     4
1070
    40
1040
20.0
1070
    75
1070
     1
1070
   143
1040
0.039
1070
   172
1070
     1
1070
   271
1070
     0
1070
   279
1070
     1
1070
   288
1070
     1
1002
}
  0
DIMENSION
  5
7B9F
  8
3
  6
CONTINUOUS
  2
*D10
 10
3653.653547951978
 20
1817.5928009999991
 30
0.0
 11
3653.6535479519771
 21
2113.373169
 31
0.0
 70
   128
 13
3471.4155629519778
 23
2407.5928009999998
 33
0.0
 14
3469.4155629519778
 24
1817.592801
 34
0.0
 50
90.0
1001
ACAD
1000
DSTYLE
1002
{
1070
   287
1070
     3
1070
     3
1000
φ<>
1070
    40
1040
20.0
1070
   143
1040
0.039
1070
   172
1070
     1
1070
   271
1070
     0
1070
   279
1070
     0
1070
   288
1070
     1
1002
}
  0
DIMENSION
  5
7BAE
  8
3
  6
CONTINUOUS
  2
*D11
 10
3259.4155629519778
 20
2881.312676
 30
0.0
 11
3365.4155629519769
 21
2927.438847537358
 31
0.0
 70
   128
 13
3471.4155629519778
 23
2432.5928009999998
 33
0.0
 14
3259.4155629519778
 24
2838.5354000000002
 34
0.0
1001
ACAD
1000
DSTYLE
1002
{
1070
   288
1070
     1
1070
   172
1070
     1
1070
    40
1040
20.0
1070
   271
1070
     0
1070
   143
1040
0.039
1002
}
  0
DIMENSION
  5
7BBA
  8
3
  6
CONTINUOUS
  2
*D12
 10
2849.4155629519778
 20
2881.312676
 30
0.0
 11
3054.4155629519778
 21
2981.3126759999991
 31
0.0
 70
     0
  1
MAX\P470
 13
3259.4155629519778
 23
2838.5354000000002
 33
0.0
 14
2849.4155629519778
 24
2537.5928009999998
 34
0.0
1001
ACAD
1000
DSTYLE
1002
{
1070
   287
1070
     4
1070
    40
1040
20.0
1070
    75
1070
     1
1070
   143
1040
0.039
1070
   172
1070
     1
1070
   271
1070
     0
1070
   279
1070
     1
1070
   288
1070
     1
1002
}
  0
DIMENSION
  5
7BC7
  8
3
  6
CONTINUOUS
  2
*D13
 10
3259.4155629519778
 20
1413.1136489999999
 30
0.0
 11
3048.8337659519771
 21
1413.1136489999999
 31
0.0
 70
   128
 13
2814.4155629519778
 23
1582.592801
 33
0.0
 14
3259.4155629519778
 24
1483.990446492928
 34
0.0
1001
ACAD
1000
DSTYLE
1002
{
1070
   287
1070
     3
1070
    40
1040
20.0
1070
   143
1040
0.039
1070
   172
1070
     1
1070
   271
1070
     0
1070
   279
1070
     0
1070
   288
1070
     1
1002
}
  0
DIMENSION
  5
7BD3
  8
3
  6
CONTINUOUS
  2
*D14
 10
3594.4155629519778
 20
1413.1136489999999
 30
0.0
 11
3426.9155629519778
 21
1463.1136489999999
 31
0.0
 70
     0
 13
3259.4155629519778
 23
1483.990446492928
 33
0.0
 14
3594.4155629519778
 24
1582.592801
 34
0.0
1001
ACAD
1000
DSTYLE
1002
{
1070
   287
1070
     4
1070
    40
1040
20.0
1070
    75
1070
     1
1070
   143
1040
0.039
1070
   172
1070
     1
1070
   271
1070
     0
1070
   279
1070
     1
1070
   288
1070
     1
1002
}
  0
DIMENSION
  5
7BE0
  8
3
  6
CONTINUOUS
  2
*D15
 10
1879.3478209999989
 20
4235.9242780000004
 30
0.0
 11
1229.1396090000001
 21
4235.9242780000004
 31
0.0
 70
   128
 13
629.34782099999995
 23
4112.5928009999989
 33
0.0
 14
1879.3478209999989
 24
4112.5928009999989
 34
0.0
1001
ACAD
1000
DSTYLE
1002
{
1070
   287
1070
     3
1070
    40
1040
20.0
1070
   143
1040
0.039
1070
   172
1070
     1
1070
   271
1070
     0
1070
   279
1070
     0
1070
   288
1070
     1
1002
}
  0
DIMENSION
  5
7BED
  8
3
  6
CONTINUOUS
  2
*D16
 10
2179.570732000001
 20
3332.5928009999998
 30
0.0
 11
2179.5707320000001
 21
3709.3737310000001
 31
0.0
 70
   128
 13
1879.3478209999989
 23
4112.5928009999989
 33
0.0
 14
1879.3478209999989
 24
3332.5928009999998
 34
0.0
 50
90.0
1001
ACAD
1000
DSTYLE
1002
{
1070
   287
1070
     3
1070
    40
1040
20.0
1070
   143
1040
0.039
1070
   172
1070
     1
1070
   271
1070
     0
1070
   279
1070
     0
1070
   288
1070
     1
1002
}
  0
DIMENSION
  5
7C65
  8
3
  6
CONTINUOUS
  2
*D17
 10
3469.4155629519778
 20
2739.6849309999989
 30
0.0
 11
3249.4485499519769
 21
2739.6849309999989
 31
0.0
 70
   128
 13
3049.4155629519778
 23
2651.5928009999998
 33
0.0
 14
3469.4155629519778
 24
2651.5928009999998
 34
0.0
1001
ACAD
1000
DSTYLE
1002
{
1070
   287
1070
     3
1070
    40
1040
20.0
1070
   143
1040
0.039
1070
   172
1070
     1
1070
   271
1070
     0
1070
   279
1070
     0
1070
   288
1070
     1
1002
}
  0
DIMENSION
  5
7CE3
  8
3
  2
*D18
 10
629.34782100000007
 20
2932.0662741895571
 30
0.0
 11
1283.805611508687
 21
2932.0662741895571
 31
0.0
 70
   128
 13
1939.3478210000001
 23
2678.5928009999998
 33
0.0
 14
629.34782099999995
 24
1702.592801
 34
0.0
1001
ACAD
1000
DSTYLE
1002
{
1070
   287
1070
     3
1070
    40
1040
20.0
1070
   143
1040
0.039
1070
   172
1070
     1
1070
   271
1070
     0
1070
   279
1070
     0
1070
   288
1070
     1
1002
}
  0
ENDSEC
  0
EOF
