  0
SECTION
  2
HEADER
  9
$ACADVER
  1
AC1009
  9
$INSBASE
 10
0.0
 20
0.0
 30
0.0
  9
$EXTMIN
 10
500.0
 20
600.0
 30
0.0
  9
$EXTMAX
 10
3700.0
 20
5573.3045229999998
 30
0.0
  9
$LIMMIN
 10
0.0
 20
0.0
  9
$LIMMAX
 10
297.0
 20
210.0
  9
$ORTHOMODE
 70
     0
  9
$REGENMODE
 70
     1
  9
$FILLMODE
 70
     0
  9
$QTEXTMODE
 70
     0
  9
$MIRRTEXT
 70
     1
  9
$DRAGMODE
 70
     2
  9
$LTSCALE
 40
100.0
  9
$OSMODE
 70
    37
  9
$ATTMODE
 70
     1
  9
$TEXTSIZE
 40
180.0
  9
$TRACEWID
 40
0.05
  9
$TEXTSTYLE
  7
STANDARD
  9
$CLAYER
  8
3
  9
$CELTYPE
  6
BYLAYER
  9
$CECOLOR
 62
   256
  9
$DIMSCALE
 40
20.0
  9
$DIMASZ
 40
2.0
  9
$DIMEXO
 40
0.5
  9
$DIMDLI
 40
10.0
  9
$DIMRND
 40
0.0
  9
$DIMDLE
 40
0.0
  9
$DIMEXE
 40
1.0
  9
$DIMTP
 40
1.0
  9
$DIMTM
 40
1.0
  9
$DIMTXT
 40
3.0
  9
$DIMCEN
 40
0.0
  9
$DIMTSZ
 40
0.0
  9
$DIMTOL
 70
     0
  9
$DIMLIM
 70
     0
  9
$DIMTIH
 70
     0
  9
$DIMTOH
 70
     0
  9
$DIMSE1
 70
     0
  9
$DIMSE2
 70
     0
  9
$DIMTAD
 70
     1
  9
$DIMZIN
 70
     8
  9
$DIMBLK
  1

  9
$DIMASO
 70
     1
  9
$DIMSHO
 70
     1
  9
$DIMPOST
  1

  9
$DIMAPOST
  1

  9
$DIMALT
 70
     0
  9
$DIMALTD
 70
     2
  9
$DIMALTF
 40
0.039
  9
$DIMLFAC
 40
1.0
  9
$DIMTOFL
 70
     1
  9
$DIMTVP
 40
0.0
  9
$DIMTIX
 70
     0
  9
$DIMSOXD
 70
     0
  9
$DIMSAH
 70
     1
  9
$DIMBLK1
  1
OPEN
  9
$DIMBLK2
  1
OPEN
  9
$DIMSTYLE
  2
IGA
  9
$DIMCLRD
 70
     0
  9
$DIMCLRE
 70
     0
  9
$DIMCLRT
 70
     0
  9
$DIMTFAC
 40
10.0
  9
$DIMGAP
 40
1.0
  9
$LUNITS
 70
     2
  9
$LUPREC
 70
     3
  9
$SKETCHINC
 40
0.1
  9
$FILLETRAD
 40
50.0
  9
$AUNITS
 70
     0
  9
$AUPREC
 70
     0
  9
$MENU
  1
acad
  9
$ELEVATION
 40
0.0
  9
$PELEVATION
 40
0.0
  9
$THICKNESS
 40
0.0
  9
$LIMCHECK
 70
     0
  9
$BLIPMODE
 70
     0
  9
$CHAMFERA
 40
0.5
  9
$CHAMFERB
 40
0.5
  9
$SKPOLY
 70
     0
  9
$TDCREATE
 40
2450737.4709542822
  9
$TDUPDATE
 40
2454953.768622858
  9
$TDINDWG
 40
0.0033456019
  9
$TDUSRTIMER
 40
0.0033456019
  9
$USRTIMER
 70
     1
  9
$ANGBASE
 50
0.0
  9
$ANGDIR
 70
     0
  9
$PDMODE
 70
     0
  9
$PDSIZE
 40
0.0
  9
$PLINEWID
 40
0.0
  9
$COORDS
 70
     1
  9
$SPLFRAME
 70
     0
  9
$SPLINETYPE
 70
     6
  9
$SPLINESEGS
 70
     8
  9
$ATTDIA
 70
     0
  9
$ATTREQ
 70
     1
  9
$HANDLING
 70
 10241
  9
$HANDSEED
  5
7E19
  9
$SURFTAB1
 70
     6
  9
$SURFTAB2
 70
     6
  9
$SURFTYPE
 70
     6
  9
$SURFU
 70
     6
  9
$SURFV
 70
     6
  9
$UCSNAME
  2

  9
$UCSORG
 10
0.0
 20
0.0
 30
0.0
  9
$UCSXDIR
 10
1.0
 20
0.0
 30
0.0
  9
$UCSYDIR
 10
0.0
 20
1.0
 30
0.0
  9
$PUCSNAME
  2

  9
$PUCSORG
 10
0.0
 20
0.0
 30
0.0
  9
$PUCSXDIR
 10
1.0
 20
0.0
 30
0.0
  9
$PUCSYDIR
 10
0.0
 20
1.0
 30
0.0
  9
$USERI1
 70
     0
  9
$USERI2
 70
     0
  9
$USERI3
 70
     0
  9
$USERI4
 70
     0
  9
$USERI5
 70
     0
  9
$USERR1
 40
0.0
  9
$USERR2
 40
0.0
  9
$USERR3
 40
0.0
  9
$USERR4
 40
0.0
  9
$USERR5
 40
0.0
  9
$WORLDVIEW
 70
     1
  9
$SHADEDGE
 70
     3
  9
$SHADEDIF
 70
    70
  9
$TILEMODE
 70
     1
  9
$MAXACTVP
 70
    16
  9
$PLIMCHECK
 70
     0
  9
$PEXTMIN
 10
1.0000000000000000E+020
 20
1.0000000000000000E+020
 30
1.0000000000000000E+020
  9
$PEXTMAX
 10
-1.0000000000000000E+020
 20
-1.0000000000000000E+020
 30
-1.0000000000000000E+020
  9
$PLIMMIN
 10
0.0
 20
0.0
  9
$PLIMMAX
 10
12.0
 20
9.0
  9
$UNITMODE
 70
     0
  9
$VISRETAIN
 70
     0
  9
$PLINEGEN
 70
     0
  9
$PSLTSCALE
 70
     1
  0
ENDSEC
  0
SECTION
  2
TABLES
  0
TABLE
  2
VPORT
 70
     2
  0
VPORT
  2
*ACTIVE
 70
     0
 10
0.0
 20
0.0
 11
1.0
 21
1.0
 12
6292.1124769529506
 22
3086.6374998146398
 13
0.0
 23
0.0
 14
10.0
 24
10.0
 15
10.0
 25
10.0
 16
0.0
 26
0.0
 36
1.0
 17
0.0
 27
0.0
 37
0.0
 40
5011.4968576296578
 41
3.1666666666666661
 42
50.0
 43
0.0
 44
0.0
 50
0.0
 51
0.0
 71
     0
 72
   100
 73
     1
 74
     0
 75
     0
 76
     0
 77
     0
 78
     0
  0
ENDTAB
  0
TABLE
  2
LTYPE
 70
     2
  0
LTYPE
  2
CONTINUOUS
 70
     0
  3
Solid line
 72
    65
 73
     0
 40
0.0
  0
LTYPE
  2
CENTER
 70
     0
  3
____ _ ____ _ ____ _ ____ _ ____ _ ____ _ ____ 
 72
    65
 73
     4
 40
2.0
 49
1.25
 49
-0.25
 49
0.25
 49
-0.25
  0
ENDTAB
  0
TABLE
  2
LAYER
 70
     6
  0
LAYER
  2
0
 70
     0
 62
     7
  6
CONTINUOUS
  0
LAYER
  2
3
 70
     0
 62
     2
  6
CONTINUOUS
  0
LAYER
  2
2
 70
     0
 62
     3
  6
CENTER
  0
LAYER
  2
1
 70
     0
 62
     4
  6
CONTINUOUS
  0
LAYER
  2
4
 70
     0
 62
     7
  6
CONTINUOUS
  0
LAYER
  2
DEFPOINTS
 70
     0
 62
     7
  6
CONTINUOUS
  0
ENDTAB
  0
TABLE
  2
STYLE
 70
     1
  0
STYLE
  2
STANDARD
 70
     0
 40
0.0
 41
1.0
 50
0.0
 71
     0
 42
180.0
  3
simplex.shx
  4
extfont.shx
  0
ENDTAB
  0
TABLE
  2
VIEW
 70
     0
  0
ENDTAB
  0
TABLE
  2
UCS
 70
     0
  0
ENDTAB
  0
TABLE
  2
APPID
 70
     1
  0
APPID
  2
ACAD
 70
     0
  0
ENDTAB
  0
TABLE
  2
DIMSTYLE
 70
     1
  0
DIMSTYLE
  2
IGA
 70
     0
  3

  4

  5

  6
OPEN
  7
OPEN
 40
2.0
 41
2.0
 42
0.5
 43
10.0
 44
1.0
 45
0.0
 46
0.0
 47
1.0
 48
1.0
140
3.0
141
0.0
142
0.0
143
0.03937
144
1.0
145
0.0
146
10.0
147
1.0
 71
     0
 72
     0
 73
     0
 74
     0
 75
     0
 76
     0
 77
     1
 78
     8
170
     0
171
     2
172
     0
173
     1
174
     0
175
     0
176
     0
177
     0
178
     0
  0
ENDTAB
  0
ENDSEC
  0
SECTION
  2
BLOCKS
  0
BLOCK
  8
0
  2
$MODEL_SPACE
 70
     0
 10
0.0
 20
0.0
 30
0.0
  3
$MODEL_SPACE
  1

  0
ENDBLK
  5
1B
  8
0
  0
BLOCK
 67
     1
  8
0
  2
$PAPER_SPACE
 70
     0
 10
0.0
 20
0.0
 30
0.0
  3
$PAPER_SPACE
  1

  0
ENDBLK
  5
18
 67
     1
  8
0
  0
BLOCK
  8
0
  2
_OPEN
 70
     0
 10
0.0
 20
0.0
 30
0.0
  3
_OPEN
  1

  0
LINE
  5
7B0F
  8
0
  6
BYBLOCK
 62
     0
 10
-1.0
 20
0.166667
 30
0.0
 11
0.0
 21
0.0
 31
0.0
  0
LINE
  5
7B10
  8
0
  6
BYBLOCK
 62
     0
 10
0.0
 20
0.0
 30
0.0
 11
-1.0
 21
-0.166667
 31
0.0
  0
LINE
  5
7B11
  8
0
  6
BYBLOCK
 62
     0
 10
0.0
 20
0.0
 30
0.0
 11
-1.0
 21
0.0
 31
0.0
  0
ENDBLK
  5
7B12
  8
0
  0
BLOCK
  8
0
  2
*D1
 70
     1
 10
0.0
 20
0.0
 30
0.0
  3
*D1
  1

  0
LINE
  5
7D67
  8
3
  6
CONTINUOUS
 62
     0
 10
2013.200145
 20
2262.7464139999988
 30
0.0
 11
2177.613398
 21
2262.7464139999988
 31
0.0
  0
LINE
  5
7D68
  8
3
  6
CONTINUOUS
 62
     0
 10
2013.200145
 20
1702.746413999999
 30
0.0
 11
2177.613398
 21
1702.746413999999
 31
0.0
  0
LINE
  5
7D69
  8
3
  6
CONTINUOUS
 62
     0
 10
2157.613398
 20
2222.7464140000002
 30
0.0
 11
2157.613398
 21
1742.746414
 31
0.0
  0
INSERT
  5
7D6A
  8
3
  6
CONTINUOUS
 62
     0
  2
_OPEN
 10
2157.613398
 20
2262.7464139999988
 30
0.0
 41
40.0
 42
40.0
 43
40.0
 50
90.0
  0
INSERT
  5
7D6B
  8
3
  6
CONTINUOUS
 62
     0
  2
_OPEN
 10
2157.613398
 20
1702.746413999999
 30
0.0
 41
40.0
 42
40.0
 43
40.0
 50
270.0
  0
TEXT
  8
3
  40
60
  5
7E06
  62
0
  72
0
  71
0
 10
1987.61
 20
1905.61
 30
0.000000
  1
560
  0
POINT
  5
7D6D
  8
DEFPOINTS
  6
CONTINUOUS
 62
     0
 10
2003.200145
 20
2262.7464139999988
 30
0.0
  0
POINT
  5
7D6E
  8
DEFPOINTS
  6
CONTINUOUS
 62
     0
 10
2003.200145
 20
1702.746413999999
 30
0.0
  0
POINT
  5
7D6F
  8
DEFPOINTS
  6
CONTINUOUS
 62
     0
 10
2157.613398
 20
1702.746413999999
 30
0.0
  0
ENDBLK
  5
7B1F
  8
0
  0
BLOCK
  8
0
  2
*D2
 70
     1
 10
0.0
 20
0.0
 30
0.0
  3
*D2
  1

  0
LINE
  5
7D70
  8
3
  6
CONTINUOUS
 62
     0
 10
2085.7098149999988
 20
2241.7464140000002
 30
0.0
 11
2308.2619030000001
 21
2241.7464140000002
 31
0.0
  0
LINE
  5
7D71
  8
3
  6
CONTINUOUS
 62
     0
 10
2013.200145
 20
1702.746413999999
 30
0.0
 11
2308.2619030000001
 21
1702.746413999999
 31
0.0
  0
LINE
  5
7D72
  8
3
  6
CONTINUOUS
 62
     0
 10
2288.2619030000001
 20
2201.7464140000002
 30
0.0
 11
2288.2619030000001
 21
1742.746414
 31
0.0
  0
INSERT
  5
7D73
  8
3
  6
CONTINUOUS
 62
     0
  2
_OPEN
 10
2288.2619030000001
 20
2241.7464140000002
 30
0.0
 41
40.0
 42
40.0
 43
40.0
 50
90.0
  0
INSERT
  5
7D74
  8
3
  6
CONTINUOUS
 62
     0
  2
_OPEN
 10
2288.2619030000001
 20
1702.746413999999
 30
0.0
 41
40.0
 42
40.0
 43
40.0
 50
270.0
  0
TEXT
  8
3
  40
60
  5
7E07
  62
0
  72
0
  71
0
 10
2118.26
 20
1905.61
 30
0.000000
  1
539
  0
POINT
  5
7D76
  8
DEFPOINTS
  6
CONTINUOUS
 62
     0
 10
2075.7098149999988
 20
2241.7464140000002
 30
0.0
  0
POINT
  5
7D77
  8
DEFPOINTS
  6
CONTINUOUS
 62
     0
 10
2003.200145
 20
1702.746413999999
 30
0.0
  0
POINT
  5
7D78
  8
DEFPOINTS
  6
CONTINUOUS
 62
     0
 10
2288.2619030000001
 20
1702.746413999999
 30
0.0
  0
ENDBLK
  5
7B2C
  8
0
  0
BLOCK
  8
0
  2
*D3
 70
     1
 10
0.0
 20
0.0
 30
0.0
  3
*D3
  1

  0
LINE
  5
7D79
  8
3
  6
CONTINUOUS
 62
     0
 10
1968.200145
 20
2651.7464140000002
 30
0.0
 11
2429.2175259999999
 21
2651.7464140000002
 31
0.0
  0
LINE
  5
7D7A
  8
3
  6
CONTINUOUS
 62
     0
 10
2085.7098149999988
 20
2241.7464140000002
 30
0.0
 11
2429.2175259999999
 21
2241.7464140000002
 31
0.0
  0
LINE
  5
7D7B
  8
3
  6
CONTINUOUS
 62
     0
 10
2409.2175259999999
 20
2611.7464140000002
 30
0.0
 11
2409.2175259999999
 21
2281.7464140000002
 31
0.0
  0
INSERT
  5
7D7C
  8
3
  6
CONTINUOUS
 62
     0
  2
_OPEN
 10
2409.2175259999999
 20
2651.7464140000002
 30
0.0
 41
40.0
 42
40.0
 43
40.0
 50
90.0
  0
INSERT
  5
7D7D
  8
3
  6
CONTINUOUS
 62
     0
  2
_OPEN
 10
2409.2175259999999
 20
2241.7464140000002
 30
0.0
 41
40.0
 42
40.0
 43
40.0
 50
270.0
  0
TEXT
  8
3
  40
60
  5
7E08
  62
0
  72
0
  71
0
 10
2239.22
 20
2375.49
 30
0.000000
  1
410
  0
POINT
  5
7D7F
  8
DEFPOINTS
  6
CONTINUOUS
 62
     0
 10
1958.200145
 20
2651.7464140000002
 30
0.0
  0
POINT
  5
7D80
  8
DEFPOINTS
  6
CONTINUOUS
 62
     0
 10
2075.7098149999988
 20
2241.7464140000002
 30
0.0
  0
POINT
  5
7D81
  8
DEFPOINTS
  6
CONTINUOUS
 62
     0
 10
2409.2175259999999
 20
2241.7464140000002
 30
0.0
  0
ENDBLK
  5
7C6B
  8
0
  0
BLOCK
  8
0
  2
*D4
 70
     1
 10
0.0
 20
0.0
 30
0.0
  3
*D4
  1

  0
LINE
  5
7D82
  8
3
  6
CONTINUOUS
 62
     0
 10
1953.200145
 20
1571.746414
 30
0.0
 11
2429.2175259999999
 21
1571.746414
 31
0.0
  0
LINE
  5
7D83
  8
3
  6
CONTINUOUS
 62
     0
 10
2409.2175259999999
 20
2201.7464140000002
 30
0.0
 11
2409.2175259999999
 21
1611.746413999999
 31
0.0
  0
INSERT
  5
7D84
  8
3
  6
CONTINUOUS
 62
     0
  2
_OPEN
 10
2409.2175259999999
 20
2241.7464140000002
 30
0.0
 41
40.0
 42
40.0
 43
40.0
 50
90.0
  0
INSERT
  5
7D85
  8
3
  6
CONTINUOUS
 62
     0
  2
_OPEN
 10
2409.2175259999999
 20
1571.746414
 30
0.0
 41
40.0
 42
40.0
 43
40.0
 50
270.0
  0
TEXT
  8
3
  40
60
  5
7E09
  62
0
  72
0
  71
0
 10
2239.22
 20
1800.55
 30
0.000000
  1
670
  0
POINT
  5
7D87
  8
DEFPOINTS
  6
CONTINUOUS
 62
     0
 10
2075.7098149999988
 20
2241.7464140000002
 30
0.0
  0
POINT
  5
7D88
  8
DEFPOINTS
  6
CONTINUOUS
 62
     0
 10
1943.200145
 20
1571.746414
 30
0.0
  0
POINT
  5
7D89
  8
DEFPOINTS
  6
CONTINUOUS
 62
     0
 10
2409.2175259999999
 20
1571.746414
 30
0.0
  0
ENDBLK
  5
7C60
  8
0
  0
BLOCK
  8
0
  2
*D5
 70
     1
 10
0.0
 20
0.0
 30
0.0
  3
*D5
  1

  0
LINE
  5
7D8A
  8
3
  6
CONTINUOUS
 62
     0
 10
1953.200145
 20
1571.746414
 30
0.0
 11
2429.6925200000001
 21
1571.746414
 31
0.0
  0
LINE
  5
7D8B
  8
3
  6
CONTINUOUS
 62
     0
 10
1953.200145
 20
1531.746414
 30
0.0
 11
2429.6925200000001
 21
1531.746414
 31
0.0
  0
LINE
  5
7D8C
  8
3
  6
CONTINUOUS
 62
     0
 10
2409.6925200000001
 20
1611.746413999999
 30
0.0
 11
2409.6925200000001
 21
1651.746414
 31
0.0
  0
LINE
  5
7D8D
  8
3
  6
CONTINUOUS
 62
     0
 10
2409.6925200000001
 20
1491.746414
 30
0.0
 11
2409.6925200000001
 21
1314.6035568571431
 31
0.0
  0
LINE
  5
7D8E
  8
3
  6
CONTINUOUS
 62
     0
 10
2409.6925200000001
 20
1571.746414
 30
0.0
 11
2409.6925200000001
 21
1531.746414
 31
0.0
  0
INSERT
  5
7D8F
  8
3
  6
CONTINUOUS
 62
     0
  2
_OPEN
 10
2409.6925200000001
 20
1571.746414
 30
0.0
 41
40.0
 42
40.0
 43
40.0
 50
270.0
  0
INSERT
  5
7D90
  8
3
  6
CONTINUOUS
 62
     0
  2
_OPEN
 10
2409.6925200000001
 20
1531.746414
 30
0.0
 41
40.0
 42
40.0
 43
40.0
 50
90.0
  0
TEXT
  8
3
  40
60
  5
7E0A
  62
0
  72
0
  71
0
 10
2239.69
 20
1276.97
 30
0.000000
  1
40
  0
POINT
  5
7D92
  8
DEFPOINTS
  6
CONTINUOUS
 62
     0
 10
1943.200145
 20
1571.746414
 30
0.0
  0
POINT
  5
7D93
  8
DEFPOINTS
  6
CONTINUOUS
 62
     0
 10
1943.200145
 20
1531.746414
 30
0.0
  0
POINT
  5
7D94
  8
DEFPOINTS
  6
CONTINUOUS
 62
     0
 10
2409.6925200000001
 20
1531.746414
 30
0.0
  0
ENDBLK
  5
7D1E
  8
0
  0
BLOCK
  8
0
  2
*D6
 70
     1
 10
0.0
 20
0.0
 30
0.0
  3
*D6
  1

  0
LINE
  5
7D95
  8
3
  6
CONTINUOUS
 62
     0
 10
1968.200145
 20
2651.7464140000002
 30
0.0
 11
2552.5621019999999
 21
2651.7464140000002
 31
0.0
  0
LINE
  5
7D96
  8
3
  6
CONTINUOUS
 62
     0
 10
1953.200145
 20
1531.746414
 30
0.0
 11
2552.5621019999999
 21
1531.746414
 31
0.0
  0
LINE
  5
7D97
  8
3
  6
CONTINUOUS
 62
     0
 10
2532.5621019999999
 20
2611.7464140000002
 30
0.0
 11
2532.5621019999999
 21
1571.746414
 31
0.0
  0
INSERT
  5
7D98
  8
3
  6
CONTINUOUS
 62
     0
  2
_OPEN
 10
2532.5621019999999
 20
2651.7464140000002
 30
0.0
 41
40.0
 42
40.0
 43
40.0
 50
90.0
  0
INSERT
  5
7D99
  8
3
  6
CONTINUOUS
 62
     0
  2
_OPEN
 10
2532.5621019999999
 20
1531.746414
 30
0.0
 41
40.0
 42
40.0
 43
40.0
 50
270.0
  0
TEXT
  8
3
  40
60
  5
7E0B
  62
0
  72
0
  71
0
 10
2362.56
 20
2027.43
 30
0.000000
  1
1120
  0
POINT
  5
7D9B
  8
DEFPOINTS
  6
CONTINUOUS
 62
     0
 10
1958.200145
 20
2651.7464140000002
 30
0.0
  0
POINT
  5
7D9C
  8
DEFPOINTS
  6
CONTINUOUS
 62
     0
 10
1943.200145
 20
1531.746414
 30
0.0
  0
POINT
  5
7D9D
  8
DEFPOINTS
  6
CONTINUOUS
 62
     0
 10
2532.5621019999999
 20
1531.746414
 30
0.0
  0
ENDBLK
  5
7C4A
  8
0
  0
BLOCK
  8
0
  2
*D7
 70
     1
 10
0.0
 20
0.0
 30
0.0
  3
*D7
  1

  0
LINE
  5
7D9E
  8
3
  6
CONTINUOUS
 62
     0
 10
2003.200145
 20
2299.7464140000002
 30
0.0
 11
2003.200145
 21
2834.658003999999
 31
0.0
  0
LINE
  5
7D9F
  8
3
  6
CONTINUOUS
 62
     0
 10
1598.200145
 20
2793.7755809999999
 30
0.0
 11
1598.200145
 21
2834.658003999999
 31
0.0
  0
LINE
  5
7DA0
  8
3
  6
CONTINUOUS
 62
     0
 10
1963.200145
 20
2814.658003999999
 30
0.0
 11
1638.200145
 21
2814.658003999999
 31
0.0
  0
INSERT
  5
7DA1
  8
3
  6
CONTINUOUS
 62
     0
  2
_OPEN
 10
2003.200145
 20
2814.658003999999
 30
0.0
 41
40.0
 42
40.0
 43
40.0
  0
INSERT
  5
7DA2
  8
3
  6
CONTINUOUS
 62
     0
  2
_OPEN
 10
1598.200145
 20
2814.658003999999
 30
0.0
 41
40.0
 42
40.0
 43
40.0
 50
180.0
  0
TEXT
  8
3
  40
60
  5
7E0C
  62
0
  72
0
  71
0
 10
1671.80
 20
2758.46
 30
0.000000
  1
405
  0
POINT
  5
7DA4
  8
DEFPOINTS
  6
CONTINUOUS
 62
     0
 10
2003.200145
 20
2289.7464140000002
 30
0.0
  0
POINT
  5
7DA5
  8
DEFPOINTS
  6
CONTINUOUS
 62
     0
 10
1598.200145
 20
2783.7755809999999
 30
0.0
  0
POINT
  5
7DA6
  8
DEFPOINTS
  6
CONTINUOUS
 62
     0
 10
1598.200145
 20
2814.658003999999
 30
0.0
  0
ENDBLK
  5
7C76
  8
0
  0
BLOCK
  8
0
  2
*D8
 70
     1
 10
0.0
 20
0.0
 30
0.0
  3
*D8
  1

  0
LINE
  5
7DA7
  8
3
  6
CONTINUOUS
 62
     0
 10
1135.200145
 20
2214.7464140000002
 30
0.0
 11
1135.200145
 21
2834.658003999999
 31
0.0
  0
LINE
  5
7DA8
  8
3
  6
CONTINUOUS
 62
     0
 10
1558.2001449999991
 20
2814.658003999999
 30
0.0
 11
1175.200145
 21
2814.658003999999
 31
0.0
  0
INSERT
  5
7DA9
  8
3
  6
CONTINUOUS
 62
     0
  2
_OPEN
 10
1598.200145
 20
2814.658003999999
 30
0.0
 41
40.0
 42
40.0
 43
40.0
  0
INSERT
  5
7DAA
  8
3
  6
CONTINUOUS
 62
     0
  2
_OPEN
 10
1135.200145
 20
2814.658003999999
 30
0.0
 41
40.0
 42
40.0
 43
40.0
 50
180.0
  0
TEXT
  8
3
  40
60
  5
7E0D
  62
0
  72
0
  71
0
 10
1246.70
 20
2758.46
 30
0.000000
  1
463
  0
POINT
  5
7DAC
  8
DEFPOINTS
  6
CONTINUOUS
 62
     0
 10
1598.200145
 20
2783.7755809999999
 30
0.0
  0
POINT
  5
7DAD
  8
DEFPOINTS
  6
CONTINUOUS
 62
     0
 10
1135.200145
 20
2204.7464140000002
 30
0.0
  0
POINT
  5
7DAE
  8
DEFPOINTS
  6
CONTINUOUS
 62
     0
 10
1135.200145
 20
2814.658003999999
 30
0.0
  0
ENDBLK
  5
7D44
  8
0
  0
BLOCK
  8
0
  2
*D9
 70
     1
 10
0.0
 20
0.0
 30
0.0
  3
*D9
  1

  0
LINE
  5
7DAF
  8
3
  6
CONTINUOUS
 62
     0
 10
693.20014500000002
 20
1521.746414
 30
0.0
 11
693.20014500000002
 21
1339.2344949999999
 31
0.0
  0
LINE
  5
7DB0
  8
3
  6
CONTINUOUS
 62
     0
 10
1598.200145
 20
1452.662748
 30
0.0
 11
1598.200145
 21
1339.2344949999999
 31
0.0
  0
LINE
  5
7DB1
  8
3
  6
CONTINUOUS
 62
     0
 10
733.20014499999991
 20
1359.234494999999
 30
0.0
 11
1558.2001449999991
 21
1359.234494999999
 31
0.0
  0
INSERT
  5
7DB2
  8
3
  6
CONTINUOUS
 62
     0
  2
_OPEN
 10
693.20014500000002
 20
1359.234494999999
 30
0.0
 41
40.0
 42
40.0
 43
40.0
 50
180.0
  0
INSERT
  5
7DB3
  8
3
  6
CONTINUOUS
 62
     0
  2
_OPEN
 10
1598.200145
 20
1359.234494999999
 30
0.0
 41
40.0
 42
40.0
 43
40.0
  0
TEXT
  8
3
  40
60
  5
7E0E
  62
0
  72
0
  71
0
 10
1053.39
 20
1303.03
 30
0.000000
  1
905
  0
POINT
  5
7DB5
  8
DEFPOINTS
  6
CONTINUOUS
 62
     0
 10
693.20014500000002
 20
1531.746414
 30
0.0
  0
POINT
  5
7DB6
  8
DEFPOINTS
  6
CONTINUOUS
 62
     0
 10
1598.200145
 20
1462.662748
 30
0.0
  0
POINT
  5
7DB7
  8
DEFPOINTS
  6
CONTINUOUS
 62
     0
 10
1598.200145
 20
1359.234494999999
 30
0.0
  0
ENDBLK
  5
7C10
  8
0
  0
BLOCK
  8
0
  2
*D10
 70
     1
 10
0.0
 20
0.0
 30
0.0
  3
*D10
  1

  0
LINE
  5
7DB8
  8
3
  6
CONTINUOUS
 62
     0
 10
1943.200145
 20
1521.746414
 30
0.0
 11
1943.200145
 21
1339.2344949999999
 31
0.0
  0
LINE
  5
7DB9
  8
3
  6
CONTINUOUS
 62
     0
 10
1638.200145
 20
1359.234494999999
 30
0.0
 11
1903.2001449999991
 21
1359.234494999999
 31
0.0
  0
INSERT
  5
7DBA
  8
3
  6
CONTINUOUS
 62
     0
  2
_OPEN
 10
1598.200145
 20
1359.234494999999
 30
0.0
 41
40.0
 42
40.0
 43
40.0
 50
180.0
  0
INSERT
  5
7DBB
  8
3
  6
CONTINUOUS
 62
     0
  2
_OPEN
 10
1943.200145
 20
1359.234494999999
 30
0.0
 41
40.0
 42
40.0
 43
40.0
  0
TEXT
  8
3
  40
60
  5
7E0F
  62
0
  72
0
  71
0
 10
1650.70
 20
1303.03
 30
0.000000
  1
345
  0
POINT
  5
7DBD
  8
DEFPOINTS
  6
CONTINUOUS
 62
     0
 10
1598.200145
 20
1462.662748
 30
0.0
  0
POINT
  5
7DBE
  8
DEFPOINTS
  6
CONTINUOUS
 62
     0
 10
1943.200145
 20
1531.746414
 30
0.0
  0
POINT
  5
7DBF
  8
DEFPOINTS
  6
CONTINUOUS
 62
     0
 10
1943.200145
 20
1359.234494999999
 30
0.0
  0
ENDBLK
  5
7C1A
  8
0
  0
BLOCK
  8
0
  2
*D11
 70
     1
 10
0.0
 20
0.0
 30
0.0
  3
*D11
  1

  0
LINE
  5
7DC0
  8
3
  6
CONTINUOUS
 62
     0
 10
3416.6733859999999
 20
2536.7464140000002
 30
0.0
 11
3624.319750000001
 21
2536.7464140000002
 31
0.0
  0
LINE
  5
7DC1
  8
3
  6
CONTINUOUS
 62
     0
 10
3418.6733859999999
 20
1946.746414
 30
0.0
 11
3624.319750000001
 21
1946.746413999999
 31
0.0
  0
LINE
  5
7DC2
  8
3
  6
CONTINUOUS
 62
     0
 10
3604.3197500000001
 20
2496.7464140000002
 30
0.0
 11
3604.3197500000001
 21
1986.746413999999
 31
0.0
  0
INSERT
  5
7DC3
  8
3
  6
CONTINUOUS
 62
     0
  2
_OPEN
 10
3604.3197500000001
 20
2536.7464140000002
 30
0.0
 41
40.0
 42
40.0
 43
40.0
 50
90.0
  0
INSERT
  5
7DC4
  8
3
  6
CONTINUOUS
 62
     0
  2
_OPEN
 10
3604.3197500000001
 20
1946.746413999999
 30
0.0
 41
40.0
 42
40.0
 43
40.0
 50
270.0
  0
TEXT
  8
3
  40
60
  5
7E10
  62
0
  72
0
  71
0
 10
3434.32
 20
2123.15
 30
0.000000
  1
φ590
  0
POINT
  5
7DC6
  8
DEFPOINTS
  6
CONTINUOUS
 62
     0
 10
3406.6733859999999
 20
2536.7464140000002
 30
0.0
  0
POINT
  5
7DC7
  8
DEFPOINTS
  6
CONTINUOUS
 62
     0
 10
3408.6733859999999
 20
1946.746414
 30
0.0
  0
POINT
  5
7DC8
  8
DEFPOINTS
  6
CONTINUOUS
 62
     0
 10
3604.3197500000001
 20
1946.746413999999
 30
0.0
  0
ENDBLK
  5
7CFC
  8
0
  0
BLOCK
  8
0
  2
*D12
 70
     1
 10
0.0
 20
0.0
 30
0.0
  3
*D12
  1

  0
LINE
  5
7CE8
  8
0
  6
BYBLOCK
 62
     0
 10
3408.6733859999999
 20
2571.7464140000002
 30
0.0
 11
3408.6733859999999
 21
2876.4981829999988
 31
0.0
  0
LINE
  5
7CE9
  8
0
  6
BYBLOCK
 62
     0
 10
3196.6733859999999
 20
2830.74017
 30
0.0
 11
3196.6733859999999
 21
2876.4981829999988
 31
0.0
  0
LINE
  5
7CEA
  8
0
  6
BYBLOCK
 62
     0
 10
3368.673385999999
 20
2856.4981829999988
 30
0.0
 11
3236.673385999999
 21
2856.4981829999988
 31
0.0
  0
TEXT
  5
7CEB
  8
3
 62
     0
 10
3231.2448145714279
 20
2884.2397982842958
 30
0.0
 40
60.0
  1
212
  0
INSERT
  5
7CEC
  8
0
  6
BYBLOCK
 62
     0
  2
_OPEN
 10
3408.6733859999999
 20
2856.4981829999988
 30
0.0
 41
40.0
 42
40.0
 43
40.0
  0
INSERT
  5
7CED
  8
0
  6
BYBLOCK
 62
     0
  2
_OPEN
 10
3196.6733859999999
 20
2856.4981829999988
 30
0.0
 41
40.0
 42
40.0
 43
40.0
 50
180.0
  0
POINT
  5
7CEE
  8
DEFPOINTS
  6
BYBLOCK
 62
     0
 10
3408.6733859999999
 20
2561.7464140000002
 30
0.0
  0
POINT
  5
7CEF
  8
DEFPOINTS
  6
BYBLOCK
 62
     0
 10
3196.6733859999999
 20
2820.74017
 30
0.0
  0
POINT
  5
7CF0
  8
DEFPOINTS
  6
BYBLOCK
 62
     0
 10
3196.6733859999999
 20
2856.4981829999988
 30
0.0
  0
ENDBLK
  5
7CF1
  8
0
  0
BLOCK
  8
0
  2
*D13
 70
     1
 10
0.0
 20
0.0
 30
0.0
  3
*D13
  1

  0
LINE
  5
7DC9
  8
3
  6
CONTINUOUS
 62
     0
 10
2786.6733859999999
 20
2496.7464140000002
 30
0.0
 11
2786.6733859999999
 21
2876.4981829999988
 31
0.0
  0
LINE
  5
7DCA
  8
3
  6
CONTINUOUS
 62
     0
 10
3156.6733859999999
 20
2856.4981829999988
 30
0.0
 11
2826.673385999999
 21
2856.4981829999988
 31
0.0
  0
INSERT
  5
7DCB
  8
3
  6
CONTINUOUS
 62
     0
  2
_OPEN
 10
3196.6733859999999
 20
2856.4981829999988
 30
0.0
 41
40.0
 42
40.0
 43
40.0
  0
INSERT
  5
7DCC
  8
3
  6
CONTINUOUS
 62
     0
  2
_OPEN
 10
2786.6733859999999
 20
2856.4981829999988
 30
0.0
 41
40.0
 42
40.0
 43
40.0
 50
180.0
  0
TEXT
  8
3
  40
60
  5
7E11
  62
0
  72
0
  71
0
 10
2871.67
 20
2850.30
 30
0.000000
  1
MAX
  0
TEXT
  8
3
  40
60
  5
7E12
  62
0
  72
0
  71
0
 10
2871.67
 20
2772.30
 30
0.000000
  1
470
  0
POINT
  5
7DCE
  8
DEFPOINTS
  6
CONTINUOUS
 62
     0
 10
3196.6733859999999
 20
2820.74017
 30
0.0
  0
POINT
  5
7DCF
  8
DEFPOINTS
  6
CONTINUOUS
 62
     0
 10
2786.6733859999999
 20
2486.7464140000002
 30
0.0
  0
POINT
  5
7DD0
  8
DEFPOINTS
  6
CONTINUOUS
 62
     0
 10
2786.6733859999999
 20
2856.4981829999988
 30
0.0
  0
ENDBLK
  5
7D28
  8
0
  0
BLOCK
  8
0
  2
*D14
 70
     1
 10
0.0
 20
0.0
 30
0.0
  3
*D14
  1

  0
LINE
  5
7DD1
  8
3
  6
CONTINUOUS
 62
     0
 10
2751.6733859999999
 20
1521.746414
 30
0.0
 11
2751.6733859999999
 21
1344.7863939999991
 31
0.0
  0
LINE
  5
7DD2
  8
3
  6
CONTINUOUS
 62
     0
 10
3196.6733859999999
 20
1403.0687915245071
 30
0.0
 11
3196.6733859999999
 21
1344.7863939999991
 31
0.0
  0
LINE
  5
7DD3
  8
3
  6
CONTINUOUS
 62
     0
 10
2791.6733859999999
 20
1364.786394
 30
0.0
 11
3156.6733859999999
 21
1364.786394
 31
0.0
  0
INSERT
  5
7DD4
  8
3
  6
CONTINUOUS
 62
     0
  2
_OPEN
 10
2751.6733859999999
 20
1364.786394
 30
0.0
 41
40.0
 42
40.0
 43
40.0
 50
180.0
  0
INSERT
  5
7DD5
  8
3
  6
CONTINUOUS
 62
     0
  2
_OPEN
 10
3196.6733859999999
 20
1364.786394
 30
0.0
 41
40.0
 42
40.0
 43
40.0
  0
TEXT
  8
3
  40
60
  5
7E13
  62
0
  72
0
  71
0
 10
2848.50
 20
1308.59
 30
0.000000
  1
445
  0
POINT
  5
7DD7
  8
DEFPOINTS
  6
CONTINUOUS
 62
     0
 10
2751.6733859999999
 20
1531.746414
 30
0.0
  0
POINT
  5
7DD8
  8
DEFPOINTS
  6
CONTINUOUS
 62
     0
 10
3196.6733859999999
 20
1413.0687915245071
 30
0.0
  0
POINT
  5
7DD9
  8
DEFPOINTS
  6
CONTINUOUS
 62
     0
 10
3196.6733859999999
 20
1364.786394
 30
0.0
  0
ENDBLK
  5
7D11
  8
0
  0
BLOCK
  8
0
  2
*D15
 70
     1
 10
0.0
 20
0.0
 30
0.0
  3
*D15
  1

  0
LINE
  5
7DDA
  8
3
  6
CONTINUOUS
 62
     0
 10
3531.6733859999999
 20
1521.746414
 30
0.0
 11
3531.6733859999999
 21
1344.7863939999991
 31
0.0
  0
LINE
  5
7DDB
  8
3
  6
CONTINUOUS
 62
     0
 10
3236.673385999999
 20
1364.786394
 30
0.0
 11
3491.6733859999999
 21
1364.786394
 31
0.0
  0
INSERT
  5
7DDC
  8
3
  6
CONTINUOUS
 62
     0
  2
_OPEN
 10
3196.6733859999999
 20
1364.786394
 30
0.0
 41
40.0
 42
40.0
 43
40.0
 50
180.0
  0
INSERT
  5
7DDD
  8
3
  6
CONTINUOUS
 62
     0
  2
_OPEN
 10
3531.6733859999999
 20
1364.786394
 30
0.0
 41
40.0
 42
40.0
 43
40.0
  0
TEXT
  8
3
  40
60
  5
7E14
  62
0
  72
0
  71
0
 10
3244.17
 20
1308.59
 30
0.000000
  1
335
  0
POINT
  5
7DDF
  8
DEFPOINTS
  6
CONTINUOUS
 62
     0
 10
3196.6733859999999
 20
1408.762943302979
 30
0.0
  0
POINT
  5
7DE0
  8
DEFPOINTS
  6
CONTINUOUS
 62
     0
 10
3531.6733859999999
 20
1531.746414
 30
0.0
  0
POINT
  5
7DE1
  8
DEFPOINTS
  6
CONTINUOUS
 62
     0
 10
3531.6733859999999
 20
1364.786394
 30
0.0
  0
ENDBLK
  5
7D06
  8
0
  0
BLOCK
  8
0
  2
*D16
 70
     1
 10
0.0
 20
0.0
 30
0.0
  3
*D16
  1

  0
LINE
  5
7DE2
  8
3
  6
CONTINUOUS
 62
     0
 10
693.20014500000002
 20
4162.7390560000003
 30
0.0
 11
693.20014500000002
 21
4274.2233660000002
 31
0.0
  0
LINE
  5
7DE3
  8
3
  6
CONTINUOUS
 62
     0
 10
1943.200145
 20
4162.7390560000003
 30
0.0
 11
1943.200145
 21
4274.2233660000002
 31
0.0
  0
LINE
  5
7DE4
  8
3
  6
CONTINUOUS
 62
     0
 10
733.20014499999991
 20
4254.2233659999993
 30
0.0
 11
1903.2001449999991
 21
4254.2233659999993
 31
0.0
  0
INSERT
  5
7DE5
  8
3
  6
CONTINUOUS
 62
     0
  2
_OPEN
 10
693.20014500000002
 20
4254.2233659999993
 30
0.0
 41
40.0
 42
40.0
 43
40.0
 50
180.0
  0
INSERT
  5
7DE6
  8
3
  6
CONTINUOUS
 62
     0
  2
_OPEN
 10
1943.200145
 20
4254.2233659999993
 30
0.0
 41
40.0
 42
40.0
 43
40.0
  0
TEXT
  8
3
  40
60
  5
7E15
  62
0
  72
0
  71
0
 10
1193.18
 20
4198.02
 30
0.000000
  1
1250
  0
POINT
  5
7DE8
  8
DEFPOINTS
  6
CONTINUOUS
 62
     0
 10
693.20014500000002
 20
4152.7390560000003
 30
0.0
  0
POINT
  5
7DE9
  8
DEFPOINTS
  6
CONTINUOUS
 62
     0
 10
1943.200145
 20
4152.7390560000003
 30
0.0
  0
POINT
  5
7DEA
  8
DEFPOINTS
  6
CONTINUOUS
 62
     0
 10
1943.200145
 20
4254.2233659999993
 30
0.0
  0
ENDBLK
  5
7BF1
  8
0
  0
BLOCK
  8
0
  2
*D17
 70
     1
 10
0.0
 20
0.0
 30
0.0
  3
*D17
  1

  0
LINE
  5
7DEB
  8
3
  6
CONTINUOUS
 62
     0
 10
1953.200145
 20
4152.7390560000003
 30
0.0
 11
2239.0141130000002
 21
4152.7390559999994
 31
0.0
  0
LINE
  5
7DEC
  8
3
  6
CONTINUOUS
 62
     0
 10
1953.200145
 20
3372.7390559999999
 30
0.0
 11
2239.0141130000002
 21
3372.7390559999999
 31
0.0
  0
LINE
  5
7DED
  8
3
  6
CONTINUOUS
 62
     0
 10
2219.0141130000002
 20
4112.7390559999994
 30
0.0
 11
2219.0141130000002
 21
3412.7390559999999
 31
0.0
  0
INSERT
  5
7DEE
  8
3
  6
CONTINUOUS
 62
     0
  2
_OPEN
 10
2219.0141130000002
 20
4152.7390559999994
 30
0.0
 41
40.0
 42
40.0
 43
40.0
 50
90.0
  0
INSERT
  5
7DEF
  8
3
  6
CONTINUOUS
 62
     0
  2
_OPEN
 10
2219.0141130000002
 20
3372.7390559999999
 30
0.0
 41
40.0
 42
40.0
 43
40.0
 50
270.0
  0
TEXT
  8
3
  40
60
  5
7E16
  62
0
  72
0
  71
0
 10
2049.01
 20
3652.04
 30
0.000000
  1
780
  0
POINT
  5
7DF1
  8
DEFPOINTS
  6
CONTINUOUS
 62
     0
 10
1943.200145
 20
4152.7390560000003
 30
0.0
  0
POINT
  5
7DF2
  8
DEFPOINTS
  6
CONTINUOUS
 62
     0
 10
1943.200145
 20
3372.7390559999999
 30
0.0
  0
POINT
  5
7DF3
  8
DEFPOINTS
  6
CONTINUOUS
 62
     0
 10
2219.0141130000002
 20
3372.7390559999999
 30
0.0
  0
ENDBLK
  5
7BFE
  8
0
  0
BLOCK
  8
0
  2
*D18
 70
     1
 10
0.0
 20
0.0
 30
0.0
  3
*D18
  1

  0
LINE
  5
7DF4
  8
3
  6
CONTINUOUS
 62
     0
 10
2986.6733859999999
 20
2610.7464140000002
 30
0.0
 11
2986.6733859999999
 21
2733.352378
 31
0.0
  0
LINE
  5
7DF5
  8
3
  6
CONTINUOUS
 62
     0
 10
3406.6733859999999
 20
2610.7464140000002
 30
0.0
 11
3406.6733859999999
 21
2733.352378
 31
0.0
  0
LINE
  5
7DF6
  8
3
  6
CONTINUOUS
 62
     0
 10
3026.6733859999999
 20
2713.352378
 30
0.0
 11
3366.6733859999999
 21
2713.352378
 31
0.0
  0
INSERT
  5
7DF7
  8
3
  6
CONTINUOUS
 62
     0
  2
_OPEN
 10
2986.6733859999999
 20
2713.352378
 30
0.0
 41
40.0
 42
40.0
 43
40.0
 50
180.0
  0
INSERT
  5
7DF8
  8
3
  6
CONTINUOUS
 62
     0
  2
_OPEN
 10
3406.6733859999999
 20
2713.352378
 30
0.0
 41
40.0
 42
40.0
 43
40.0
  0
TEXT
  8
3
  40
60
  5
7E17
  62
0
  72
0
  71
0
 10
3073.84
 20
2657.15
 30
0.000000
  1
420
  0
POINT
  5
7DFA
  8
DEFPOINTS
  6
CONTINUOUS
 62
     0
 10
2986.6733859999999
 20
2600.7464140000002
 30
0.0
  0
POINT
  5
7DFB
  8
DEFPOINTS
  6
CONTINUOUS
 62
     0
 10
3406.6733859999999
 20
2600.7464140000002
 30
0.0
  0
POINT
  5
7DFC
  8
DEFPOINTS
  6
CONTINUOUS
 62
     0
 10
3406.6733859999999
 20
2713.352378
 30
0.0
  0
ENDBLK
  5
7CA3
  8
0
  0
BLOCK
  8
0
  2
*D19
 70
     1
 10
0.0
 20
0.0
 30
0.0
  3
*D19
  1

  0
LINE
  5
7DFD
  8
3
 62
     0
 10
2003.200145
 20
2299.7464140000002
 30
0.0
 11
2003.200145
 21
2955.5731027550391
 31
0.0
  0
LINE
  5
7DFE
  8
3
 62
     0
 10
693.20014500000002
 20
1661.746414
 30
0.0
 11
693.20014500000013
 21
2955.5731027550391
 31
0.0
  0
LINE
  5
7DFF
  8
3
 62
     0
 10
1963.200145
 20
2935.5731027550391
 30
0.0
 11
733.20014500000013
 21
2935.5731027550391
 31
0.0
  0
INSERT
  5
7E00
  8
3
 62
     0
  2
_OPEN
 10
2003.200145
 20
2935.5731027550391
 30
0.0
 41
40.0
 42
40.0
 43
40.0
  0
INSERT
  5
7E01
  8
3
 62
     0
  2
_OPEN
 10
693.20014500000013
 20
2935.5731027550391
 30
0.0
 41
40.0
 42
40.0
 43
40.0
 50
180.0
  0
TEXT
  8
3
  40
60
  5
7E18
  62
0
  72
0
  71
0
 10
1284.54
 20
2879.37
 30
0.000000
  1
1310
  0
POINT
  5
7E03
  8
DEFPOINTS
 62
     0
 10
2003.200145
 20
2289.7464140000002
 30
0.0
  0
POINT
  5
7E04
  8
DEFPOINTS
 62
     0
 10
693.20014500000002
 20
1651.746414
 30
0.0
  0
POINT
  5
7E05
  8
DEFPOINTS
 62
     0
 10
693.20014500000013
 20
2935.5731027550391
 30
0.0
  0
ENDBLK
  5
7D34
  8
0
  0
ENDSEC
  0
SECTION
  2
ENTITIES
  0
LINE
  5
7A77
  8
1
  6
CONTINUOUS
 10
3531.6733859999999
 20
1531.746414
 30
0.0
 11
2751.6733859999999
 21
1531.746414
 31
0.0
  0
LINE
  5
7A78
  8
1
  6
CONTINUOUS
 10
2986.6733859999999
 20
1702.746413999999
 30
0.0
 11
3406.6733859999999
 21
2262.7464139999988
 31
0.0
  0
LINE
  5
7A79
  8
1
  6
CONTINUOUS
 10
2986.6733859999999
 20
2262.7464139999988
 30
0.0
 11
3406.6733859999999
 21
1702.746413999999
 31
0.0
  0
LINE
  5
7A7A
  8
1
  6
CONTINUOUS
 10
2986.6733859999999
 20
2600.7464140000002
 30
0.0
 11
3406.6733859999999
 21
2600.7464140000002
 31
0.0
  0
LINE
  5
7A7B
  8
1
  6
CONTINUOUS
 10
3451.6733859999999
 20
1651.746414
 30
0.0
 11
2786.6733859999999
 21
1651.746414
 31
0.0
  0
LINE
  5
7A7C
  8
1
  6
CONTINUOUS
 10
3531.6733859999999
 20
1571.746414
 30
0.0
 11
2751.6733859999999
 21
1571.746414
 31
0.0
  0
LINE
  5
7A7D
  8
1
  6
CONTINUOUS
 10
2986.6733859999999
 20
1702.746413999999
 30
0.0
 11
3406.6733859999999
 21
1702.746413999999
 31
0.0
  0
LINE
  5
7A7E
  8
1
  6
CONTINUOUS
 10
2986.6733859999999
 20
2262.7464139999988
 30
0.0
 11
3406.6733859999999
 21
2262.7464139999988
 31
0.0
  0
ARC
  5
7A7F
  8
1
  6
CONTINUOUS
 10
1567.200145
 20
2210.7464140000002
 30
0.0
 40
433.10293799999999
 50
82.746804999999995
 51
174.95754899999989
  0
ARC
  5
7A80
  8
1
  6
CONTINUOUS
 10
1635.2001449999991
 20
2204.7464140000002
 30
0.0
 40
501.36713099999992
 50
174.95754899999989
 51
265.7678259999999
  0
LINE
  5
7A81
  8
1
  6
CONTINUOUS
 10
1958.200145
 20
2651.7464140000002
 30
0.0
 11
1238.200145
 21
2651.7464140000002
 31
0.0
  0
LINE
  5
7A82
  8
1
  6
CONTINUOUS
 10
1958.200145
 20
1651.746414
 30
0.0
 11
1238.200145
 21
1651.746414
 31
0.0
  0
CIRCLE
  5
7A83
  8
1
  6
CONTINUOUS
 10
1598.200145
 20
2241.7464140000002
 30
0.0
 40
320.0
  0
CIRCLE
  5
7A84
  8
1
  6
CONTINUOUS
 10
1598.200145
 20
2241.7464140000002
 30
0.0
 40
100.0
  0
LINE
  5
7A85
  8
2
  6
CENTER
 10
3503.1559039999988
 20
2241.7464140000002
 30
0.0
 11
2710.1302989999999
 21
2241.7464140000002
 31
0.0
  0
CIRCLE
  5
7A86
  8
1
  6
CONTINUOUS
 10
1598.200145
 20
2241.7464140000002
 30
0.0
 40
295.0
  0
LINE
  5
7A87
  8
1
  6
CONTINUOUS
 10
1943.200145
 20
1571.746414
 30
0.0
 11
693.20014500000002
 21
1571.746414
 31
0.0
  0
LINE
  5
7A88
  8
1
  6
CONTINUOUS
 10
1598.700145
 20
2486.7464140000002
 30
0.0
 11
738.70014500000002
 21
1881.746414
 31
0.0
  0
LINE
  5
7A89
  8
1
  6
CONTINUOUS
 10
1958.200145
 20
1651.746414
 30
0.0
 11
693.20014500000002
 21
1651.746414
 31
0.0
  0
LINE
  5
7A8A
  8
1
  6
CONTINUOUS
 10
860.73556400000007
 20
1892.876821999999
 30
0.0
 11
1544.6793150000001
 21
2326.2184259999999
 31
0.0
  0
LINE
  5
7A8B
  8
1
  6
CONTINUOUS
 10
931.18618599999979
 20
1772.0056569999999
 30
0.0
 11
1645.3230610000001
 21
2153.5453320000001
 31
0.0
  0
CIRCLE
  5
7A8C
  8
1
  6
CONTINUOUS
 10
898.20014499999979
 20
1833.746414
 30
0.0
 40
70.0
  0
LINE
  5
7A8D
  8
1
  6
CONTINUOUS
 10
768.20014500000002
 20
1651.746414
 30
0.0
 11
1028.200145
 21
1651.746414
 31
0.0
  0
LINE
  5
7A8E
  8
2
  6
CENTER
 10
828.20014500000002
 20
1833.746414
 30
0.0
 11
968.20014499999991
 21
1833.746414
 31
0.0
  0
ARC
  5
7A8F
  8
1
  6
CONTINUOUS
 10
898.20014499999979
 20
1833.746414
 30
0.0
 40
142.0
 50
324.59875699999998
 51
215.40124299999999
  0
LINE
  5
7A90
  8
1
  6
CONTINUOUS
 10
733.20014499999991
 20
1571.746414
 30
0.0
 11
733.20014499999991
 21
1531.746414
 31
0.0
  0
LINE
  5
7A91
  8
1
  6
CONTINUOUS
 10
693.20014500000002
 20
1651.746414
 30
0.0
 11
693.20014500000002
 21
1531.746414
 31
0.0
  0
LINE
  5
7A92
  8
1
  6
CONTINUOUS
 10
733.20014499999991
 20
1531.746414
 30
0.0
 11
693.20014500000002
 21
1531.746414
 31
0.0
  0
LINE
  5
7A93
  8
1
  6
CONTINUOUS
 10
738.70014500000002
 20
1651.746414
 30
0.0
 11
738.70014500000002
 21
1881.746414
 31
0.0
  0
LINE
  5
7A94
  8
1
  6
CONTINUOUS
 10
768.20014500000002
 20
1651.746414
 30
0.0
 11
768.20014500000002
 21
1716.746414
 31
0.0
  0
LINE
  5
7A95
  8
1
  6
CONTINUOUS
 10
768.20014500000002
 20
1716.746414
 30
0.0
 11
782.45378200000005
 21
1751.485977
 31
0.0
  0
LINE
  5
7A96
  8
1
  6
CONTINUOUS
 10
1238.200145
 20
1651.746414
 30
0.0
 11
1238.200145
 21
2651.7464140000002
 31
0.0
  0
LINE
  5
7A97
  8
1
  6
CONTINUOUS
 10
1028.200145
 20
1716.746414
 30
0.0
 11
1013.946508
 21
1751.485977
 31
0.0
  0
LINE
  5
7A98
  8
1
  6
CONTINUOUS
 10
1028.200145
 20
1651.746414
 30
0.0
 11
1028.200145
 21
1716.746414
 31
0.0
  0
LINE
  5
7A99
  8
2
  6
CENTER
 10
898.20014499999979
 20
1763.746413999999
 30
0.0
 11
898.20014499999979
 21
1903.746414
 31
0.0
  0
LINE
  5
7A9A
  8
1
  6
CONTINUOUS
 10
2003.200145
 20
2289.7464140000002
 30
0.0
 11
2003.200145
 21
1675.746413999999
 31
0.0
  0
LINE
  5
7A9B
  8
1
  6
CONTINUOUS
 10
1958.200145
 20
1651.746414
 30
0.0
 11
1958.200145
 21
2651.7464140000002
 31
0.0
  0
LINE
  5
7A9C
  8
1
  6
CONTINUOUS
 10
1978.2001449999991
 20
2262.7464139999988
 30
0.0
 11
1978.2001449999991
 21
1702.8698710000001
 31
0.0
  0
LINE
  5
7A9D
  8
1
  6
CONTINUOUS
 10
1868.700145
 20
1651.746414
 30
0.0
 11
1868.700145
 21
2401.7464140000002
 31
0.0
  0
LINE
  5
7A9E
  8
1
  6
CONTINUOUS
 10
2003.200145
 20
1702.746413999999
 30
0.0
 11
1598.200145
 21
1704.746413999999
 31
0.0
  0
LINE
  5
7A9F
  8
1
  6
CONTINUOUS
 10
1903.2001449999991
 20
1571.746414
 30
0.0
 11
1903.2001449999991
 21
1531.746414
 31
0.0
  0
LINE
  5
7AA0
  8
1
  6
CONTINUOUS
 10
1943.200145
 20
1651.746414
 30
0.0
 11
1943.200145
 21
1531.746414
 31
0.0
  0
LINE
  5
7AA1
  8
1
  6
CONTINUOUS
 10
1943.200145
 20
1531.746414
 30
0.0
 11
1903.2001449999991
 21
1531.746414
 31
0.0
  0
ARC
  5
7AA2
  8
1
  6
CONTINUOUS
 10
1574.200145
 20
2265.7464140000002
 30
0.0
 40
377.65927299999993
 50
359.54485699999992
 51
82.746804999999995
  0
LINE
  5
7AA3
  8
1
  6
CONTINUOUS
 10
1868.700145
 20
2401.7464140000002
 30
0.0
 11
1598.700145
 21
2486.7464140000002
 31
0.0
  0
LINE
  5
7AA4
  8
2
  6
CENTER
 10
1598.200145
 20
4158.3980920000004
 30
0.0
 11
1598.200145
 21
3309.5435000000002
 31
0.0
  0
LINE
  5
7AA5
  8
1
  6
CONTINUOUS
 10
1951.8475020000001
 20
2262.7464139999988
 30
0.0
 11
2003.200145
 21
2262.7464139999988
 31
0.0
  0
LINE
  5
7AA6
  8
1
  6
CONTINUOUS
 10
2986.6733859999999
 20
1651.746414
 30
0.0
 11
2986.6733859999999
 21
2600.7464140000002
 31
0.0
  0
LINE
  5
7AA7
  8
1
  6
CONTINUOUS
 10
2906.673385999999
 20
1651.746414
 30
0.0
 11
2906.673385999999
 21
2486.7464140000002
 31
0.0
  0
LINE
  5
7AA8
  8
1
  6
CONTINUOUS
 10
2786.6733859999999
 20
1651.746414
 30
0.0
 11
2786.6733859999999
 21
2486.7464140000002
 31
0.0
  0
LINE
  5
7AA9
  8
1
  6
CONTINUOUS
 10
2876.6733859999999
 20
1817.746414
 30
0.0
 11
2986.6733859999999
 21
1817.746414
 31
0.0
  0
LINE
  5
7AAA
  8
1
  6
CONTINUOUS
 10
2876.6733859999999
 20
1849.746414
 30
0.0
 11
2986.6733859999999
 21
1849.746414
 31
0.0
  0
LINE
  5
7AAB
  8
1
  6
CONTINUOUS
 10
2751.6733859999999
 20
1571.746414
 30
0.0
 11
2751.6733859999999
 21
1531.746414
 31
0.0
  0
LINE
  5
7AAC
  8
1
  6
CONTINUOUS
 10
2876.6733859999999
 20
1903.746414
 30
0.0
 11
2876.6733859999999
 21
1763.746413999999
 31
0.0
  0
LINE
  5
7AAD
  8
1
  6
CONTINUOUS
 10
2816.6733859999999
 20
1903.746414
 30
0.0
 11
2816.6733859999999
 21
1763.746413999999
 31
0.0
  0
LINE
  5
7AAE
  8
1
  6
CONTINUOUS
 10
2816.6733859999999
 20
1763.746413999999
 30
0.0
 11
2876.6733859999999
 21
1763.746413999999
 31
0.0
  0
LINE
  5
7AAF
  8
1
  6
CONTINUOUS
 10
2816.6733859999999
 20
1903.746414
 30
0.0
 11
2876.6733859999999
 21
1903.746414
 31
0.0
  0
LINE
  5
7AB0
  8
1
  6
CONTINUOUS
 10
2941.6733859999999
 20
1571.746414
 30
0.0
 11
2941.6733859999999
 21
1651.746414
 31
0.0
  0
LINE
  5
7AB1
  8
1
  6
CONTINUOUS
 10
2986.6733859999999
 20
2225.7464140000002
 30
0.0
 11
2876.6733859999999
 21
2225.7464140000002
 31
0.0
  0
LINE
  5
7AB2
  8
1
  6
CONTINUOUS
 10
2986.6733859999999
 20
2257.7464140000002
 30
0.0
 11
2876.6733859999999
 21
2257.7464140000002
 31
0.0
  0
LINE
  5
7AB3
  8
1
  6
CONTINUOUS
 10
2876.6733859999999
 20
2341.7464140000002
 30
0.0
 11
2876.6733859999999
 21
2141.7464140000002
 31
0.0
  0
LINE
  5
7AB4
  8
1
  6
CONTINUOUS
 10
2816.6733859999999
 20
2341.7464140000002
 30
0.0
 11
2816.6733859999999
 21
2141.7464140000002
 31
0.0
  0
LINE
  5
7AB5
  8
1
  6
CONTINUOUS
 10
2816.6733859999999
 20
2141.7464140000002
 30
0.0
 11
2876.6733859999999
 21
2141.7464140000002
 31
0.0
  0
LINE
  5
7AB6
  8
1
  6
CONTINUOUS
 10
2816.6733859999999
 20
2341.7464140000002
 30
0.0
 11
2876.6733859999999
 21
2341.7464140000002
 31
0.0
  0
LINE
  5
7AB7
  8
1
  6
CONTINUOUS
 10
2786.6733859999999
 20
2486.7464140000002
 30
0.0
 11
2906.673385999999
 21
2486.7464140000002
 31
0.0
  0
LINE
  5
7AB8
  8
1
  6
CONTINUOUS
 10
3406.6733859999999
 20
1651.746414
 30
0.0
 11
3406.6733859999999
 21
2600.7464140000002
 31
0.0
  0
LINE
  5
7AB9
  8
1
  6
CONTINUOUS
 10
3408.6733859999999
 20
1921.746414
 30
0.0
 11
3408.6733859999999
 21
2561.7464140000002
 31
0.0
  0
LINE
  5
7ABA
  8
1
  6
CONTINUOUS
 10
3451.6733859999999
 20
1571.746414
 30
0.0
 11
3451.6733859999999
 21
1651.746414
 31
0.0
  0
LINE
  5
7ABB
  8
1
  6
CONTINUOUS
 10
3406.6733859999999
 20
1921.746414
 30
0.0
 11
3408.6733859999999
 21
1921.746414
 31
0.0
  0
LINE
  5
7ABC
  8
1
  6
CONTINUOUS
 10
3531.6733859999999
 20
1571.746414
 30
0.0
 11
3531.6733859999999
 21
1531.746414
 31
0.0
  0
LINE
  5
7ABD
  8
1
  6
CONTINUOUS
 10
3406.6733859999999
 20
2561.7464140000002
 30
0.0
 11
3408.6733859999999
 21
2561.7464140000002
 31
0.0
  0
LINE
  5
7ABE
  8
1
  6
CONTINUOUS
 10
1133.833014
 20
4027.7390559999999
 30
0.0
 11
2003.200145
 21
4027.7390559999999
 31
0.0
  0
LINE
  5
7ABF
  8
1
  6
CONTINUOUS
 10
1133.833014
 20
3607.7390559999999
 30
0.0
 11
2003.200145
 21
3607.7390559999999
 31
0.0
  0
LINE
  5
7AC0
  8
1
  6
CONTINUOUS
 10
1868.700145
 20
3527.7390560000008
 30
0.0
 11
738.70014500000002
 21
3527.7390560000008
 31
0.0
  0
LINE
  5
7AC1
  8
1
  6
CONTINUOUS
 10
1868.700145
 20
3407.7390559999999
 30
0.0
 11
738.70014500000002
 21
3407.7390559999999
 31
0.0
  0
LINE
  5
7AC2
  8
1
  6
CONTINUOUS
 10
1943.200145
 20
4072.7390559999999
 30
0.0
 11
693.20014500000002
 21
4072.7390559999999
 31
0.0
  0
LINE
  5
7AC3
  8
1
  6
CONTINUOUS
 10
1498.200145
 20
3497.7390559999999
 30
0.0
 11
1698.200145
 21
3497.7390559999999
 31
0.0
  0
LINE
  5
7AC4
  8
1
  6
CONTINUOUS
 10
1498.200145
 20
3437.7390559999999
 30
0.0
 11
1698.200145
 21
3437.7390559999999
 31
0.0
  0
LINE
  5
7AC5
  8
1
  6
CONTINUOUS
 10
1582.200145
 20
3562.7390559999999
 30
0.0
 11
917.20014499999991
 21
3562.7390559999999
 31
0.0
  0
LINE
  5
7AC6
  8
1
  6
CONTINUOUS
 10
1918.200145
 20
4029.7390559999999
 30
0.0
 11
1278.200145
 21
4029.7390559999999
 31
0.0
  0
LINE
  5
7AC7
  8
1
  6
CONTINUOUS
 10
828.20014500000002
 20
3437.7390559999999
 30
0.0
 11
968.20014499999991
 21
3437.7390559999999
 31
0.0
  0
LINE
  5
7AC8
  8
1
  6
CONTINUOUS
 10
828.20014500000002
 20
3497.7390559999999
 30
0.0
 11
968.20014499999991
 21
3497.7390559999999
 31
0.0
  0
LINE
  5
7AC9
  8
1
  6
CONTINUOUS
 10
756.20014500000002
 20
3981.476889
 30
0.0
 11
1040.200145
 21
3981.476889
 31
0.0
  0
LINE
  5
7ACA
  8
1
  6
CONTINUOUS
 10
756.20014500000002
 20
3581.476889
 30
0.0
 11
1040.200145
 21
3581.476889
 31
0.0
  0
LINE
  5
7ACB
  8
1
  6
CONTINUOUS
 10
693.20014500000002
 20
4152.7390560000003
 30
0.0
 11
693.20014500000002
 21
3372.7390559999999
 31
0.0
  0
LINE
  5
7ACC
  8
1
  6
CONTINUOUS
 10
756.20014500000002
 20
3981.476889
 30
0.0
 11
756.20014500000002
 21
3581.476889
 31
0.0
  0
LINE
  5
7ACD
  8
1
  6
CONTINUOUS
 10
733.20014499999991
 20
3562.7390559999999
 30
0.0
 11
733.20014499999991
 21
3372.7390559999999
 31
0.0
  0
LINE
  5
7ACE
  8
1
  6
CONTINUOUS
 10
828.20014500000002
 20
3437.7390559999999
 30
0.0
 11
828.20014500000002
 21
3497.7390559999999
 31
0.0
  0
LINE
  5
7ACF
  8
1
  6
CONTINUOUS
 10
738.70014500000002
 20
3407.7390559999999
 30
0.0
 11
738.70014500000002
 21
3527.7390560000008
 31
0.0
  0
LINE
  5
7AD0
  8
1
  6
CONTINUOUS
 10
733.20014499999991
 20
3372.7390559999999
 30
0.0
 11
693.20014500000002
 21
3372.7390559999999
 31
0.0
  0
LINE
  5
7AD1
  8
1
  6
CONTINUOUS
 10
879.20014499999979
 20
3562.7390559999999
 30
0.0
 11
693.20014500000002
 21
3562.7390559999999
 31
0.0
  0
LINE
  5
7AD2
  8
1
  6
CONTINUOUS
 10
879.20014499999979
 20
3497.7390559999999
 30
0.0
 11
879.20014499999979
 21
3581.476889
 31
0.0
  0
LINE
  5
7AD3
  8
1
  6
CONTINUOUS
 10
733.20014499999991
 20
4152.7390560000003
 30
0.0
 11
733.20014499999991
 21
4072.7390559999999
 31
0.0
  0
LINE
  5
7AD4
  8
1
  6
CONTINUOUS
 10
733.20014499999991
 20
4152.7390560000003
 30
0.0
 11
693.20014500000002
 21
4152.7390560000003
 31
0.0
  0
LINE
  5
7AD5
  8
1
  6
CONTINUOUS
 10
1133.833014
 20
3607.7390559999999
 30
0.0
 11
1133.833014
 21
4027.7390559999999
 31
0.0
  0
LINE
  5
7AD6
  8
1
  6
CONTINUOUS
 10
1040.200145
 20
3981.476889
 30
0.0
 11
1040.200145
 21
3581.476889
 31
0.0
  0
LINE
  5
7AD7
  8
1
  6
CONTINUOUS
 10
968.20014499999991
 20
3437.7390559999999
 30
0.0
 11
968.20014499999991
 21
3497.7390559999999
 31
0.0
  0
LINE
  5
7AD8
  8
1
  6
CONTINUOUS
 10
917.20014499999991
 20
3497.7390559999999
 30
0.0
 11
917.20014499999991
 21
3581.476889
 31
0.0
  0
LINE
  5
7AD9
  8
1
  6
CONTINUOUS
 10
1498.200145
 20
3437.7390559999999
 30
0.0
 11
1498.200145
 21
3497.7390559999999
 31
0.0
  0
LINE
  5
7ADA
  8
1
  6
CONTINUOUS
 10
1278.200145
 20
4027.7390559999999
 30
0.0
 11
1278.200145
 21
4029.7390559999999
 31
0.0
  0
LINE
  5
7ADB
  8
1
  6
CONTINUOUS
 10
1978.2001449999991
 20
4027.7390559999999
 30
0.0
 11
1978.2001449999991
 21
3607.7390559999999
 31
0.0
  0
LINE
  5
7ADC
  8
1
  6
CONTINUOUS
 10
2003.200145
 20
4054.7390559999999
 30
0.0
 11
2003.200145
 21
3580.7390559999999
 31
0.0
  0
LINE
  5
7ADD
  8
1
  6
CONTINUOUS
 10
1943.200145
 20
3562.7390559999999
 30
0.0
 11
1614.200145
 21
3562.7390559999999
 31
0.0
  0
LINE
  5
7ADE
  8
1
  6
CONTINUOUS
 10
1698.200145
 20
3437.7390559999999
 30
0.0
 11
1698.200145
 21
3497.7390559999999
 31
0.0
  0
LINE
  5
7ADF
  8
1
  6
CONTINUOUS
 10
1614.200145
 20
3607.7390559999999
 30
0.0
 11
1614.200145
 21
3497.7390559999999
 31
0.0
  0
LINE
  5
7AE0
  8
1
  6
CONTINUOUS
 10
1582.200145
 20
3607.7390559999999
 30
0.0
 11
1582.200145
 21
3497.7390559999999
 31
0.0
  0
LINE
  5
7AE1
  8
1
  6
CONTINUOUS
 10
1903.2001449999991
 20
3562.7390559999999
 30
0.0
 11
1903.2001449999991
 21
3372.7390559999999
 31
0.0
  0
LINE
  5
7AE2
  8
1
  6
CONTINUOUS
 10
1868.700145
 20
3407.7390559999999
 30
0.0
 11
1868.700145
 21
3527.7390560000008
 31
0.0
  0
LINE
  5
7AE3
  8
1
  6
CONTINUOUS
 10
1943.200145
 20
3607.7390559999999
 30
0.0
 11
1943.200145
 21
3372.7390559999999
 31
0.0
  0
LINE
  5
7AE4
  8
1
  6
CONTINUOUS
 10
1903.2001449999991
 20
3372.7390559999999
 30
0.0
 11
1943.200145
 21
3372.7390559999999
 31
0.0
  0
LINE
  5
7AE5
  8
1
  6
CONTINUOUS
 10
1903.2001449999991
 20
4152.7390560000003
 30
0.0
 11
1903.2001449999991
 21
4072.7390559999999
 31
0.0
  0
LINE
  5
7AE6
  8
1
  6
CONTINUOUS
 10
1903.2001449999991
 20
4152.7390560000003
 30
0.0
 11
1943.200145
 21
4152.7390560000003
 31
0.0
  0
LINE
  5
7AE7
  8
1
  6
CONTINUOUS
 10
1943.200145
 20
4152.7390560000003
 30
0.0
 11
1943.200145
 21
4027.7390559999999
 31
0.0
  0
LINE
  5
7AE8
  8
1
  6
CONTINUOUS
 10
1918.200145
 20
4027.7390559999999
 30
0.0
 11
1918.200145
 21
4029.7390559999999
 31
0.0
  0
LINE
  5
7AE9
  8
2
  6
CENTER
 10
3196.6733859999999
 20
2706.5041639999999
 30
0.0
 11
3196.6733859999999
 21
1413.0687915245071
 31
0.0
  0
LINE
  5
7AEA
  8
2
  6
CENTER
 10
578.71507999999994
 20
3817.7390559999999
 30
0.0
 11
2075.4861729999998
 21
3817.7390559999999
 31
0.0
  0
LINE
  5
7AEB
  8
2
  6
CENTER
 10
1598.200145
 20
2783.7755809999999
 30
0.0
 11
1598.200145
 21
1462.662748
 31
0.0
  0
LINE
  5
7AEC
  8
2
  6
CENTER
 10
2075.7098149999988
 20
2241.7464140000002
 30
0.0
 11
920.15821300000005
 21
2241.7464140000002
 31
0.0
  0
LINE
  5
7AED
  8
2
  6
CENTER
 10
2155.0123760000001
 20
2241.7464140000002
 30
0.0
 11
2098.3676820000001
 21
2241.7464140000002
 31
0.0
  0
LINE
  5
7AEE
  8
4
  6
CONTINUOUS
 10
3700.0
 20
1000.0
 30
0.0
 11
3700.0
 21
600.0
 31
0.0
  0
LINE
  5
7AEF
  8
4
  6
CONTINUOUS
 10
2300.0
 20
1000.0
 30
0.0
 11
2300.0
 21
600.0
 31
0.0
  0
LINE
  5
7AF0
  8
4
  6
CONTINUOUS
 10
1300.0
 20
1000.0
 30
0.0
 11
1300.0
 21
600.0
 31
0.0
  0
LINE
  5
7AF3
  8
4
  6
CONTINUOUS
 10
1300.0
 20
600.0
 30
0.0
 11
3700.0
 21
600.0
 31
0.0
  0
LINE
  5
7AF4
  8
4
  6
CONTINUOUS
 10
1300.0
 20
800.0
 30
0.0
 11
3700.0
 21
800.0
 31
0.0
  0
TEXT
  5
7AF5
  8
4
  6
CONTINUOUS
 10
1377.004162
 20
863.086052
 30
0.0
 40
100.0
  1
機器名称
  0
TEXT
  5
7AF6
  8
4
  6
CONTINUOUS
 10
1372.516212
 20
643.29031299999986
 30
0.0
 40
100.0
  1
機器型番
  0
TEXT
  5
7AF7
  8
4
  6
CONTINUOUS
 10
2355.3574910000002
 20
845.14353800000015
 30
0.0
 40
100.0
  1
ミツヤ多翼送風機
  0
TEXT
  5
7AF8
  8
4
  6
CONTINUOUS
 10
2373.3089909999999
 20
634.31916899999999
 30
0.0
 40
100.0
  1
MF#3 1/2-4
  0
TEXT
  5
7AFA
  8
4
  6
CONTINUOUS
 10
1656.6469529999999
 20
4766.8576830000002
 30
0.0
 40
108.0
  1
天井吊ベット
  0
TEXT
  5
7AFB
  8
4
  6
CONTINUOUS
 10
632.33518700000002
 20
5067.7619520000007
 30
0.0
 40
144.0
  1
ベルト駆動式片吸込両持多翼ファン
  0
LINE
  5
7AFC
  8
4
  6
CONTINUOUS
 10
500.0
 20
4938.8175090000004
 30
0.0
 11
3700.0
 21
4938.8175090000004
 31
0.0
  0
LINE
  5
7AFD
  8
4
  6
CONTINUOUS
 10
500.0
 20
5338.8175090000004
 30
0.0
 11
3700.0
 21
5338.8175090000004
 31
0.0
  0
LINE
  5
7AFE
  8
4
  6
CONTINUOUS
 10
1300.0
 20
1000.0
 30
0.0
 11
3700.0
 21
1000.0
 31
0.0
  0
LINE
  5
7AFF
  8
4
  6
CONTINUOUS
 10
500.0
 20
5338.8175090000004
 30
0.0
 11
500.0
 21
4938.8175090000004
 31
0.0
  0
TEXT
  5
7B00
  8
4
  6
CONTINUOUS
 10
784.92928800000016
 20
4764.6389549999994
 30
0.0
 40
108.0
  1
左回転右横向
  0
TEXT
  5
7B01
  8
4
  6
CONTINUOUS
 10
2937.9391179999998
 20
5412.122163
 30
0.0
 40
112.0
  1
No.
  0
TEXT
  5
7B02
  8
4
  6
CONTINUOUS
 10
2622.5921250000001
 20
4766.8576830000002
 30
0.0
 40
108.0
  1
縮尺：1/20
  0
LINE
  5
7B03
  8
4
  6
CONTINUOUS
 10
3700.0
 20
5338.8175090000004
 30
0.0
 11
3700.0
 21
4938.8175090000004
 31
0.0
  0
LINE
  5
7B05
  8
4
  6
CONTINUOUS
 10
2881.234845
 20
5362.5271659999999
 30
0.0
 11
2881.234845
 21
5573.3045229999998
 31
0.0
  0
LINE
  5
7B06
  8
4
  6
CONTINUOUS
 10
2881.234845
 20
5573.3045229999998
 30
0.0
 11
3700.0
 21
5573.3045229999998
 31
0.0
  0
LINE
  5
7B07
  8
4
  6
CONTINUOUS
 10
3700.0
 20
5573.3045229999998
 30
0.0
 11
3700.0
 21
5362.5271659999999
 31
0.0
  0
LINE
  5
7B08
  8
4
  6
CONTINUOUS
 10
3700.0
 20
5362.5271659999999
 30
0.0
 11
2881.234845
 21
5362.5271659999999
 31
0.0
  0
DIMENSION
  5
7B20
  8
3
  6
CONTINUOUS
  2
*D1
 10
2157.613398
 20
1702.746413999999
 30
0.0
 11
2157.613398
 21
2011.8077479999999
 31
0.0
 70
   128
 13
2003.200145
 23
2262.7464139999988
 33
0.0
 14
2003.200145
 24
1702.746413999999
 34
0.0
 50
90.0
1001
ACAD
1000
DSTYLE
1002
{
1070
   287
1070
     3
1070
    40
1040
20.0
1070
   143
1040
0.039
1070
   172
1070
     1
1070
   271
1070
     0
1070
   279
1070
     0
1070
   288
1070
     1
1002
}
  0
DIMENSION
  5
7B2D
  8
3
  6
CONTINUOUS
  2
*D2
 10
2288.2619030000001
 20
1702.746413999999
 30
0.0
 11
2288.2619029999992
 21
2011.8077479999999
 31
0.0
 70
   128
 13
2075.7098149999988
 23
2241.7464140000002
 33
0.0
 14
2003.200145
 24
1702.746413999999
 34
0.0
 50
90.0
1001
ACAD
1000
DSTYLE
1002
{
1070
   287
1070
     3
1070
    40
1040
20.0
1070
   143
1040
0.039
1070
   172
1070
     1
1070
   271
1070
     0
1070
   279
1070
     0
1070
   288
1070
     1
1002
}
  0
DIMENSION
  5
7B3A
  8
3
  6
CONTINUOUS
  2
*D3
 10
2409.2175259999999
 20
2241.7464140000002
 30
0.0
 11
2409.2175259999999
 21
2481.6908709999998
 31
0.0
 70
   128
 13
1958.200145
 23
2651.7464140000002
 33
0.0
 14
2075.7098149999988
 24
2241.7464140000002
 34
0.0
 50
90.0
1001
ACAD
1000
DSTYLE
1002
{
1070
   287
1070
     3
1070
    40
1040
20.0
1070
   143
1040
0.039
1070
   172
1070
     1
1070
   271
1070
     0
1070
   279
1070
     0
1070
   288
1070
     1
1002
}
  0
DIMENSION
  5
7B46
  8
3
  6
CONTINUOUS
  2
*D4
 10
2409.2175259999999
 20
1571.746414
 30
0.0
 11
2359.2175259999999
 21
1906.746414
 31
0.0
 70
     0
 13
2075.7098149999988
 23
2241.7464140000002
 33
0.0
 14
1943.200145
 24
1571.746414
 34
0.0
 50
90.0
1001
ACAD
1000
DSTYLE
1002
{
1070
   287
1070
     4
1070
    40
1040
20.0
1070
    75
1070
     1
1070
   143
1040
0.039
1070
   172
1070
     1
1070
   271
1070
     0
1070
   279
1070
     1
1070
   288
1070
     1
1002
}
  0
DIMENSION
  5
7B56
  8
3
  6
CONTINUOUS
  2
*D5
 10
2409.6925200000001
 20
1531.746414
 30
0.0
 11
2409.6925200000001
 21
1383.1749854285711
 31
0.0
 70
   128
 13
1943.200145
 23
1571.746414
 33
0.0
 14
1943.200145
 24
1531.746414
 34
0.0
 50
90.0
1001
ACAD
1000
DSTYLE
1002
{
1070
   287
1070
     3
1070
    40
1040
20.0
1070
   143
1040
0.039
1070
   172
1070
     1
1070
   271
1070
     0
1070
   279
1070
     0
1070
   288
1070
     1
1002
}
  0
DIMENSION
  5
7B63
  8
3
  6
CONTINUOUS
  2
*D6
 10
2532.5621019999999
 20
1531.746414
 30
0.0
 11
2532.562101999999
 21
2133.6293070000002
 31
0.0
 70
   128
 13
1958.200145
 23
2651.7464140000002
 33
0.0
 14
1943.200145
 24
1531.746414
 34
0.0
 50
90.0
1001
ACAD
1000
DSTYLE
1002
{
1070
   287
1070
     3
1070
    40
1040
20.0
1070
   143
1040
0.039
1070
   172
1070
     1
1070
   271
1070
     0
1070
   279
1070
     0
1070
   288
1070
     1
1002
}
  0
DIMENSION
  5
7B70
  8
3
  6
CONTINUOUS
  2
*D7
 10
1598.200145
 20
2814.658003999999
 30
0.0
 11
1791.7975479999991
 21
2814.658003999999
 31
0.0
 70
   128
 13
2003.200145
 23
2289.7464140000002
 33
0.0
 14
1598.200145
 24
2783.7755809999999
 34
0.0
1001
ACAD
1000
DSTYLE
1002
{
1070
   287
1070
     3
1070
    40
1040
20.0
1070
   143
1040
0.039
1070
   172
1070
     1
1070
   271
1070
     0
1070
   279
1070
     0
1070
   288
1070
     1
1002
}
  0
DIMENSION
  5
7B7C
  8
3
  6
CONTINUOUS
  2
*D8
 10
1135.200145
 20
2814.658003999999
 30
0.0
 11
1366.700145
 21
2864.6580039999999
 31
0.0
 70
     0
 13
1598.200145
 23
2783.7755809999999
 33
0.0
 14
1135.200145
 24
2204.7464140000002
 34
0.0
1001
ACAD
1000
DSTYLE
1002
{
1070
   287
1070
     4
1070
    40
1040
20.0
1070
    75
1070
     1
1070
   143
1040
0.039
1070
   172
1070
     1
1070
   271
1070
     0
1070
   279
1070
     1
1070
   288
1070
     1
1002
}
  0
DIMENSION
  5
7B89
  8
3
  6
CONTINUOUS
  2
*D9
 10
1598.200145
 20
1359.234494999999
 30
0.0
 11
1173.394559999999
 21
1359.234494999999
 31
0.0
 70
   128
 13
693.20014500000002
 23
1531.746414
 33
0.0
 14
1598.200145
 24
1462.662748
 34
0.0
1001
ACAD
1000
DSTYLE
1002
{
1070
   287
1070
     3
1070
    40
1040
20.0
1070
   143
1040
0.039
1070
   172
1070
     1
1070
   271
1070
     0
1070
   279
1070
     0
1070
   288
1070
     1
1002
}
  0
DIMENSION
  5
7B95
  8
3
  6
CONTINUOUS
  2
*D10
 10
1943.200145
 20
1359.234494999999
 30
0.0
 11
1770.700145
 21
1409.234494999999
 31
0.0
 70
     0
 13
1598.200145
 23
1462.662748
 33
0.0
 14
1943.200145
 24
1531.746414
 34
0.0
1001
ACAD
1000
DSTYLE
1002
{
1070
   287
1070
     4
1070
    40
1040
20.0
1070
    75
1070
     1
1070
   143
1040
0.039
1070
   172
1070
     1
1070
   271
1070
     0
1070
   279
1070
     1
1070
   288
1070
     1
1002
}
  0
DIMENSION
  5
7BB1
  8
3
  6
CONTINUOUS
  2
*D11
 10
3604.3197500000001
 20
1946.746413999999
 30
0.0
 11
3604.3197500000001
 21
2229.3462380000001
 31
0.0
 70
   128
 13
3406.6733859999999
 23
2536.7464140000002
 33
0.0
 14
3408.6733859999999
 24
1946.746414
 34
0.0
 50
90.0
1001
ACAD
1000
DSTYLE
1002
{
1070
   287
1070
     3
1070
     3
1000
φ<>
1070
    40
1040
20.0
1070
   143
1040
0.039
1070
   172
1070
     1
1070
   271
1070
     0
1070
   279
1070
     0
1070
   288
1070
     1
1002
}
  0
DIMENSION
  5
7BC0
  8
3
  6
CONTINUOUS
  2
*D12
 10
3196.6733859999999
 20
2856.4981829999988
 30
0.0
 11
3302.6733859999999
 21
2914.2397982842949
 31
0.0
 70
   128
 13
3408.6733859999999
 23
2561.7464140000002
 33
0.0
 14
3196.6733859999999
 24
2820.74017
 34
0.0
1001
ACAD
1000
DSTYLE
1002
{
1070
   288
1070
     1
1070
   172
1070
     1
1070
    40
1040
20.0
1070
   271
1070
     0
1070
   143
1040
0.039
1002
}
  0
DIMENSION
  5
7BCC
  8
3
  6
CONTINUOUS
  2
*D13
 10
2786.6733859999999
 20
2856.4981829999988
 30
0.0
 11
2991.6733859999999
 21
2956.4981829999988
 31
0.0
 70
     0
  1
MAX\P470
 13
3196.6733859999999
 23
2820.74017
 33
0.0
 14
2786.6733859999999
 24
2486.7464140000002
 34
0.0
1001
ACAD
1000
DSTYLE
1002
{
1070
   287
1070
     4
1070
    40
1040
20.0
1070
    75
1070
     1
1070
   143
1040
0.039
1070
   172
1070
     1
1070
   271
1070
     0
1070
   279
1070
     1
1070
   288
1070
     1
1002
}
  0
DIMENSION
  5
7BD9
  8
3
  6
CONTINUOUS
  2
*D14
 10
3196.6733859999999
 20
1364.786394
 30
0.0
 11
2968.4969679999999
 21
1364.786394
 31
0.0
 70
   128
 13
2751.6733859999999
 23
1531.746414
 33
0.0
 14
3196.6733859999999
 24
1413.0687915245071
 34
0.0
1001
ACAD
1000
DSTYLE
1002
{
1070
   287
1070
     3
1070
    40
1040
20.0
1070
   143
1040
0.039
1070
   172
1070
     1
1070
   271
1070
     0
1070
   279
1070
     0
1070
   288
1070
     1
1002
}
  0
DIMENSION
  5
7BE5
  8
3
  6
CONTINUOUS
  2
*D15
 10
3531.6733859999999
 20
1364.786394
 30
0.0
 11
3364.1733859999999
 21
1414.786394
 31
0.0
 70
     0
 13
3196.6733859999999
 23
1408.762943302979
 33
0.0
 14
3531.6733859999999
 24
1531.746414
 34
0.0
1001
ACAD
1000
DSTYLE
1002
{
1070
   287
1070
     4
1070
    40
1040
20.0
1070
    75
1070
     1
1070
   143
1040
0.039
1070
   172
1070
     1
1070
   271
1070
     0
1070
   279
1070
     1
1070
   288
1070
     1
1002
}
  0
DIMENSION
  5
7BF2
  8
3
  6
CONTINUOUS
  2
*D16
 10
1943.200145
 20
4254.2233659999993
 30
0.0
 11
1313.1843730000001
 21
4254.2233659999993
 31
0.0
 70
   128
 13
693.20014500000002
 23
4152.7390560000003
 33
0.0
 14
1943.200145
 24
4152.7390560000003
 34
0.0
1001
ACAD
1000
DSTYLE
1002
{
1070
   287
1070
     3
1070
    40
1040
20.0
1070
   143
1040
0.039
1070
   172
1070
     1
1070
   271
1070
     0
1070
   279
1070
     0
1070
   288
1070
     1
1002
}
  0
DIMENSION
  5
7BFF
  8
3
  6
CONTINUOUS
  2
*D17
 10
2219.0141130000002
 20
3372.7390559999999
 30
0.0
 11
2219.0141129999988
 21
3758.2356289999998
 31
0.0
 70
   128
 13
1943.200145
 23
4152.7390560000003
 33
0.0
 14
1943.200145
 24
3372.7390559999999
 34
0.0
 50
90.0
1001
ACAD
1000
DSTYLE
1002
{
1070
   287
1070
     3
1070
    40
1040
20.0
1070
   143
1040
0.039
1070
   172
1070
     1
1070
   271
1070
     0
1070
   279
1070
     0
1070
   288
1070
     1
1002
}
  0
DIMENSION
  5
7CA4
  8
3
  6
CONTINUOUS
  2
*D18
 10
3406.6733859999999
 20
2713.352378
 30
0.0
 11
3193.8435989999998
 21
2713.352378
 31
0.0
 70
   128
 13
2986.6733859999999
 23
2600.7464140000002
 33
0.0
 14
3406.6733859999999
 24
2600.7464140000002
 34
0.0
1001
ACAD
1000
DSTYLE
1002
{
1070
   287
1070
     3
1070
    40
1040
20.0
1070
   143
1040
0.039
1070
   172
1070
     1
1070
   271
1070
     0
1070
   279
1070
     0
1070
   288
1070
     1
1002
}
  0
DIMENSION
  5
7D35
  8
3
  2
*D19
 10
693.20014500000013
 20
2935.5731027550391
 30
0.0
 11
1404.543654557252
 21
2935.5731027550391
 31
0.0
 70
   128
 13
2003.200145
 23
2289.7464140000002
 33
0.0
 14
693.20014500000002
 24
1651.746414
 34
0.0
1001
ACAD
1000
DSTYLE
1002
{
1070
   287
1070
     3
1070
    40
1040
20.0
1070
   143
1040
0.039
1070
   172
1070
     1
1070
   271
1070
     0
1070
   279
1070
     0
1070
   288
1070
     1
1002
}
  0
ENDSEC
  0
EOF
