  0
SECTION
  2
HEADER
  9
$ACADVER
  1
AC1009
  9
$INSBASE
 10
0.0
 20
0.0
 30
0.0
  9
$EXTMIN
 10
500.0
 20
600.0
 30
0.0
  9
$EXTMAX
 10
3700.0
 20
5573.3045229999998
 30
0.0
  9
$LIMMIN
 10
0.0
 20
0.0
  9
$LIMMAX
 10
297.0
 20
210.0
  9
$ORTHOMODE
 70
     0
  9
$REGENMODE
 70
     1
  9
$FILLMODE
 70
     0
  9
$QTEXTMODE
 70
     0
  9
$MIRRTEXT
 70
     1
  9
$DRAGMODE
 70
     2
  9
$LTSCALE
 40
100.0
  9
$OSMODE
 70
    37
  9
$ATTMODE
 70
     1
  9
$TEXTSIZE
 40
180.0
  9
$TRACEWID
 40
0.05
  9
$TEXTSTYLE
  7
STANDARD
  9
$CLAYER
  8
3
  9
$CELTYPE
  6
BYLAYER
  9
$CECOLOR
 62
   256
  9
$DIMSCALE
 40
20.0
  9
$DIMASZ
 40
2.0
  9
$DIMEXO
 40
0.5
  9
$DIMDLI
 40
10.0
  9
$DIMRND
 40
0.0
  9
$DIMDLE
 40
0.0
  9
$DIMEXE
 40
1.0
  9
$DIMTP
 40
1.0
  9
$DIMTM
 40
1.0
  9
$DIMTXT
 40
3.0
  9
$DIMCEN
 40
0.0
  9
$DIMTSZ
 40
0.0
  9
$DIMTOL
 70
     0
  9
$DIMLIM
 70
     0
  9
$DIMTIH
 70
     0
  9
$DIMTOH
 70
     0
  9
$DIMSE1
 70
     0
  9
$DIMSE2
 70
     0
  9
$DIMTAD
 70
     1
  9
$DIMZIN
 70
     8
  9
$DIMBLK
  1

  9
$DIMASO
 70
     1
  9
$DIMSHO
 70
     1
  9
$DIMPOST
  1

  9
$DIMAPOST
  1

  9
$DIMALT
 70
     0
  9
$DIMALTD
 70
     2
  9
$DIMALTF
 40
0.039
  9
$DIMLFAC
 40
1.0
  9
$DIMTOFL
 70
     1
  9
$DIMTVP
 40
0.0
  9
$DIMTIX
 70
     0
  9
$DIMSOXD
 70
     0
  9
$DIMSAH
 70
     1
  9
$DIMBLK1
  1
OPEN
  9
$DIMBLK2
  1
OPEN
  9
$DIMSTYLE
  2
IGA
  9
$DIMCLRD
 70
     0
  9
$DIMCLRE
 70
     0
  9
$DIMCLRT
 70
     0
  9
$DIMTFAC
 40
10.0
  9
$DIMGAP
 40
1.0
  9
$LUNITS
 70
     2
  9
$LUPREC
 70
     3
  9
$SKETCHINC
 40
0.1
  9
$FILLETRAD
 40
50.0
  9
$AUNITS
 70
     0
  9
$AUPREC
 70
     0
  9
$MENU
  1
acad
  9
$ELEVATION
 40
0.0
  9
$PELEVATION
 40
0.0
  9
$THICKNESS
 40
0.0
  9
$LIMCHECK
 70
     0
  9
$BLIPMODE
 70
     0
  9
$CHAMFERA
 40
0.5
  9
$CHAMFERB
 40
0.5
  9
$SKPOLY
 70
     0
  9
$TDCREATE
 40
2450737.4388730321
  9
$TDUPDATE
 40
2454953.768573124
  9
$TDINDWG
 40
0.0041598032
  9
$TDUSRTIMER
 40
0.0041598032
  9
$USRTIMER
 70
     1
  9
$ANGBASE
 50
0.0
  9
$ANGDIR
 70
     0
  9
$PDMODE
 70
     0
  9
$PDSIZE
 40
0.0
  9
$PLINEWID
 40
0.0
  9
$COORDS
 70
     1
  9
$SPLFRAME
 70
     0
  9
$SPLINETYPE
 70
     6
  9
$SPLINESEGS
 70
     8
  9
$ATTDIA
 70
     0
  9
$ATTREQ
 70
     1
  9
$HANDLING
 70
 10241
  9
$HANDSEED
  5
7E80
  9
$SURFTAB1
 70
     6
  9
$SURFTAB2
 70
     6
  9
$SURFTYPE
 70
     6
  9
$SURFU
 70
     6
  9
$SURFV
 70
     6
  9
$UCSNAME
  2

  9
$UCSORG
 10
0.0
 20
0.0
 30
0.0
  9
$UCSXDIR
 10
1.0
 20
0.0
 30
0.0
  9
$UCSYDIR
 10
0.0
 20
1.0
 30
0.0
  9
$PUCSNAME
  2

  9
$PUCSORG
 10
0.0
 20
0.0
 30
0.0
  9
$PUCSXDIR
 10
1.0
 20
0.0
 30
0.0
  9
$PUCSYDIR
 10
0.0
 20
1.0
 30
0.0
  9
$USERI1
 70
     0
  9
$USERI2
 70
     0
  9
$USERI3
 70
     0
  9
$USERI4
 70
     0
  9
$USERI5
 70
     0
  9
$USERR1
 40
0.0
  9
$USERR2
 40
0.0
  9
$USERR3
 40
0.0
  9
$USERR4
 40
0.0
  9
$USERR5
 40
0.0
  9
$WORLDVIEW
 70
     1
  9
$SHADEDGE
 70
     3
  9
$SHADEDIF
 70
    70
  9
$TILEMODE
 70
     1
  9
$MAXACTVP
 70
    16
  9
$PLIMCHECK
 70
     0
  9
$PEXTMIN
 10
1.0000000000000000E+020
 20
1.0000000000000000E+020
 30
1.0000000000000000E+020
  9
$PEXTMAX
 10
-1.0000000000000000E+020
 20
-1.0000000000000000E+020
 30
-1.0000000000000000E+020
  9
$PLIMMIN
 10
0.0
 20
0.0
  9
$PLIMMAX
 10
12.0
 20
9.0
  9
$UNITMODE
 70
     0
  9
$VISRETAIN
 70
     0
  9
$PLINEGEN
 70
     0
  9
$PSLTSCALE
 70
     1
  0
ENDSEC
  0
SECTION
  2
TABLES
  0
TABLE
  2
VPORT
 70
     2
  0
VPORT
  2
*ACTIVE
 70
     0
 10
0.0
 20
0.0
 11
1.0
 21
1.0
 12
6292.1124769529506
 22
3086.6374998146398
 13
0.0
 23
0.0
 14
10.0
 24
10.0
 15
10.0
 25
10.0
 16
0.0
 26
0.0
 36
1.0
 17
0.0
 27
0.0
 37
0.0
 40
5011.4968576296578
 41
3.1666666666666661
 42
50.0
 43
0.0
 44
0.0
 50
0.0
 51
0.0
 71
     0
 72
   100
 73
     1
 74
     0
 75
     0
 76
     0
 77
     0
 78
     0
  0
ENDTAB
  0
TABLE
  2
LTYPE
 70
     2
  0
LTYPE
  2
CONTINUOUS
 70
     0
  3
Solid line
 72
    65
 73
     0
 40
0.0
  0
LTYPE
  2
CENTER
 70
     0
  3
____ _ ____ _ ____ _ ____ _ ____ _ ____ _ ____ 
 72
    65
 73
     4
 40
2.0
 49
1.25
 49
-0.25
 49
0.25
 49
-0.25
  0
ENDTAB
  0
TABLE
  2
LAYER
 70
     6
  0
LAYER
  2
0
 70
     0
 62
     7
  6
CONTINUOUS
  0
LAYER
  2
3
 70
     0
 62
     2
  6
CONTINUOUS
  0
LAYER
  2
2
 70
     0
 62
     3
  6
CENTER
  0
LAYER
  2
1
 70
     0
 62
     4
  6
CONTINUOUS
  0
LAYER
  2
4
 70
     0
 62
     7
  6
CONTINUOUS
  0
LAYER
  2
DEFPOINTS
 70
     0
 62
     7
  6
CONTINUOUS
  0
ENDTAB
  0
TABLE
  2
STYLE
 70
     1
  0
STYLE
  2
STANDARD
 70
     0
 40
0.0
 41
1.0
 50
0.0
 71
     0
 42
180.0
  3
simplex.shx
  4
extfont.shx
  0
ENDTAB
  0
TABLE
  2
VIEW
 70
     0
  0
ENDTAB
  0
TABLE
  2
UCS
 70
     0
  0
ENDTAB
  0
TABLE
  2
APPID
 70
     1
  0
APPID
  2
ACAD
 70
     0
  0
ENDTAB
  0
TABLE
  2
DIMSTYLE
 70
     1
  0
DIMSTYLE
  2
IGA
 70
     0
  3

  4

  5

  6
OPEN
  7
OPEN
 40
2.0
 41
2.0
 42
0.5
 43
10.0
 44
1.0
 45
0.0
 46
0.0
 47
1.0
 48
1.0
140
3.0
141
0.0
142
0.0
143
0.03937
144
1.0
145
0.0
146
10.0
147
1.0
 71
     0
 72
     0
 73
     0
 74
     0
 75
     0
 76
     0
 77
     1
 78
     8
170
     0
171
     2
172
     0
173
     1
174
     0
175
     0
176
     0
177
     0
178
     0
  0
ENDTAB
  0
ENDSEC
  0
SECTION
  2
BLOCKS
  0
BLOCK
  8
0
  2
$MODEL_SPACE
 70
     0
 10
0.0
 20
0.0
 30
0.0
  3
$MODEL_SPACE
  1

  0
ENDBLK
  5
1B
  8
0
  0
BLOCK
 67
     1
  8
0
  2
$PAPER_SPACE
 70
     0
 10
0.0
 20
0.0
 30
0.0
  3
$PAPER_SPACE
  1

  0
ENDBLK
  5
18
 67
     1
  8
0
  0
BLOCK
  8
0
  2
_OPEN
 70
     0
 10
0.0
 20
0.0
 30
0.0
  3
_OPEN
  1

  0
LINE
  5
7BB4
  8
0
  6
BYBLOCK
 62
     0
 10
-1.0
 20
0.166667
 30
0.0
 11
0.0
 21
0.0
 31
0.0
  0
LINE
  5
7BB5
  8
0
  6
BYBLOCK
 62
     0
 10
0.0
 20
0.0
 30
0.0
 11
-1.0
 21
-0.166667
 31
0.0
  0
LINE
  5
7BB6
  8
0
  6
BYBLOCK
 62
     0
 10
0.0
 20
0.0
 30
0.0
 11
-1.0
 21
0.0
 31
0.0
  0
ENDBLK
  5
7BB7
  8
0
  0
BLOCK
  8
0
  2
*D1
 70
     1
 10
0.0
 20
0.0
 30
0.0
  3
*D1
  1

  0
LINE
  5
7DD8
  8
3
  6
CONTINUOUS
 62
     0
 10
1861.6016010000001
 20
2525.1479279999999
 30
0.0
 11
1861.6016010000001
 21
2698.6888100000001
 31
0.0
  0
LINE
  5
7DD9
  8
3
  6
CONTINUOUS
 62
     0
 10
1301.6016010000001
 20
2525.1479279999999
 30
0.0
 11
1301.6016010000001
 21
2698.6888100000001
 31
0.0
  0
LINE
  5
7DDA
  8
3
  6
CONTINUOUS
 62
     0
 10
1821.6016010000001
 20
2678.6888100000001
 30
0.0
 11
1341.6016010000001
 21
2678.6888100000001
 31
0.0
  0
INSERT
  5
7DDB
  8
3
  6
CONTINUOUS
 62
     0
  2
_OPEN
 10
1861.6016010000001
 20
2678.6888100000001
 30
0.0
 41
40.0
 42
40.0
 43
40.0
  0
INSERT
  5
7DDC
  8
3
  6
CONTINUOUS
 62
     0
  2
_OPEN
 10
1301.6016010000001
 20
2678.6888100000001
 30
0.0
 41
40.0
 42
40.0
 43
40.0
 50
180.0
  0
TEXT
  8
3
  40
60
  5
7E6E
  62
0
  72
0
  71
0
 10
1453.73
 20
2622.49
 30
0.000000
  1
560
  0
POINT
  5
7DDE
  8
DEFPOINTS
  6
CONTINUOUS
 62
     0
 10
1861.6016010000001
 20
2515.1479279999999
 30
0.0
  0
POINT
  5
7DDF
  8
DEFPOINTS
  6
CONTINUOUS
 62
     0
 10
1301.6016010000001
 20
2515.1479279999999
 30
0.0
  0
POINT
  5
7DE0
  8
DEFPOINTS
  6
CONTINUOUS
 62
     0
 10
1301.6016010000001
 20
2678.6888100000001
 30
0.0
  0
ENDBLK
  5
7D03
  8
0
  0
BLOCK
  8
0
  2
*D2
 70
     1
 10
0.0
 20
0.0
 30
0.0
  3
*D2
  1

  0
LINE
  5
7DE1
  8
3
  6
CONTINUOUS
 62
     0
 10
1861.6016010000001
 20
2525.1479279999999
 30
0.0
 11
1861.6016010000001
 21
2815.7989189999998
 31
0.0
  0
LINE
  5
7DE2
  8
3
  6
CONTINUOUS
 62
     0
 10
1322.6016010000001
 20
2722.8517969999998
 30
0.0
 11
1322.6016010000001
 21
2815.7989189999998
 31
0.0
  0
LINE
  5
7DE3
  8
3
  6
CONTINUOUS
 62
     0
 10
1821.6016010000001
 20
2795.7989189999998
 30
0.0
 11
1362.6016010000001
 21
2795.7989189999998
 31
0.0
  0
INSERT
  5
7DE4
  8
3
  6
CONTINUOUS
 62
     0
  2
_OPEN
 10
1861.6016010000001
 20
2795.7989189999998
 30
0.0
 41
40.0
 42
40.0
 43
40.0
  0
INSERT
  5
7DE5
  8
3
  6
CONTINUOUS
 62
     0
  2
_OPEN
 10
1322.6016010000001
 20
2795.7989189999998
 30
0.0
 41
40.0
 42
40.0
 43
40.0
 50
180.0
  0
TEXT
  8
3
  40
60
  5
7E6F
  62
0
  72
0
  71
0
 10
1453.73
 20
2739.60
 30
0.000000
  1
539
  0
POINT
  5
7DE7
  8
DEFPOINTS
  6
CONTINUOUS
 62
     0
 10
1861.6016010000001
 20
2515.1479279999999
 30
0.0
  0
POINT
  5
7DE8
  8
DEFPOINTS
  6
CONTINUOUS
 62
     0
 10
1322.6016010000001
 20
2712.8517969999989
 30
0.0
  0
POINT
  5
7DE9
  8
DEFPOINTS
  6
CONTINUOUS
 62
     0
 10
1322.6016010000001
 20
2795.7989189999998
 30
0.0
  0
ENDBLK
  5
7CF8
  8
0
  0
BLOCK
  8
0
  2
*D3
 70
     1
 10
0.0
 20
0.0
 30
0.0
  3
*D3
  1

  0
LINE
  5
7DEA
  8
3
  6
CONTINUOUS
 62
     0
 10
912.60160099999985
 20
2480.1479279999999
 30
0.0
 11
912.60160099999985
 21
2815.7989189999998
 31
0.0
  0
LINE
  5
7DEB
  8
3
  6
CONTINUOUS
 62
     0
 10
1282.6016010000001
 20
2795.7989189999998
 30
0.0
 11
952.60160099999985
 21
2795.7989189999998
 31
0.0
  0
INSERT
  5
7DEC
  8
3
  6
CONTINUOUS
 62
     0
  2
_OPEN
 10
1322.6016010000001
 20
2795.7989189999998
 30
0.0
 41
40.0
 42
40.0
 43
40.0
  0
INSERT
  5
7DED
  8
3
  6
CONTINUOUS
 62
     0
  2
_OPEN
 10
912.60160099999985
 20
2795.7989189999998
 30
0.0
 41
40.0
 42
40.0
 43
40.0
 50
180.0
  0
TEXT
  8
3
  40
60
  5
7E70
  62
0
  72
0
  71
0
 10
997.602
 20
2739.60
 30
0.000000
  1
410
  0
POINT
  5
7DEF
  8
DEFPOINTS
  6
CONTINUOUS
 62
     0
 10
1322.6016010000001
 20
2712.8517969999989
 30
0.0
  0
POINT
  5
7DF0
  8
DEFPOINTS
  6
CONTINUOUS
 62
     0
 10
912.60160099999985
 20
2470.1479279999999
 30
0.0
  0
POINT
  5
7DF1
  8
DEFPOINTS
  6
CONTINUOUS
 62
     0
 10
912.60160099999985
 20
2795.7989189999998
 30
0.0
  0
ENDBLK
  5
7CED
  8
0
  0
BLOCK
  8
0
  2
*D4
 70
     1
 10
0.0
 20
0.0
 30
0.0
  3
*D4
  1

  0
LINE
  5
7DF2
  8
3
  6
CONTINUOUS
 62
     0
 10
1264.6016010000001
 20
2515.1479279999999
 30
0.0
 11
762.47666300000049
 21
2515.1479280000008
 31
0.0
  0
LINE
  5
7DF3
  8
3
  6
CONTINUOUS
 62
     0
 10
799.34129900000005
 20
2110.1479279999999
 30
0.0
 11
762.47666300000026
 21
2110.1479279999999
 31
0.0
  0
LINE
  5
7DF4
  8
3
  6
CONTINUOUS
 62
     0
 10
782.47666300000049
 20
2475.1479280000008
 30
0.0
 11
782.47666300000026
 21
2150.1479279999999
 31
0.0
  0
INSERT
  5
7DF5
  8
3
  6
CONTINUOUS
 62
     0
  2
_OPEN
 10
782.47666300000049
 20
2515.1479280000008
 30
0.0
 41
40.0
 42
40.0
 43
40.0
 50
90.0
  0
INSERT
  5
7DF6
  8
3
  6
CONTINUOUS
 62
     0
  2
_OPEN
 10
782.47666300000026
 20
2110.1479279999999
 30
0.0
 41
40.0
 42
40.0
 43
40.0
 50
270.0
  0
TEXT
  8
3
  40
60
  5
7E71
  62
0
  72
0
  71
0
 10
612.477
 20
2195.66
 30
0.000000
  1
405
  0
POINT
  5
7DF8
  8
DEFPOINTS
  6
CONTINUOUS
 62
     0
 10
1274.6016010000001
 20
2515.1479279999999
 30
0.0
  0
POINT
  5
7DF9
  8
DEFPOINTS
  6
CONTINUOUS
 62
     0
 10
809.34129900000005
 20
2110.1479279999999
 30
0.0
  0
POINT
  5
7DFA
  8
DEFPOINTS
  6
CONTINUOUS
 62
     0
 10
782.47666300000026
 20
2110.1479279999999
 30
0.0
  0
ENDBLK
  5
7BEA
  8
0
  0
BLOCK
  8
0
  2
*D5
 70
     1
 10
0.0
 20
0.0
 30
0.0
  3
*D5
  1

  0
LINE
  5
7DFB
  8
3
  6
CONTINUOUS
 62
     0
 10
967.60160099999985
 20
1555.1479280000001
 30
0.0
 11
762.47666300000003
 21
1555.1479280000001
 31
0.0
  0
LINE
  5
7DFC
  8
3
  6
CONTINUOUS
 62
     0
 10
782.47666300000014
 20
2070.1479279999999
 30
0.0
 11
782.47666300000003
 21
1595.1479280000001
 31
0.0
  0
INSERT
  5
7DFD
  8
3
  6
CONTINUOUS
 62
     0
  2
_OPEN
 10
782.47666300000014
 20
2110.1479279999999
 30
0.0
 41
40.0
 42
40.0
 43
40.0
 50
90.0
  0
INSERT
  5
7DFE
  8
3
  6
CONTINUOUS
 62
     0
  2
_OPEN
 10
782.47666300000003
 20
1555.1479280000001
 30
0.0
 41
40.0
 42
40.0
 43
40.0
 50
270.0
  0
TEXT
  8
3
  40
60
  5
7E72
  62
0
  72
0
  71
0
 10
612.477
 20
1726.45
 30
0.000000
  1
555
  0
POINT
  5
7E00
  8
DEFPOINTS
  6
CONTINUOUS
 62
     0
 10
809.34129900000005
 20
2110.1479279999999
 30
0.0
  0
POINT
  5
7E01
  8
DEFPOINTS
  6
CONTINUOUS
 62
     0
 10
977.60160099999985
 20
1555.1479280000001
 30
0.0
  0
POINT
  5
7E02
  8
DEFPOINTS
  6
CONTINUOUS
 62
     0
 10
782.47666300000003
 20
1555.1479280000001
 30
0.0
  0
ENDBLK
  5
7BF6
  8
0
  0
BLOCK
  8
0
  2
*D6
 70
     1
 10
0.0
 20
0.0
 30
0.0
  3
*D6
  1

  0
LINE
  5
7E03
  8
3
  6
CONTINUOUS
 62
     0
 10
967.60160099999985
 20
1555.1479280000001
 30
0.0
 11
762.82993200000021
 21
1555.1479280000001
 31
0.0
  0
LINE
  5
7E04
  8
3
  6
CONTINUOUS
 62
     0
 10
967.60160099999985
 20
1515.1479280000001
 30
0.0
 11
762.82993200000021
 21
1515.1479280000001
 31
0.0
  0
LINE
  5
7E05
  8
3
  6
CONTINUOUS
 62
     0
 10
782.8299320000001
 20
1595.1479280000001
 30
0.0
 11
782.8299320000001
 21
1635.1479280000001
 31
0.0
  0
LINE
  5
7E06
  8
3
  6
CONTINUOUS
 62
     0
 10
782.8299320000001
 20
1475.147927999999
 30
0.0
 11
782.8299320000001
 21
1298.0050708571421
 31
0.0
  0
LINE
  5
7E07
  8
3
  6
CONTINUOUS
 62
     0
 10
782.8299320000001
 20
1555.1479280000001
 30
0.0
 11
782.8299320000001
 21
1515.1479280000001
 31
0.0
  0
INSERT
  5
7E08
  8
3
  6
CONTINUOUS
 62
     0
  2
_OPEN
 10
782.8299320000001
 20
1555.1479280000001
 30
0.0
 41
40.0
 42
40.0
 43
40.0
 50
270.0
  0
INSERT
  5
7E09
  8
3
  6
CONTINUOUS
 62
     0
  2
_OPEN
 10
782.8299320000001
 20
1515.1479280000001
 30
0.0
 41
40.0
 42
40.0
 43
40.0
 50
90.0
  0
TEXT
  8
3
  40
60
  5
7E73
  62
0
  72
0
  71
0
 10
612.830
 20
1260.38
 30
0.000000
  1
40
  0
POINT
  5
7E0B
  8
DEFPOINTS
  6
CONTINUOUS
 62
     0
 10
977.60160099999985
 20
1555.1479280000001
 30
0.0
  0
POINT
  5
7E0C
  8
DEFPOINTS
  6
CONTINUOUS
 62
     0
 10
977.60160099999985
 20
1515.1479280000001
 30
0.0
  0
POINT
  5
7E0D
  8
DEFPOINTS
  6
CONTINUOUS
 62
     0
 10
782.8299320000001
 20
1515.1479280000001
 30
0.0
  0
ENDBLK
  5
7D74
  8
0
  0
BLOCK
  8
0
  2
*D7
 70
     1
 10
0.0
 20
0.0
 30
0.0
  3
*D7
  1

  0
LINE
  5
7E0E
  8
3
  6
CONTINUOUS
 62
     0
 10
1254.6016010000001
 20
2515.1479279999999
 30
0.0
 11
636.84722400000044
 21
2515.1479280000008
 31
0.0
  0
LINE
  5
7E0F
  8
3
  6
CONTINUOUS
 62
     0
 10
967.60160099999985
 20
1515.1479280000001
 30
0.0
 11
636.84722400000021
 21
1515.1479280000001
 31
0.0
  0
LINE
  5
7E10
  8
3
  6
CONTINUOUS
 62
     0
 10
656.84722400000044
 20
2475.1479280000008
 30
0.0
 11
656.8472240000001
 21
1555.1479280000001
 31
0.0
  0
INSERT
  5
7E11
  8
3
  6
CONTINUOUS
 62
     0
  2
_OPEN
 10
656.84722400000044
 20
2515.1479280000008
 30
0.0
 41
40.0
 42
40.0
 43
40.0
 50
90.0
  0
INSERT
  5
7E12
  8
3
  6
CONTINUOUS
 62
     0
  2
_OPEN
 10
656.8472240000001
 20
1515.1479280000001
 30
0.0
 41
40.0
 42
40.0
 43
40.0
 50
270.0
  0
TEXT
  8
3
  40
60
  5
7E74
  62
0
  72
0
  71
0
 10
486.847
 20
1957.26
 30
0.000000
  1
1000
  0
POINT
  5
7E14
  8
DEFPOINTS
  6
CONTINUOUS
 62
     0
 10
1264.6016010000001
 20
2515.1479279999999
 30
0.0
  0
POINT
  5
7E15
  8
DEFPOINTS
  6
CONTINUOUS
 62
     0
 10
977.60160099999985
 20
1515.1479280000001
 30
0.0
  0
POINT
  5
7E16
  8
DEFPOINTS
  6
CONTINUOUS
 62
     0
 10
656.8472240000001
 20
1515.1479280000001
 30
0.0
  0
ENDBLK
  5
7CC9
  8
0
  0
BLOCK
  8
0
  2
*D8
 70
     1
 10
0.0
 20
0.0
 30
0.0
  3
*D8
  1

  0
LINE
  5
7E17
  8
3
  6
CONTINUOUS
 62
     0
 10
977.60160099999985
 20
1505.147927999999
 30
0.0
 11
977.60160099999985
 21
1317.7791970000001
 31
0.0
  0
LINE
  5
7E18
  8
3
  6
CONTINUOUS
 62
     0
 10
1322.6016010000001
 20
1438.195516
 30
0.0
 11
1322.6016010000001
 21
1317.7791970000001
 31
0.0
  0
LINE
  5
7E19
  8
3
  6
CONTINUOUS
 62
     0
 10
1017.6016009999991
 20
1337.7791970000001
 30
0.0
 11
1282.6016010000001
 21
1337.7791970000001
 31
0.0
  0
INSERT
  5
7E1A
  8
3
  6
CONTINUOUS
 62
     0
  2
_OPEN
 10
977.60160099999985
 20
1337.7791970000001
 30
0.0
 41
40.0
 42
40.0
 43
40.0
 50
180.0
  0
INSERT
  5
7E1B
  8
3
  6
CONTINUOUS
 62
     0
  2
_OPEN
 10
1322.6016010000001
 20
1337.7791970000001
 30
0.0
 41
40.0
 42
40.0
 43
40.0
  0
TEXT
  8
3
  40
60
  5
7E75
  62
0
  72
0
  71
0
 10
1022.10
 20
1281.58
 30
0.000000
  1
345
  0
POINT
  5
7E1D
  8
DEFPOINTS
  6
CONTINUOUS
 62
     0
 10
977.60160099999985
 20
1515.1479280000001
 30
0.0
  0
POINT
  5
7E1E
  8
DEFPOINTS
  6
CONTINUOUS
 62
     0
 10
1322.6016010000001
 20
1448.195516
 30
0.0
  0
POINT
  5
7E1F
  8
DEFPOINTS
  6
CONTINUOUS
 62
     0
 10
1322.6016010000001
 20
1337.7791970000001
 30
0.0
  0
ENDBLK
  5
7CBE
  8
0
  0
BLOCK
  8
0
  2
*D9
 70
     1
 10
0.0
 20
0.0
 30
0.0
  3
*D9
  1

  0
LINE
  5
7E20
  8
3
  6
CONTINUOUS
 62
     0
 10
2227.6016009999998
 20
1505.147927999999
 30
0.0
 11
2227.6016009999998
 21
1317.7791970000001
 31
0.0
  0
LINE
  5
7E21
  8
3
  6
CONTINUOUS
 62
     0
 10
1362.6016010000001
 20
1337.7791970000001
 30
0.0
 11
2187.6016009999998
 21
1337.7791970000001
 31
0.0
  0
INSERT
  5
7E22
  8
3
  6
CONTINUOUS
 62
     0
  2
_OPEN
 10
1322.6016010000001
 20
1337.7791970000001
 30
0.0
 41
40.0
 42
40.0
 43
40.0
 50
180.0
  0
INSERT
  5
7E23
  8
3
  6
CONTINUOUS
 62
     0
  2
_OPEN
 10
2227.6016009999998
 20
1337.7791970000001
 30
0.0
 41
40.0
 42
40.0
 43
40.0
  0
TEXT
  8
3
  40
60
  5
7E76
  62
0
  72
0
  71
0
 10
1655.10
 20
1281.58
 30
0.000000
  1
905
  0
POINT
  5
7E25
  8
DEFPOINTS
  6
CONTINUOUS
 62
     0
 10
1322.6016010000001
 20
1448.195516
 30
0.0
  0
POINT
  5
7E26
  8
DEFPOINTS
  6
CONTINUOUS
 62
     0
 10
2227.6016009999998
 20
1515.1479280000001
 30
0.0
  0
POINT
  5
7E27
  8
DEFPOINTS
  6
CONTINUOUS
 62
     0
 10
2227.6016009999998
 20
1337.7791970000001
 30
0.0
  0
ENDBLK
  5
7CB3
  8
0
  0
BLOCK
  8
0
  2
*D10
 70
     1
 10
0.0
 20
0.0
 30
0.0
  3
*D10
  1

  0
LINE
  5
7E28
  8
3
  6
CONTINUOUS
 62
     0
 10
3466.627853
 20
2525.1479279999999
 30
0.0
 11
3466.627853
 21
2641.0570339999999
 31
0.0
  0
LINE
  5
7E29
  8
3
  6
CONTINUOUS
 62
     0
 10
3046.627853
 20
2525.1479279999999
 30
0.0
 11
3046.627853
 21
2641.0570339999999
 31
0.0
  0
LINE
  5
7E2A
  8
3
  6
CONTINUOUS
 62
     0
 10
3426.627853
 20
2621.0570339999999
 30
0.0
 11
3086.627852999999
 21
2621.0570339999999
 31
0.0
  0
INSERT
  5
7E2B
  8
3
  6
CONTINUOUS
 62
     0
  2
_OPEN
 10
3466.627853
 20
2621.0570339999999
 30
0.0
 41
40.0
 42
40.0
 43
40.0
  0
INSERT
  5
7E2C
  8
3
  6
CONTINUOUS
 62
     0
  2
_OPEN
 10
3046.627853
 20
2621.0570339999999
 30
0.0
 41
40.0
 42
40.0
 43
40.0
 50
180.0
  0
TEXT
  8
3
  40
60
  5
7E77
  62
0
  72
0
  71
0
 10
3151.32
 20
2564.86
 30
0.000000
  1
420
  0
POINT
  5
7E2E
  8
DEFPOINTS
  6
CONTINUOUS
 62
     0
 10
3466.627853
 20
2515.1479279999999
 30
0.0
  0
POINT
  5
7E2F
  8
DEFPOINTS
  6
CONTINUOUS
 62
     0
 10
3046.627853
 20
2515.1479279999999
 30
0.0
  0
POINT
  5
7E30
  8
DEFPOINTS
  6
CONTINUOUS
 62
     0
 10
3046.627853
 20
2621.0570339999999
 30
0.0
  0
ENDBLK
  5
7D3B
  8
0
  0
BLOCK
  8
0
  2
*D11
 70
     1
 10
0.0
 20
0.0
 30
0.0
  3
*D11
  1

  0
LINE
  5
7E31
  8
3
  6
CONTINUOUS
 62
     0
 10
3478.627852999999
 20
2405.1479279999999
 30
0.0
 11
3668.5732010000002
 21
2405.1479279999999
 31
0.0
  0
LINE
  5
7E32
  8
3
  6
CONTINUOUS
 62
     0
 10
3478.627852999999
 20
1815.1479280000001
 30
0.0
 11
3668.5732010000002
 21
1815.1479280000001
 31
0.0
  0
LINE
  5
7E33
  8
3
  6
CONTINUOUS
 62
     0
 10
3648.5732010000002
 20
2365.1479279999999
 30
0.0
 11
3648.5732010000002
 21
1855.1479280000001
 31
0.0
  0
INSERT
  5
7E34
  8
3
  6
CONTINUOUS
 62
     0
  2
_OPEN
 10
3648.5732010000002
 20
2405.1479279999999
 30
0.0
 41
40.0
 42
40.0
 43
40.0
 50
90.0
  0
INSERT
  5
7E35
  8
3
  6
CONTINUOUS
 62
     0
  2
_OPEN
 10
3648.5732010000002
 20
1815.1479280000001
 30
0.0
 41
40.0
 42
40.0
 43
40.0
 50
270.0
  0
TEXT
  8
3
  40
60
  5
7E78
  62
0
  72
0
  71
0
 10
3478.57
 20
1999.08
 30
0.000000
  1
φ590
  0
POINT
  5
7E37
  8
DEFPOINTS
  6
CONTINUOUS
 62
     0
 10
3468.627853
 20
2405.1479279999999
 30
0.0
  0
POINT
  5
7E38
  8
DEFPOINTS
  6
CONTINUOUS
 62
     0
 10
3468.627853
 20
1815.1479280000001
 30
0.0
  0
POINT
  5
7E39
  8
DEFPOINTS
  6
CONTINUOUS
 62
     0
 10
3648.5732010000002
 20
1815.1479280000001
 30
0.0
  0
ENDBLK
  5
7D51
  8
0
  0
BLOCK
  8
0
  2
*D12
 70
     1
 10
0.0
 20
0.0
 30
0.0
  3
*D12
  1

  0
LINE
  5
7D5E
  8
0
  6
BYBLOCK
 62
     0
 10
3468.627853
 20
2440.1479279999999
 30
0.0
 11
3468.627853
 21
2776.3682800000001
 31
0.0
  0
LINE
  5
7D5F
  8
0
  6
BYBLOCK
 62
     0
 10
3256.627852999999
 20
2723.042504
 30
0.0
 11
3256.627852999999
 21
2776.3682800000001
 31
0.0
  0
LINE
  5
7D60
  8
0
  6
BYBLOCK
 62
     0
 10
3428.627853
 20
2756.3682800000001
 30
0.0
 11
3296.627852999999
 21
2756.3682800000001
 31
0.0
  0
TEXT
  5
7D61
  8
3
 62
     0
 10
3291.1992815714279
 20
2782.204352229362
 30
0.0
 40
60.0
  1
212
  0
INSERT
  5
7D62
  8
0
  6
BYBLOCK
 62
     0
  2
_OPEN
 10
3468.627853
 20
2756.3682800000001
 30
0.0
 41
40.0
 42
40.0
 43
40.0
  0
INSERT
  5
7D63
  8
0
  6
BYBLOCK
 62
     0
  2
_OPEN
 10
3256.627852999999
 20
2756.3682800000001
 30
0.0
 41
40.0
 42
40.0
 43
40.0
 50
180.0
  0
POINT
  5
7D64
  8
DEFPOINTS
  6
BYBLOCK
 62
     0
 10
3468.627853
 20
2430.1479279999999
 30
0.0
  0
POINT
  5
7D65
  8
DEFPOINTS
  6
BYBLOCK
 62
     0
 10
3256.627852999999
 20
2713.042504
 30
0.0
  0
POINT
  5
7D66
  8
DEFPOINTS
  6
BYBLOCK
 62
     0
 10
3256.627852999999
 20
2756.3682800000001
 30
0.0
  0
ENDBLK
  5
7D67
  8
0
  0
BLOCK
  8
0
  2
*D13
 70
     1
 10
0.0
 20
0.0
 30
0.0
  3
*D13
  1

  0
LINE
  5
7E3A
  8
3
  6
CONTINUOUS
 62
     0
 10
2846.627853
 20
2480.1479279999999
 30
0.0
 11
2846.627853
 21
2776.3682800000001
 31
0.0
  0
LINE
  5
7E3B
  8
3
  6
CONTINUOUS
 62
     0
 10
3216.627853
 20
2756.3682800000001
 30
0.0
 11
2886.627853
 21
2756.3682800000001
 31
0.0
  0
INSERT
  5
7E3C
  8
3
  6
CONTINUOUS
 62
     0
  2
_OPEN
 10
3256.627852999999
 20
2756.3682800000001
 30
0.0
 41
40.0
 42
40.0
 43
40.0
  0
INSERT
  5
7E3D
  8
3
  6
CONTINUOUS
 62
     0
  2
_OPEN
 10
2846.627853
 20
2756.3682800000001
 30
0.0
 41
40.0
 42
40.0
 43
40.0
 50
180.0
  0
TEXT
  8
3
  40
60
  5
7E79
  62
0
  72
0
  71
0
 10
2931.63
 20
2750.17
 30
0.000000
  1
MAX
  0
TEXT
  8
3
  40
60
  5
7E7A
  62
0
  72
0
  71
0
 10
2931.63
 20
2672.17
 30
0.000000
  1
470
  0
POINT
  5
7E3F
  8
DEFPOINTS
  6
CONTINUOUS
 62
     0
 10
3256.627852999999
 20
2713.042504
 30
0.0
  0
POINT
  5
7E40
  8
DEFPOINTS
  6
CONTINUOUS
 62
     0
 10
2846.627853
 20
2470.1479279999999
 30
0.0
  0
POINT
  5
7E41
  8
DEFPOINTS
  6
CONTINUOUS
 62
     0
 10
2846.627853
 20
2756.3682800000001
 30
0.0
  0
ENDBLK
  5
7D93
  8
0
  0
BLOCK
  8
0
  2
*D14
 70
     1
 10
0.0
 20
0.0
 30
0.0
  3
*D14
  1

  0
LINE
  5
7E42
  8
3
  6
CONTINUOUS
 62
     0
 10
2811.627853
 20
1505.147927999999
 30
0.0
 11
2811.627853
 21
1322.733373712249
 31
0.0
  0
LINE
  5
7E43
  8
3
  6
CONTINUOUS
 62
     0
 10
3256.627852999999
 20
1451.47150729656
 30
0.0
 11
3256.627852999999
 21
1322.733373712249
 31
0.0
  0
LINE
  5
7E44
  8
3
  6
CONTINUOUS
 62
     0
 10
2851.627853
 20
1342.733373712249
 30
0.0
 11
3216.627853
 21
1342.733373712249
 31
0.0
  0
INSERT
  5
7E45
  8
3
  6
CONTINUOUS
 62
     0
  2
_OPEN
 10
2811.627853
 20
1342.733373712249
 30
0.0
 41
40.0
 42
40.0
 43
40.0
 50
180.0
  0
INSERT
  5
7E46
  8
3
  6
CONTINUOUS
 62
     0
  2
_OPEN
 10
3256.627852999999
 20
1342.733373712249
 30
0.0
 41
40.0
 42
40.0
 43
40.0
  0
TEXT
  8
3
  40
60
  5
7E7B
  62
0
  72
0
  71
0
 10
2917.34
 20
1286.53
 30
0.000000
  1
445
  0
POINT
  5
7E48
  8
DEFPOINTS
  6
CONTINUOUS
 62
     0
 10
2811.627853
 20
1515.1479280000001
 30
0.0
  0
POINT
  5
7E49
  8
DEFPOINTS
  6
CONTINUOUS
 62
     0
 10
3256.627852999999
 20
1461.47150729656
 30
0.0
  0
POINT
  5
7E4A
  8
DEFPOINTS
  6
CONTINUOUS
 62
     0
 10
3256.627852999999
 20
1342.733373712249
 30
0.0
  0
ENDBLK
  5
7DAB
  8
0
  0
BLOCK
  8
0
  2
*D15
 70
     1
 10
0.0
 20
0.0
 30
0.0
  3
*D15
  1

  0
LINE
  5
7E4B
  8
3
  6
CONTINUOUS
 62
     0
 10
3591.627853
 20
1505.147927999999
 30
0.0
 11
3591.627853
 21
1322.733373712249
 31
0.0
  0
LINE
  5
7E4C
  8
3
  6
CONTINUOUS
 62
     0
 10
3296.627852999999
 20
1342.733373712249
 30
0.0
 11
3551.627853
 21
1342.733373712249
 31
0.0
  0
INSERT
  5
7E4D
  8
3
  6
CONTINUOUS
 62
     0
  2
_OPEN
 10
3256.627852999999
 20
1342.733373712249
 30
0.0
 41
40.0
 42
40.0
 43
40.0
 50
180.0
  0
INSERT
  5
7E4E
  8
3
  6
CONTINUOUS
 62
     0
  2
_OPEN
 10
3591.627853
 20
1342.733373712249
 30
0.0
 41
40.0
 42
40.0
 43
40.0
  0
TEXT
  8
3
  40
60
  5
7E7C
  62
0
  72
0
  71
0
 10
3304.13
 20
1286.53
 30
0.000000
  1
335
  0
POINT
  5
7E50
  8
DEFPOINTS
  6
CONTINUOUS
 62
     0
 10
3256.627852999999
 20
1461.47150729656
 30
0.0
  0
POINT
  5
7E51
  8
DEFPOINTS
  6
CONTINUOUS
 62
     0
 10
3591.627853
 20
1515.1479280000001
 30
0.0
  0
POINT
  5
7E52
  8
DEFPOINTS
  6
CONTINUOUS
 62
     0
 10
3591.627853
 20
1342.733373712249
 30
0.0
  0
ENDBLK
  5
7DB5
  8
0
  0
BLOCK
  8
0
  2
*D16
 70
     1
 10
0.0
 20
0.0
 30
0.0
  3
*D16
  1

  0
LINE
  5
7E53
  8
3
  6
CONTINUOUS
 62
     0
 10
977.60160099999985
 20
4055.1479279999999
 30
0.0
 11
977.60160099999985
 21
4193.0743350000002
 31
0.0
  0
LINE
  5
7E54
  8
3
  6
CONTINUOUS
 62
     0
 10
2227.6016009999998
 20
4055.1479279999999
 30
0.0
 11
2227.6016009999998
 21
4193.0743350000002
 31
0.0
  0
LINE
  5
7E55
  8
3
  6
CONTINUOUS
 62
     0
 10
1017.6016009999991
 20
4173.0743350000002
 30
0.0
 11
2187.6016009999998
 21
4173.0743350000002
 31
0.0
  0
INSERT
  5
7E56
  8
3
  6
CONTINUOUS
 62
     0
  2
_OPEN
 10
977.60160099999985
 20
4173.0743350000002
 30
0.0
 41
40.0
 42
40.0
 43
40.0
 50
180.0
  0
INSERT
  5
7E57
  8
3
  6
CONTINUOUS
 62
     0
  2
_OPEN
 10
2227.6016009999998
 20
4173.0743350000002
 30
0.0
 41
40.0
 42
40.0
 43
40.0
  0
TEXT
  8
3
  40
60
  5
7E7D
  62
0
  72
0
  71
0
 10
1466.70
 20
4116.87
 30
0.000000
  1
1250
  0
POINT
  5
7E59
  8
DEFPOINTS
  6
CONTINUOUS
 62
     0
 10
977.60160099999985
 20
4045.1479279999999
 30
0.0
  0
POINT
  5
7E5A
  8
DEFPOINTS
  6
CONTINUOUS
 62
     0
 10
2227.6016009999998
 20
4045.1479279999999
 30
0.0
  0
POINT
  5
7E5B
  8
DEFPOINTS
  6
CONTINUOUS
 62
     0
 10
2227.6016009999998
 20
4173.0743350000002
 30
0.0
  0
ENDBLK
  5
7D0E
  8
0
  0
BLOCK
  8
0
  2
*D17
 70
     1
 10
0.0
 20
0.0
 30
0.0
  3
*D17
  1

  0
LINE
  5
7E5C
  8
3
  6
CONTINUOUS
 62
     0
 10
2237.6016009999998
 20
4045.1479279999999
 30
0.0
 11
2448.1966579999998
 21
4045.1479279999999
 31
0.0
  0
LINE
  5
7E5D
  8
3
  6
CONTINUOUS
 62
     0
 10
2237.6016009999998
 20
3265.1479279999999
 30
0.0
 11
2448.1966579999998
 21
3265.1479279999999
 31
0.0
  0
LINE
  5
7E5E
  8
3
  6
CONTINUOUS
 62
     0
 10
2428.1966579999998
 20
4005.1479279999999
 30
0.0
 11
2428.1966579999998
 21
3305.1479279999999
 31
0.0
  0
INSERT
  5
7E5F
  8
3
  6
CONTINUOUS
 62
     0
  2
_OPEN
 10
2428.1966579999998
 20
4045.1479279999999
 30
0.0
 41
40.0
 42
40.0
 43
40.0
 50
90.0
  0
INSERT
  5
7E60
  8
3
  6
CONTINUOUS
 62
     0
  2
_OPEN
 10
2428.1966579999998
 20
3265.1479279999999
 30
0.0
 41
40.0
 42
40.0
 43
40.0
 50
270.0
  0
TEXT
  8
3
  40
60
  5
7E7E
  62
0
  72
0
  71
0
 10
2258.20
 20
3569.99
 30
0.000000
  1
780
  0
POINT
  5
7E62
  8
DEFPOINTS
  6
CONTINUOUS
 62
     0
 10
2227.6016009999998
 20
4045.1479279999999
 30
0.0
  0
POINT
  5
7E63
  8
DEFPOINTS
  6
CONTINUOUS
 62
     0
 10
2227.6016009999998
 20
3265.1479279999999
 30
0.0
  0
POINT
  5
7E64
  8
DEFPOINTS
  6
CONTINUOUS
 62
     0
 10
2428.1966579999998
 20
3265.1479279999999
 30
0.0
  0
ENDBLK
  5
7CA3
  8
0
  0
BLOCK
  8
0
  2
*D18
 70
     1
 10
0.0
 20
0.0
 30
0.0
  3
*D18
  1

  0
LINE
  5
7E65
  8
3
 62
     0
 10
912.60160099999985
 20
2480.1479279999999
 30
0.0
 11
912.60160099999985
 21
2931.7349121339239
 31
0.0
  0
LINE
  5
7E66
  8
3
 62
     0
 10
2227.6016009999998
 20
1645.147927999999
 30
0.0
 11
2227.6016009999998
 21
2931.7349121339239
 31
0.0
  0
LINE
  5
7E67
  8
3
 62
     0
 10
952.60160099999985
 20
2911.7349121339239
 30
0.0
 11
2187.6016009999998
 21
2911.7349121339239
 31
0.0
  0
INSERT
  5
7E68
  8
3
 62
     0
  2
_OPEN
 10
912.60160099999985
 20
2911.7349121339239
 30
0.0
 41
40.0
 42
40.0
 43
40.0
 50
180.0
  0
INSERT
  5
7E69
  8
3
 62
     0
  2
_OPEN
 10
2227.6016009999998
 20
2911.7349121339239
 30
0.0
 41
40.0
 42
40.0
 43
40.0
  0
TEXT
  8
3
  40
60
  5
7E7F
  62
0
  72
0
  71
0
 10
1488.66
 20
2855.53
 30
0.000000
  1
1315
  0
POINT
  5
7E6B
  8
DEFPOINTS
 62
     0
 10
912.60160099999985
 20
2470.1479279999999
 30
0.0
  0
POINT
  5
7E6C
  8
DEFPOINTS
 62
     0
 10
2227.6016009999998
 20
1635.1479280000001
 30
0.0
  0
POINT
  5
7E6D
  8
DEFPOINTS
 62
     0
 10
2227.6016009999998
 20
2911.7349121339239
 30
0.0
  0
ENDBLK
  5
7D9F
  8
0
  0
ENDSEC
  0
SECTION
  2
ENTITIES
  0
LINE
  5
7ACA
  8
1
  6
CONTINUOUS
 10
1998.1476419999999
 20
1751.558264999999
 30
0.0
 11
1287.6673740000001
 21
2016.4484090000001
 31
0.0
  0
LINE
  5
7ACB
  8
1
  6
CONTINUOUS
 10
2052.1610649999989
 20
1880.6005719999989
 30
0.0
 11
1364.8294069999999
 21
2200.7945629999999
 31
0.0
  0
LINE
  5
7ACC
  8
1
  6
CONTINUOUS
 10
1338.6016010000001
 20
3455.1479279999999
 30
0.0
 11
2003.6016010000001
 21
3455.1479279999999
 31
0.0
  0
LINE
  5
7ACD
  8
1
  6
CONTINUOUS
 10
2164.6016009999998
 20
3473.885761
 30
0.0
 11
1880.6016010000001
 21
3473.885761
 31
0.0
  0
LINE
  5
7ACE
  8
1
  6
CONTINUOUS
 10
2164.6016009999998
 20
3873.885761
 30
0.0
 11
1880.6016010000001
 21
3873.885761
 31
0.0
  0
LINE
  5
7ACF
  8
1
  6
CONTINUOUS
 10
977.60160099999985
 20
3965.1479279999999
 30
0.0
 11
2227.6016009999998
 21
3965.1479279999999
 31
0.0
  0
LINE
  5
7AD0
  8
1
  6
CONTINUOUS
 10
1052.1016010000001
 20
3300.1479279999999
 30
0.0
 11
2182.1016009999998
 21
3300.1479279999999
 31
0.0
  0
LINE
  5
7AD1
  8
1
  6
CONTINUOUS
 10
1052.1016010000001
 20
3420.1479279999999
 30
0.0
 11
2182.1016009999998
 21
3420.1479279999999
 31
0.0
  0
LINE
  5
7AD2
  8
1
  6
CONTINUOUS
 10
962.60160099999985
 20
1635.1479280000001
 30
0.0
 11
2227.6016009999998
 21
1635.1479280000001
 31
0.0
  0
ARC
  5
7AD3
  8
1
  6
CONTINUOUS
 10
2022.6016010000001
 20
1817.147927999999
 30
0.0
 40
142.0
 50
324.59875699999998
 51
215.40124299999999
  0
LINE
  5
7AD4
  8
1
  6
CONTINUOUS
 10
1322.1016010000001
 20
2470.1479279999999
 30
0.0
 11
2182.1016009999998
 21
1865.1479280000001
 31
0.0
  0
LINE
  5
7AD5
  8
1
  6
CONTINUOUS
 10
977.60160099999985
 20
1555.1479280000001
 30
0.0
 11
2227.6016009999998
 21
1555.1479280000001
 31
0.0
  0
ARC
  5
7AD6
  8
1
  6
CONTINUOUS
 10
1359.6016010000001
 20
2147.1479279999999
 30
0.0
 40
501.36713099999992
 50
264.95754899999997
 51
355.7678259999999
  0
LINE
  5
7AD7
  8
1
  6
CONTINUOUS
 10
1274.6016010000001
 20
2515.1479279999999
 30
0.0
 11
1888.6016010000001
 21
2515.1479279999999
 31
0.0
  0
LINE
  5
7AD8
  8
1
  6
CONTINUOUS
 10
1052.1016010000001
 20
2385.1479279999999
 30
0.0
 11
1322.1016010000001
 21
2470.1479279999999
 31
0.0
  0
CIRCLE
  5
7AD9
  8
1
  6
CONTINUOUS
 10
1322.6016010000001
 20
2110.1479279999999
 30
0.0
 40
295.0
  0
LINE
  5
7ADA
  8
2
  6
CENTER
 10
809.34129900000005
 20
2110.1479279999999
 30
0.0
 11
1969.751326649882
 21
2110.1479279999999
 31
0.0
  0
CIRCLE
  5
7ADB
  8
1
  6
CONTINUOUS
 10
1322.6016010000001
 20
2110.1479279999999
 30
0.0
 40
100.0
  0
CIRCLE
  5
7ADC
  8
1
  6
CONTINUOUS
 10
1322.6016010000001
 20
2110.1479279999999
 30
0.0
 40
320.0
  0
LINE
  5
7ADD
  8
1
  6
CONTINUOUS
 10
1732.6016010000001
 20
1635.1479280000001
 30
0.0
 11
912.60160099999985
 21
1635.1479280000001
 31
0.0
  0
LINE
  5
7ADE
  8
1
  6
CONTINUOUS
 10
1732.6016010000001
 20
2470.1479279999999
 30
0.0
 11
912.60160099999985
 21
2470.1479279999999
 31
0.0
  0
ARC
  5
7ADF
  8
1
  6
CONTINUOUS
 10
1298.6016010000001
 20
2086.1479279999999
 30
0.0
 40
377.65927299999993
 50
89.544856999999993
 51
172.74680499999991
  0
ARC
  5
7AE0
  8
1
  6
CONTINUOUS
 10
1353.6016010000001
 20
2079.1479279999999
 30
0.0
 40
433.10293799999999
 50
172.74680499999991
 51
264.95754899999997
  0
LINE
  5
7AE1
  8
1
  6
CONTINUOUS
 10
1052.1016010000001
 20
1635.1479280000001
 30
0.0
 11
1052.1016010000001
 21
2385.1479279999999
 31
0.0
  0
LINE
  5
7AE2
  8
1
  6
CONTINUOUS
 10
912.60160099999985
 20
2470.1479279999999
 30
0.0
 11
912.60160099999985
 21
1635.1479280000001
 31
0.0
  0
LINE
  5
7AE3
  8
1
  6
CONTINUOUS
 10
977.60160099999985
 20
1635.1479280000001
 30
0.0
 11
977.60160099999985
 21
1515.1479280000001
 31
0.0
  0
LINE
  5
7AE4
  8
1
  6
CONTINUOUS
 10
1017.6016009999991
 20
1555.1479280000001
 30
0.0
 11
1017.6016009999991
 21
1515.1479280000001
 31
0.0
  0
LINE
  5
7AE5
  8
1
  6
CONTINUOUS
 10
977.60160099999985
 20
1515.1479280000001
 30
0.0
 11
1017.6016009999991
 21
1515.1479280000001
 31
0.0
  0
LINE
  5
7AE6
  8
1
  6
CONTINUOUS
 10
1732.6016010000001
 20
2470.1479279999999
 30
0.0
 11
1732.6016010000001
 21
1635.1479280000001
 31
0.0
  0
LINE
  5
7AE7
  8
1
  6
CONTINUOUS
 10
1301.6016010000001
 20
2490.1479279999999
 30
0.0
 11
1861.4781439999999
 21
2490.1479279999999
 31
0.0
  0
LINE
  5
7AE8
  8
2
  6
CENTER
 10
1322.6016010000001
 20
4037.88069051412
 30
0.0
 11
1322.6016010000001
 21
3224.1160166044901
 31
0.0
  0
LINE
  5
7AE9
  8
1
  6
CONTINUOUS
 10
1301.6016010000001
 20
2463.7952850000001
 30
0.0
 11
1301.6016010000001
 21
2515.1479279999999
 31
0.0
  0
LINE
  5
7AEA
  8
1
  6
CONTINUOUS
 10
1861.6016010000001
 20
2515.1479279999999
 30
0.0
 11
1859.6016009999989
 21
2110.1479279999999
 31
0.0
  0
LINE
  5
7AEB
  8
1
  6
CONTINUOUS
 10
1002.601601
 20
3922.1479279999999
 30
0.0
 11
1642.6016010000001
 21
3922.1479279999999
 31
0.0
  0
LINE
  5
7AEC
  8
1
  6
CONTINUOUS
 10
1422.6016010000001
 20
3330.1479279999999
 30
0.0
 11
1222.6016010000001
 21
3330.1479279999999
 31
0.0
  0
LINE
  5
7AED
  8
1
  6
CONTINUOUS
 10
1422.6016010000001
 20
3390.1479279999999
 30
0.0
 11
1222.6016010000001
 21
3390.1479279999999
 31
0.0
  0
LINE
  5
7AEE
  8
1
  6
CONTINUOUS
 10
977.60160099999985
 20
3455.1479279999999
 30
0.0
 11
1306.6016010000001
 21
3455.1479279999999
 31
0.0
  0
LINE
  5
7AEF
  8
1
  6
CONTINUOUS
 10
912.60160099999985
 20
3920.1479279999999
 30
0.0
 11
1861.6016010000001
 21
3920.1479279999999
 31
0.0
  0
LINE
  5
7AF0
  8
1
  6
CONTINUOUS
 10
912.60160099999985
 20
3500.1479279999999
 30
0.0
 11
1861.6016010000001
 21
3500.1479279999999
 31
0.0
  0
LINE
  5
7AF1
  8
1
  6
CONTINUOUS
 10
912.60160099999985
 20
3500.1479279999999
 30
0.0
 11
912.60160099999985
 21
3920.1479279999999
 31
0.0
  0
LINE
  5
7AF2
  8
1
  6
CONTINUOUS
 10
977.60160099999985
 20
3500.1479279999999
 30
0.0
 11
977.60160099999985
 21
3265.1479279999999
 31
0.0
  0
LINE
  5
7AF3
  8
1
  6
CONTINUOUS
 10
1052.1016010000001
 20
3300.1479279999999
 30
0.0
 11
1052.1016010000001
 21
3420.1479279999999
 31
0.0
  0
LINE
  5
7AF4
  8
1
  6
CONTINUOUS
 10
1222.6016010000001
 20
3330.1479279999999
 30
0.0
 11
1222.6016010000001
 21
3390.1479279999999
 31
0.0
  0
LINE
  5
7AF5
  8
1
  6
CONTINUOUS
 10
1017.6016009999991
 20
3455.1479279999999
 30
0.0
 11
1017.6016009999991
 21
3265.1479279999999
 31
0.0
  0
LINE
  5
7AF6
  8
1
  6
CONTINUOUS
 10
1017.6016009999991
 20
3265.1479279999999
 30
0.0
 11
977.60160099999985
 21
3265.1479279999999
 31
0.0
  0
LINE
  5
7AF7
  8
1
  6
CONTINUOUS
 10
1002.601601
 20
3920.1479279999999
 30
0.0
 11
1002.601601
 21
3922.1479279999999
 31
0.0
  0
LINE
  5
7AF8
  8
1
  6
CONTINUOUS
 10
977.60160099999985
 20
4045.1479279999999
 30
0.0
 11
977.60160099999985
 21
3920.1479279999999
 31
0.0
  0
LINE
  5
7AF9
  8
1
  6
CONTINUOUS
 10
1017.6016009999991
 20
4045.1479279999999
 30
0.0
 11
977.60160099999985
 21
4045.1479279999999
 31
0.0
  0
LINE
  5
7AFA
  8
1
  6
CONTINUOUS
 10
1017.6016009999991
 20
4045.1479279999999
 30
0.0
 11
1017.6016009999991
 21
3965.1479279999999
 31
0.0
  0
LINE
  5
7AFB
  8
1
  6
CONTINUOUS
 10
1880.6016010000001
 20
3873.885761
 30
0.0
 11
1880.6016010000001
 21
3473.885761
 31
0.0
  0
LINE
  5
7AFC
  8
1
  6
CONTINUOUS
 10
1861.6016010000001
 20
3920.1479279999999
 30
0.0
 11
1861.6016010000001
 21
3500.1479279999999
 31
0.0
  0
LINE
  5
7AFD
  8
1
  6
CONTINUOUS
 10
1301.6016010000001
 20
3920.1479279999999
 30
0.0
 11
1301.6016010000001
 21
3500.1479279999999
 31
0.0
  0
LINE
  5
7AFE
  8
1
  6
CONTINUOUS
 10
1861.6016010000001
 20
3920.1479279999999
 30
0.0
 11
1301.6016010000001
 21
3500.1479279999999
 31
0.0
  0
LINE
  5
7AFF
  8
1
  6
CONTINUOUS
 10
1301.6016010000001
 20
3920.1479279999999
 30
0.0
 11
1861.6016010000001
 21
3500.1479279999999
 31
0.0
  0
LINE
  5
7B00
  8
1
  6
CONTINUOUS
 10
1422.6016010000001
 20
3330.1479279999999
 30
0.0
 11
1422.6016010000001
 21
3390.1479279999999
 31
0.0
  0
LINE
  5
7B01
  8
1
  6
CONTINUOUS
 10
1338.6016010000001
 20
3500.1479279999999
 30
0.0
 11
1338.6016010000001
 21
3390.1479279999999
 31
0.0
  0
LINE
  5
7B02
  8
1
  6
CONTINUOUS
 10
1306.6016010000001
 20
3500.1479279999999
 30
0.0
 11
1306.6016010000001
 21
3390.1479279999999
 31
0.0
  0
LINE
  5
7B03
  8
1
  6
CONTINUOUS
 10
1642.6016010000001
 20
3920.1479279999999
 30
0.0
 11
1642.6016010000001
 21
3922.1479279999999
 31
0.0
  0
LINE
  5
7B04
  8
1
  6
CONTINUOUS
 10
3591.627853
 20
1515.1479280000001
 30
0.0
 11
2811.627853
 21
1515.1479280000001
 31
0.0
  0
LINE
  5
7B05
  8
1
  6
CONTINUOUS
 10
3511.627853
 20
1635.1479280000001
 30
0.0
 11
2846.627853
 21
1635.1479280000001
 31
0.0
  0
LINE
  5
7B06
  8
1
  6
CONTINUOUS
 10
3591.627853
 20
1555.1479280000001
 30
0.0
 11
2811.627853
 21
1555.1479280000001
 31
0.0
  0
LINE
  5
7B07
  8
1
  6
CONTINUOUS
 10
2876.627853
 20
1747.1479280000001
 30
0.0
 11
2936.627853
 21
1747.1479280000001
 31
0.0
  0
LINE
  5
7B08
  8
1
  6
CONTINUOUS
 10
2876.627853
 20
1887.1479280000001
 30
0.0
 11
2936.627853
 21
1887.1479280000001
 31
0.0
  0
LINE
  5
7B09
  8
1
  6
CONTINUOUS
 10
2876.627853
 20
2010.1479280000001
 30
0.0
 11
2936.627853
 21
2010.1479280000001
 31
0.0
  0
LINE
  5
7B0A
  8
1
  6
CONTINUOUS
 10
2876.627853
 20
2210.1479279999999
 30
0.0
 11
2936.627853
 21
2210.1479279999999
 31
0.0
  0
LINE
  5
7B0B
  8
1
  6
CONTINUOUS
 10
2846.627853
 20
2470.1479279999999
 30
0.0
 11
2966.627853
 21
2470.1479279999999
 31
0.0
  0
LINE
  5
7B14
  8
2
  6
CENTER
 10
2092.6016009999998
 20
1817.147927999999
 30
0.0
 11
1952.6016010000001
 21
1817.147927999999
 31
0.0
  0
LINE
  5
7B15
  8
1
  6
CONTINUOUS
 10
2152.6016009999998
 20
1635.1479280000001
 30
0.0
 11
1892.6016010000001
 21
1635.1479280000001
 31
0.0
  0
CIRCLE
  5
7B16
  8
1
  6
CONTINUOUS
 10
2022.6016010000001
 20
1817.147927999999
 30
0.0
 40
70.0
  0
LINE
  5
7B17
  8
2
  6
CENTER
 10
2022.6016010000001
 20
1747.1479280000001
 30
0.0
 11
2022.6016010000001
 21
1887.1479280000001
 31
0.0
  0
LINE
  5
7B18
  8
1
  6
CONTINUOUS
 10
1892.6016010000001
 20
1635.1479280000001
 30
0.0
 11
1892.6016010000001
 21
1700.1479280000001
 31
0.0
  0
LINE
  5
7B19
  8
1
  6
CONTINUOUS
 10
1892.6016010000001
 20
1700.1479280000001
 30
0.0
 11
1906.8552380000001
 21
1734.887491
 31
0.0
  0
LINE
  5
7B1A
  8
1
  6
CONTINUOUS
 10
2152.6016009999998
 20
1700.1479280000001
 30
0.0
 11
2138.347964
 21
1734.887491
 31
0.0
  0
LINE
  5
7B1B
  8
1
  6
CONTINUOUS
 10
2152.6016009999998
 20
1635.1479280000001
 30
0.0
 11
2152.6016009999998
 21
1700.1479280000001
 31
0.0
  0
LINE
  5
7B1C
  8
1
  6
CONTINUOUS
 10
2182.1016009999998
 20
1635.1479280000001
 30
0.0
 11
2182.1016009999998
 21
1865.1479280000001
 31
0.0
  0
LINE
  5
7B1D
  8
1
  6
CONTINUOUS
 10
2227.6016009999998
 20
1635.1479280000001
 30
0.0
 11
2227.6016009999998
 21
1515.1479280000001
 31
0.0
  0
LINE
  5
7B1E
  8
1
  6
CONTINUOUS
 10
2187.6016009999998
 20
1555.1479280000001
 30
0.0
 11
2187.6016009999998
 21
1515.1479280000001
 31
0.0
  0
LINE
  5
7B1F
  8
1
  6
CONTINUOUS
 10
2187.6016009999998
 20
1515.1479280000001
 30
0.0
 11
2227.6016009999998
 21
1515.1479280000001
 31
0.0
  0
LINE
  5
7B3C
  8
1
  6
CONTINUOUS
 10
2846.627853
 20
1635.1479280000001
 30
0.0
 11
2846.627853
 21
2470.1479279999999
 31
0.0
  0
LINE
  5
7B40
  8
1
  6
CONTINUOUS
 10
2811.627853
 20
1555.1479280000001
 30
0.0
 11
2811.627853
 21
1515.1479280000001
 31
0.0
  0
LINE
  5
7B41
  8
1
  6
CONTINUOUS
 10
2876.627853
 20
1887.1479280000001
 30
0.0
 11
2876.627853
 21
1747.1479280000001
 31
0.0
  0
LINE
  5
7B42
  8
1
  6
CONTINUOUS
 10
2876.627853
 20
2210.1479279999999
 30
0.0
 11
2876.627853
 21
2010.1479280000001
 31
0.0
  0
LINE
  5
7B43
  8
1
  6
CONTINUOUS
 10
3466.627853
 20
1635.1479280000001
 30
0.0
 11
3466.627853
 21
2515.1479279999999
 31
0.0
  0
LINE
  5
7B44
  8
1
  6
CONTINUOUS
 10
3046.627853
 20
1635.1479280000001
 30
0.0
 11
3046.627853
 21
2515.1479279999999
 31
0.0
  0
LINE
  5
7B45
  8
1
  6
CONTINUOUS
 10
2966.627853
 20
1635.1479280000001
 30
0.0
 11
2966.627853
 21
2470.1479279999999
 31
0.0
  0
LINE
  5
7B46
  8
1
  6
CONTINUOUS
 10
3468.627853
 20
1790.1479280000001
 30
0.0
 11
3468.627853
 21
2430.1479279999999
 31
0.0
  0
LINE
  5
7B47
  8
1
  6
CONTINUOUS
 10
3001.627853
 20
1555.1479280000001
 30
0.0
 11
3001.627853
 21
1635.1479280000001
 31
0.0
  0
LINE
  5
7B48
  8
1
  6
CONTINUOUS
 10
2936.627853
 20
1887.1479280000001
 30
0.0
 11
2936.627853
 21
1747.1479280000001
 31
0.0
  0
LINE
  5
7B49
  8
1
  6
CONTINUOUS
 10
2936.627853
 20
1801.147927999999
 30
0.0
 11
3046.627853
 21
1801.147927999999
 31
0.0
  0
LINE
  5
7B4A
  8
1
  6
CONTINUOUS
 10
2936.627853
 20
1833.147927999999
 30
0.0
 11
3046.627853
 21
1833.147927999999
 31
0.0
  0
LINE
  5
7B4B
  8
1
  6
CONTINUOUS
 10
3511.627853
 20
1555.1479280000001
 30
0.0
 11
3511.627853
 21
1635.1479280000001
 31
0.0
  0
LINE
  5
7B4C
  8
1
  6
CONTINUOUS
 10
3466.627853
 20
1790.1479280000001
 30
0.0
 11
3468.627853
 21
1790.1479280000001
 31
0.0
  0
LINE
  5
7B4D
  8
1
  6
CONTINUOUS
 10
3019.627853
 20
2515.1479279999999
 30
0.0
 11
3493.627853
 21
2515.1479279999999
 31
0.0
  0
LINE
  5
7B4E
  8
1
  6
CONTINUOUS
 10
3046.627853
 20
2490.1479279999999
 30
0.0
 11
3466.627853
 21
2490.1479279999999
 31
0.0
  0
LINE
  5
7B4F
  8
1
  6
CONTINUOUS
 10
3046.627853
 20
2094.1479279999999
 30
0.0
 11
2936.627853
 21
2094.1479279999999
 31
0.0
  0
LINE
  5
7B50
  8
1
  6
CONTINUOUS
 10
3046.627853
 20
2126.1479279999999
 30
0.0
 11
2936.627853
 21
2126.1479279999999
 31
0.0
  0
LINE
  5
7B51
  8
1
  6
CONTINUOUS
 10
2936.627853
 20
2210.1479279999999
 30
0.0
 11
2936.627853
 21
2010.1479280000001
 31
0.0
  0
LINE
  5
7B52
  8
1
  6
CONTINUOUS
 10
3466.627853
 20
2430.1479279999999
 30
0.0
 11
3468.627853
 21
2430.1479279999999
 31
0.0
  0
LINE
  5
7B53
  8
1
  6
CONTINUOUS
 10
3591.627853
 20
1555.1479280000001
 30
0.0
 11
3591.627853
 21
1515.1479280000001
 31
0.0
  0
LINE
  5
7B5C
  8
1
  6
CONTINUOUS
 10
2164.6016009999998
 20
3873.885761
 30
0.0
 11
2164.6016009999998
 21
3473.885761
 31
0.0
  0
LINE
  5
7B5D
  8
1
  6
CONTINUOUS
 10
2227.6016009999998
 20
4045.1479279999999
 30
0.0
 11
2227.6016009999998
 21
3265.1479279999999
 31
0.0
  0
LINE
  5
7B5E
  8
1
  6
CONTINUOUS
 10
2041.6016009999989
 20
3455.1479279999999
 30
0.0
 11
2227.6016009999998
 21
3455.1479279999999
 31
0.0
  0
LINE
  5
7B5F
  8
1
  6
CONTINUOUS
 10
2182.1016009999998
 20
3300.1479279999999
 30
0.0
 11
2182.1016009999998
 21
3420.1479279999999
 31
0.0
  0
LINE
  5
7B60
  8
1
  6
CONTINUOUS
 10
2092.6016009999998
 20
3330.1479279999999
 30
0.0
 11
2092.6016009999998
 21
3390.1479279999999
 31
0.0
  0
LINE
  5
7B61
  8
1
  6
CONTINUOUS
 10
1952.6016010000001
 20
3330.1479279999999
 30
0.0
 11
1952.6016010000001
 21
3390.1479279999999
 31
0.0
  0
LINE
  5
7B62
  8
1
  6
CONTINUOUS
 10
2092.6016009999998
 20
3330.1479279999999
 30
0.0
 11
1952.6016010000001
 21
3330.1479279999999
 31
0.0
  0
LINE
  5
7B63
  8
1
  6
CONTINUOUS
 10
2092.6016009999998
 20
3390.1479279999999
 30
0.0
 11
1952.6016010000001
 21
3390.1479279999999
 31
0.0
  0
LINE
  5
7B64
  8
1
  6
CONTINUOUS
 10
2003.6016010000001
 20
3390.1479279999999
 30
0.0
 11
2003.6016010000001
 21
3473.885761
 31
0.0
  0
LINE
  5
7B65
  8
1
  6
CONTINUOUS
 10
2041.6016009999989
 20
3390.1479279999999
 30
0.0
 11
2041.6016009999989
 21
3473.885761
 31
0.0
  0
LINE
  5
7B66
  8
1
  6
CONTINUOUS
 10
2187.6016009999998
 20
3455.1479279999999
 30
0.0
 11
2187.6016009999998
 21
3265.1479279999999
 31
0.0
  0
LINE
  5
7B67
  8
1
  6
CONTINUOUS
 10
2187.6016009999998
 20
3265.1479279999999
 30
0.0
 11
2227.6016009999998
 21
3265.1479279999999
 31
0.0
  0
LINE
  5
7B68
  8
1
  6
CONTINUOUS
 10
2187.6016009999998
 20
4045.1479279999999
 30
0.0
 11
2227.6016009999998
 21
4045.1479279999999
 31
0.0
  0
LINE
  5
7B69
  8
1
  6
CONTINUOUS
 10
2187.6016009999998
 20
4045.1479279999999
 30
0.0
 11
2187.6016009999998
 21
3965.1479279999999
 31
0.0
  0
LINE
  5
7B8F
  8
2
  6
CENTER
 10
820.76598100000001
 20
3710.1479279999999
 30
0.0
 11
2283.174192146721
 21
3710.1479279999999
 31
0.0
  0
LINE
  5
7B90
  8
2
  6
CENTER
 10
3256.627852999999
 20
2559.0120649999999
 30
0.0
 11
3256.627852999999
 21
1461.47150729656
 31
0.0
  0
LINE
  5
7B91
  8
2
  6
CENTER
 10
1322.6016010000001
 20
2712.8517969999989
 30
0.0
 11
1322.6016010000001
 21
1448.195516
 31
0.0
  0
LINE
  5
7B92
  8
2
  6
CENTER
 10
2787.4060648685409
 20
2110.1479279999999
 30
0.0
 11
3513.432543576062
 21
2110.1479279999999
 31
0.0
  0
LINE
  5
7B93
  8
4
  6
CONTINUOUS
 10
3700.0
 20
1000.0
 30
0.0
 11
3700.0
 21
600.0
 31
0.0
  0
LINE
  5
7B94
  8
4
  6
CONTINUOUS
 10
2300.0
 20
1000.0
 30
0.0
 11
2300.0
 21
600.0
 31
0.0
  0
LINE
  5
7B95
  8
4
  6
CONTINUOUS
 10
1300.0
 20
1000.0
 30
0.0
 11
1300.0
 21
600.0
 31
0.0
  0
LINE
  5
7B98
  8
4
  6
CONTINUOUS
 10
1300.0
 20
600.0
 30
0.0
 11
3700.0
 21
600.0
 31
0.0
  0
LINE
  5
7B99
  8
4
  6
CONTINUOUS
 10
1300.0
 20
800.0
 30
0.0
 11
3700.0
 21
800.0
 31
0.0
  0
TEXT
  5
7B9A
  8
4
  6
CONTINUOUS
 10
1377.004162
 20
863.086052
 30
0.0
 40
100.0
  1
機器名称
  0
TEXT
  5
7B9B
  8
4
  6
CONTINUOUS
 10
1372.516212
 20
643.29031299999986
 30
0.0
 40
100.0
  1
機器型番
  0
TEXT
  5
7B9C
  8
4
  6
CONTINUOUS
 10
2355.3574910000002
 20
845.14353800000015
 30
0.0
 40
100.0
  1
ミツヤ多翼送風機
  0
TEXT
  5
7B9D
  8
4
  6
CONTINUOUS
 10
2373.3089909999999
 20
634.31916899999999
 30
0.0
 40
100.0
  1
MF#3 1/2-4
  0
TEXT
  5
7B9F
  8
4
  6
CONTINUOUS
 10
1621.3563859999999
 20
4766.8576830000002
 30
0.0
 40
108.0
  1
天井吊ベット
  0
TEXT
  5
7BA0
  8
4
  6
CONTINUOUS
 10
632.33518700000002
 20
5067.7619520000007
 30
0.0
 40
144.0
  1
ベルト駆動式片吸込両持多翼ファン
  0
LINE
  5
7BA1
  8
4
  6
CONTINUOUS
 10
500.0
 20
4938.8175090000004
 30
0.0
 11
3700.0
 21
4938.8175090000004
 31
0.0
  0
LINE
  5
7BA2
  8
4
  6
CONTINUOUS
 10
500.0
 20
5338.8175090000004
 30
0.0
 11
3700.0
 21
5338.8175090000004
 31
0.0
  0
LINE
  5
7BA3
  8
4
  6
CONTINUOUS
 10
1300.0
 20
1000.0
 30
0.0
 11
3700.0
 21
1000.0
 31
0.0
  0
LINE
  5
7BA4
  8
4
  6
CONTINUOUS
 10
500.0
 20
5338.8175090000004
 30
0.0
 11
500.0
 21
4938.8175090000004
 31
0.0
  0
TEXT
  5
7BA5
  8
4
  6
CONTINUOUS
 10
749.63872200000003
 20
4764.6389549999994
 30
0.0
 40
108.0
  1
左回転上向
  0
TEXT
  5
7BA6
  8
4
  6
CONTINUOUS
 10
2937.9391179999998
 20
5412.122163
 30
0.0
 40
112.0
  1
No.
  0
TEXT
  5
7BA7
  8
4
  6
CONTINUOUS
 10
2622.5921250000001
 20
4766.8576830000002
 30
0.0
 40
108.0
  1
縮尺：1/20
  0
LINE
  5
7BA8
  8
4
  6
CONTINUOUS
 10
3700.0
 20
5338.8175090000004
 30
0.0
 11
3700.0
 21
4938.8175090000004
 31
0.0
  0
LINE
  5
7BAA
  8
4
  6
CONTINUOUS
 10
2881.234845
 20
5362.5271659999999
 30
0.0
 11
2881.234845
 21
5573.3045229999998
 31
0.0
  0
LINE
  5
7BAB
  8
4
  6
CONTINUOUS
 10
2881.234845
 20
5573.3045229999998
 30
0.0
 11
3700.0
 21
5573.3045229999998
 31
0.0
  0
LINE
  5
7BAC
  8
4
  6
CONTINUOUS
 10
3700.0
 20
5573.3045229999998
 30
0.0
 11
3700.0
 21
5362.5271659999999
 31
0.0
  0
LINE
  5
7BAD
  8
4
  6
CONTINUOUS
 10
3700.0
 20
5362.5271659999999
 30
0.0
 11
2881.234845
 21
5362.5271659999999
 31
0.0
  0
DIMENSION
  5
7BC5
  8
3
  6
CONTINUOUS
  2
*D1
 10
1301.6016010000001
 20
2678.6888100000001
 30
0.0
 11
1573.7305899999999
 21
2678.6888100000001
 31
0.0
 70
   128
 13
1861.6016010000001
 23
2515.1479279999999
 33
0.0
 14
1301.6016010000001
 24
2515.1479279999999
 34
0.0
1001
ACAD
1000
DSTYLE
1002
{
1070
   287
1070
     3
1070
    40
1040
20.0
1070
   143
1040
0.039
1070
   172
1070
     1
1070
   271
1070
     0
1070
   279
1070
     0
1070
   288
1070
     1
1002
}
  0
DIMENSION
  5
7BD2
  8
3
  6
CONTINUOUS
  2
*D2
 10
1322.6016010000001
 20
2795.7989189999998
 30
0.0
 11
1573.7305899999999
 21
2795.7989189999998
 31
0.0
 70
   128
 13
1861.6016010000001
 23
2515.1479279999999
 33
0.0
 14
1322.6016010000001
 24
2712.8517969999989
 34
0.0
1001
ACAD
1000
DSTYLE
1002
{
1070
   287
1070
     3
1070
    40
1040
20.0
1070
   143
1040
0.039
1070
   172
1070
     1
1070
   271
1070
     0
1070
   279
1070
     0
1070
   288
1070
     1
1002
}
  0
DIMENSION
  5
7BDE
  8
3
  6
CONTINUOUS
  2
*D3
 10
912.60160099999985
 20
2795.7989189999998
 30
0.0
 11
1117.6016010000001
 21
2845.7989189999998
 31
0.0
 70
     0
 13
1322.6016010000001
 23
2712.8517969999989
 33
0.0
 14
912.60160099999985
 24
2470.1479279999999
 34
0.0
1001
ACAD
1000
DSTYLE
1002
{
1070
   287
1070
     4
1070
    40
1040
20.0
1070
    75
1070
     1
1070
   143
1040
0.039
1070
   172
1070
     1
1070
   271
1070
     0
1070
   279
1070
     1
1070
   288
1070
     1
1002
}
  0
DIMENSION
  5
7BEB
  8
3
  6
CONTINUOUS
  2
*D4
 10
782.47666300000026
 20
2110.1479279999999
 30
0.0
 11
782.47666300000003
 21
2301.8602350000001
 31
0.0
 70
   128
 13
1274.6016010000001
 23
2515.1479279999999
 33
0.0
 14
809.34129900000005
 24
2110.1479279999999
 34
0.0
 50
90.0
1001
ACAD
1000
DSTYLE
1002
{
1070
   287
1070
     3
1070
    40
1040
20.0
1070
   143
1040
0.039
1070
   172
1070
     1
1070
   271
1070
     0
1070
   279
1070
     0
1070
   288
1070
     1
1002
}
  0
DIMENSION
  5
7BF7
  8
3
  6
CONTINUOUS
  2
*D5
 10
782.47666300000003
 20
1555.1479280000001
 30
0.0
 11
732.4766629999998
 21
1832.6479280000001
 31
0.0
 70
     0
 13
809.34129900000005
 23
2110.1479279999999
 33
0.0
 14
977.60160099999985
 24
1555.1479280000001
 34
0.0
 50
90.0
1001
ACAD
1000
DSTYLE
1002
{
1070
   287
1070
     4
1070
    40
1040
20.0
1070
    75
1070
     1
1070
   143
1040
0.039
1070
   172
1070
     1
1070
   271
1070
     0
1070
   279
1070
     1
1070
   288
1070
     1
1002
}
  0
DIMENSION
  5
7C14
  8
3
  6
CONTINUOUS
  2
*D6
 10
782.8299320000001
 20
1515.1479280000001
 30
0.0
 11
782.82993199999999
 21
1366.576499428571
 31
0.0
 70
   128
 13
977.60160099999985
 23
1555.1479280000001
 33
0.0
 14
977.60160099999985
 24
1515.1479280000001
 34
0.0
 50
90.0
1001
ACAD
1000
DSTYLE
1002
{
1070
   287
1070
     3
1070
    40
1040
20.0
1070
   143
1040
0.039
1070
   172
1070
     1
1070
   271
1070
     0
1070
   279
1070
     0
1070
   288
1070
     1
1002
}
  0
DIMENSION
  5
7C21
  8
3
  6
CONTINUOUS
  2
*D7
 10
656.8472240000001
 20
1515.1479280000001
 30
0.0
 11
656.84722399999998
 21
2063.4575249999998
 31
0.0
 70
   128
 13
1264.6016010000001
 23
2515.1479279999999
 33
0.0
 14
977.60160099999985
 24
1515.1479280000001
 34
0.0
 50
90.0
1001
ACAD
1000
DSTYLE
1002
{
1070
   287
1070
     3
1070
    40
1040
20.0
1070
   143
1040
0.039
1070
   172
1070
     1
1070
   271
1070
     0
1070
   279
1070
     0
1070
   288
1070
     1
1002
}
  0
DIMENSION
  5
7C2E
  8
3
  6
CONTINUOUS
  2
*D8
 10
1322.6016010000001
 20
1337.7791970000001
 30
0.0
 11
1142.10392
 21
1337.7791970000001
 31
0.0
 70
   128
 13
977.60160099999985
 23
1515.1479280000001
 33
0.0
 14
1322.6016010000001
 24
1448.195516
 34
0.0
1001
ACAD
1000
DSTYLE
1002
{
1070
   287
1070
     3
1070
    40
1040
20.0
1070
   143
1040
0.039
1070
   172
1070
     1
1070
   271
1070
     0
1070
   279
1070
     0
1070
   288
1070
     1
1002
}
  0
DIMENSION
  5
7C3A
  8
3
  6
CONTINUOUS
  2
*D9
 10
2227.6016009999998
 20
1337.7791970000001
 30
0.0
 11
1775.1016010000001
 21
1387.7791970000001
 31
0.0
 70
     0
 13
1322.6016010000001
 23
1448.195516
 33
0.0
 14
2227.6016009999998
 24
1515.1479280000001
 34
0.0
1001
ACAD
1000
DSTYLE
1002
{
1070
   287
1070
     4
1070
    40
1040
20.0
1070
    75
1070
     1
1070
   143
1040
0.039
1070
   172
1070
     1
1070
   271
1070
     0
1070
   279
1070
     1
1070
   288
1070
     1
1002
}
  0
DIMENSION
  5
7C47
  8
3
  6
CONTINUOUS
  2
*D10
 10
3046.627853
 20
2621.0570339999999
 30
0.0
 11
3271.3190420000001
 21
2621.0570339999999
 31
0.0
 70
   128
 13
3466.627853
 23
2515.1479279999999
 33
0.0
 14
3046.627853
 24
2515.1479279999999
 34
0.0
1001
ACAD
1000
DSTYLE
1002
{
1070
   287
1070
     3
1070
    40
1040
20.0
1070
   143
1040
0.039
1070
   172
1070
     1
1070
   271
1070
     0
1070
   279
1070
     0
1070
   288
1070
     1
1002
}
  0
DIMENSION
  5
7C56
  8
3
  6
CONTINUOUS
  2
*D11
 10
3648.5732010000002
 20
1815.1479280000001
 30
0.0
 11
3648.5732010000002
 21
2105.2825649999991
 31
0.0
 70
   128
 13
3468.627853
 23
2405.1479279999999
 33
0.0
 14
3468.627853
 24
1815.1479280000001
 34
0.0
 50
90.0
1001
ACAD
1000
DSTYLE
1002
{
1070
   287
1070
     3
1070
     3
1000
φ<>
1070
    40
1040
20.0
1070
   143
1040
0.039
1070
   172
1070
     1
1070
   271
1070
     0
1070
   279
1070
     0
1070
   288
1070
     1
1002
}
  0
DIMENSION
  5
7C65
  8
3
  6
CONTINUOUS
  2
*D12
 10
3256.627852999999
 20
2756.3682800000001
 30
0.0
 11
3362.627853
 21
2812.2043522293629
 31
0.0
 70
   128
 13
3468.627853
 23
2430.1479279999999
 33
0.0
 14
3256.627852999999
 24
2713.042504
 34
0.0
1001
ACAD
1000
DSTYLE
1002
{
1070
   288
1070
     1
1070
   172
1070
     1
1070
    40
1040
20.0
1070
   271
1070
     0
1070
   143
1040
0.039
1002
}
  0
DIMENSION
  5
7C71
  8
3
  6
CONTINUOUS
  2
*D13
 10
2846.627853
 20
2756.3682800000001
 30
0.0
 11
3051.627853
 21
2856.3682800000001
 31
0.0
 70
     0
  1
MAX\P470
 13
3256.627852999999
 23
2713.042504
 33
0.0
 14
2846.627853
 24
2470.1479279999999
 34
0.0
1001
ACAD
1000
DSTYLE
1002
{
1070
   287
1070
     4
1070
    40
1040
20.0
1070
    75
1070
     1
1070
   143
1040
0.039
1070
   172
1070
     1
1070
   271
1070
     0
1070
   279
1070
     1
1070
   288
1070
     1
1002
}
  0
DIMENSION
  5
7C7E
  8
3
  6
CONTINUOUS
  2
*D14
 10
3256.627852999999
 20
1342.733373712249
 30
0.0
 11
3037.3399719999989
 21
1342.733373712249
 31
0.0
 70
   128
 13
2811.627853
 23
1515.1479280000001
 33
0.0
 14
3256.627852999999
 24
1461.47150729656
 34
0.0
1001
ACAD
1000
DSTYLE
1002
{
1070
   287
1070
     3
1070
    40
1040
20.0
1070
   143
1040
0.039
1070
   172
1070
     1
1070
   271
1070
     0
1070
   279
1070
     0
1070
   288
1070
     1
1002
}
  0
DIMENSION
  5
7C8A
  8
3
  6
CONTINUOUS
  2
*D15
 10
3591.627853
 20
1342.733373712249
 30
0.0
 11
3424.127853
 21
1392.733373712249
 31
0.0
 70
     0
 13
3256.627852999999
 23
1461.47150729656
 33
0.0
 14
3591.627853
 24
1515.1479280000001
 34
0.0
1001
ACAD
1000
DSTYLE
1002
{
1070
   287
1070
     4
1070
    40
1040
20.0
1070
    75
1070
     1
1070
   143
1040
0.039
1070
   172
1070
     1
1070
   271
1070
     0
1070
   279
1070
     1
1070
   288
1070
     1
1002
}
  0
DIMENSION
  5
7C97
  8
3
  6
CONTINUOUS
  2
*D16
 10
2227.6016009999998
 20
4173.0743350000002
 30
0.0
 11
1586.7043799999999
 21
4173.0743350000002
 31
0.0
 70
   128
 13
977.60160099999985
 23
4045.1479279999999
 33
0.0
 14
2227.6016009999998
 24
4045.1479279999999
 34
0.0
1001
ACAD
1000
DSTYLE
1002
{
1070
   287
1070
     3
1070
    40
1040
20.0
1070
   143
1040
0.039
1070
   172
1070
     1
1070
   271
1070
     0
1070
   279
1070
     0
1070
   288
1070
     1
1002
}
  0
DIMENSION
  5
7CA4
  8
3
  6
CONTINUOUS
  2
*D17
 10
2428.1966579999998
 20
3265.1479279999999
 30
0.0
 11
2428.1966579999998
 21
3676.1934310000001
 31
0.0
 70
   128
 13
2227.6016009999998
 23
4045.1479279999999
 33
0.0
 14
2227.6016009999998
 24
3265.1479279999999
 34
0.0
 50
90.0
1001
ACAD
1000
DSTYLE
1002
{
1070
   287
1070
     3
1070
    40
1040
20.0
1070
   143
1040
0.039
1070
   172
1070
     1
1070
   271
1070
     0
1070
   279
1070
     0
1070
   288
1070
     1
1002
}
  0
DIMENSION
  5
7DA0
  8
3
  2
*D18
 10
2227.6016009999998
 20
2911.7349121339239
 30
0.0
 11
1608.655073697922
 21
2911.7349121339239
 31
0.0
 70
   128
 13
912.60160099999985
 23
2470.1479279999999
 33
0.0
 14
2227.6016009999998
 24
1635.1479280000001
 34
0.0
1001
ACAD
1000
DSTYLE
1002
{
1070
   287
1070
     3
1070
    40
1040
20.0
1070
   143
1040
0.039
1070
   172
1070
     1
1070
   271
1070
     0
1070
   279
1070
     0
1070
   288
1070
     1
1002
}
  0
ENDSEC
  0
EOF
