  0
SECTION
  2
HEADER
  9
$ACADVER
  1
AC1009
  9
$INSBASE
 10
0.0
 20
0.0
 30
0.0
  9
$EXTMIN
 10
500.0
 20
600.0
 30
0.0
  9
$EXTMAX
 10
3700.0
 20
5573.3045229999998
 30
0.0
  9
$LIMMIN
 10
0.0
 20
0.0
  9
$LIMMAX
 10
297.0
 20
210.0
  9
$ORTHOMODE
 70
     0
  9
$REGENMODE
 70
     1
  9
$FILLMODE
 70
     0
  9
$QTEXTMODE
 70
     0
  9
$MIRRTEXT
 70
     1
  9
$DRAGMODE
 70
     2
  9
$LTSCALE
 40
100.0
  9
$OSMODE
 70
    37
  9
$ATTMODE
 70
     1
  9
$TEXTSIZE
 40
180.0
  9
$TRACEWID
 40
0.05
  9
$TEXTSTYLE
  7
STANDARD
  9
$CLAYER
  8
3
  9
$CELTYPE
  6
BYLAYER
  9
$CECOLOR
 62
   256
  9
$DIMSCALE
 40
20.0
  9
$DIMASZ
 40
2.0
  9
$DIMEXO
 40
0.5
  9
$DIMDLI
 40
10.0
  9
$DIMRND
 40
0.0
  9
$DIMDLE
 40
0.0
  9
$DIMEXE
 40
1.0
  9
$DIMTP
 40
1.0
  9
$DIMTM
 40
1.0
  9
$DIMTXT
 40
3.0
  9
$DIMCEN
 40
0.0
  9
$DIMTSZ
 40
0.0
  9
$DIMTOL
 70
     0
  9
$DIMLIM
 70
     0
  9
$DIMTIH
 70
     0
  9
$DIMTOH
 70
     0
  9
$DIMSE1
 70
     0
  9
$DIMSE2
 70
     0
  9
$DIMTAD
 70
     1
  9
$DIMZIN
 70
     8
  9
$DIMBLK
  1

  9
$DIMASO
 70
     1
  9
$DIMSHO
 70
     1
  9
$DIMPOST
  1

  9
$DIMAPOST
  1

  9
$DIMALT
 70
     0
  9
$DIMALTD
 70
     2
  9
$DIMALTF
 40
0.039
  9
$DIMLFAC
 40
1.0
  9
$DIMTOFL
 70
     1
  9
$DIMTVP
 40
0.0
  9
$DIMTIX
 70
     0
  9
$DIMSOXD
 70
     0
  9
$DIMSAH
 70
     1
  9
$DIMBLK1
  1
OPEN
  9
$DIMBLK2
  1
OPEN
  9
$DIMSTYLE
  2
IGA
  9
$DIMCLRD
 70
     0
  9
$DIMCLRE
 70
     0
  9
$DIMCLRT
 70
     0
  9
$DIMTFAC
 40
10.0
  9
$DIMGAP
 40
1.0
  9
$LUNITS
 70
     2
  9
$LUPREC
 70
     3
  9
$SKETCHINC
 40
0.1
  9
$FILLETRAD
 40
50.0
  9
$AUNITS
 70
     0
  9
$AUPREC
 70
     0
  9
$MENU
  1
acad
  9
$ELEVATION
 40
0.0
  9
$PELEVATION
 40
0.0
  9
$THICKNESS
 40
0.0
  9
$LIMCHECK
 70
     0
  9
$BLIPMODE
 70
     0
  9
$CHAMFERA
 40
0.5
  9
$CHAMFERB
 40
0.5
  9
$SKPOLY
 70
     0
  9
$TDCREATE
 40
2450737.4042083332
  9
$TDUPDATE
 40
2454953.7685174299
  9
$TDINDWG
 40
0.0045902778
  9
$TDUSRTIMER
 40
0.0045902778
  9
$USRTIMER
 70
     1
  9
$ANGBASE
 50
0.0
  9
$ANGDIR
 70
     0
  9
$PDMODE
 70
     0
  9
$PDSIZE
 40
0.0
  9
$PLINEWID
 40
0.0
  9
$COORDS
 70
     1
  9
$SPLFRAME
 70
     0
  9
$SPLINETYPE
 70
     6
  9
$SPLINESEGS
 70
     8
  9
$ATTDIA
 70
     0
  9
$ATTREQ
 70
     1
  9
$HANDLING
 70
 10241
  9
$HANDSEED
  5
7E7B
  9
$SURFTAB1
 70
     6
  9
$SURFTAB2
 70
     6
  9
$SURFTYPE
 70
     6
  9
$SURFU
 70
     6
  9
$SURFV
 70
     6
  9
$UCSNAME
  2

  9
$UCSORG
 10
0.0
 20
0.0
 30
0.0
  9
$UCSXDIR
 10
1.0
 20
0.0
 30
0.0
  9
$UCSYDIR
 10
0.0
 20
1.0
 30
0.0
  9
$PUCSNAME
  2

  9
$PUCSORG
 10
0.0
 20
0.0
 30
0.0
  9
$PUCSXDIR
 10
1.0
 20
0.0
 30
0.0
  9
$PUCSYDIR
 10
0.0
 20
1.0
 30
0.0
  9
$USERI1
 70
     0
  9
$USERI2
 70
     0
  9
$USERI3
 70
     0
  9
$USERI4
 70
     0
  9
$USERI5
 70
     0
  9
$USERR1
 40
0.0
  9
$USERR2
 40
0.0
  9
$USERR3
 40
0.0
  9
$USERR4
 40
0.0
  9
$USERR5
 40
0.0
  9
$WORLDVIEW
 70
     1
  9
$SHADEDGE
 70
     3
  9
$SHADEDIF
 70
    70
  9
$TILEMODE
 70
     1
  9
$MAXACTVP
 70
    16
  9
$PLIMCHECK
 70
     0
  9
$PEXTMIN
 10
1.0000000000000000E+020
 20
1.0000000000000000E+020
 30
1.0000000000000000E+020
  9
$PEXTMAX
 10
-1.0000000000000000E+020
 20
-1.0000000000000000E+020
 30
-1.0000000000000000E+020
  9
$PLIMMIN
 10
0.0
 20
0.0
  9
$PLIMMAX
 10
12.0
 20
9.0
  9
$UNITMODE
 70
     0
  9
$VISRETAIN
 70
     0
  9
$PLINEGEN
 70
     0
  9
$PSLTSCALE
 70
     1
  0
ENDSEC
  0
SECTION
  2
TABLES
  0
TABLE
  2
VPORT
 70
     2
  0
VPORT
  2
*ACTIVE
 70
     0
 10
0.0
 20
0.0
 11
1.0
 21
1.0
 12
6292.1124769529506
 22
3086.6374998146398
 13
0.0
 23
0.0
 14
10.0
 24
10.0
 15
10.0
 25
10.0
 16
0.0
 26
0.0
 36
1.0
 17
0.0
 27
0.0
 37
0.0
 40
5011.4968576296578
 41
3.1666666666666661
 42
50.0
 43
0.0
 44
0.0
 50
0.0
 51
0.0
 71
     0
 72
   100
 73
     1
 74
     0
 75
     0
 76
     0
 77
     0
 78
     0
  0
ENDTAB
  0
TABLE
  2
LTYPE
 70
     2
  0
LTYPE
  2
CONTINUOUS
 70
     0
  3
Solid line
 72
    65
 73
     0
 40
0.0
  0
LTYPE
  2
CENTER
 70
     0
  3
____ _ ____ _ ____ _ ____ _ ____ _ ____ _ ____ 
 72
    65
 73
     4
 40
2.0
 49
1.25
 49
-0.25
 49
0.25
 49
-0.25
  0
ENDTAB
  0
TABLE
  2
LAYER
 70
     6
  0
LAYER
  2
0
 70
     0
 62
     7
  6
CONTINUOUS
  0
LAYER
  2
3
 70
     0
 62
     2
  6
CONTINUOUS
  0
LAYER
  2
2
 70
     0
 62
     3
  6
CENTER
  0
LAYER
  2
1
 70
     0
 62
     4
  6
CONTINUOUS
  0
LAYER
  2
4
 70
     0
 62
     7
  6
CONTINUOUS
  0
LAYER
  2
DEFPOINTS
 70
     0
 62
     7
  6
CONTINUOUS
  0
ENDTAB
  0
TABLE
  2
STYLE
 70
     1
  0
STYLE
  2
STANDARD
 70
     0
 40
0.0
 41
1.0
 50
0.0
 71
     0
 42
180.0
  3
simplex.shx
  4
extfont.shx
  0
ENDTAB
  0
TABLE
  2
VIEW
 70
     0
  0
ENDTAB
  0
TABLE
  2
UCS
 70
     0
  0
ENDTAB
  0
TABLE
  2
APPID
 70
     1
  0
APPID
  2
ACAD
 70
     0
  0
ENDTAB
  0
TABLE
  2
DIMSTYLE
 70
     1
  0
DIMSTYLE
  2
IGA
 70
     0
  3

  4

  5

  6
OPEN
  7
OPEN
 40
2.0
 41
2.0
 42
0.5
 43
10.0
 44
1.0
 45
0.0
 46
0.0
 47
1.0
 48
1.0
140
3.0
141
0.0
142
0.0
143
0.03937
144
1.0
145
0.0
146
10.0
147
1.0
 71
     0
 72
     0
 73
     0
 74
     0
 75
     0
 76
     0
 77
     1
 78
     8
170
     0
171
     2
172
     0
173
     1
174
     0
175
     0
176
     0
177
     0
178
     0
  0
ENDTAB
  0
ENDSEC
  0
SECTION
  2
BLOCKS
  0
BLOCK
  8
0
  2
$MODEL_SPACE
 70
     0
 10
0.0
 20
0.0
 30
0.0
  3
$MODEL_SPACE
  1

  0
ENDBLK
  5
1B
  8
0
  0
BLOCK
 67
     1
  8
0
  2
$PAPER_SPACE
 70
     0
 10
0.0
 20
0.0
 30
0.0
  3
$PAPER_SPACE
  1

  0
ENDBLK
  5
18
 67
     1
  8
0
  0
BLOCK
  8
0
  2
_OPEN
 70
     0
 10
0.0
 20
0.0
 30
0.0
  3
_OPEN
  1

  0
LINE
  5
7BAC
  8
0
  6
BYBLOCK
 62
     0
 10
-1.0
 20
0.166667
 30
0.0
 11
0.0
 21
0.0
 31
0.0
  0
LINE
  5
7BAD
  8
0
  6
BYBLOCK
 62
     0
 10
0.0
 20
0.0
 30
0.0
 11
-1.0
 21
-0.166667
 31
0.0
  0
LINE
  5
7BAE
  8
0
  6
BYBLOCK
 62
     0
 10
0.0
 20
0.0
 30
0.0
 11
-1.0
 21
0.0
 31
0.0
  0
ENDBLK
  5
7BAF
  8
0
  0
BLOCK
  8
0
  2
*D1
 70
     1
 10
0.0
 20
0.0
 30
0.0
  3
*D1
  1

  0
LINE
  5
7DD3
  8
3
  6
CONTINUOUS
 62
     0
 10
975.74141699999996
 20
2527.6323299999999
 30
0.0
 11
892.76693300000045
 21
2527.6323299999999
 31
0.0
  0
LINE
  5
7DD4
  8
3
  6
CONTINUOUS
 62
     0
 10
975.74141699999996
 20
1967.6323299999999
 30
0.0
 11
892.76693300000045
 21
1967.6323299999999
 31
0.0
  0
LINE
  5
7DD5
  8
3
  6
CONTINUOUS
 62
     0
 10
912.76693300000045
 20
2487.6323299999999
 30
0.0
 11
912.76693300000034
 21
2007.6323299999999
 31
0.0
  0
INSERT
  5
7DD6
  8
3
  6
CONTINUOUS
 62
     0
  2
_OPEN
 10
912.76693300000045
 20
2527.6323299999999
 30
0.0
 41
40.0
 42
40.0
 43
40.0
 50
90.0
  0
INSERT
  5
7DD7
  8
3
  6
CONTINUOUS
 62
     0
  2
_OPEN
 10
912.76693300000034
 20
1967.6323299999999
 30
0.0
 41
40.0
 42
40.0
 43
40.0
 50
270.0
  0
TEXT
  8
3
  40
60
  5
7E69
  62
0
  72
0
  71
0
 10
742.767
 20
2125.39
 30
0.000000
  1
560
  0
POINT
  5
7DD9
  8
DEFPOINTS
  6
CONTINUOUS
 62
     0
 10
985.74141699999996
 20
2527.6323299999999
 30
0.0
  0
POINT
  5
7DDA
  8
DEFPOINTS
  6
CONTINUOUS
 62
     0
 10
985.74141699999996
 20
1967.6323299999999
 30
0.0
  0
POINT
  5
7DDB
  8
DEFPOINTS
  6
CONTINUOUS
 62
     0
 10
912.76693300000034
 20
1967.6323299999999
 30
0.0
  0
ENDBLK
  5
7BBC
  8
0
  0
BLOCK
  8
0
  2
*D2
 70
     1
 10
0.0
 20
0.0
 30
0.0
  3
*D2
  1

  0
LINE
  5
7DDC
  8
3
  6
CONTINUOUS
 62
     0
 10
975.74141699999996
 20
2527.6323299999999
 30
0.0
 11
753.24205900000049
 21
2527.6323299999999
 31
0.0
  0
LINE
  5
7DDD
  8
3
  6
CONTINUOUS
 62
     0
 10
884.19188699999984
 20
1988.6323299999999
 30
0.0
 11
753.24205900000027
 21
1988.6323299999999
 31
0.0
  0
LINE
  5
7DDE
  8
3
  6
CONTINUOUS
 62
     0
 10
773.24205900000038
 20
2487.6323299999999
 30
0.0
 11
773.24205900000027
 21
2028.6323299999999
 31
0.0
  0
INSERT
  5
7DDF
  8
3
  6
CONTINUOUS
 62
     0
  2
_OPEN
 10
773.24205900000038
 20
2527.6323299999999
 30
0.0
 41
40.0
 42
40.0
 43
40.0
 50
90.0
  0
INSERT
  5
7DE0
  8
3
  6
CONTINUOUS
 62
     0
  2
_OPEN
 10
773.24205900000027
 20
1988.6323299999999
 30
0.0
 41
40.0
 42
40.0
 43
40.0
 50
270.0
  0
TEXT
  8
3
  40
60
  5
7E6A
  62
0
  72
0
  71
0
 10
603.242
 20
2125.39
 30
0.000000
  1
539
  0
POINT
  5
7DE2
  8
DEFPOINTS
  6
CONTINUOUS
 62
     0
 10
985.74141699999996
 20
2527.6323299999999
 30
0.0
  0
POINT
  5
7DE3
  8
DEFPOINTS
  6
CONTINUOUS
 62
     0
 10
894.19188699999995
 20
1988.6323299999999
 30
0.0
  0
POINT
  5
7DE4
  8
DEFPOINTS
  6
CONTINUOUS
 62
     0
 10
773.24205900000027
 20
1988.6323299999999
 30
0.0
  0
ENDBLK
  5
7BC9
  8
0
  0
BLOCK
  8
0
  2
*D3
 70
     1
 10
0.0
 20
0.0
 30
0.0
  3
*D3
  1

  0
LINE
  5
7DE5
  8
3
  6
CONTINUOUS
 62
     0
 10
1035.741417
 20
1498.6323299999999
 30
0.0
 11
753.24205900000004
 21
1498.6323299999999
 31
0.0
  0
LINE
  5
7DE6
  8
3
  6
CONTINUOUS
 62
     0
 10
773.24205900000015
 20
1948.6323299999999
 30
0.0
 11
773.24205900000004
 21
1538.6323299999999
 31
0.0
  0
INSERT
  5
7DE7
  8
3
  6
CONTINUOUS
 62
     0
  2
_OPEN
 10
773.24205900000015
 20
1988.6323299999999
 30
0.0
 41
40.0
 42
40.0
 43
40.0
 50
90.0
  0
INSERT
  5
7DE8
  8
3
  6
CONTINUOUS
 62
     0
  2
_OPEN
 10
773.24205900000004
 20
1498.6323299999999
 30
0.0
 41
40.0
 42
40.0
 43
40.0
 50
270.0
  0
TEXT
  8
3
  40
60
  5
7E6B
  62
0
  72
0
  71
0
 10
603.242
 20
1637.43
 30
0.000000
  1
490
  0
POINT
  5
7DEA
  8
DEFPOINTS
  6
CONTINUOUS
 62
     0
 10
894.19188699999995
 20
1988.6323299999999
 30
0.0
  0
POINT
  5
7DEB
  8
DEFPOINTS
  6
CONTINUOUS
 62
     0
 10
1045.741417
 20
1498.6323299999999
 30
0.0
  0
POINT
  5
7DEC
  8
DEFPOINTS
  6
CONTINUOUS
 62
     0
 10
773.24205900000004
 20
1498.6323299999999
 30
0.0
  0
ENDBLK
  5
7BD5
  8
0
  0
BLOCK
  8
0
  2
*D4
 70
     1
 10
0.0
 20
0.0
 30
0.0
  3
*D4
  1

  0
LINE
  5
7DED
  8
3
  6
CONTINUOUS
 62
     0
 10
1035.741417
 20
1498.6323299999999
 30
0.0
 11
753.5696660000001
 21
1498.6323299999999
 31
0.0
  0
LINE
  5
7DEE
  8
3
  6
CONTINUOUS
 62
     0
 10
1035.741417
 20
1458.6323299999999
 30
0.0
 11
753.5696660000001
 21
1458.6323299999999
 31
0.0
  0
LINE
  5
7DEF
  8
3
  6
CONTINUOUS
 62
     0
 10
773.56966600000021
 20
1538.6323299999999
 30
0.0
 11
773.56966600000021
 21
1578.6323299999999
 31
0.0
  0
LINE
  5
7DF0
  8
3
  6
CONTINUOUS
 62
     0
 10
773.56966600000021
 20
1418.6323299999999
 30
0.0
 11
773.5696660000001
 21
1241.489472857143
 31
0.0
  0
LINE
  5
7DF1
  8
3
  6
CONTINUOUS
 62
     0
 10
773.56966600000021
 20
1498.6323299999999
 30
0.0
 11
773.56966600000021
 21
1458.6323299999999
 31
0.0
  0
INSERT
  5
7DF2
  8
3
  6
CONTINUOUS
 62
     0
  2
_OPEN
 10
773.56966600000021
 20
1498.6323299999999
 30
0.0
 41
40.0
 42
40.0
 43
40.0
 50
270.0
  0
INSERT
  5
7DF3
  8
3
  6
CONTINUOUS
 62
     0
  2
_OPEN
 10
773.56966600000021
 20
1458.6323299999999
 30
0.0
 41
40.0
 42
40.0
 43
40.0
 50
90.0
  0
TEXT
  8
3
  40
60
  5
7E6C
  62
0
  72
0
  71
0
 10
603.570
 20
1203.86
 30
0.000000
  1
40
  0
POINT
  5
7DF5
  8
DEFPOINTS
  6
CONTINUOUS
 62
     0
 10
1045.741417
 20
1498.6323299999999
 30
0.0
  0
POINT
  5
7DF6
  8
DEFPOINTS
  6
CONTINUOUS
 62
     0
 10
1045.741417
 20
1458.6323299999999
 30
0.0
  0
POINT
  5
7DF7
  8
DEFPOINTS
  6
CONTINUOUS
 62
     0
 10
773.56966600000021
 20
1458.6323299999999
 30
0.0
  0
ENDBLK
  5
7D71
  8
0
  0
BLOCK
  8
0
  2
*D5
 70
     1
 10
0.0
 20
0.0
 30
0.0
  3
*D5
  1

  0
LINE
  5
7DF8
  8
3
  6
CONTINUOUS
 62
     0
 10
975.74141699999996
 20
2554.6323299999999
 30
0.0
 11
634.94518800000037
 21
2554.6323299999999
 31
0.0
  0
LINE
  5
7DF9
  8
3
  6
CONTINUOUS
 62
     0
 10
1035.741417
 20
1458.6323299999999
 30
0.0
 11
634.94518800000014
 21
1458.6323299999999
 31
0.0
  0
LINE
  5
7DFA
  8
3
  6
CONTINUOUS
 62
     0
 10
654.94518800000037
 20
2514.632329999999
 30
0.0
 11
654.94518800000026
 21
1498.6323299999999
 31
0.0
  0
INSERT
  5
7DFB
  8
3
  6
CONTINUOUS
 62
     0
  2
_OPEN
 10
654.94518800000037
 20
2554.6323299999999
 30
0.0
 41
40.0
 42
40.0
 43
40.0
 50
90.0
  0
INSERT
  5
7DFC
  8
3
  6
CONTINUOUS
 62
     0
  2
_OPEN
 10
654.94518800000026
 20
1458.6323299999999
 30
0.0
 41
40.0
 42
40.0
 43
40.0
 50
270.0
  0
TEXT
  8
3
  40
60
  5
7E6D
  62
0
  72
0
  71
0
 10
484.945
 20
1905.76
 30
0.000000
  1
1096
  0
POINT
  5
7DFE
  8
DEFPOINTS
  6
CONTINUOUS
 62
     0
 10
985.74141699999996
 20
2554.6323299999999
 30
0.0
  0
POINT
  5
7DFF
  8
DEFPOINTS
  6
CONTINUOUS
 62
     0
 10
1045.741417
 20
1458.6323299999999
 30
0.0
  0
POINT
  5
7E00
  8
DEFPOINTS
  6
CONTINUOUS
 62
     0
 10
654.94518800000026
 20
1458.6323299999999
 30
0.0
  0
ENDBLK
  5
7CDF
  8
0
  0
BLOCK
  8
0
  2
*D6
 70
     1
 10
0.0
 20
0.0
 30
0.0
  3
*D6
  1

  0
LINE
  5
7E01
  8
3
  6
CONTINUOUS
 62
     0
 10
1045.741417
 20
1448.6323299999999
 30
0.0
 11
1045.741417
 21
1259.5739229999999
 31
0.0
  0
LINE
  5
7E02
  8
3
  6
CONTINUOUS
 62
     0
 10
1390.741417
 20
1391.9490989999999
 30
0.0
 11
1390.741417
 21
1259.5739229999999
 31
0.0
  0
LINE
  5
7E03
  8
3
  6
CONTINUOUS
 62
     0
 10
1085.741417
 20
1279.5739229999999
 30
0.0
 11
1350.741417
 21
1279.5739229999999
 31
0.0
  0
INSERT
  5
7E04
  8
3
  6
CONTINUOUS
 62
     0
  2
_OPEN
 10
1045.741417
 20
1279.5739229999999
 30
0.0
 41
40.0
 42
40.0
 43
40.0
 50
180.0
  0
INSERT
  5
7E05
  8
3
  6
CONTINUOUS
 62
     0
  2
_OPEN
 10
1390.741417
 20
1279.5739229999999
 30
0.0
 41
40.0
 42
40.0
 43
40.0
  0
TEXT
  8
3
  40
60
  5
7E6E
  62
0
  72
0
  71
0
 10
1092.96
 20
1223.37
 30
0.000000
  1
345
  0
POINT
  5
7E07
  8
DEFPOINTS
  6
CONTINUOUS
 62
     0
 10
1045.741417
 20
1458.6323299999999
 30
0.0
  0
POINT
  5
7E08
  8
DEFPOINTS
  6
CONTINUOUS
 62
     0
 10
1390.741417
 20
1401.9490989999999
 30
0.0
  0
POINT
  5
7E09
  8
DEFPOINTS
  6
CONTINUOUS
 62
     0
 10
1390.741417
 20
1279.5739229999999
 30
0.0
  0
ENDBLK
  5
7CF4
  8
0
  0
BLOCK
  8
0
  2
*D7
 70
     1
 10
0.0
 20
0.0
 30
0.0
  3
*D7
  1

  0
LINE
  5
7E0A
  8
3
  6
CONTINUOUS
 62
     0
 10
2295.7414170000002
 20
1448.6323299999999
 30
0.0
 11
2295.7414170000002
 21
1259.5739229999999
 31
0.0
  0
LINE
  5
7E0B
  8
3
  6
CONTINUOUS
 62
     0
 10
1430.741417
 20
1279.5739229999999
 30
0.0
 11
2255.7414170000002
 21
1279.5739229999999
 31
0.0
  0
INSERT
  5
7E0C
  8
3
  6
CONTINUOUS
 62
     0
  2
_OPEN
 10
1390.741417
 20
1279.5739229999999
 30
0.0
 41
40.0
 42
40.0
 43
40.0
 50
180.0
  0
INSERT
  5
7E0D
  8
3
  6
CONTINUOUS
 62
     0
  2
_OPEN
 10
2295.7414170000002
 20
1279.5739229999999
 30
0.0
 41
40.0
 42
40.0
 43
40.0
  0
TEXT
  8
3
  40
60
  5
7E6F
  62
0
  72
0
  71
0
 10
1723.24
 20
1223.37
 30
0.000000
  1
905
  0
POINT
  5
7E0F
  8
DEFPOINTS
  6
CONTINUOUS
 62
     0
 10
1390.741417
 20
1401.9490989999999
 30
0.0
  0
POINT
  5
7E10
  8
DEFPOINTS
  6
CONTINUOUS
 62
     0
 10
2295.7414170000002
 20
1458.6323299999999
 30
0.0
  0
POINT
  5
7E11
  8
DEFPOINTS
  6
CONTINUOUS
 62
     0
 10
2295.7414170000002
 20
1279.5739229999999
 30
0.0
  0
ENDBLK
  5
7CE9
  8
0
  0
BLOCK
  8
0
  2
*D8
 70
     1
 10
0.0
 20
0.0
 30
0.0
  3
*D8
  1

  0
LINE
  5
7E12
  8
3
  6
CONTINUOUS
 62
     0
 10
3437.8431690000002
 20
2537.6323299999999
 30
0.0
 11
3437.8431690000002
 21
2622.1811153970789
 31
0.0
  0
LINE
  5
7E13
  8
3
  6
CONTINUOUS
 62
     0
 10
3017.8431690000002
 20
2537.6323299999999
 30
0.0
 11
3017.8431690000002
 21
2622.1811153970789
 31
0.0
  0
LINE
  5
7E14
  8
3
  6
CONTINUOUS
 62
     0
 10
3397.8431690000002
 20
2602.1811153970789
 30
0.0
 11
3057.8431690000002
 21
2602.1811153970789
 31
0.0
  0
INSERT
  5
7E15
  8
3
  6
CONTINUOUS
 62
     0
  2
_OPEN
 10
3437.8431690000002
 20
2602.1811153970789
 30
0.0
 41
40.0
 42
40.0
 43
40.0
  0
INSERT
  5
7E16
  8
3
  6
CONTINUOUS
 62
     0
  2
_OPEN
 10
3017.8431690000002
 20
2602.1811153970789
 30
0.0
 41
40.0
 42
40.0
 43
40.0
 50
180.0
  0
TEXT
  8
3
  40
60
  5
7E70
  62
0
  72
0
  71
0
 10
3105.50
 20
2545.98
 30
0.000000
  1
420
  0
POINT
  5
7E18
  8
DEFPOINTS
  6
CONTINUOUS
 62
     0
 10
3437.8431690000002
 20
2527.6323299999999
 30
0.0
  0
POINT
  5
7E19
  8
DEFPOINTS
  6
CONTINUOUS
 62
     0
 10
3017.8431690000002
 20
2527.6323299999999
 30
0.0
  0
POINT
  5
7E1A
  8
DEFPOINTS
  6
CONTINUOUS
 62
     0
 10
3017.8431690000002
 20
2602.1811153970789
 30
0.0
  0
ENDBLK
  5
7D9B
  8
0
  0
BLOCK
  8
0
  2
*D9
 70
     1
 10
0.0
 20
0.0
 30
0.0
  3
*D9
  1

  0
LINE
  5
7E1B
  8
3
  6
CONTINUOUS
 62
     0
 10
985.74141699999996
 20
2564.6323299999999
 30
0.0
 11
985.74141699999996
 21
2657.0623839999998
 31
0.0
  0
LINE
  5
7E1C
  8
3
  6
CONTINUOUS
 62
     0
 10
1390.741417
 20
2634.7874510000001
 30
0.0
 11
1390.741417
 21
2657.0623839999998
 31
0.0
  0
LINE
  5
7E1D
  8
3
  6
CONTINUOUS
 62
     0
 10
1025.741417
 20
2637.0623839999998
 30
0.0
 11
1350.741417
 21
2637.0623839999998
 31
0.0
  0
INSERT
  5
7E1E
  8
3
  6
CONTINUOUS
 62
     0
  2
_OPEN
 10
985.74141699999996
 20
2637.0623839999998
 30
0.0
 41
40.0
 42
40.0
 43
40.0
 50
180.0
  0
INSERT
  5
7E1F
  8
3
  6
CONTINUOUS
 62
     0
  2
_OPEN
 10
1390.741417
 20
2637.0623839999998
 30
0.0
 41
40.0
 42
40.0
 43
40.0
  0
TEXT
  8
3
  40
60
  5
7E71
  62
0
  72
0
  71
0
 10
1059.13
 20
2580.86
 30
0.000000
  1
405
  0
POINT
  5
7E21
  8
DEFPOINTS
  6
CONTINUOUS
 62
     0
 10
985.74141699999996
 20
2554.6323299999999
 30
0.0
  0
POINT
  5
7E22
  8
DEFPOINTS
  6
CONTINUOUS
 62
     0
 10
1390.741417
 20
2624.7874510000001
 30
0.0
  0
POINT
  5
7E23
  8
DEFPOINTS
  6
CONTINUOUS
 62
     0
 10
1390.741417
 20
2637.0623839999998
 30
0.0
  0
ENDBLK
  5
7C3F
  8
0
  0
BLOCK
  8
0
  2
*D10
 70
     1
 10
0.0
 20
0.0
 30
0.0
  3
*D10
  1

  0
LINE
  5
7E24
  8
3
  6
CONTINUOUS
 62
     0
 10
1865.741417
 20
2408.6323299999999
 30
0.0
 11
1865.741417
 21
2657.0623839999998
 31
0.0
  0
LINE
  5
7E25
  8
3
  6
CONTINUOUS
 62
     0
 10
1430.741417
 20
2637.0623839999998
 30
0.0
 11
1825.741417
 21
2637.0623839999998
 31
0.0
  0
INSERT
  5
7E26
  8
3
  6
CONTINUOUS
 62
     0
  2
_OPEN
 10
1390.741417
 20
2637.0623839999998
 30
0.0
 41
40.0
 42
40.0
 43
40.0
 50
180.0
  0
INSERT
  5
7E27
  8
3
  6
CONTINUOUS
 62
     0
  2
_OPEN
 10
1865.741417
 20
2637.0623839999998
 30
0.0
 41
40.0
 42
40.0
 43
40.0
  0
TEXT
  8
3
  40
60
  5
7E72
  62
0
  72
0
  71
0
 10
1508.24
 20
2580.86
 30
0.000000
  1
475
  0
POINT
  5
7E29
  8
DEFPOINTS
  6
CONTINUOUS
 62
     0
 10
1390.741417
 20
2624.7874510000001
 30
0.0
  0
POINT
  5
7E2A
  8
DEFPOINTS
  6
CONTINUOUS
 62
     0
 10
1865.741417
 20
2398.632329999999
 30
0.0
  0
POINT
  5
7E2B
  8
DEFPOINTS
  6
CONTINUOUS
 62
     0
 10
1865.741417
 20
2637.0623839999998
 30
0.0
  0
ENDBLK
  5
7C4B
  8
0
  0
BLOCK
  8
0
  2
*D11
 70
     1
 10
0.0
 20
0.0
 30
0.0
  3
*D11
  1

  0
LINE
  5
7E2C
  8
3
  6
CONTINUOUS
 62
     0
 10
3447.8431690000002
 20
2283.6323299999999
 30
0.0
 11
3647.1600079999998
 21
2283.6323299999999
 31
0.0
  0
LINE
  5
7E2D
  8
3
  6
CONTINUOUS
 62
     0
 10
3449.8431689999989
 20
1693.6323299999999
 30
0.0
 11
3647.1600079999998
 21
1693.632329999999
 31
0.0
  0
LINE
  5
7E2E
  8
3
  6
CONTINUOUS
 62
     0
 10
3627.1600079999998
 20
2243.6323299999999
 30
0.0
 11
3627.1600079999998
 21
1733.6323299999999
 31
0.0
  0
INSERT
  5
7E2F
  8
3
  6
CONTINUOUS
 62
     0
  2
_OPEN
 10
3627.1600079999998
 20
2283.6323299999999
 30
0.0
 41
40.0
 42
40.0
 43
40.0
 50
90.0
  0
INSERT
  5
7E30
  8
3
  6
CONTINUOUS
 62
     0
  2
_OPEN
 10
3627.1600079999998
 20
1693.632329999999
 30
0.0
 41
40.0
 42
40.0
 43
40.0
 50
270.0
  0
TEXT
  8
3
  40
60
  5
7E73
  62
0
  72
0
  71
0
 10
3457.16
 20
1884.65
 30
0.000000
  1
φ590
  0
POINT
  5
7E32
  8
DEFPOINTS
  6
CONTINUOUS
 62
     0
 10
3437.8431690000002
 20
2283.6323299999999
 30
0.0
  0
POINT
  5
7E33
  8
DEFPOINTS
  6
CONTINUOUS
 62
     0
 10
3439.8431689999989
 20
1693.6323299999999
 30
0.0
  0
POINT
  5
7E34
  8
DEFPOINTS
  6
CONTINUOUS
 62
     0
 10
3627.1600079999998
 20
1693.632329999999
 30
0.0
  0
ENDBLK
  5
7D64
  8
0
  0
BLOCK
  8
0
  2
*D12
 70
     1
 10
0.0
 20
0.0
 30
0.0
  3
*D12
  1

  0
LINE
  5
7D9D
  8
0
  6
BYBLOCK
 62
     0
 10
3439.8431689999989
 20
2318.632329999999
 30
0.0
 11
3439.8431689999989
 21
2756.1752969999989
 31
0.0
  0
LINE
  5
7D9E
  8
0
  6
BYBLOCK
 62
     0
 10
3227.8431690000002
 20
2706.879928665941
 30
0.0
 11
3227.8431690000002
 21
2756.1752969999989
 31
0.0
  0
LINE
  5
7D9F
  8
0
  6
BYBLOCK
 62
     0
 10
3399.8431689999989
 20
2736.1752969999989
 30
0.0
 11
3267.8431690000002
 21
2736.1752969999989
 31
0.0
  0
TEXT
  5
7DA0
  8
3
 62
     0
 10
3262.4145975714282
 20
2764.0871211462609
 30
0.0
 40
60.0
  1
212
  0
INSERT
  5
7DA1
  8
0
  6
BYBLOCK
 62
     0
  2
_OPEN
 10
3439.8431689999989
 20
2736.1752969999989
 30
0.0
 41
40.0
 42
40.0
 43
40.0
  0
INSERT
  5
7DA2
  8
0
  6
BYBLOCK
 62
     0
  2
_OPEN
 10
3227.8431690000002
 20
2736.1752969999989
 30
0.0
 41
40.0
 42
40.0
 43
40.0
 50
180.0
  0
POINT
  5
7DA3
  8
DEFPOINTS
  6
BYBLOCK
 62
     0
 10
3439.8431689999989
 20
2308.6323299999999
 30
0.0
  0
POINT
  5
7DA4
  8
DEFPOINTS
  6
BYBLOCK
 62
     0
 10
3227.8431690000002
 20
2696.879928665941
 30
0.0
  0
POINT
  5
7DA5
  8
DEFPOINTS
  6
BYBLOCK
 62
     0
 10
3227.8431690000002
 20
2736.1752969999989
 30
0.0
  0
ENDBLK
  5
7DA6
  8
0
  0
BLOCK
  8
0
  2
*D13
 70
     1
 10
0.0
 20
0.0
 30
0.0
  3
*D13
  1

  0
LINE
  5
7E35
  8
3
  6
CONTINUOUS
 62
     0
 10
2817.8431690000002
 20
2423.6323299999999
 30
0.0
 11
2817.8431690000002
 21
2756.1752969999989
 31
0.0
  0
LINE
  5
7E36
  8
3
  6
CONTINUOUS
 62
     0
 10
3187.8431690000002
 20
2736.1752969999989
 30
0.0
 11
2857.8431690000002
 21
2736.1752969999989
 31
0.0
  0
INSERT
  5
7E37
  8
3
  6
CONTINUOUS
 62
     0
  2
_OPEN
 10
3227.8431690000002
 20
2736.1752969999989
 30
0.0
 41
40.0
 42
40.0
 43
40.0
  0
INSERT
  5
7E38
  8
3
  6
CONTINUOUS
 62
     0
  2
_OPEN
 10
2817.8431690000002
 20
2736.1752969999989
 30
0.0
 41
40.0
 42
40.0
 43
40.0
 50
180.0
  0
TEXT
  8
3
  40
60
  5
7E74
  62
0
  72
0
  71
0
 10
2902.84
 20
2729.98
 30
0.000000
  1
MAX
  0
TEXT
  8
3
  40
60
  5
7E75
  62
0
  72
0
  71
0
 10
2902.84
 20
2651.98
 30
0.000000
  1
470
  0
POINT
  5
7E3A
  8
DEFPOINTS
  6
CONTINUOUS
 62
     0
 10
3227.8431690000002
 20
2698.3883288035208
 30
0.0
  0
POINT
  5
7E3B
  8
DEFPOINTS
  6
CONTINUOUS
 62
     0
 10
2817.8431690000002
 20
2413.6323299999999
 30
0.0
  0
POINT
  5
7E3C
  8
DEFPOINTS
  6
CONTINUOUS
 62
     0
 10
2817.8431690000002
 20
2736.1752969999989
 30
0.0
  0
ENDBLK
  5
7DB0
  8
0
  0
BLOCK
  8
0
  2
*D14
 70
     1
 10
0.0
 20
0.0
 30
0.0
  3
*D14
  1

  0
LINE
  5
7E3D
  8
3
  6
CONTINUOUS
 62
     0
 10
2782.8431690000002
 20
1448.6323299999999
 30
0.0
 11
2782.8431690000002
 21
1263.396616
 31
0.0
  0
LINE
  5
7E3E
  8
3
  6
CONTINUOUS
 62
     0
 10
3227.8431690000002
 20
1315.616188939722
 30
0.0
 11
3227.8431690000002
 21
1263.396616
 31
0.0
  0
LINE
  5
7E3F
  8
3
  6
CONTINUOUS
 62
     0
 10
2822.8431690000002
 20
1283.396616
 30
0.0
 11
3187.8431690000002
 21
1283.396616
 31
0.0
  0
INSERT
  5
7E40
  8
3
  6
CONTINUOUS
 62
     0
  2
_OPEN
 10
2782.8431690000002
 20
1283.396616
 30
0.0
 41
40.0
 42
40.0
 43
40.0
 50
180.0
  0
INSERT
  5
7E41
  8
3
  6
CONTINUOUS
 62
     0
  2
_OPEN
 10
3227.8431690000002
 20
1283.396616
 30
0.0
 41
40.0
 42
40.0
 43
40.0
  0
TEXT
  8
3
  40
60
  5
7E76
  62
0
  72
0
  71
0
 10
2881.41
 20
1227.20
 30
0.000000
  1
445
  0
POINT
  5
7E43
  8
DEFPOINTS
  6
CONTINUOUS
 62
     0
 10
2782.8431690000002
 20
1458.6323299999999
 30
0.0
  0
POINT
  5
7E44
  8
DEFPOINTS
  6
CONTINUOUS
 62
     0
 10
3227.8431690000002
 20
1325.616188939722
 30
0.0
  0
POINT
  5
7E45
  8
DEFPOINTS
  6
CONTINUOUS
 62
     0
 10
3227.8431690000002
 20
1283.396616
 30
0.0
  0
ENDBLK
  5
7D86
  8
0
  0
BLOCK
  8
0
  2
*D15
 70
     1
 10
0.0
 20
0.0
 30
0.0
  3
*D15
  1

  0
LINE
  5
7E46
  8
3
  6
CONTINUOUS
 62
     0
 10
3562.8431690000002
 20
1448.6323299999999
 30
0.0
 11
3562.8431690000002
 21
1263.396616
 31
0.0
  0
LINE
  5
7E47
  8
3
  6
CONTINUOUS
 62
     0
 10
3267.8431690000002
 20
1283.396616
 30
0.0
 11
3522.8431690000002
 21
1283.396616
 31
0.0
  0
INSERT
  5
7E48
  8
3
  6
CONTINUOUS
 62
     0
  2
_OPEN
 10
3227.8431690000002
 20
1283.396616
 30
0.0
 41
40.0
 42
40.0
 43
40.0
 50
180.0
  0
INSERT
  5
7E49
  8
3
  6
CONTINUOUS
 62
     0
  2
_OPEN
 10
3562.8431690000002
 20
1283.396616
 30
0.0
 41
40.0
 42
40.0
 43
40.0
  0
TEXT
  8
3
  40
60
  5
7E77
  62
0
  72
0
  71
0
 10
3275.34
 20
1227.20
 30
0.000000
  1
335
  0
POINT
  5
7E4B
  8
DEFPOINTS
  6
CONTINUOUS
 62
     0
 10
3227.8431690000002
 20
1324.2883439252139
 30
0.0
  0
POINT
  5
7E4C
  8
DEFPOINTS
  6
CONTINUOUS
 62
     0
 10
3562.8431690000002
 20
1458.6323299999999
 30
0.0
  0
POINT
  5
7E4D
  8
DEFPOINTS
  6
CONTINUOUS
 62
     0
 10
3562.8431690000002
 20
1283.396616
 30
0.0
  0
ENDBLK
  5
7D7B
  8
0
  0
BLOCK
  8
0
  2
*D16
 70
     1
 10
0.0
 20
0.0
 30
0.0
  3
*D16
  1

  0
LINE
  5
7E4E
  8
3
  6
CONTINUOUS
 62
     0
 10
1045.741417
 20
3998.6323299999999
 30
0.0
 11
1045.741417
 21
4095.891932999999
 31
0.0
  0
LINE
  5
7E4F
  8
3
  6
CONTINUOUS
 62
     0
 10
2295.7414170000002
 20
3998.6323299999999
 30
0.0
 11
2295.7414170000002
 21
4095.891932999999
 31
0.0
  0
LINE
  5
7E50
  8
3
  6
CONTINUOUS
 62
     0
 10
1085.741417
 20
4075.8919329999999
 30
0.0
 11
2255.7414170000002
 21
4075.8919329999999
 31
0.0
  0
INSERT
  5
7E51
  8
3
  6
CONTINUOUS
 62
     0
  2
_OPEN
 10
1045.741417
 20
4075.8919329999999
 30
0.0
 41
40.0
 42
40.0
 43
40.0
 50
180.0
  0
INSERT
  5
7E52
  8
3
  6
CONTINUOUS
 62
     0
  2
_OPEN
 10
2295.7414170000002
 20
4075.8919329999999
 30
0.0
 41
40.0
 42
40.0
 43
40.0
  0
TEXT
  8
3
  40
60
  5
7E78
  62
0
  72
0
  71
0
 10
1494.58
 20
4019.69
 30
0.000000
  1
1250
  0
POINT
  5
7E54
  8
DEFPOINTS
  6
CONTINUOUS
 62
     0
 10
1045.741417
 20
3988.6323299999999
 30
0.0
  0
POINT
  5
7E55
  8
DEFPOINTS
  6
CONTINUOUS
 62
     0
 10
2295.7414170000002
 20
3988.6323299999999
 30
0.0
  0
POINT
  5
7E56
  8
DEFPOINTS
  6
CONTINUOUS
 62
     0
 10
2295.7414170000002
 20
4075.8919329999999
 30
0.0
  0
ENDBLK
  5
7C9B
  8
0
  0
BLOCK
  8
0
  2
*D17
 70
     1
 10
0.0
 20
0.0
 30
0.0
  3
*D17
  1

  0
LINE
  5
7E57
  8
3
  6
CONTINUOUS
 62
     0
 10
2305.7414170000002
 20
3988.6323299999999
 30
0.0
 11
2509.847854000001
 21
3988.6323299999999
 31
0.0
  0
LINE
  5
7E58
  8
3
  6
CONTINUOUS
 62
     0
 10
2305.7414170000002
 20
3208.632329999999
 30
0.0
 11
2509.847854000001
 21
3208.632329999999
 31
0.0
  0
LINE
  5
7E59
  8
3
  6
CONTINUOUS
 62
     0
 10
2489.847854000001
 20
3948.6323299999999
 30
0.0
 11
2489.847854000001
 21
3248.6323299999999
 31
0.0
  0
INSERT
  5
7E5A
  8
3
  6
CONTINUOUS
 62
     0
  2
_OPEN
 10
2489.847854000001
 20
3988.6323299999999
 30
0.0
 41
40.0
 42
40.0
 43
40.0
 50
90.0
  0
INSERT
  5
7E5B
  8
3
  6
CONTINUOUS
 62
     0
  2
_OPEN
 10
2489.847854000001
 20
3208.632329999999
 30
0.0
 41
40.0
 42
40.0
 43
40.0
 50
270.0
  0
TEXT
  8
3
  40
60
  5
7E79
  62
0
  72
0
  71
0
 10
2319.85
 20
3479.67
 30
0.000000
  1
780
  0
POINT
  5
7E5D
  8
DEFPOINTS
  6
CONTINUOUS
 62
     0
 10
2295.7414170000002
 20
3988.6323299999999
 30
0.0
  0
POINT
  5
7E5E
  8
DEFPOINTS
  6
CONTINUOUS
 62
     0
 10
2295.7414170000002
 20
3208.632329999999
 30
0.0
  0
POINT
  5
7E5F
  8
DEFPOINTS
  6
CONTINUOUS
 62
     0
 10
2489.847854000001
 20
3208.632329999999
 30
0.0
  0
ENDBLK
  5
7CA8
  8
0
  0
BLOCK
  8
0
  2
*D18
 70
     1
 10
0.0
 20
0.0
 30
0.0
  3
*D18
  1

  0
LINE
  5
7E60
  8
3
 62
     0
 10
985.74141699999996
 20
2564.6323299999999
 30
0.0
 11
985.74141699999996
 21
2788.8530310446358
 31
0.0
  0
LINE
  5
7E61
  8
3
 62
     0
 10
2295.7414170000002
 20
1588.6323299999999
 30
0.0
 11
2295.7414170000002
 21
2788.8530310446358
 31
0.0
  0
LINE
  5
7E62
  8
3
 62
     0
 10
1025.741417
 20
2768.8530310446372
 30
0.0
 11
2255.7414170000002
 21
2768.8530310446372
 31
0.0
  0
INSERT
  5
7E63
  8
3
 62
     0
  2
_OPEN
 10
985.74141699999996
 20
2768.8530310446372
 30
0.0
 41
40.0
 42
40.0
 43
40.0
 50
180.0
  0
INSERT
  5
7E64
  8
3
 62
     0
  2
_OPEN
 10
2295.7414170000002
 20
2768.8530310446372
 30
0.0
 41
40.0
 42
40.0
 43
40.0
  0
TEXT
  8
3
  40
60
  5
7E7A
  62
0
  72
0
  71
0
 10
1517.61
 20
2712.65
 30
0.000000
  1
1310
  0
POINT
  5
7E66
  8
DEFPOINTS
 62
     0
 10
985.74141699999996
 20
2554.6323299999999
 30
0.0
  0
POINT
  5
7E67
  8
DEFPOINTS
 62
     0
 10
2295.7414170000002
 20
1578.6323299999999
 30
0.0
  0
POINT
  5
7E68
  8
DEFPOINTS
 62
     0
 10
2295.7414170000002
 20
2768.8530310446372
 30
0.0
  0
ENDBLK
  5
7D42
  8
0
  0
ENDSEC
  0
SECTION
  2
ENTITIES
  0
LINE
  5
7AC6
  8
1
  6
CONTINUOUS
 10
2071.792660999999
 20
1693.2457979999999
 30
0.0
 11
1363.6717659999999
 21
1892.365855999999
 31
0.0
  0
LINE
  5
7AC7
  8
1
  6
CONTINUOUS
 10
2115.1146869999998
 20
1826.2520199999999
 30
0.0
 11
1425.560375
 21
2082.3747440000002
 31
0.0
  0
CIRCLE
  5
7AC8
  8
1
  6
CONTINUOUS
 10
1390.741417
 20
1988.6323299999999
 30
0.0
 40
320.0
  0
CIRCLE
  5
7AC9
  8
1
  6
CONTINUOUS
 10
1390.741417
 20
1988.6323299999999
 30
0.0
 40
295.0
  0
LINE
  5
7ACA
  8
1
  6
CONTINUOUS
 10
1390.241417
 20
2413.6323299999999
 30
0.0
 11
2250.2414170000002
 21
1808.6323299999999
 31
0.0
  0
LINE
  5
7ACB
  8
1
  6
CONTINUOUS
 10
1045.741417
 20
1498.6323299999999
 30
0.0
 11
2295.7414170000002
 21
1498.6323299999999
 31
0.0
  0
ARC
  5
7ACC
  8
1
  6
CONTINUOUS
 10
1353.741417
 20
2025.6323299999999
 30
0.0
 40
501.36713099999992
 50
354.95754899999997
 51
85.767825999999985
  0
ARC
  5
7ACD
  8
1
  6
CONTINUOUS
 10
1421.741416999999
 20
2019.6323299999999
 30
0.0
 40
433.10293799999999
 50
262.74680499999999
 51
354.95754899999997
  0
LINE
  5
7ACE
  8
1
  6
CONTINUOUS
 10
1030.741416999999
 20
1578.6323299999999
 30
0.0
 11
2295.7414170000002
 21
1578.6323299999999
 31
0.0
  0
LINE
  5
7ACF
  8
1
  6
CONTINUOUS
 10
1030.741416999999
 20
2398.632329999999
 30
0.0
 11
1865.741417
 21
2398.632329999999
 31
0.0
  0
LINE
  5
7AD0
  8
1
  6
CONTINUOUS
 10
1037.0940599999999
 20
1967.6323299999999
 30
0.0
 11
985.74141699999996
 21
1967.6323299999999
 31
0.0
  0
LINE
  5
7AD1
  8
1
  6
CONTINUOUS
 10
985.74141699999996
 20
2527.6323299999999
 30
0.0
 11
1390.741417
 21
2525.6323299999999
 31
0.0
  0
ARC
  5
7AD2
  8
1
  6
CONTINUOUS
 10
1414.741417
 20
1964.6323299999999
 30
0.0
 40
377.65927299999993
 50
179.54485700000001
 51
262.74680499999999
  0
LINE
  5
7AD3
  8
1
  6
CONTINUOUS
 10
985.74141699999996
 20
1940.6323299999999
 30
0.0
 11
985.74141699999996
 21
2554.6323299999999
 31
0.0
  0
CIRCLE
  5
7AD4
  8
1
  6
CONTINUOUS
 10
1390.741417
 20
1988.6323299999999
 30
0.0
 40
100.0
  0
LINE
  5
7AD5
  8
1
  6
CONTINUOUS
 10
1120.241416999999
 20
1578.6323299999999
 30
0.0
 11
1120.241416999999
 21
2328.6323299999999
 31
0.0
  0
LINE
  5
7AD6
  8
2
  6
CENTER
 10
1390.741417
 20
4005.6096569999991
 30
0.0
 11
1390.741417
 21
3156.7435439999999
 31
0.0
  0
LINE
  5
7AD7
  8
1
  6
CONTINUOUS
 10
1030.741416999999
 20
2398.632329999999
 30
0.0
 11
1030.741416999999
 21
1578.6323299999999
 31
0.0
  0
LINE
  5
7AD8
  8
1
  6
CONTINUOUS
 10
1045.741417
 20
1578.6323299999999
 30
0.0
 11
1045.741417
 21
1458.6323299999999
 31
0.0
  0
LINE
  5
7AD9
  8
1
  6
CONTINUOUS
 10
1085.741417
 20
1498.6323299999999
 30
0.0
 11
1085.741417
 21
1458.6323299999999
 31
0.0
  0
LINE
  5
7ADA
  8
1
  6
CONTINUOUS
 10
1045.741417
 20
1458.6323299999999
 30
0.0
 11
1085.741417
 21
1458.6323299999999
 31
0.0
  0
LINE
  5
7ADB
  8
1
  6
CONTINUOUS
 10
1120.241416999999
 20
2328.6323299999999
 30
0.0
 11
1390.241417
 21
2413.6323299999999
 31
0.0
  0
LINE
  5
7ADC
  8
2
  6
CENTER
 10
894.19188699999995
 20
1988.6323299999999
 30
0.0
 11
2139.0554965859842
 21
1988.6323299999999
 31
0.0
  0
LINE
  5
7ADD
  8
1
  6
CONTINUOUS
 10
1010.741416999999
 20
1967.6323299999999
 30
0.0
 11
1010.741416999999
 21
2527.5088730000002
 31
0.0
  0
LINE
  5
7AE3
  8
1
  6
CONTINUOUS
 10
2220.7414170000002
 20
1578.6323299999999
 30
0.0
 11
1960.741417
 21
1578.6323299999999
 31
0.0
  0
LINE
  5
7AE4
  8
1
  6
CONTINUOUS
 10
2220.7414170000002
 20
1643.6323299999999
 30
0.0
 11
2206.4877799999999
 21
1678.371893
 31
0.0
  0
ARC
  5
7AE5
  8
1
  6
CONTINUOUS
 10
2090.7414170000002
 20
1760.6323299999999
 30
0.0
 40
142.0
 50
324.59875699999998
 51
215.40124299999999
  0
LINE
  5
7AE6
  8
1
  6
CONTINUOUS
 10
1865.741417
 20
2398.632329999999
 30
0.0
 11
1865.741417
 21
1578.6323299999999
 31
0.0
  0
CIRCLE
  5
7AE7
  8
1
  6
CONTINUOUS
 10
2090.7414170000002
 20
1760.6323299999999
 30
0.0
 40
70.0
  0
LINE
  5
7AE8
  8
2
  6
CENTER
 10
2160.7414170000002
 20
1760.6323299999999
 30
0.0
 11
2020.741417
 21
1760.6323299999999
 31
0.0
  0
LINE
  5
7AE9
  8
1
  6
CONTINUOUS
 10
1960.741417
 20
1643.6323299999999
 30
0.0
 11
1974.995054
 21
1678.371893
 31
0.0
  0
LINE
  5
7AEA
  8
1
  6
CONTINUOUS
 10
1960.741417
 20
1578.6323299999999
 30
0.0
 11
1960.741417
 21
1643.6323299999999
 31
0.0
  0
LINE
  5
7AEB
  8
2
  6
CENTER
 10
2090.7414170000002
 20
1690.6323299999999
 30
0.0
 11
2090.7414170000002
 21
1830.6323299999999
 31
0.0
  0
LINE
  5
7AEC
  8
1
  6
CONTINUOUS
 10
2295.7414170000002
 20
1578.6323299999999
 30
0.0
 11
2295.7414170000002
 21
1458.6323299999999
 31
0.0
  0
LINE
  5
7AED
  8
1
  6
CONTINUOUS
 10
2255.7414170000002
 20
1498.6323299999999
 30
0.0
 11
2255.7414170000002
 21
1458.6323299999999
 31
0.0
  0
LINE
  5
7AEE
  8
1
  6
CONTINUOUS
 10
2255.7414170000002
 20
1458.6323299999999
 30
0.0
 11
2295.7414170000002
 21
1458.6323299999999
 31
0.0
  0
LINE
  5
7AEF
  8
1
  6
CONTINUOUS
 10
2250.2414170000002
 20
1578.6323299999999
 30
0.0
 11
2250.2414170000002
 21
1808.6323299999999
 31
0.0
  0
LINE
  5
7AF0
  8
1
  6
CONTINUOUS
 10
2220.7414170000002
 20
1578.6323299999999
 30
0.0
 11
2220.7414170000002
 21
1643.6323299999999
 31
0.0
  0
LINE
  5
7B12
  8
1
  6
CONTINUOUS
 10
3562.8431690000002
 20
1458.6323299999999
 30
0.0
 11
2782.8431690000002
 21
1458.6323299999999
 31
0.0
  0
LINE
  5
7B13
  8
1
  6
CONTINUOUS
 10
3562.8431690000002
 20
1498.6323299999999
 30
0.0
 11
2782.8431690000002
 21
1498.6323299999999
 31
0.0
  0
LINE
  5
7B14
  8
1
  6
CONTINUOUS
 10
3482.8431689999989
 20
1578.6323299999999
 30
0.0
 11
2817.8431690000002
 21
1578.6323299999999
 31
0.0
  0
LINE
  5
7B15
  8
1
  6
CONTINUOUS
 10
3017.8431690000002
 20
2527.6323299999999
 30
0.0
 11
3437.8431690000002
 21
2527.6323299999999
 31
0.0
  0
LINE
  5
7B16
  8
1
  6
CONTINUOUS
 10
3017.8431690000002
 20
1967.6323299999999
 30
0.0
 11
3437.8431690000002
 21
1967.6323299999999
 31
0.0
  0
LINE
  5
7B17
  8
1
  6
CONTINUOUS
 10
3017.8431690000002
 20
2527.6323299999999
 30
0.0
 11
3437.8431690000002
 21
1967.6323299999999
 31
0.0
  0
LINE
  5
7B18
  8
1
  6
CONTINUOUS
 10
3017.8431690000002
 20
1967.6323299999999
 30
0.0
 11
3437.8431690000002
 21
2527.6323299999999
 31
0.0
  0
LINE
  5
7B19
  8
1
  6
CONTINUOUS
 10
3017.8431690000002
 20
1578.6323299999999
 30
0.0
 11
3017.8431690000002
 21
2527.6323299999999
 31
0.0
  0
LINE
  5
7B1A
  8
1
  6
CONTINUOUS
 10
2817.8431690000002
 20
1578.6323299999999
 30
0.0
 11
2817.8431690000002
 21
2413.6323299999999
 31
0.0
  0
LINE
  5
7B1B
  8
1
  6
CONTINUOUS
 10
2937.8431690000002
 20
1578.6323299999999
 30
0.0
 11
2937.8431690000002
 21
2413.6323299999999
 31
0.0
  0
LINE
  5
7B1C
  8
1
  6
CONTINUOUS
 10
2847.8431690000002
 20
2088.6323299999999
 30
0.0
 11
2847.8431690000002
 21
1888.6323299999999
 31
0.0
  0
LINE
  5
7B1D
  8
1
  6
CONTINUOUS
 10
2907.8431690000002
 20
2088.6323299999999
 30
0.0
 11
2907.8431690000002
 21
1888.6323299999999
 31
0.0
  0
LINE
  5
7B1E
  8
1
  6
CONTINUOUS
 10
2847.8431690000002
 20
1888.6323299999999
 30
0.0
 11
2907.8431690000002
 21
1888.6323299999999
 31
0.0
  0
LINE
  5
7B1F
  8
1
  6
CONTINUOUS
 10
2847.8431690000002
 20
1830.6323299999999
 30
0.0
 11
2907.8431690000002
 21
1830.6323299999999
 31
0.0
  0
LINE
  5
7B20
  8
1
  6
CONTINUOUS
 10
2847.8431690000002
 20
1690.6323299999999
 30
0.0
 11
2907.8431690000002
 21
1690.6323299999999
 31
0.0
  0
LINE
  5
7B21
  8
1
  6
CONTINUOUS
 10
2782.8431690000002
 20
1498.6323299999999
 30
0.0
 11
2782.8431690000002
 21
1458.6323299999999
 31
0.0
  0
LINE
  5
7B22
  8
1
  6
CONTINUOUS
 10
2847.8431690000002
 20
1830.6323299999999
 30
0.0
 11
2847.8431690000002
 21
1690.6323299999999
 31
0.0
  0
LINE
  5
7B23
  8
1
  6
CONTINUOUS
 10
2907.8431690000002
 20
1776.6323299999999
 30
0.0
 11
3017.8431690000002
 21
1776.6323299999999
 31
0.0
  0
LINE
  5
7B24
  8
1
  6
CONTINUOUS
 10
2907.8431690000002
 20
1744.6323299999999
 30
0.0
 11
3017.8431690000002
 21
1744.6323299999999
 31
0.0
  0
LINE
  5
7B25
  8
1
  6
CONTINUOUS
 10
2972.8431690000002
 20
1498.6323299999999
 30
0.0
 11
2972.8431690000002
 21
1578.6323299999999
 31
0.0
  0
LINE
  5
7B26
  8
1
  6
CONTINUOUS
 10
2907.8431690000002
 20
1830.6323299999999
 30
0.0
 11
2907.8431690000002
 21
1690.6323299999999
 31
0.0
  0
LINE
  5
7B27
  8
1
  6
CONTINUOUS
 10
2817.8431690000002
 20
2413.6323299999999
 30
0.0
 11
2937.8431690000002
 21
2413.6323299999999
 31
0.0
  0
LINE
  5
7B28
  8
1
  6
CONTINUOUS
 10
2847.8431690000002
 20
2088.6323299999999
 30
0.0
 11
2907.8431690000002
 21
2088.6323299999999
 31
0.0
  0
LINE
  5
7B29
  8
1
  6
CONTINUOUS
 10
3017.8431690000002
 20
2004.6323299999999
 30
0.0
 11
2907.8431690000002
 21
2004.6323299999999
 31
0.0
  0
LINE
  5
7B2A
  8
1
  6
CONTINUOUS
 10
3017.8431690000002
 20
1972.6323299999999
 30
0.0
 11
2907.8431690000002
 21
1972.6323299999999
 31
0.0
  0
LINE
  5
7B2B
  8
1
  6
CONTINUOUS
 10
3437.8431690000002
 20
1578.6323299999999
 30
0.0
 11
3437.8431690000002
 21
2527.6323299999999
 31
0.0
  0
LINE
  5
7B2C
  8
1
  6
CONTINUOUS
 10
3439.8431689999989
 20
1668.6323299999999
 30
0.0
 11
3439.8431689999989
 21
2308.6323299999999
 31
0.0
  0
LINE
  5
7B2D
  8
1
  6
CONTINUOUS
 10
3437.8431690000002
 20
1668.6323299999999
 30
0.0
 11
3439.8431689999989
 21
1668.6323299999999
 31
0.0
  0
LINE
  5
7B2E
  8
1
  6
CONTINUOUS
 10
3562.8431690000002
 20
1498.6323299999999
 30
0.0
 11
3562.8431690000002
 21
1458.6323299999999
 31
0.0
  0
LINE
  5
7B2F
  8
1
  6
CONTINUOUS
 10
3482.8431689999989
 20
1498.6323299999999
 30
0.0
 11
3482.8431689999989
 21
1578.6323299999999
 31
0.0
  0
LINE
  5
7B30
  8
1
  6
CONTINUOUS
 10
3437.8431690000002
 20
2308.6323299999999
 30
0.0
 11
3439.8431689999989
 21
2308.6323299999999
 31
0.0
  0
LINE
  5
7B31
  8
1
  6
CONTINUOUS
 10
1710.741417
 20
3865.6323299999999
 30
0.0
 11
1070.741417
 21
3865.6323299999999
 31
0.0
  0
LINE
  5
7B32
  8
1
  6
CONTINUOUS
 10
1406.741417
 20
3398.6323299999999
 30
0.0
 11
2071.7414170000002
 21
3398.6323299999999
 31
0.0
  0
LINE
  5
7B33
  8
1
  6
CONTINUOUS
 10
1120.241416999999
 20
3363.6323299999999
 30
0.0
 11
2250.2414170000002
 21
3363.6323299999999
 31
0.0
  0
LINE
  5
7B34
  8
1
  6
CONTINUOUS
 10
1120.241416999999
 20
3243.6323299999999
 30
0.0
 11
2250.2414170000002
 21
3243.6323299999999
 31
0.0
  0
LINE
  5
7B35
  8
1
  6
CONTINUOUS
 10
1045.741417
 20
3908.632329999999
 30
0.0
 11
2295.7414170000002
 21
3908.632329999999
 31
0.0
  0
LINE
  5
7B36
  8
1
  6
CONTINUOUS
 10
1865.741417
 20
3863.6323299999999
 30
0.0
 11
985.74141699999996
 21
3863.6323299999999
 31
0.0
  0
LINE
  5
7B37
  8
1
  6
CONTINUOUS
 10
1865.741417
 20
3443.632329999999
 30
0.0
 11
985.74141699999996
 21
3443.632329999999
 31
0.0
  0
LINE
  5
7B38
  8
1
  6
CONTINUOUS
 10
985.74141699999996
 20
3890.632329999999
 30
0.0
 11
985.74141699999996
 21
3416.6323299999999
 31
0.0
  0
LINE
  5
7B39
  8
1
  6
CONTINUOUS
 10
1010.741416999999
 20
3863.6323299999999
 30
0.0
 11
1010.741416999999
 21
3443.632329999999
 31
0.0
  0
LINE
  5
7B3A
  8
1
  6
CONTINUOUS
 10
1490.741416999999
 20
3333.632329999999
 30
0.0
 11
1290.741417
 21
3333.632329999999
 31
0.0
  0
LINE
  5
7B3B
  8
1
  6
CONTINUOUS
 10
1490.741416999999
 20
3273.6323299999999
 30
0.0
 11
1290.741417
 21
3273.6323299999999
 31
0.0
  0
LINE
  5
7B3C
  8
1
  6
CONTINUOUS
 10
1045.741417
 20
3398.6323299999999
 30
0.0
 11
1374.741417
 21
3398.6323299999999
 31
0.0
  0
LINE
  5
7B3D
  8
1
  6
CONTINUOUS
 10
1045.741417
 20
3443.632329999999
 30
0.0
 11
1045.741417
 21
3208.632329999999
 31
0.0
  0
LINE
  5
7B3E
  8
1
  6
CONTINUOUS
 10
1290.741417
 20
3273.6323299999999
 30
0.0
 11
1290.741417
 21
3333.632329999999
 31
0.0
  0
LINE
  5
7B3F
  8
1
  6
CONTINUOUS
 10
1120.241416999999
 20
3243.6323299999999
 30
0.0
 11
1120.241416999999
 21
3363.6323299999999
 31
0.0
  0
LINE
  5
7B40
  8
1
  6
CONTINUOUS
 10
1085.741417
 20
3398.6323299999999
 30
0.0
 11
1085.741417
 21
3208.632329999999
 31
0.0
  0
LINE
  5
7B41
  8
1
  6
CONTINUOUS
 10
1085.741417
 20
3208.632329999999
 30
0.0
 11
1045.741417
 21
3208.632329999999
 31
0.0
  0
LINE
  5
7B42
  8
1
  6
CONTINUOUS
 10
1490.741416999999
 20
3273.6323299999999
 30
0.0
 11
1490.741416999999
 21
3333.632329999999
 31
0.0
  0
LINE
  5
7B43
  8
1
  6
CONTINUOUS
 10
1374.741417
 20
3443.632329999999
 30
0.0
 11
1374.741417
 21
3333.632329999999
 31
0.0
  0
LINE
  5
7B44
  8
1
  6
CONTINUOUS
 10
1406.741417
 20
3443.632329999999
 30
0.0
 11
1406.741417
 21
3333.632329999999
 31
0.0
  0
LINE
  5
7B45
  8
1
  6
CONTINUOUS
 10
1070.741417
 20
3863.6323299999999
 30
0.0
 11
1070.741417
 21
3865.6323299999999
 31
0.0
  0
LINE
  5
7B46
  8
1
  6
CONTINUOUS
 10
1045.741417
 20
3988.6323299999999
 30
0.0
 11
1045.741417
 21
3863.6323299999999
 31
0.0
  0
LINE
  5
7B47
  8
1
  6
CONTINUOUS
 10
1085.741417
 20
3988.6323299999999
 30
0.0
 11
1085.741417
 21
3908.632329999999
 31
0.0
  0
LINE
  5
7B48
  8
1
  6
CONTINUOUS
 10
1085.741417
 20
3988.6323299999999
 30
0.0
 11
1045.741417
 21
3988.6323299999999
 31
0.0
  0
LINE
  5
7B4F
  8
1
  6
CONTINUOUS
 10
2109.7414170000002
 20
3398.6323299999999
 30
0.0
 11
2295.7414170000002
 21
3398.6323299999999
 31
0.0
  0
LINE
  5
7B50
  8
1
  6
CONTINUOUS
 10
2232.7414170000002
 20
3817.370163
 30
0.0
 11
1948.741417
 21
3817.370163
 31
0.0
  0
LINE
  5
7B51
  8
1
  6
CONTINUOUS
 10
2232.7414170000002
 20
3417.370163
 30
0.0
 11
1948.741417
 21
3417.370163
 31
0.0
  0
LINE
  5
7B52
  8
1
  6
CONTINUOUS
 10
1865.741417
 20
3443.632329999999
 30
0.0
 11
1865.741417
 21
3863.6323299999999
 31
0.0
  0
LINE
  5
7B53
  8
1
  6
CONTINUOUS
 10
1948.741417
 20
3817.370163
 30
0.0
 11
1948.741417
 21
3417.370163
 31
0.0
  0
LINE
  5
7B54
  8
1
  6
CONTINUOUS
 10
2020.741417
 20
3273.6323299999999
 30
0.0
 11
2020.741417
 21
3333.632329999999
 31
0.0
  0
LINE
  5
7B55
  8
1
  6
CONTINUOUS
 10
2160.7414170000002
 20
3273.6323299999999
 30
0.0
 11
2160.7414170000002
 21
3333.632329999999
 31
0.0
  0
LINE
  5
7B56
  8
1
  6
CONTINUOUS
 10
2160.7414170000002
 20
3273.6323299999999
 30
0.0
 11
2020.741417
 21
3273.6323299999999
 31
0.0
  0
LINE
  5
7B57
  8
1
  6
CONTINUOUS
 10
2160.7414170000002
 20
3333.632329999999
 30
0.0
 11
2020.741417
 21
3333.632329999999
 31
0.0
  0
LINE
  5
7B58
  8
1
  6
CONTINUOUS
 10
2071.7414170000002
 20
3333.632329999999
 30
0.0
 11
2071.7414170000002
 21
3417.370163
 31
0.0
  0
LINE
  5
7B59
  8
1
  6
CONTINUOUS
 10
2109.7414170000002
 20
3333.632329999999
 30
0.0
 11
2109.7414170000002
 21
3417.370163
 31
0.0
  0
LINE
  5
7B5A
  8
1
  6
CONTINUOUS
 10
1710.741417
 20
3863.6323299999999
 30
0.0
 11
1710.741417
 21
3865.6323299999999
 31
0.0
  0
LINE
  5
7B5B
  8
1
  6
CONTINUOUS
 10
2295.7414170000002
 20
3988.6323299999999
 30
0.0
 11
2295.7414170000002
 21
3208.632329999999
 31
0.0
  0
LINE
  5
7B5C
  8
1
  6
CONTINUOUS
 10
2232.7414170000002
 20
3817.370163
 30
0.0
 11
2232.7414170000002
 21
3417.370163
 31
0.0
  0
LINE
  5
7B5F
  8
1
  6
CONTINUOUS
 10
2250.2414170000002
 20
3243.6323299999999
 30
0.0
 11
2250.2414170000002
 21
3363.6323299999999
 31
0.0
  0
LINE
  5
7B60
  8
1
  6
CONTINUOUS
 10
2255.7414170000002
 20
3398.6323299999999
 30
0.0
 11
2255.7414170000002
 21
3208.632329999999
 31
0.0
  0
LINE
  5
7B61
  8
1
  6
CONTINUOUS
 10
2255.7414170000002
 20
3208.632329999999
 30
0.0
 11
2295.7414170000002
 21
3208.632329999999
 31
0.0
  0
LINE
  5
7B65
  8
1
  6
CONTINUOUS
 10
2255.7414170000002
 20
3988.6323299999999
 30
0.0
 11
2295.7414170000002
 21
3988.6323299999999
 31
0.0
  0
LINE
  5
7B66
  8
1
  6
CONTINUOUS
 10
2255.7414170000002
 20
3988.6323299999999
 30
0.0
 11
2255.7414170000002
 21
3908.632329999999
 31
0.0
  0
LINE
  5
7B87
  8
2
  6
CENTER
 10
2398.2507820000001
 20
3653.6323299999999
 30
0.0
 11
916.06284299999993
 21
3653.6323299999999
 31
0.0
  0
LINE
  5
7B88
  8
2
  6
CENTER
 10
3227.8431690000002
 20
2596.7871890000001
 30
0.0
 11
3227.8431690000002
 21
1329.599760118359
 31
0.0
  0
LINE
  5
7B89
  8
2
  6
CENTER
 10
1390.741417
 20
2624.7874510000001
 30
0.0
 11
1390.741417
 21
1401.9490989999999
 31
0.0
  0
LINE
  5
7B8A
  8
2
  6
CENTER
 10
2774.080996378761
 20
1988.6323299999999
 30
0.0
 11
3472.800732365085
 21
1988.6323299999999
 31
0.0
  0
LINE
  5
7B8B
  8
4
  6
CONTINUOUS
 10
3700.0
 20
1000.0
 30
0.0
 11
3700.0
 21
600.0
 31
0.0
  0
LINE
  5
7B8C
  8
4
  6
CONTINUOUS
 10
2300.0
 20
1000.0
 30
0.0
 11
2300.0
 21
600.0
 31
0.0
  0
LINE
  5
7B8D
  8
4
  6
CONTINUOUS
 10
1300.0
 20
1000.0
 30
0.0
 11
1300.0
 21
600.0
 31
0.0
  0
LINE
  5
7B90
  8
4
  6
CONTINUOUS
 10
1300.0
 20
600.0
 30
0.0
 11
3700.0
 21
600.0
 31
0.0
  0
LINE
  5
7B91
  8
4
  6
CONTINUOUS
 10
1300.0
 20
800.0
 30
0.0
 11
3700.0
 21
800.0
 31
0.0
  0
TEXT
  5
7B92
  8
4
  6
CONTINUOUS
 10
1377.004162
 20
863.086052
 30
0.0
 40
100.0
  1
機器名称
  0
TEXT
  5
7B93
  8
4
  6
CONTINUOUS
 10
1372.516212
 20
643.29031299999986
 30
0.0
 40
100.0
  1
機器型番
  0
TEXT
  5
7B94
  8
4
  6
CONTINUOUS
 10
2355.3574910000002
 20
845.14353800000015
 30
0.0
 40
100.0
  1
ミツヤ多翼送風機
  0
TEXT
  5
7B95
  8
4
  6
CONTINUOUS
 10
2373.3089909999999
 20
634.31916899999999
 30
0.0
 40
100.0
  1
MF#3 1/2-4
  0
TEXT
  5
7B97
  8
4
  6
CONTINUOUS
 10
1721.2387659999999
 20
4766.8576830000002
 30
0.0
 40
108.0
  1
天井吊ベット
  0
TEXT
  5
7B98
  8
4
  6
CONTINUOUS
 10
632.33518700000002
 20
5067.7619520000007
 30
0.0
 40
144.0
  1
ベルト駆動式片吸込両持多翼ファン
  0
LINE
  5
7B99
  8
4
  6
CONTINUOUS
 10
500.0
 20
4938.8175090000004
 30
0.0
 11
3700.0
 21
4938.8175090000004
 31
0.0
  0
LINE
  5
7B9A
  8
4
  6
CONTINUOUS
 10
500.0
 20
5338.8175090000004
 30
0.0
 11
3700.0
 21
5338.8175090000004
 31
0.0
  0
LINE
  5
7B9B
  8
4
  6
CONTINUOUS
 10
1300.0
 20
1000.0
 30
0.0
 11
3700.0
 21
1000.0
 31
0.0
  0
LINE
  5
7B9C
  8
4
  6
CONTINUOUS
 10
500.0
 20
5338.8175090000004
 30
0.0
 11
500.0
 21
4938.8175090000004
 31
0.0
  0
TEXT
  5
7B9D
  8
4
  6
CONTINUOUS
 10
849.52110100000004
 20
4764.6389549999994
 30
0.0
 40
108.0
  1
左回転左横向
  0
TEXT
  5
7B9E
  8
4
  6
CONTINUOUS
 10
2937.9391179999998
 20
5412.122163
 30
0.0
 40
112.0
  1
No.
  0
TEXT
  5
7B9F
  8
4
  6
CONTINUOUS
 10
2622.5921250000001
 20
4766.8576830000002
 30
0.0
 40
108.0
  1
縮尺：1/20
  0
LINE
  5
7BA0
  8
4
  6
CONTINUOUS
 10
3700.0
 20
5338.8175090000004
 30
0.0
 11
3700.0
 21
4938.8175090000004
 31
0.0
  0
LINE
  5
7BA2
  8
4
  6
CONTINUOUS
 10
2881.234845
 20
5362.5271659999999
 30
0.0
 11
2881.234845
 21
5573.3045229999998
 31
0.0
  0
LINE
  5
7BA3
  8
4
  6
CONTINUOUS
 10
2881.234845
 20
5573.3045229999998
 30
0.0
 11
3700.0
 21
5573.3045229999998
 31
0.0
  0
LINE
  5
7BA4
  8
4
  6
CONTINUOUS
 10
3700.0
 20
5573.3045229999998
 30
0.0
 11
3700.0
 21
5362.5271659999999
 31
0.0
  0
LINE
  5
7BA5
  8
4
  6
CONTINUOUS
 10
3700.0
 20
5362.5271659999999
 30
0.0
 11
2881.234845
 21
5362.5271659999999
 31
0.0
  0
DIMENSION
  5
7BBD
  8
3
  6
CONTINUOUS
  2
*D1
 10
912.76693300000034
 20
1967.6323299999999
 30
0.0
 11
912.76693299999988
 21
2231.5935410000002
 31
0.0
 70
   128
 13
985.74141699999996
 23
2527.6323299999999
 33
0.0
 14
985.74141699999996
 24
1967.6323299999999
 34
0.0
 50
90.0
1001
ACAD
1000
DSTYLE
1002
{
1070
   287
1070
     3
1070
    40
1040
20.0
1070
   143
1040
0.039
1070
   172
1070
     1
1070
   271
1070
     0
1070
   279
1070
     0
1070
   288
1070
     1
1002
}
  0
DIMENSION
  5
7BCA
  8
3
  6
CONTINUOUS
  2
*D2
 10
773.24205900000027
 20
1988.6323299999999
 30
0.0
 11
773.24205900000004
 21
2231.5935410000002
 31
0.0
 70
   128
 13
985.74141699999996
 23
2527.6323299999999
 33
0.0
 14
894.19188699999995
 24
1988.6323299999999
 34
0.0
 50
90.0
1001
ACAD
1000
DSTYLE
1002
{
1070
   287
1070
     3
1070
    40
1040
20.0
1070
   143
1040
0.039
1070
   172
1070
     1
1070
   271
1070
     0
1070
   279
1070
     0
1070
   288
1070
     1
1002
}
  0
DIMENSION
  5
7BD6
  8
3
  6
CONTINUOUS
  2
*D3
 10
773.24205900000004
 20
1498.6323299999999
 30
0.0
 11
723.24205899999981
 21
1743.6323299999999
 31
0.0
 70
     0
 13
894.19188699999995
 23
1988.6323299999999
 33
0.0
 14
1045.741417
 24
1498.6323299999999
 34
0.0
 50
90.0
1001
ACAD
1000
DSTYLE
1002
{
1070
   287
1070
     4
1070
    40
1040
20.0
1070
    75
1070
     1
1070
   143
1040
0.039
1070
   172
1070
     1
1070
   271
1070
     0
1070
   279
1070
     1
1070
   288
1070
     1
1002
}
  0
DIMENSION
  5
7BE6
  8
3
  6
CONTINUOUS
  2
*D4
 10
773.56966600000021
 20
1458.6323299999999
 30
0.0
 11
773.56966599999998
 21
1310.0609014285719
 31
0.0
 70
   128
 13
1045.741417
 23
1498.6323299999999
 33
0.0
 14
1045.741417
 24
1458.6323299999999
 34
0.0
 50
90.0
1001
ACAD
1000
DSTYLE
1002
{
1070
   287
1070
     3
1070
    40
1040
20.0
1070
   143
1040
0.039
1070
   172
1070
     1
1070
   271
1070
     0
1070
   279
1070
     0
1070
   288
1070
     1
1002
}
  0
DIMENSION
  5
7BF3
  8
3
  6
CONTINUOUS
  2
*D5
 10
654.94518800000026
 20
1458.6323299999999
 30
0.0
 11
654.94518800000003
 21
2011.964594999999
 31
0.0
 70
   128
 13
985.74141699999996
 23
2554.6323299999999
 33
0.0
 14
1045.741417
 24
1458.6323299999999
 34
0.0
 50
90.0
1001
ACAD
1000
DSTYLE
1002
{
1070
   287
1070
     3
1070
    40
1040
20.0
1070
   143
1040
0.039
1070
   172
1070
     1
1070
   271
1070
     0
1070
   279
1070
     0
1070
   288
1070
     1
1002
}
  0
DIMENSION
  5
7C1A
  8
3
  6
CONTINUOUS
  2
*D6
 10
1390.741417
 20
1279.5739229999999
 30
0.0
 11
1212.9568180000001
 21
1279.5739229999999
 31
0.0
 70
   128
 13
1045.741417
 23
1458.6323299999999
 33
0.0
 14
1390.741417
 24
1401.9490989999999
 34
0.0
1001
ACAD
1000
DSTYLE
1002
{
1070
   287
1070
     3
1070
    40
1040
20.0
1070
   143
1040
0.039
1070
   172
1070
     1
1070
   271
1070
     0
1070
   279
1070
     0
1070
   288
1070
     1
1002
}
  0
DIMENSION
  5
7C26
  8
3
  6
CONTINUOUS
  2
*D7
 10
2295.7414170000002
 20
1279.5739229999999
 30
0.0
 11
1843.241417
 21
1329.5739229999999
 31
0.0
 70
     0
 13
1390.741417
 23
1401.9490989999999
 33
0.0
 14
2295.7414170000002
 24
1458.6323299999999
 34
0.0
1001
ACAD
1000
DSTYLE
1002
{
1070
   287
1070
     4
1070
    40
1040
20.0
1070
    75
1070
     1
1070
   143
1040
0.039
1070
   172
1070
     1
1070
   271
1070
     0
1070
   279
1070
     1
1070
   288
1070
     1
1002
}
  0
DIMENSION
  5
7C33
  8
3
  6
CONTINUOUS
  2
*D8
 10
3017.8431690000002
 20
2602.1811153970789
 30
0.0
 11
3225.4974829999992
 21
2602.1811153970789
 31
0.0
 70
   128
 13
3437.8431690000002
 23
2527.6323299999999
 33
0.0
 14
3017.8431690000002
 24
2527.6323299999999
 34
0.0
1001
ACAD
1000
DSTYLE
1002
{
1070
   287
1070
     3
1070
    40
1040
20.0
1070
   143
1040
0.039
1070
   172
1070
     1
1070
   271
1070
     0
1070
   279
1070
     0
1070
   288
1070
     1
1002
}
  0
DIMENSION
  5
7C40
  8
3
  6
CONTINUOUS
  2
*D9
 10
1390.741417
 20
2637.0623839999998
 30
0.0
 11
1179.1326220000001
 21
2637.0623839999998
 31
0.0
 70
   128
 13
985.74141699999996
 23
2554.6323299999999
 33
0.0
 14
1390.741417
 24
2624.7874510000001
 34
0.0
1001
ACAD
1000
DSTYLE
1002
{
1070
   287
1070
     3
1070
    40
1040
20.0
1070
   143
1040
0.039
1070
   172
1070
     1
1070
   271
1070
     0
1070
   279
1070
     0
1070
   288
1070
     1
1002
}
  0
DIMENSION
  5
7C4C
  8
3
  6
CONTINUOUS
  2
*D10
 10
1865.741417
 20
2637.0623839999998
 30
0.0
 11
1628.241417
 21
2687.0623839999998
 31
0.0
 70
     0
 13
1390.741417
 23
2624.7874510000001
 33
0.0
 14
1865.741417
 24
2398.632329999999
 34
0.0
1001
ACAD
1000
DSTYLE
1002
{
1070
   287
1070
     4
1070
    40
1040
20.0
1070
    75
1070
     1
1070
   143
1040
0.039
1070
   172
1070
     1
1070
   271
1070
     0
1070
   279
1070
     1
1070
   288
1070
     1
1002
}
  0
DIMENSION
  5
7C5B
  8
3
  6
CONTINUOUS
  2
*D11
 10
3627.1600079999998
 20
1693.632329999999
 30
0.0
 11
3627.1600079999998
 21
1990.846419
 31
0.0
 70
   128
 13
3437.8431690000002
 23
2283.6323299999999
 33
0.0
 14
3439.8431689999989
 24
1693.6323299999999
 34
0.0
 50
90.0
1001
ACAD
1000
DSTYLE
1002
{
1070
   287
1070
     3
1070
     3
1000
φ<>
1070
    40
1040
20.0
1070
   143
1040
0.039
1070
   172
1070
     1
1070
   271
1070
     0
1070
   279
1070
     0
1070
   288
1070
     1
1002
}
  0
DIMENSION
  5
7C6A
  8
3
  6
CONTINUOUS
  2
*D12
 10
3227.8431690000002
 20
2736.1752969999989
 30
0.0
 11
3333.8431690000002
 21
2794.0871211462618
 31
0.0
 70
   128
 13
3439.8431689999989
 23
2308.6323299999999
 33
0.0
 14
3227.8431690000002
 24
2696.879928665941
 34
0.0
1001
ACAD
1000
DSTYLE
1002
{
1070
   288
1070
     1
1070
   172
1070
     1
1070
    40
1040
20.0
1070
   271
1070
     0
1070
   143
1040
0.039
1002
}
  0
DIMENSION
  5
7C76
  8
3
  6
CONTINUOUS
  2
*D13
 10
2817.8431690000002
 20
2736.1752969999989
 30
0.0
 11
3022.8431690000002
 21
2836.1752969999998
 31
0.0
 70
     0
  1
MAX\P470
 13
3227.8431690000002
 23
2698.3883288035208
 33
0.0
 14
2817.8431690000002
 24
2413.6323299999999
 34
0.0
1001
ACAD
1000
DSTYLE
1002
{
1070
   287
1070
     4
1070
    40
1040
20.0
1070
    75
1070
     1
1070
   143
1040
0.039
1070
   172
1070
     1
1070
   271
1070
     0
1070
   279
1070
     1
1070
   288
1070
     1
1002
}
  0
DIMENSION
  5
7C83
  8
3
  6
CONTINUOUS
  2
*D14
 10
3227.8431690000002
 20
1283.396616
 30
0.0
 11
3001.412065
 21
1283.396616
 31
0.0
 70
   128
 13
2782.8431690000002
 23
1458.6323299999999
 33
0.0
 14
3227.8431690000002
 24
1325.616188939722
 34
0.0
1001
ACAD
1000
DSTYLE
1002
{
1070
   287
1070
     3
1070
    40
1040
20.0
1070
   143
1040
0.039
1070
   172
1070
     1
1070
   271
1070
     0
1070
   279
1070
     0
1070
   288
1070
     1
1002
}
  0
DIMENSION
  5
7C8F
  8
3
  6
CONTINUOUS
  2
*D15
 10
3562.8431690000002
 20
1283.396616
 30
0.0
 11
3395.3431689999989
 21
1333.396616
 31
0.0
 70
     0
 13
3227.8431690000002
 23
1324.2883439252139
 33
0.0
 14
3562.8431690000002
 24
1458.6323299999999
 34
0.0
1001
ACAD
1000
DSTYLE
1002
{
1070
   287
1070
     4
1070
    40
1040
20.0
1070
    75
1070
     1
1070
   143
1040
0.039
1070
   172
1070
     1
1070
   271
1070
     0
1070
   279
1070
     1
1070
   288
1070
     1
1002
}
  0
DIMENSION
  5
7C9C
  8
3
  6
CONTINUOUS
  2
*D16
 10
2295.7414170000002
 20
4075.8919329999999
 30
0.0
 11
1614.577806
 21
4075.8919329999999
 31
0.0
 70
   128
 13
1045.741417
 23
3988.6323299999999
 33
0.0
 14
2295.7414170000002
 24
3988.6323299999999
 34
0.0
1001
ACAD
1000
DSTYLE
1002
{
1070
   287
1070
     3
1070
    40
1040
20.0
1070
   143
1040
0.039
1070
   172
1070
     1
1070
   271
1070
     0
1070
   279
1070
     0
1070
   288
1070
     1
1002
}
  0
DIMENSION
  5
7CA9
  8
3
  6
CONTINUOUS
  2
*D17
 10
2489.847854000001
 20
3208.632329999999
 30
0.0
 11
2489.8478540000001
 21
3585.8739930000002
 31
0.0
 70
   128
 13
2295.7414170000002
 23
3988.6323299999999
 33
0.0
 14
2295.7414170000002
 24
3208.632329999999
 34
0.0
 50
90.0
1001
ACAD
1000
DSTYLE
1002
{
1070
   287
1070
     3
1070
    40
1040
20.0
1070
   143
1040
0.039
1070
   172
1070
     1
1070
   271
1070
     0
1070
   279
1070
     0
1070
   288
1070
     1
1002
}
  0
DIMENSION
  5
7D43
  8
3
  2
*D18
 10
2295.7414170000002
 20
2768.8530310446372
 30
0.0
 11
1637.6091398856761
 21
2768.8530310446372
 31
0.0
 70
   128
 13
985.74141699999996
 23
2554.6323299999999
 33
0.0
 14
2295.7414170000002
 24
1578.6323299999999
 34
0.0
1001
ACAD
1000
DSTYLE
1002
{
1070
   287
1070
     3
1070
    40
1040
20.0
1070
   143
1040
0.039
1070
   172
1070
     1
1070
   271
1070
     0
1070
   279
1070
     0
1070
   288
1070
     1
1002
}
  0
ENDSEC
  0
EOF
