  0
SECTION
  2
HEADER
  9
$ACADVER
  1
AC1009
  9
$INSBASE
 10
0.0
 20
0.0
 30
0.0
  9
$EXTMIN
 10
0.0
 20
0.0
 30
0.0
  9
$EXTMAX
 10
5250.0
 20
7375.0
 30
0.0
  9
$LIMMIN
 10
0.0
 20
0.0
  9
$LIMMAX
 10
297.0
 20
210.0
  9
$ORTHOMODE
 70
     0
  9
$REGENMODE
 70
     1
  9
$FILLMODE
 70
     0
  9
$QTEXTMODE
 70
     0
  9
$MIRRTEXT
 70
     1
  9
$DRAGMODE
 70
     2
  9
$LTSCALE
 40
100.0
  9
$OSMODE
 70
    37
  9
$ATTMODE
 70
     1
  9
$TEXTSIZE
 40
180.0
  9
$TRACEWID
 40
0.05
  9
$TEXTSTYLE
  7
STANDARD
  9
$CLAYER
  8
1
  9
$CELTYPE
  6
BYLAYER
  9
$CECOLOR
 62
   256
  9
$DIMSCALE
 40
25.0
  9
$DIMASZ
 40
2.0
  9
$DIMEXO
 40
0.5
  9
$DIMDLI
 40
10.0
  9
$DIMRND
 40
0.0
  9
$DIMDLE
 40
0.0
  9
$DIMEXE
 40
1.0
  9
$DIMTP
 40
1.0
  9
$DIMTM
 40
1.0
  9
$DIMTXT
 40
3.0
  9
$DIMCEN
 40
0.0
  9
$DIMTSZ
 40
0.0
  9
$DIMTOL
 70
     0
  9
$DIMLIM
 70
     0
  9
$DIMTIH
 70
     0
  9
$DIMTOH
 70
     0
  9
$DIMSE1
 70
     0
  9
$DIMSE2
 70
     0
  9
$DIMTAD
 70
     1
  9
$DIMZIN
 70
     8
  9
$DIMBLK
  1

  9
$DIMASO
 70
     1
  9
$DIMSHO
 70
     1
  9
$DIMPOST
  1

  9
$DIMAPOST
  1

  9
$DIMALT
 70
     0
  9
$DIMALTD
 70
     2
  9
$DIMALTF
 40
0.039
  9
$DIMLFAC
 40
1.0
  9
$DIMTOFL
 70
     1
  9
$DIMTVP
 40
0.0
  9
$DIMTIX
 70
     0
  9
$DIMSOXD
 70
     0
  9
$DIMSAH
 70
     1
  9
$DIMBLK1
  1
OPEN
  9
$DIMBLK2
  1
OPEN
  9
$DIMSTYLE
  2
IGA
  9
$DIMCLRD
 70
     0
  9
$DIMCLRE
 70
     0
  9
$DIMCLRT
 70
     0
  9
$DIMTFAC
 40
10.0
  9
$DIMGAP
 40
1.0
  9
$LUNITS
 70
     2
  9
$LUPREC
 70
     3
  9
$SKETCHINC
 40
0.1
  9
$FILLETRAD
 40
50.0
  9
$AUNITS
 70
     0
  9
$AUPREC
 70
     0
  9
$MENU
  1
acad
  9
$ELEVATION
 40
0.0
  9
$PELEVATION
 40
0.0
  9
$THICKNESS
 40
0.0
  9
$LIMCHECK
 70
     0
  9
$BLIPMODE
 70
     0
  9
$CHAMFERA
 40
0.5
  9
$CHAMFERB
 40
0.5
  9
$SKPOLY
 70
     0
  9
$TDCREATE
 40
2451614.4278517361
  9
$TDUPDATE
 40
2454953.7555830441
  9
$TDINDWG
 40
0.0343119329
  9
$TDUSRTIMER
 40
0.0343119329
  9
$USRTIMER
 70
     1
  9
$ANGBASE
 50
0.0
  9
$ANGDIR
 70
     0
  9
$PDMODE
 70
     0
  9
$PDSIZE
 40
0.0
  9
$PLINEWID
 40
0.0
  9
$COORDS
 70
     1
  9
$SPLFRAME
 70
     0
  9
$SPLINETYPE
 70
     6
  9
$SPLINESEGS
 70
     8
  9
$ATTDIA
 70
     0
  9
$ATTREQ
 70
     1
  9
$HANDLING
 70
 10241
  9
$HANDSEED
  5
84DC
  9
$SURFTAB1
 70
     6
  9
$SURFTAB2
 70
     6
  9
$SURFTYPE
 70
     6
  9
$SURFU
 70
     6
  9
$SURFV
 70
     6
  9
$UCSNAME
  2

  9
$UCSORG
 10
0.0
 20
0.0
 30
0.0
  9
$UCSXDIR
 10
1.0
 20
0.0
 30
0.0
  9
$UCSYDIR
 10
0.0
 20
1.0
 30
0.0
  9
$PUCSNAME
  2

  9
$PUCSORG
 10
0.0
 20
0.0
 30
0.0
  9
$PUCSXDIR
 10
1.0
 20
0.0
 30
0.0
  9
$PUCSYDIR
 10
0.0
 20
1.0
 30
0.0
  9
$USERI1
 70
     0
  9
$USERI2
 70
     0
  9
$USERI3
 70
     0
  9
$USERI4
 70
     0
  9
$USERI5
 70
     0
  9
$USERR1
 40
0.0
  9
$USERR2
 40
0.0
  9
$USERR3
 40
0.0
  9
$USERR4
 40
0.0
  9
$USERR5
 40
0.0
  9
$WORLDVIEW
 70
     1
  9
$SHADEDGE
 70
     3
  9
$SHADEDIF
 70
    70
  9
$TILEMODE
 70
     1
  9
$MAXACTVP
 70
    16
  9
$PLIMCHECK
 70
     0
  9
$PEXTMIN
 10
1.0000000000000000E+020
 20
1.0000000000000000E+020
 30
1.0000000000000000E+020
  9
$PEXTMAX
 10
-1.0000000000000000E+020
 20
-1.0000000000000000E+020
 30
-1.0000000000000000E+020
  9
$PLIMMIN
 10
0.0
 20
0.0
  9
$PLIMMAX
 10
12.0
 20
9.0
  9
$UNITMODE
 70
     0
  9
$VISRETAIN
 70
     0
  9
$PLINEGEN
 70
     0
  9
$PSLTSCALE
 70
     1
  0
ENDSEC
  0
SECTION
  2
TABLES
  0
TABLE
  2
VPORT
 70
     2
  0
VPORT
  2
*ACTIVE
 70
     0
 10
0.0
 20
0.0
 11
1.0
 21
1.0
 12
8841.5248971284218
 22
3687.5000171712591
 13
0.0
 23
0.0
 14
10.0
 24
10.0
 15
10.0
 25
10.0
 16
0.0
 26
0.0
 36
1.0
 17
0.0
 27
0.0
 37
0.0
 40
7431.5372075423384
 41
3.1666666666666661
 42
50.0
 43
0.0
 44
0.0
 50
0.0
 51
0.0
 71
     0
 72
   100
 73
     1
 74
     0
 75
     0
 76
     0
 77
     0
 78
     0
  0
ENDTAB
  0
TABLE
  2
LTYPE
 70
     2
  0
LTYPE
  2
CONTINUOUS
 70
     0
  3
Solid line
 72
    65
 73
     0
 40
0.0
  0
LTYPE
  2
CENTER
 70
     0
  3
____ _ ____ _ ____ _ ____ _ ____ _ ____ _ ____ 
 72
    65
 73
     4
 40
2.0
 49
1.25
 49
-0.25
 49
0.25
 49
-0.25
  0
ENDTAB
  0
TABLE
  2
LAYER
 70
     6
  0
LAYER
  2
0
 70
     0
 62
     7
  6
CONTINUOUS
  0
LAYER
  2
3
 70
     0
 62
     2
  6
CONTINUOUS
  0
LAYER
  2
2
 70
     0
 62
     3
  6
CENTER
  0
LAYER
  2
1
 70
     0
 62
     4
  6
CONTINUOUS
  0
LAYER
  2
4
 70
     0
 62
     7
  6
CONTINUOUS
  0
LAYER
  2
DEFPOINTS
 70
     0
 62
     7
  6
CONTINUOUS
  0
ENDTAB
  0
TABLE
  2
STYLE
 70
     1
  0
STYLE
  2
STANDARD
 70
     0
 40
0.0
 41
1.0
 50
0.0
 71
     0
 42
180.0
  3
simplex.shx
  4
extfont.shx
  0
ENDTAB
  0
TABLE
  2
VIEW
 70
     0
  0
ENDTAB
  0
TABLE
  2
UCS
 70
     0
  0
ENDTAB
  0
TABLE
  2
APPID
 70
     1
  0
APPID
  2
ACAD
 70
     0
  0
ENDTAB
  0
TABLE
  2
DIMSTYLE
 70
     1
  0
DIMSTYLE
  2
IGA
 70
     0
  3

  4

  5

  6
OPEN
  7
OPEN
 40
2.0
 41
2.0
 42
0.5
 43
10.0
 44
1.0
 45
0.0
 46
0.0
 47
1.0
 48
1.0
140
3.0
141
0.0
142
0.0
143
0.03937
144
1.0
145
0.0
146
10.0
147
1.0
 71
     0
 72
     0
 73
     0
 74
     0
 75
     0
 76
     0
 77
     1
 78
     8
170
     0
171
     2
172
     0
173
     1
174
     0
175
     0
176
     0
177
     0
178
     0
  0
ENDTAB
  0
ENDSEC
  0
SECTION
  2
BLOCKS
  0
BLOCK
  8
0
  2
$MODEL_SPACE
 70
     0
 10
0.0
 20
0.0
 30
0.0
  3
$MODEL_SPACE
  1

  0
ENDBLK
  5
1B
  8
0
  0
BLOCK
 67
     1
  8
0
  2
$PAPER_SPACE
 70
     0
 10
0.0
 20
0.0
 30
0.0
  3
$PAPER_SPACE
  1

  0
ENDBLK
  5
18
 67
     1
  8
0
  0
BLOCK
  8
0
  2
_OPEN
 70
     0
 10
0.0
 20
0.0
 30
0.0
  3
_OPEN
  1

  0
LINE
  5
79FD
  8
0
  6
BYBLOCK
 62
     0
 10
-1.0
 20
0.1666666666666666
 30
0.0
 11
0.0
 21
0.0
 31
0.0
  0
LINE
  5
79FE
  8
0
  6
BYBLOCK
 62
     0
 10
0.0
 20
0.0
 30
0.0
 11
-1.0
 21
-0.1666666666666666
 31
0.0
  0
LINE
  5
79FF
  8
0
  6
BYBLOCK
 62
     0
 10
0.0
 20
0.0
 30
0.0
 11
-1.0
 21
0.0
 31
0.0
  0
ENDBLK
  5
7A01
  8
0
  0
BLOCK
  8
0
  2
*D1
 70
     1
 10
0.0
 20
0.0
 30
0.0
  3
*D1
  1

  0
LINE
  5
840E
  8
3
 62
     0
 10
3792.5155503706678
 20
3063.5685875123122
 30
0.0
 11
3792.5155503706678
 21
3186.4167892193241
 31
0.0
  0
LINE
  5
840F
  8
3
 62
     0
 10
4217.515550370671
 20
3063.5685875123122
 30
0.0
 11
4217.515550370671
 21
3186.4167892193241
 31
0.0
  0
LINE
  5
8410
  8
3
 62
     0
 10
3842.5155503706669
 20
3161.4167892193241
 30
0.0
 11
4167.515550370671
 21
3161.4167892193241
 31
0.0
  0
INSERT
  5
8411
  8
3
 62
     0
  2
_OPEN
 10
3792.5155503706678
 20
3161.4167892193241
 30
0.0
 41
50.0
 42
50.0
 43
50.0
 50
180.0
  0
INSERT
  5
8412
  8
3
 62
     0
  2
_OPEN
 10
4217.515550370671
 20
3161.4167892193241
 30
0.0
 41
50.0
 42
50.0
 43
50.0
  0
TEXT
  8
3
  40
75
  5
84C9
  62
0
  72
0
  71
0
 10
3866.93
 20
3091.17
 30
0.000000
  1
425
  0
POINT
  5
8414
  8
DEFPOINTS
 62
     0
 10
3792.5155503706678
 20
3051.0685875123122
 30
0.0
  0
POINT
  5
8415
  8
DEFPOINTS
 62
     0
 10
4217.515550370671
 20
3051.0685875123122
 30
0.0
  0
POINT
  5
8416
  8
DEFPOINTS
 62
     0
 10
4217.515550370671
 20
3161.4167892193241
 30
0.0
  0
ENDBLK
  5
814D
  8
0
  0
BLOCK
  8
0
  2
*D2
 70
     1
 10
0.0
 20
0.0
 30
0.0
  3
*D2
  1

  0
LINE
  5
842B
  8
3
 62
     0
 10
4272.5155503706674
 20
2731.0685875123131
 30
0.0
 11
4436.8278381594673
 21
2731.0685875123131
 31
0.0
  0
LINE
  5
842C
  8
3
 62
     0
 10
4272.5155503706674
 20
2171.0685875123099
 30
0.0
 11
4436.8278381594673
 21
2171.0685875123099
 31
0.0
  0
LINE
  5
842D
  8
3
 62
     0
 10
4411.8278381594664
 20
2681.0685875123122
 30
0.0
 11
4411.8278381594664
 21
2221.0685875123108
 31
0.0
  0
INSERT
  5
842E
  8
3
 62
     0
  2
_OPEN
 10
4411.8278381594664
 20
2731.0685875123131
 30
0.0
 41
50.0
 42
50.0
 43
50.0
 50
90.0
  0
INSERT
  5
842F
  8
3
 62
     0
  2
_OPEN
 10
4411.8278381594664
 20
2171.0685875123099
 30
0.0
 41
50.0
 42
50.0
 43
50.0
 50
270.0
  0
TEXT
  8
3
  40
75
  5
84CA
  62
0
  72
0
  71
0
 10
4199.33
 20
2318.32
 30
0.000000
  1
φ560
  0
POINT
  5
8431
  8
DEFPOINTS
 62
     0
 10
4260.0155503706674
 20
2731.0685875123131
 30
0.0
  0
POINT
  5
8432
  8
DEFPOINTS
 62
     0
 10
4260.0155503706674
 20
2171.0685875123099
 30
0.0
  0
POINT
  5
8433
  8
DEFPOINTS
 62
     0
 10
4411.8278381594664
 20
2171.0685875123099
 30
0.0
  0
ENDBLK
  5
8340
  8
0
  0
BLOCK
  8
0
  2
*D3
 70
     1
 10
0.0
 20
0.0
 30
0.0
  3
*D3
  1

  0
LINE
  5
8434
  8
3
 62
     0
 10
2535.576605973728
 20
1793.563960407555
 30
0.0
 11
2535.576605973728
 21
1604.4188721027931
 31
0.0
  0
LINE
  5
8435
  8
3
 62
     0
 10
1635.576605973728
 20
1734.269001367554
 30
0.0
 11
1635.576605973728
 21
1604.4188721027931
 31
0.0
  0
LINE
  5
8436
  8
3
 62
     0
 10
2485.576605973728
 20
1629.4188721027931
 30
0.0
 11
1685.576605973728
 21
1629.4188721027931
 31
0.0
  0
INSERT
  5
8437
  8
3
 62
     0
  2
_OPEN
 10
2535.576605973728
 20
1629.4188721027931
 30
0.0
 41
50.0
 42
50.0
 43
50.0
  0
INSERT
  5
8438
  8
3
 62
     0
  2
_OPEN
 10
1635.576605973728
 20
1629.4188721027931
 30
0.0
 41
50.0
 42
50.0
 43
50.0
 50
180.0
  0
TEXT
  8
3
  40
75
  5
84CB
  62
0
  72
0
  71
0
 10
1935.58
 20
1559.17
 30
0.000000
  1
900
  0
POINT
  5
843A
  8
DEFPOINTS
 62
     0
 10
2535.576605973728
 20
1806.063960407555
 30
0.0
  0
POINT
  5
843B
  8
DEFPOINTS
 62
     0
 10
1635.576605973728
 20
1746.769001367554
 30
0.0
  0
POINT
  5
843C
  8
DEFPOINTS
 62
     0
 10
1635.576605973728
 20
1629.4188721027931
 30
0.0
  0
ENDBLK
  5
8329
  8
0
  0
BLOCK
  8
0
  2
*D4
 70
     1
 10
0.0
 20
0.0
 30
0.0
  3
*D4
  1

  0
LINE
  5
832B
  8
0
  6
BYBLOCK
 62
     0
 10
1635.576605973728
 20
1660.351846643852
 30
0.0
 11
1635.576605973728
 21
1530.6103127536819
 31
0.0
  0
LINE
  5
832C
  8
0
  6
BYBLOCK
 62
     0
 10
1385.576605973728
 20
1719.65271807762
 30
0.0
 11
1385.576605973728
 21
1530.6103127536819
 31
0.0
  0
LINE
  5
832D
  8
0
  6
BYBLOCK
 62
     0
 10
1585.576605973728
 20
1555.6103127536819
 30
0.0
 11
1435.576605973728
 21
1555.6103127536819
 31
0.0
  0
TEXT
  5
832E
  8
1
 62
     0
 10
1414.1480345451571
 20
1573.13997687714
 30
0.0
 40
75.0
  1
250
  0
INSERT
  5
832F
  8
0
  6
BYBLOCK
 62
     0
  2
_OPEN
 10
1635.576605973728
 20
1555.6103127536819
 30
0.0
 41
50.0
 42
50.0
 43
50.0
  0
INSERT
  5
8330
  8
0
  6
BYBLOCK
 62
     0
  2
_OPEN
 10
1385.576605973728
 20
1555.6103127536819
 30
0.0
 41
50.0
 42
50.0
 43
50.0
 50
180.0
  0
POINT
  5
8331
  8
DEFPOINTS
  6
BYBLOCK
 62
     0
 10
1635.576605973728
 20
1672.851846643852
 30
0.0
  0
POINT
  5
8332
  8
DEFPOINTS
  6
BYBLOCK
 62
     0
 10
1385.576605973728
 20
1732.15271807762
 30
0.0
  0
POINT
  5
8333
  8
DEFPOINTS
  6
BYBLOCK
 62
     0
 10
1385.576605973728
 20
1555.6103127536819
 30
0.0
  0
ENDBLK
  5
8334
  8
0
  0
BLOCK
  8
0
  2
*D5
 70
     1
 10
0.0
 20
0.0
 30
0.0
  3
*D5
  1

  0
LINE
  5
843D
  8
3
 62
     0
 10
3160.0155503706669
 20
1793.5892599295919
 30
0.0
 11
3160.0155503706669
 21
1624.68418247823
 31
0.0
  0
LINE
  5
843E
  8
3
 62
     0
 10
4005.0155503706669
 20
1746.9910835340049
 30
0.0
 11
4005.0155503706669
 21
1624.68418247823
 31
0.0
  0
LINE
  5
843F
  8
3
 62
     0
 10
3210.0155503706669
 20
1649.68418247823
 30
0.0
 11
3955.0155503706669
 21
1649.68418247823
 31
0.0
  0
INSERT
  5
8440
  8
3
 62
     0
  2
_OPEN
 10
3160.0155503706669
 20
1649.68418247823
 30
0.0
 41
50.0
 42
50.0
 43
50.0
 50
180.0
  0
INSERT
  5
8441
  8
3
 62
     0
  2
_OPEN
 10
4005.0155503706669
 20
1649.68418247823
 30
0.0
 41
50.0
 42
50.0
 43
50.0
  0
TEXT
  8
3
  40
75
  5
84CC
  62
0
  72
0
  71
0
 10
3432.52
 20
1579.43
 30
0.000000
  1
845
  0
POINT
  5
8443
  8
DEFPOINTS
 62
     0
 10
3160.0155503706669
 20
1806.0892599295919
 30
0.0
  0
POINT
  5
8444
  8
DEFPOINTS
 62
     0
 10
4005.0155503706669
 20
1759.4910835340049
 30
0.0
  0
POINT
  5
8445
  8
DEFPOINTS
 62
     0
 10
4005.0155503706669
 20
1649.68418247823
 30
0.0
  0
ENDBLK
  5
8308
  8
0
  0
BLOCK
  8
0
  2
*D6
 70
     1
 10
0.0
 20
0.0
 30
0.0
  3
*D6
  1

  0
LINE
  5
8315
  8
0
  6
BYBLOCK
 62
     0
 10
4005.0155503706669
 20
1673.073928810303
 30
0.0
 11
4005.0155503706669
 21
1550.9740190531279
 31
0.0
  0
LINE
  5
8316
  8
0
  6
BYBLOCK
 62
     0
 10
4260.0155503706701
 20
1719.6721052058899
 30
0.0
 11
4260.0155503706701
 21
1550.9740190531279
 31
0.0
  0
LINE
  5
8317
  8
0
  6
BYBLOCK
 62
     0
 10
4055.0155503706678
 20
1575.9740190531279
 30
0.0
 11
4210.0155503706692
 21
1575.9740190531279
 31
0.0
  0
TEXT
  5
8318
  8
1
 62
     0
 10
4036.0869789420972
 20
1604.8461417887261
 30
0.0
 40
75.0
  1
255
  0
INSERT
  5
8319
  8
0
  6
BYBLOCK
 62
     0
  2
_OPEN
 10
4005.0155503706669
 20
1575.9740190531279
 30
0.0
 41
50.0
 42
50.0
 43
50.0
 50
180.0
  0
INSERT
  5
831A
  8
0
  6
BYBLOCK
 62
     0
  2
_OPEN
 10
4260.0155503706701
 20
1575.9740190531279
 30
0.0
 41
50.0
 42
50.0
 43
50.0
  0
POINT
  5
831B
  8
DEFPOINTS
  6
BYBLOCK
 62
     0
 10
4005.0155503706669
 20
1685.573928810303
 30
0.0
  0
POINT
  5
831C
  8
DEFPOINTS
  6
BYBLOCK
 62
     0
 10
4260.0155503706701
 20
1732.1721052058899
 30
0.0
  0
POINT
  5
831D
  8
DEFPOINTS
  6
BYBLOCK
 62
     0
 10
4260.0155503706701
 20
1575.9740190531279
 30
0.0
  0
ENDBLK
  5
831E
  8
0
  0
BLOCK
  8
0
  2
*D7
 70
     1
 10
0.0
 20
0.0
 30
0.0
  3
*D7
  1

  0
LINE
  5
8446
  8
3
 62
     0
 10
1236.0796906957939
 20
3051.0685875060999
 30
0.0
 11
943.67183107258006
 21
3051.0685875061008
 31
0.0
  0
LINE
  5
8447
  8
3
 62
     0
 10
1163.56032121114
 20
2451.0685875061008
 30
0.0
 11
943.67183107258006
 21
2451.0685875061008
 31
0.0
  0
LINE
  5
8448
  8
3
 62
     0
 10
968.67183107258006
 20
3001.0685875061008
 30
0.0
 11
968.67183107258006
 21
2501.0685875061022
 31
0.0
  0
INSERT
  5
8449
  8
3
 62
     0
  2
_OPEN
 10
968.67183107258006
 20
3051.0685875061008
 30
0.0
 41
50.0
 42
50.0
 43
50.0
 50
90.0
  0
INSERT
  5
844A
  8
3
 62
     0
  2
_OPEN
 10
968.67183107258006
 20
2451.0685875061008
 30
0.0
 41
50.0
 42
50.0
 43
50.0
 50
270.0
  0
TEXT
  8
3
  40
75
  5
84CD
  62
0
  72
0
  71
0
 10
756.172
 20
2618.32
 30
0.000000
  1
600
  0
POINT
  5
844C
  8
DEFPOINTS
 62
     0
 10
1248.5796906957951
 20
3051.0685875060999
 30
0.0
  0
POINT
  5
844D
  8
DEFPOINTS
 62
     0
 10
1176.06032121114
 20
2451.0685875061008
 30
0.0
  0
POINT
  5
844E
  8
DEFPOINTS
 62
     0
 10
968.67183107258006
 20
2451.0685875061008
 30
0.0
  0
ENDBLK
  5
81CA
  8
0
  0
BLOCK
  8
0
  2
*D8
 70
     1
 10
0.0
 20
0.0
 30
0.0
  3
*D8
  1

  0
LINE
  5
844F
  8
3
 62
     0
 10
1236.0796906957939
 20
3051.0685875060999
 30
0.0
 11
1079.160858350572
 21
3051.0685875060999
 31
0.0
  0
LINE
  5
8450
  8
3
 62
     0
 10
1258.0767087931411
 20
2471.0685875061008
 30
0.0
 11
1079.160858350572
 21
2471.0685875061008
 31
0.0
  0
LINE
  5
8451
  8
3
 62
     0
 10
1104.160858350572
 20
3001.0685875060999
 30
0.0
 11
1104.160858350572
 21
2521.0685875061008
 31
0.0
  0
INSERT
  5
8452
  8
3
 62
     0
  2
_OPEN
 10
1104.160858350572
 20
3051.0685875060999
 30
0.0
 41
50.0
 42
50.0
 43
50.0
 50
90.0
  0
INSERT
  5
8453
  8
3
 62
     0
  2
_OPEN
 10
1104.160858350572
 20
2471.0685875061008
 30
0.0
 41
50.0
 42
50.0
 43
50.0
 50
270.0
  0
TEXT
  8
3
  40
75
  5
84CE
  62
0
  72
0
  71
0
 10
891.661
 20
2628.32
 30
0.000000
  1
580
  0
POINT
  5
8455
  8
DEFPOINTS
 62
     0
 10
1248.5796906957951
 20
3051.0685875060999
 30
0.0
  0
POINT
  5
8456
  8
DEFPOINTS
 62
     0
 10
1270.5767087931411
 20
2471.0685875061008
 30
0.0
  0
POINT
  5
8457
  8
DEFPOINTS
 62
     0
 10
1104.160858350572
 20
2471.0685875061008
 30
0.0
  0
ENDBLK
  5
80E6
  8
0
  0
BLOCK
  8
0
  2
*D9
 70
     1
 10
0.0
 20
0.0
 30
0.0
  3
*D9
  1

  0
LINE
  5
8458
  8
3
 62
     0
 10
1163.56032121114
 20
2451.0685875061008
 30
0.0
 11
943.97314413283004
 21
2451.0685875061008
 31
0.0
  0
LINE
  5
8459
  8
3
 62
     0
 10
1373.076605973728
 20
1976.068587506101
 30
0.0
 11
943.97314413282982
 21
1976.068587506101
 31
0.0
  0
LINE
  5
845A
  8
3
 62
     0
 10
968.97314413283004
 20
2401.0685875061008
 30
0.0
 11
968.97314413282982
 21
2026.068587506101
 31
0.0
  0
INSERT
  5
845B
  8
3
 62
     0
  2
_OPEN
 10
968.97314413283004
 20
2451.0685875061008
 30
0.0
 41
50.0
 42
50.0
 43
50.0
 50
90.0
  0
INSERT
  5
845C
  8
3
 62
     0
  2
_OPEN
 10
968.97314413282982
 20
1976.068587506101
 30
0.0
 41
50.0
 42
50.0
 43
50.0
 50
270.0
  0
TEXT
  8
3
  40
75
  5
84CF
  62
0
  72
0
  71
0
 10
756.473
 20
2109.68
 30
0.000000
  1
475
  0
POINT
  5
845E
  8
DEFPOINTS
 62
     0
 10
1176.06032121114
 20
2451.0685875061008
 30
0.0
  0
POINT
  5
845F
  8
DEFPOINTS
 62
     0
 10
1385.576605973728
 20
1976.068587506101
 30
0.0
  0
POINT
  5
8460
  8
DEFPOINTS
 62
     0
 10
968.97314413282982
 20
1976.068587506101
 30
0.0
  0
ENDBLK
  5
8384
  8
0
  0
BLOCK
  8
0
  2
*D10
 70
     1
 10
0.0
 20
0.0
 30
0.0
  3
*D10
  1

  0
LINE
  5
83D1
  8
0
  6
BYBLOCK
 62
     0
 10
1373.076605973728
 20
1845.1514327823991
 30
0.0
 11
943.67183107258006
 21
1845.1514327823991
 31
0.0
  0
LINE
  5
83D2
  8
0
  6
BYBLOCK
 62
     0
 10
1373.076605973728
 20
1750.1514327823991
 30
0.0
 11
943.67183107258006
 21
1750.1514327823991
 31
0.0
  0
LINE
  5
83D3
  8
0
  6
BYBLOCK
 62
     0
 10
968.67183107258006
 20
1895.1514327823991
 30
0.0
 11
968.67183107258006
 21
1945.1514327823991
 31
0.0
  0
LINE
  5
83D4
  8
0
  6
BYBLOCK
 62
     0
 10
968.67183107258006
 20
1700.1514327823991
 30
0.0
 11
968.67183107258006
 21
1650.1514327823991
 31
0.0
  0
TEXT
  5
83D5
  8
1
 62
     0
 10
905.45513364286296
 20
1699.728984728893
 30
0.0
 40
75.0
  1
(95)
 50
90.0
  0
LINE
  5
83D6
  8
0
  6
BYBLOCK
 62
     0
 10
968.67183107258006
 20
1845.1514327823991
 30
0.0
 11
968.67183107258006
 21
1750.1514327823991
 31
0.0
  0
INSERT
  5
83D7
  8
0
  6
BYBLOCK
 62
     0
  2
_OPEN
 10
968.67183107258006
 20
1845.1514327823991
 30
0.0
 41
50.0
 42
50.0
 43
50.0
 50
270.0
  0
INSERT
  5
83D8
  8
0
  6
BYBLOCK
 62
     0
  2
_DOT
 10
968.67183107258006
 20
1750.1514327823991
 30
0.0
 41
50.0
 42
50.0
 43
50.0
 50
90.0
  0
POINT
  5
83D9
  8
DEFPOINTS
  6
BYBLOCK
 62
     0
 10
1385.576605973728
 20
1845.1514327823991
 30
0.0
  0
POINT
  5
83DA
  8
DEFPOINTS
  6
BYBLOCK
 62
     0
 10
1385.576605973728
 20
1750.1514327823991
 30
0.0
  0
POINT
  5
83DB
  8
DEFPOINTS
  6
BYBLOCK
 62
     0
 10
968.67183107258006
 20
1750.1514327823991
 30
0.0
  0
ENDBLK
  5
83DC
  8
0
  0
BLOCK
  8
0
  2
*D11
 70
     1
 10
0.0
 20
0.0
 30
0.0
  3
*D11
  1

  0
LINE
  5
8461
  8
3
 62
     0
 10
1373.076605973728
 20
1881.068587506101
 30
0.0
 11
943.67183107258006
 21
1881.068587506101
 31
0.0
  0
LINE
  5
8462
  8
3
 62
     0
 10
1373.076605973728
 20
1806.068587506101
 30
0.0
 11
943.67183107258006
 21
1806.068587506101
 31
0.0
  0
LINE
  5
8463
  8
3
 62
     0
 10
968.67183107258006
 20
1931.068587506101
 30
0.0
 11
968.67183107258006
 21
1981.068587506101
 31
0.0
  0
LINE
  5
8464
  8
3
 62
     0
 10
968.67183107257995
 20
1756.068587506101
 30
0.0
 11
968.67183107257995
 21
1534.640016077529
 31
0.0
  0
LINE
  5
8465
  8
3
 62
     0
 10
968.67183107258006
 20
1881.068587506101
 30
0.0
 11
968.67183107258006
 21
1806.068587506101
 31
0.0
  0
INSERT
  5
8466
  8
3
 62
     0
  2
_DOT
 10
968.67183107258006
 20
1881.068587506101
 30
0.0
 41
50.0
 42
50.0
 43
50.0
 50
270.0
  0
INSERT
  5
8467
  8
3
 62
     0
  2
_OPEN
 10
968.67183107258006
 20
1806.068587506101
 30
0.0
 41
50.0
 42
50.0
 43
50.0
 50
90.0
  0
TEXT
  8
3
  40
75
  5
84D0
  62
0
  72
0
  71
0
 10
756.172
 20
1487.60
 30
0.000000
  1
75
  0
POINT
  5
8469
  8
DEFPOINTS
 62
     0
 10
1385.576605973728
 20
1881.068587506101
 30
0.0
  0
POINT
  5
846A
  8
DEFPOINTS
 62
     0
 10
1385.576605973728
 20
1806.068587506101
 30
0.0
  0
POINT
  5
846B
  8
DEFPOINTS
 62
     0
 10
968.67183107258006
 20
1806.068587506101
 30
0.0
  0
ENDBLK
  5
83C2
  8
0
  0
BLOCK
  8
0
  2
*D12
 70
     1
 10
0.0
 20
0.0
 30
0.0
  3
*D12
  1

  0
LINE
  5
846C
  8
3
 62
     0
 10
1245.576605973728
 20
3088.5705925870288
 30
0.0
 11
1245.576605973728
 21
3233.040732082417
 31
0.0
  0
LINE
  5
846D
  8
3
 62
     0
 10
1635.576605973728
 20
3101.3263814629458
 30
0.0
 11
1635.576605973728
 21
3233.040732082417
 31
0.0
  0
LINE
  5
846E
  8
3
 62
     0
 10
1295.576605973728
 20
3208.040732082417
 30
0.0
 11
1585.576605973728
 21
3208.040732082417
 31
0.0
  0
INSERT
  5
846F
  8
3
 62
     0
  2
_OPEN
 10
1245.576605973728
 20
3208.040732082417
 30
0.0
 41
50.0
 42
50.0
 43
50.0
 50
180.0
  0
INSERT
  5
8470
  8
3
 62
     0
  2
_OPEN
 10
1635.576605973728
 20
3208.040732082417
 30
0.0
 41
50.0
 42
50.0
 43
50.0
  0
TEXT
  8
3
  40
75
  5
84D1
  62
0
  72
0
  71
0
 10
1290.58
 20
3137.79
 30
0.000000
  1
390
  0
POINT
  5
8472
  8
DEFPOINTS
 62
     0
 10
1245.576605973728
 20
3076.0705925870288
 30
0.0
  0
POINT
  5
8473
  8
DEFPOINTS
 62
     0
 10
1635.576605973728
 20
3088.8263814629458
 30
0.0
  0
POINT
  5
8474
  8
DEFPOINTS
 62
     0
 10
1635.576605973728
 20
3208.040732082417
 30
0.0
  0
ENDBLK
  5
80AB
  8
0
  0
BLOCK
  8
0
  2
*D13
 70
     1
 10
0.0
 20
0.0
 30
0.0
  3
*D13
  1

  0
LINE
  5
8475
  8
3
 62
     0
 10
1635.576605973728
 20
3101.3263814629458
 30
0.0
 11
1635.576605973728
 21
3233.040732082417
 31
0.0
  0
LINE
  5
8476
  8
3
 62
     0
 10
2119.576605973728
 20
2506.0454163263971
 30
0.0
 11
2119.576605973728
 21
3233.040732082417
 31
0.0
  0
LINE
  5
8477
  8
3
 62
     0
 10
1685.576605973728
 20
3208.040732082417
 30
0.0
 11
2069.576605973728
 21
3208.040732082417
 31
0.0
  0
INSERT
  5
8478
  8
3
 62
     0
  2
_OPEN
 10
1635.576605973728
 20
3208.040732082417
 30
0.0
 41
50.0
 42
50.0
 43
50.0
 50
180.0
  0
INSERT
  5
8479
  8
3
 62
     0
  2
_OPEN
 10
2119.576605973728
 20
3208.040732082417
 30
0.0
 41
50.0
 42
50.0
 43
50.0
  0
TEXT
  8
3
  40
75
  5
84D2
  62
0
  72
0
  71
0
 10
1727.58
 20
3137.79
 30
0.000000
  1
484
  0
POINT
  5
847B
  8
DEFPOINTS
 62
     0
 10
1635.576605973728
 20
3088.8263814629458
 30
0.0
  0
POINT
  5
847C
  8
DEFPOINTS
 62
     0
 10
2119.576605973728
 20
2493.5454163263971
 30
0.0
  0
POINT
  5
847D
  8
DEFPOINTS
 62
     0
 10
2119.576605973728
 20
3208.040732082417
 30
0.0
  0
ENDBLK
  5
80A0
  8
0
  0
BLOCK
  8
0
  2
*D14
 70
     1
 10
0.0
 20
0.0
 30
0.0
  3
*D14
  1

  0
LINE
  5
847E
  8
3
 62
     0
 10
1245.576605973728
 20
3088.5705925870288
 30
0.0
 11
1245.576605973728
 21
3373.140107826745
 31
0.0
  0
LINE
  5
847F
  8
3
 62
     0
 10
2535.576605973728
 20
2063.5639604100388
 30
0.0
 11
2535.576605973728
 21
3373.140107826745
 31
0.0
  0
LINE
  5
8480
  8
3
 62
     0
 10
1295.576605973728
 20
3348.140107826745
 30
0.0
 11
2485.576605973728
 21
3348.140107826745
 31
0.0
  0
INSERT
  5
8481
  8
3
 62
     0
  2
_OPEN
 10
1245.576605973728
 20
3348.140107826745
 30
0.0
 41
50.0
 42
50.0
 43
50.0
 50
180.0
  0
INSERT
  5
8482
  8
3
 62
     0
  2
_OPEN
 10
2535.576605973728
 20
3348.140107826745
 30
0.0
 41
50.0
 42
50.0
 43
50.0
  0
TEXT
  8
3
  40
75
  5
84D3
  62
0
  72
0
  71
0
 10
1740.58
 20
3277.89
 30
0.000000
  1
1290
  0
POINT
  5
8484
  8
DEFPOINTS
 62
     0
 10
1245.576605973728
 20
3076.0705925870288
 30
0.0
  0
POINT
  5
8485
  8
DEFPOINTS
 62
     0
 10
2535.576605973728
 20
2051.0639604100402
 30
0.0
  0
POINT
  5
8486
  8
DEFPOINTS
 62
     0
 10
2535.576605973728
 20
3348.140107826745
 30
0.0
  0
ENDBLK
  5
8095
  8
0
  0
BLOCK
  8
0
  2
*D15
 70
     1
 10
0.0
 20
0.0
 30
0.0
  3
*D15
  1

  0
LINE
  5
8487
  8
3
 62
     0
 10
4005.0155503706692
 20
3280.4685653750171
 30
0.0
 11
4005.0155503706692
 21
3350.2960691160611
 31
0.0
  0
LINE
  5
8488
  8
3
 62
     0
 10
3054.5155503706692
 20
2563.5685875123122
 30
0.0
 11
3054.5155503706692
 21
3350.2960691160611
 31
0.0
  0
LINE
  5
8489
  8
3
 62
     0
 10
3955.0155503706692
 20
3325.2960691160611
 30
0.0
 11
3104.5155503706692
 21
3325.2960691160611
 31
0.0
  0
INSERT
  5
848A
  8
3
 62
     0
  2
_OPEN
 10
4005.0155503706692
 20
3325.2960691160611
 30
0.0
 41
50.0
 42
50.0
 43
50.0
  0
INSERT
  5
848B
  8
3
 62
     0
  2
_OPEN
 10
3054.5155503706692
 20
3325.2960691160611
 30
0.0
 41
50.0
 42
50.0
 43
50.0
 50
180.0
  0
TEXT
  8
3
  40
75
  5
84D4
  62
0
  72
0
  71
0
 10
3379.77
 20
3317.55
 30
0.000000
  1
MAX
  0
TEXT
  8
3
  40
75
  5
84D5
  62
0
  72
0
  71
0
 10
3379.77
 20
3220.05
 30
0.000000
  1
1010
  0
POINT
  5
848D
  8
DEFPOINTS
 62
     0
 10
4005.0155503706692
 20
3267.9685653750171
 30
0.0
  0
POINT
  5
848E
  8
DEFPOINTS
 62
     0
 10
3054.5155503706692
 20
2551.0685875123122
 30
0.0
  0
POINT
  5
848F
  8
DEFPOINTS
 62
     0
 10
3054.5155503706692
 20
3325.2960691160611
 30
0.0
  0
ENDBLK
  5
834B
  8
0
  0
BLOCK
  8
0
  2
*D16
 70
     1
 10
0.0
 20
0.0
 30
0.0
  3
*D16
  1

  0
LINE
  5
8490
  8
3
 62
     0
 10
2535.575692314515
 20
4027.2594772329412
 30
0.0
 11
2535.5795355881992
 21
3663.8910180948001
 31
0.0
  0
LINE
  5
8491
  8
3
 62
     0
 10
1385.5756923315039
 20
4027.2532263125122
 30
0.0
 11
1385.579535667722
 21
3663.8788547806048
 31
0.0
  0
LINE
  5
8492
  8
3
 62
     0
 10
2485.5792711711219
 20
3688.8904892536539
 30
0.0
 11
1435.579271245052
 21
3688.8793836189552
 31
0.0
  0
INSERT
  5
8493
  8
3
 62
     0
  2
_OPEN
 10
2535.5792711683262
 20
3688.8910180934022
 30
0.0
 41
50.0
 42
50.0
 43
50.0
 50
0.000606005711532
  0
INSERT
  5
8494
  8
3
 62
     0
  2
_OPEN
 10
1385.5792712478481
 20
3688.8788547792069
 30
0.0
 41
50.0
 42
50.0
 43
50.0
 50
180.00060600571149
  0
TEXT
  8
3
  40
75
  5
84D6
  62
0
  72
0
  71
0
 10
1810.58
 20
3618.63
 30
0.000000
  1
1150
  0
POINT
  5
8496
  8
DEFPOINTS
 62
     0
 10
2535.575560104578
 20
4039.7594772322432
 30
0.0
  0
POINT
  5
8497
  8
DEFPOINTS
 62
     0
 10
1385.5755601215669
 20
4039.7532263118128
 30
0.0
  0
POINT
  5
8498
  8
DEFPOINTS
 62
     0
 10
1385.5792712478481
 20
3688.8788547792069
 30
0.0
  0
ENDBLK
  5
81FA
  8
0
  0
BLOCK
  8
0
  2
*D17
 70
     1
 10
0.0
 20
0.0
 30
0.0
  3
*D17
  1

  0
LINE
  5
8499
  8
3
 62
     0
 10
1385.5694487703511
 20
5152.2532262948653
 30
0.0
 11
1385.567515817454
 21
5335.0073503157146
 31
0.0
  0
LINE
  5
849A
  8
3
 62
     0
 10
1885.5694487629651
 20
5152.255944086357
 30
0.0
 11
1885.5675157828789
 21
5335.0126387131913
 31
0.0
  0
LINE
  5
849B
  8
3
 62
     0
 10
1435.5677802345319
 20
5310.0078791568603
 30
0.0
 11
1835.56778020555
 21
5310.0121098748423
 31
0.0
  0
INSERT
  5
849C
  8
3
 62
     0
  2
_OPEN
 10
1385.567780237328
 20
5310.0073503171134
 30
0.0
 41
50.0
 42
50.0
 43
50.0
 50
180.00060600571149
  0
INSERT
  5
849D
  8
3
 62
     0
  2
_OPEN
 10
1885.5677802027531
 20
5310.0126387145892
 30
0.0
 41
50.0
 42
50.0
 43
50.0
 50
0.0006060057115299
  0
TEXT
  8
3
  40
75
  5
84D7
  62
0
  72
0
  71
0
 10
1485.57
 20
5239.76
 30
0.000000
  1
500
  0
POINT
  5
849F
  8
DEFPOINTS
 62
     0
 10
1385.569580980288
 20
5139.7532262955647
 30
0.0
  0
POINT
  5
84A0
  8
DEFPOINTS
 62
     0
 10
1885.569580972902
 20
5139.7559440870564
 30
0.0
  0
POINT
  5
84A1
  8
DEFPOINTS
 62
     0
 10
1885.5677802027531
 20
5310.0126387145892
 30
0.0
  0
ENDBLK
  5
8074
  8
0
  0
BLOCK
  8
0
  2
*D18
 70
     1
 10
0.0
 20
0.0
 30
0.0
  3
*D18
  1

  0
LINE
  5
84A2
  8
3
 62
     0
 10
1885.5694487629651
 20
5152.255944086357
 30
0.0
 11
1885.5675157828789
 21
5335.0126387131868
 31
0.0
  0
LINE
  5
84A3
  8
3
 62
     0
 10
2535.5748260589862
 20
4643.853514099721
 30
0.0
 11
2535.5675157379319
 21
5335.0195136299062
 31
0.0
  0
LINE
  5
84A4
  8
3
 62
     0
 10
1935.567780199957
 20
5310.0131675543344
 30
0.0
 11
2485.5677801606021
 21
5310.0189847915572
 31
0.0
  0
INSERT
  5
84A5
  8
3
 62
     0
  2
_OPEN
 10
1885.5677802027531
 20
5310.0126387145856
 30
0.0
 41
50.0
 42
50.0
 43
50.0
 50
180.00060600571149
  0
INSERT
  5
84A6
  8
3
 62
     0
  2
_OPEN
 10
2535.5677801578049
 20
5310.019513631305
 30
0.0
 41
50.0
 42
50.0
 43
50.0
 50
0.0006060057115299
  0
TEXT
  8
3
  40
75
  5
84D8
  62
0
  72
0
  71
0
 10
2060.57
 20
5239.77
 30
0.000000
  1
650
  0
POINT
  5
84A8
  8
DEFPOINTS
 62
     0
 10
1885.569580972902
 20
5139.7559440870564
 30
0.0
  0
POINT
  5
84A9
  8
DEFPOINTS
 62
     0
 10
2535.5749582689241
 20
4631.3535141004204
 30
0.0
  0
POINT
  5
84AA
  8
DEFPOINTS
 62
     0
 10
2535.5677801578049
 20
5310.019513631305
 30
0.0
  0
ENDBLK
  5
8069
  8
0
  0
BLOCK
  8
0
  2
*D19
 70
     1
 10
0.0
 20
0.0
 30
0.0
  3
*D19
  1

  0
LINE
  5
84AB
  8
3
 62
     0
 10
1373.069580980288
 20
5139.7532262955647
 30
0.0
 11
1045.884997175413
 21
5139.7532262955647
 31
0.0
  0
LINE
  5
84AC
  8
3
 62
     0
 10
1373.075560121566
 20
4039.7532263118128
 30
0.0
 11
1045.884997175413
 21
4039.7532263118128
 31
0.0
  0
LINE
  5
84AD
  8
3
 62
     0
 10
1070.884997175413
 20
5089.7532262955647
 30
0.0
 11
1070.884997175413
 21
4089.7532263118128
 31
0.0
  0
INSERT
  5
84AE
  8
3
 62
     0
  2
_OPEN
 10
1070.884997175413
 20
5139.7532262955647
 30
0.0
 41
50.0
 42
50.0
 43
50.0
 50
90.0
  0
INSERT
  5
84AF
  8
3
 62
     0
  2
_OPEN
 10
1070.884997175413
 20
4039.7532263118128
 30
0.0
 41
50.0
 42
50.0
 43
50.0
 50
270.0
  0
TEXT
  8
3
  40
75
  5
84D9
  62
0
  72
0
  71
0
 10
858.385
 20
4457.00
 30
0.000000
  1
1100
  0
POINT
  5
84B1
  8
DEFPOINTS
 62
     0
 10
1385.569580980288
 20
5139.7532262955647
 30
0.0
  0
POINT
  5
84B2
  8
DEFPOINTS
 62
     0
 10
1385.5755601215669
 20
4039.7532263118128
 30
0.0
  0
POINT
  5
84B3
  8
DEFPOINTS
 62
     0
 10
1070.884997175413
 20
4039.7532263118128
 30
0.0
  0
ENDBLK
  5
805E
  8
0
  0
BLOCK
  8
0
  2
*D20
 70
     1
 10
0.0
 20
0.0
 30
0.0
  3
*D20
  1

  0
LINE
  5
84B4
  8
3
 62
     0
 10
2548.0740999451032
 20
4639.7594772331686
 30
0.0
 11
2759.7428874709422
 21
4639.7594772331686
 31
0.0
  0
LINE
  5
84B5
  8
3
 62
     0
 10
2548.0755601045721
 20
4039.7594772322418
 30
0.0
 11
2759.7428874709422
 21
4039.7594772322418
 31
0.0
  0
LINE
  5
84B6
  8
3
 62
     0
 10
2734.7428874709422
 20
4589.7594772331677
 30
0.0
 11
2734.7428874709422
 21
4089.7594772322418
 31
0.0
  0
INSERT
  5
84B7
  8
3
 62
     0
  2
_OPEN
 10
2734.7428874709422
 20
4639.7594772331686
 30
0.0
 41
50.0
 42
50.0
 43
50.0
 50
90.0
  0
INSERT
  5
84B8
  8
3
 62
     0
  2
_OPEN
 10
2734.7428874709422
 20
4039.7594772322418
 30
0.0
 41
50.0
 42
50.0
 43
50.0
 50
270.0
  0
TEXT
  8
3
  40
75
  5
84DA
  62
0
  72
0
  71
0
 10
2522.24
 20
4207.01
 30
0.000000
  1
600
  0
POINT
  5
84BA
  8
DEFPOINTS
 62
     0
 10
2535.5740999451032
 20
4639.7594772331686
 30
0.0
  0
POINT
  5
84BB
  8
DEFPOINTS
 62
     0
 10
2535.5755601045721
 20
4039.7594772322418
 30
0.0
  0
POINT
  5
84BC
  8
DEFPOINTS
 62
     0
 10
2734.7428874709422
 20
4039.7594772322418
 30
0.0
  0
ENDBLK
  5
8053
  8
0
  0
BLOCK
  8
0
  2
_DOT
 70
     0
 10
0.0
 20
0.0
 30
0.0
  3
_DOT
  1

  0
LINE
  5
8385
  8
0
  6
BYBLOCK
 62
     0
 10
0.0
 20
0.0
 30
0.0
 11
-1.0
 21
-0.0000000000000284
 31
0.0
  0
POLYLINE
  5
8386
  8
0
  6
BYBLOCK
 62
     0
 66
     1
 10
0.0
 20
0.0
 30
0.0
 70
     1
 40
0.1666666666666666
 41
0.1666666666666666
  0
VERTEX
  5
84C6
  8
0
  6
BYBLOCK
 62
     0
 10
-0.0833333333333286
 20
-0.0000000000000284
 30
0.0
 42
1.0
  0
VERTEX
  5
84C7
  8
0
  6
BYBLOCK
 62
     0
 10
0.0833333333333286
 20
-0.0000000000000284
 30
0.0
 42
1.0
  0
SEQEND
  5
84C8
  8
0
  6
BYBLOCK
 62
     0
  0
ENDBLK
  5
8287
  8
0
  0
BLOCK
  8
0
  2
*D22
 70
     1
 10
0.0
 20
0.0
 30
0.0
  3
*D22
  1

  0
LINE
  5
84BD
  8
3
 62
     0
 10
1233.076605973728
 20
3076.0705925870288
 30
0.0
 11
724.64089829334682
 21
3076.0705925870302
 31
0.0
  0
LINE
  5
84BE
  8
3
 62
     0
 10
1373.076605973728
 20
1806.068587506101
 30
0.0
 11
724.64089829334648
 21
1806.068587506101
 31
0.0
  0
LINE
  5
84BF
  8
3
 62
     0
 10
749.64089829334682
 20
3026.0705925870302
 30
0.0
 11
749.64089829334648
 21
1856.068587506101
 31
0.0
  0
INSERT
  5
84C0
  8
3
 62
     0
  2
_OPEN
 10
749.64089829334682
 20
3076.0705925870302
 30
0.0
 41
50.0
 42
50.0
 43
50.0
 50
90.0
  0
INSERT
  5
84C1
  8
3
 62
     0
  2
_OPEN
 10
749.64089829334648
 20
1806.068587506101
 30
0.0
 41
50.0
 42
50.0
 43
50.0
 50
270.0
  0
TEXT
  8
3
  40
75
  5
84DB
  62
0
  72
0
  71
0
 10
537.141
 20
2330.70
 30
0.000000
  1
1270
  0
POINT
  5
84C3
  8
DEFPOINTS
 62
     0
 10
1245.576605973728
 20
3076.0705925870288
 30
0.0
  0
POINT
  5
84C4
  8
DEFPOINTS
 62
     0
 10
1385.576605973728
 20
1806.068587506101
 30
0.0
  0
POINT
  5
84C5
  8
DEFPOINTS
 62
     0
 10
749.64089829334648
 20
1806.068587506101
 30
0.0
  0
ENDBLK
  5
83B5
  8
0
  0
BLOCK
  8
0
  2
*D23
 70
     1
 10
0.0
 20
0.0
 30
0.0
  3
*D23
  1

  0
LINE
  5
8371
  8
0
  6
BYBLOCK
 62
     0
 10
4220.0155503706674
 20
2327.6514327886098
 30
0.0
 11
4220.0155503706674
 21
3219.3789143923591
 31
0.0
  0
LINE
  5
8372
  8
0
  6
BYBLOCK
 62
     0
 10
4055.0155503706692
 20
3194.3789143923591
 30
0.0
 11
4170.0155503706674
 21
3194.3789143923591
 31
0.0
  0
TEXT
  5
8373
  8
1
 62
     0
 10
4023.2298360849531
 20
3220.4492120786558
 30
0.0
 40
75.0
  1
215
  0
INSERT
  5
8374
  8
0
  6
BYBLOCK
 62
     0
  2
_OPEN
 10
4005.0155503706692
 20
3194.3789143923591
 30
0.0
 41
50.0
 42
50.0
 43
50.0
 50
180.0
  0
INSERT
  5
8375
  8
0
  6
BYBLOCK
 62
     0
  2
_OPEN
 10
4220.0155503706674
 20
3194.3789143923591
 30
0.0
 41
50.0
 42
50.0
 43
50.0
  0
POINT
  5
8376
  8
DEFPOINTS
  6
BYBLOCK
 62
     0
 10
4005.0155503706692
 20
3137.0514106513151
 30
0.0
  0
POINT
  5
8377
  8
DEFPOINTS
  6
BYBLOCK
 62
     0
 10
4220.0155503706674
 20
2315.1514327886098
 30
0.0
  0
POINT
  5
8378
  8
DEFPOINTS
  6
BYBLOCK
 62
     0
 10
4220.0155503706674
 20
3194.3789143923591
 30
0.0
  0
ENDBLK
  5
8379
  8
0
  0
ENDSEC
  0
SECTION
  2
ENTITIES
  0
LINE
  5
7CBE
  8
1
 10
3192.5155503706669
 20
2387.8685875123128
 30
0.0
 11
3707.5155503706669
 21
2387.8685875123128
 31
0.0
  0
LINE
  5
7CBF
  8
1
 10
3198.0155503706669
 20
2051.0892599295921
 30
0.0
 11
3198.0155503706678
 21
2219.0901093122488
 31
0.0
  0
LINE
  5
7CC0
  8
1
 10
3200.0155503706669
 20
2051.0892599295921
 30
0.0
 11
4260.0155503706701
 21
2051.0892599295921
 31
0.0
  0
LINE
  5
7CC1
  8
1
 10
3160.0155503706669
 20
1976.0892599295919
 30
0.0
 11
4260.0155503706701
 21
1976.0892599295919
 31
0.0
  0
LINE
  5
7CC2
  8
1
 10
1855.5760075337471
 20
2334.6674564410059
 30
0.0
 11
2097.4346027742349
 21
2334.6662129946999
 31
0.0
  0
LINE
  5
7CC3
  8
1
 10
1855.575961262839
 20
2325.6674564411242
 30
0.0
 11
2097.4345565033268
 21
2325.666212994819
 31
0.0
  0
LINE
  5
7CC4
  8
1
 10
1303.0746069634829
 20
2325.6702969677021
 30
0.0
 11
1415.575961268652
 21
2325.669718574391
 31
0.0
  0
LINE
  5
7CC5
  8
1
 10
1303.074653234391
 20
2334.670296967583
 30
0.0
 11
1415.5760075395599
 21
2334.6697185742728
 31
0.0
  0
LINE
  5
7CC6
  8
1
 10
1415.5745494918469
 20
2051.0697185780209
 30
0.0
 11
1415.576264600159
 21
2384.669718573612
 31
0.0
  0
LINE
  5
7CC7
  8
1
 10
1855.5745494860321
 20
2051.0674564447531
 30
0.0
 11
1855.576264594346
 21
2384.6674564403438
 31
0.0
  0
LINE
  5
7CC8
  8
1
 10
1885.576281045827
 20
2387.8673022039429
 30
0.0
 11
1385.576281052435
 21
2387.8698728099289
 31
0.0
  0
LINE
  5
7CC9
  8
1
 10
3157.5155503706669
 20
2476.0685875123122
 30
0.0
 11
3792.5155503706678
 21
2476.0685875123131
 31
0.0
  0
LINE
  5
7CCA
  8
1
 10
3157.5155503706678
 20
2426.0685875123122
 30
0.0
 11
3790.5155503706678
 21
2426.0685875123122
 31
0.0
  0
LINE
  5
7CCB
  8
1
 10
3157.5155503706669
 20
2406.0685875123122
 30
0.0
 11
3157.5155503706669
 21
2496.0685875123122
 31
0.0
  0
LINE
  5
7CCC
  8
1
 10
3137.5155503706669
 20
2144.0685875123108
 30
0.0
 11
3137.5155503706669
 21
2322.0685875123108
 31
0.0
  0
LINE
  5
7CCD
  8
1
 10
3074.5155503706669
 20
2144.0685875123108
 30
0.0
 11
3074.5155503706669
 21
2322.0685875123108
 31
0.0
  0
LINE
  5
7CCE
  8
1
 10
3137.5155503706669
 20
2496.0685875123122
 30
0.0
 11
3157.5155503706669
 21
2496.0685875123122
 31
0.0
  0
LINE
  5
7CCF
  8
1
 10
3137.5155503706669
 20
2406.0685875123122
 30
0.0
 11
3157.5155503706669
 21
2406.0685875123122
 31
0.0
  0
LINE
  5
7CD0
  8
1
 10
3159.5155503706669
 20
2198.0892599295921
 30
0.0
 11
3159.5155503706669
 21
2268.0892599295921
 31
0.0
  0
LINE
  5
7CD1
  8
1
 10
3137.5155503706669
 20
2268.0892599295921
 30
0.0
 11
3159.5155503706669
 21
2268.0892599295921
 31
0.0
  0
LINE
  5
7CD2
  8
1
 10
3137.5155503706669
 20
2198.0892599295921
 30
0.0
 11
3159.5155503706669
 21
2198.0892599295921
 31
0.0
  0
LINE
  5
7CD3
  8
1
 10
3054.5155503706692
 20
2078.0685875123122
 30
0.0
 11
3054.5155503706692
 21
2551.0685875123122
 31
0.0
  0
LINE
  5
7CD4
  8
1
 10
3176.5155503706692
 20
2078.0685875123122
 30
0.0
 11
3176.5155503706669
 21
2094.252935936463
 31
0.0
  0
LINE
  5
7CD5
  8
2
 10
3023.6353086566291
 20
2451.0685875123122
 30
0.0
 11
4288.4420062418349
 21
2451.0685875123122
 31
0.0
  0
LINE
  5
7CD6
  8
2
 10
3023.6353086566291
 20
2233.0892599295921
 30
0.0
 11
3629.3379410249909
 21
2233.0892599295921
 31
0.0
  0
LINE
  5
7CD7
  8
1
 10
2535.575560104578
 20
4039.7594772322418
 30
0.0
 11
2349.575033823271
 21
4039.7584662109471
 31
0.0
  0
LINE
  5
7CD8
  8
1
 10
1385.5755601215669
 20
4039.7532263118128
 30
0.0
 11
1385.575353569413
 21
4077.753226311755
 31
0.0
  0
LINE
  5
7CD9
  8
1
 10
1385.569580980288
 20
5139.7532262955647
 30
0.0
 11
1885.5695809729009
 21
5139.7559440870564
 31
0.0
  0
LINE
  5
7CDA
  8
1
 10
1885.5722987643919
 20
4639.7559440944397
 30
0.0
 11
1885.5721221079441
 21
4672.2559440939613
 31
0.0
  0
LINE
  5
7CDB
  8
1
 10
2535.5740999451032
 20
4639.7594772331686
 30
0.0
 11
1885.5722987643919
 21
4639.7559440944406
 31
0.0
  0
LINE
  5
7CDC
  8
1
 10
1245.5699573125901
 20
5099.7524653153996
 30
0.0
 11
2119.5699572996882
 21
5099.7572160149284
 31
0.0
  0
LINE
  5
7CDD
  8
2
 10
2335.5734981572559
 20
4462.5737598774876
 30
0.0
 11
2335.5759249738489
 21
3794.3977224837458
 31
0.0
  0
LINE
  5
7CDE
  8
2
 10
1635.5768619188859
 20
3794.1393995524818
 30
0.0
 11
1635.569570893229
 21
5172.8227699612762
 31
0.0
  0
LINE
  5
7CE5
  8
1
 10
2465.5747808325068
 20
2096.0643203048562
 30
0.0
 11
2415.574780833168
 21
2096.0645773654551
 31
0.0
  0
LINE
  5
7CE6
  8
1
 10
2465.5747808325068
 20
2096.0643203048562
 30
0.0
 11
2465.5748579506871
 21
2111.0643203046579
 31
0.0
  0
LINE
  5
7CE7
  8
1
 10
2465.5748579506871
 20
2111.0643203046579
 30
0.0
 11
2416.9213391290659
 21
2111.064570442712
 31
0.0
  0
LINE
  5
7CE8
  8
1
 10
2415.5748531969389
 20
2110.1398132145619
 30
0.0
 11
2415.574780833168
 21
2096.0645773654551
 31
0.0
  0
LINE
  5
7CE9
  8
1
 10
2398.974031815636
 20
2100.4449627044451
 30
0.0
 11
2272.1755748929122
 21
2100.4456146021889
 31
0.0
  0
LINE
  5
7CEA
  8
1
 10
2465.5748579506871
 20
2111.0643203046579
 30
0.0
 11
2451.5457561631629
 21
2145.2571370650921
 31
0.0
  0
LINE
  5
7CEB
  8
1
 10
2205.5748579541232
 20
2111.0656570197712
 30
0.0
 11
2219.6043113259429
 21
2145.2583295252239
 31
0.0
  0
LINE
  5
7CEC
  8
1
 10
2255.574853199053
 20
2110.1406358084769
 30
0.0
 11
2255.5747808352821
 21
2096.0653999593701
 31
0.0
  0
LINE
  5
7CED
  8
1
 10
2205.5748579541232
 20
2111.0656570197712
 30
0.0
 11
2254.2283767757458
 21
2111.0654068817171
 31
0.0
  0
LINE
  5
7CEE
  8
1
 10
2205.5747808359429
 20
2096.0656570199681
 30
0.0
 11
2205.5748579541232
 21
2111.0656570197712
 31
0.0
  0
LINE
  5
7CEF
  8
2
 10
2559.088094519781
 20
2228.0638395348328
 30
0.0
 11
2183.0754594762211
 21
2228.0657726954942
 31
0.0
  0
ARC
  5
7CF0
  8
1
 10
2335.5754594742052
 20
2228.064988660668
 30
0.0
 40
142.0
 50
296.41708569015321
 51
243.58232517035151
  0
CIRCLE
  5
7CF1
  8
1
 10
2335.5754594742052
 20
2228.064988660668
 30
0.0
 40
19.0
  0
LINE
  5
7CF2
  8
2
 10
2335.574498055089
 20
2041.062561810262
 30
0.0
 11
2335.576243509031
 21
2380.5649886586521
 31
0.0
  0
POLYLINE
  5
7CF3
  8
1
 66
     1
 10
0.0
 20
0.0
 30
0.0
 70
     1
  0
VERTEX
  5
8409
  8
1
 10
2510.5745494773728
 20
2051.0640889509118
 30
0.0
  0
VERTEX
  5
840A
  8
1
 10
2160.5745494819989
 20
2051.0658883751021
 30
0.0
  0
VERTEX
  5
840B
  8
1
 10
2170.5747808364049
 20
2096.0658369623879
 30
0.0
  0
VERTEX
  5
840C
  8
1
 10
2500.5747808320439
 20
2096.0641403624368
 30
0.0
  0
SEQEND
  5
840D
  8
1
  0
LINE
  5
7D0B
  8
1
 10
1270.5796907057329
 20
3051.0704640405411
 30
0.0
 11
1641.855674299158
 21
3016.848482701997
 31
0.0
  0
ARC
  5
7D0C
  8
1
 10
1668.5764363132971
 20
2418.0684178465422
 30
0.0
 40
367.0
 50
179.99970543025171
 51
270.66962115454822
  0
ARC
  5
7D0D
  8
1
 10
1677.576821904076
 20
2493.0683715746432
 30
0.0
 40
442.0
 50
269.38926730573593
 51
0.056634797916943
  0
ARC
  5
7D0E
  8
1
 10
1593.5768219051861
 20
2493.068803436448
 30
0.0
 40
526.0
 50
359.9480838198063
 51
84.73370113302046
  0
LINE
  5
7D49
  8
1
 10
1905.5762645936841
 20
2384.6671993797459
 30
0.0
 11
1365.5762646008191
 21
2384.66997563421
 31
0.0
  0
LINE
  5
7D4A
  8
1
 10
1905.5760075330861
 20
2334.6671993804071
 30
0.0
 11
1905.5762645936841
 21
2384.6671993797459
 31
0.0
  0
LINE
  5
7D4B
  8
1
 10
1365.5760075402211
 20
2334.6699756348712
 30
0.0
 11
1365.5762646008191
 21
2384.66997563421
 31
0.0
  0
DIMENSION
  5
7D4D
  8
3
  2
*D1
 10
4217.515550370671
 20
3161.4167892193241
 30
0.0
 11
4016.9284327231562
 21
3161.4167892193241
 31
0.0
 70
   128
 13
3792.5155503706678
 23
3051.0685875123122
 33
0.0
 14
4217.515550370671
 24
3051.0685875123122
 34
0.0
1001
ACAD
1000
DSTYLE
1002
{
1070
   287
1070
     3
1070
    40
1040
25.0
1070
   143
1040
0.039
1070
   172
1070
     1
1070
   271
1070
     0
1070
   279
1070
     0
1070
   288
1070
     1
1002
}
  0
LINE
  5
7D4E
  8
1
 10
3137.5155503706669
 20
2322.0685875123108
 30
0.0
 11
3137.5155503706669
 21
2528.5685875123081
 31
0.0
  0
LINE
  5
7D4F
  8
1
 10
3074.5155503706669
 20
2322.0685875123108
 30
0.0
 11
3074.5155503706669
 21
2528.568587512309
 31
0.0
  0
LINE
  5
7D50
  8
1
 10
1248.5798192363229
 20
3076.0705771468729
 30
0.0
 11
1248.576580272781
 21
2446.0705771552002
 31
0.0
  0
LINE
  5
7D51
  8
1
 10
4217.5155503706656
 20
2051.0892599295921
 30
0.0
 11
4217.5155503706692
 21
2471.0685875123122
 31
0.0
  0
LINE
  5
7D52
  8
1
 10
3792.515550370666
 20
2051.0892599295921
 30
0.0
 11
3792.5155503706678
 21
2471.0685875123122
 31
0.0
  0
LINE
  5
7D53
  8
1
 10
3192.5155503706669
 20
2384.6685875123121
 30
0.0
 11
3707.5155503706669
 21
2384.668587512313
 31
0.0
  0
LINE
  5
7D54
  8
1
 10
3707.5155503706669
 20
2387.8685875123128
 30
0.0
 11
3707.5155503706669
 21
2384.668587512313
 31
0.0
  0
LINE
  5
7D55
  8
1
 10
3697.5155503706669
 20
2384.668587512313
 30
0.0
 11
3697.5155503706669
 21
2051.0892599295921
 31
0.0
  0
LINE
  5
7D56
  8
1
 10
3192.5155503706669
 20
2387.8685875123128
 30
0.0
 11
3192.5155503706669
 21
2384.6685875123121
 31
0.0
  0
POLYLINE
  5
7D57
  8
1
 66
     1
 10
0.0
 20
0.0
 30
0.0
 70
     1
  0
VERTEX
  5
8417
  8
1
 10
3697.5155503706669
 20
2334.668587512313
 30
0.0
  0
VERTEX
  5
8418
  8
1
 10
3747.5155503706669
 20
2334.668587512313
 30
0.0
  0
VERTEX
  5
8419
  8
1
 10
3747.5155503706669
 20
2336.1685875123121
 30
0.0
 42
0.4142135623730951
  0
VERTEX
  5
841A
  8
1
 10
3743.0155503706669
 20
2340.6685875123121
 30
0.0
  0
VERTEX
  5
841B
  8
1
 10
3710.0155503706669
 20
2340.6685875123121
 30
0.0
 42
-0.4142135623730951
  0
VERTEX
  5
841C
  8
1
 10
3703.5155503706669
 20
2347.168587512313
 30
0.0
  0
VERTEX
  5
841D
  8
1
 10
3703.5155503706669
 20
2380.168587512313
 30
0.0
 42
0.4142135623730951
  0
VERTEX
  5
841E
  8
1
 10
3699.0155503706669
 20
2384.668587512313
 30
0.0
  0
VERTEX
  5
841F
  8
1
 10
3697.5155503706669
 20
2384.668587512313
 30
0.0
  0
SEQEND
  5
8420
  8
1
  0
LINE
  5
7D62
  8
1
 10
3725.5155503706669
 20
2334.668587512313
 30
0.0
 11
3790.5155503706669
 21
2334.668587512313
 31
0.0
  0
LINE
  5
7D63
  8
1
 10
3725.5155503706669
 20
2328.6685875123121
 30
0.0
 11
3790.5155503706669
 21
2328.6685875123121
 31
0.0
  0
LINE
  5
7D64
  8
1
 10
3725.5155503706669
 20
2328.6685875123121
 30
0.0
 11
3725.5155503706669
 21
2334.668587512313
 31
0.0
  0
POLYLINE
  5
7D65
  8
1
 66
     1
 10
0.0
 20
0.0
 30
0.0
 70
     1
  0
VERTEX
  5
8421
  8
1
 10
3790.5155503706669
 20
2051.0892599295921
 30
0.0
  0
VERTEX
  5
8422
  8
1
 10
3790.5155503706669
 20
2091.0892599295921
 30
0.0
  0
VERTEX
  5
8423
  8
1
 10
3788.5155503706678
 20
2091.0892599295921
 30
0.0
 42
0.4142135623730951
  0
VERTEX
  5
8424
  8
1
 10
3785.5155503706669
 20
2088.0892599295921
 30
0.0
  0
VERTEX
  5
8425
  8
1
 10
3785.5155503706669
 20
2060.5892599295921
 30
0.0
 42
-0.4142135623730951
  0
VERTEX
  5
8426
  8
1
 10
3781.0155503706669
 20
2056.0892599295921
 30
0.0
  0
VERTEX
  5
8427
  8
1
 10
3753.5155503706669
 20
2056.0892599295921
 30
0.0
 42
0.4142135623730951
  0
VERTEX
  5
8428
  8
1
 10
3750.5155503706669
 20
2053.0892599295921
 30
0.0
  0
VERTEX
  5
8429
  8
1
 10
3750.5155503706669
 20
2051.0892599295921
 30
0.0
  0
SEQEND
  5
842A
  8
1
  0
LINE
  5
7D70
  8
1
 10
1885.576281045827
 20
2387.8673022039429
 30
0.0
 11
1885.576264593949
 21
2384.6673022039849
 31
0.0
  0
LINE
  5
7D71
  8
1
 10
1385.576281052435
 20
2387.8698728099289
 30
0.0
 11
1385.5762646005569
 21
2384.6698728099709
 31
0.0
  0
LINE
  5
7D72
  8
1
 10
1303.0746069634829
 20
2325.6702969677021
 30
0.0
 11
1303.074653234391
 21
2334.670296967583
 31
0.0
  0
LINE
  5
7D73
  8
1
 10
3792.5155503706678
 20
3051.0685875123122
 30
0.0
 11
4217.515550370671
 21
3051.0685875123122
 31
0.0
  0
ARC
  5
7D76
  8
1
 10
1531.5713639981921
 20
2443.0393931514941
 30
0.0
 40
227.59448069142181
 50
138.0899375340542
 51
177.97827070822461
  0
ARC
  5
7D77
  8
1
 10
1316.9774630179741
 20
2617.7702254940318
 30
0.0
 40
50.600000000000001
 50
333.33733511085683
 51
106.91691766312481
  0
LINE
  5
7D78
  8
1
 10
1248.5776279733179
 20
2649.855315551039
 30
0.0
 11
1302.2536372870991
 21
2666.1806474695409
 31
0.0
  0
LINE
  5
7D79
  8
1
 10
4220.0155503706674
 20
2451.0685875123122
 30
0.0
 11
4220.0155503706674
 21
2161.0685875123108
 31
0.0
  0
LINE
  5
7D7A
  8
1
 10
4260.0155503706701
 20
1976.0892599295919
 30
0.0
 11
4260.0155503706701
 21
2051.0892599295921
 31
0.0
  0
LINE
  5
7D7B
  8
2
 10
4005.0155503706669
 20
1759.4910835340049
 30
0.0
 11
4005.0155503706692
 21
3154.881978462794
 31
0.0
  0
LINE
  5
7D7C
  8
1
 10
3200.0155503706669
 20
1976.0892599295919
 30
0.0
 11
3160.0155503706669
 21
1976.0892599295919
 31
0.0
  0
LINE
  5
7D7D
  8
1
 10
3160.0155503706669
 20
1976.0892599295919
 30
0.0
 11
3160.0155503706669
 21
1977.892883621819
 31
0.0
  0
LINE
  5
7D7E
  8
1
 10
3160.0155503706669
 20
2049.285636237365
 30
0.0
 11
3160.0155503706669
 21
2051.0892599295921
 31
0.0
  0
LINE
  5
7D7F
  8
1
 10
3160.0155503706669
 20
2051.0892599295921
 30
0.0
 11
3200.0155503706669
 21
2051.0892599295921
 31
0.0
  0
CIRCLE
  5
7D82
  8
1
 10
1635.576605973728
 20
2451.0685875061008
 30
0.0
 40
72.5
  0
CIRCLE
  5
7D83
  8
1
 10
2335.5754594742052
 20
2228.064988660668
 30
0.0
 40
89.0
  0
LINE
  5
7D84
  8
1
 10
3074.5155503706669
 20
2523.568587512309
 30
0.0
 11
3137.5155503706669
 21
2523.568587512309
 31
0.0
  0
LINE
  5
7D85
  8
1
 10
3074.5155503706669
 20
2378.5685875123158
 30
0.0
 11
3137.5155503706669
 21
2378.5685875123158
 31
0.0
  0
LINE
  5
7D86
  8
1
 10
3074.5155503706669
 20
2322.0685875123108
 30
0.0
 11
3137.5155503706669
 21
2322.0685875123108
 31
0.0
  0
LINE
  5
7D87
  8
1
 10
3074.5155503706669
 20
2144.0685875123108
 30
0.0
 11
3137.5155503706692
 21
2144.0685875123108
 31
0.0
  0
LINE
  5
7D88
  8
1
 10
4220.0155503706674
 20
2146.0685875123122
 30
0.0
 11
4220.0155503706674
 21
2171.0685875123122
 31
0.0
  0
LINE
  5
7D89
  8
1
 10
1655.5710266604001
 20
2520.7569878421991
 30
0.0
 11
2360.1203345240519
 21
2313.6135076939472
 31
0.0
  0
LINE
  5
7D8A
  8
1
 10
1612.466515440681
 20
2382.3505133512299
 30
0.0
 11
2307.2058310957082
 21
2143.7076286636538
 31
0.0
  0
LINE
  5
7D8B
  8
1
 10
1270.579690705734
 20
3051.0704640405411
 30
0.0
 11
1270.5767087931411
 21
2471.0685875061008
 31
0.0
  0
LINE
  5
7D8C
  8
1
 10
4223.0155503706674
 20
2164.0685875123099
 30
0.0
 11
4223.0155503706656
 21
2451.0685875123122
 31
0.0
  0
LINE
  5
7D8D
  8
1
 10
4260.0155503706674
 20
2171.0685875123099
 30
0.0
 11
4260.0155503706674
 21
2731.0685875123131
 31
0.0
  0
DIMENSION
  5
7D8E
  8
3
  2
*D2
 10
4411.8278381594664
 20
2171.0685875123099
 30
0.0
 11
4411.8278381594664
 21
2451.0685875123108
 31
0.0
 70
   128
 13
4260.0155503706674
 23
2731.0685875123131
 33
0.0
 14
4260.0155503706674
 24
2171.0685875123099
 34
0.0
 50
90.0
1001
ACAD
1000
DSTYLE
1002
{
1070
   287
1070
     3
1070
     3
1000
φ<>
1070
    40
1040
25.0
1070
   143
1040
0.039
1070
   172
1070
     1
1070
   271
1070
     0
1070
   279
1070
     0
1070
   288
1070
     1
1002
}
  0
ARC
  5
7D8F
  8
1
 10
2335.5754594742052
 20
2228.064988660668
 30
0.0
 40
150.0
 50
248.7911368307106
 51
76.612112330202805
  0
ARC
  5
7D90
  8
1
 10
1638.0687995702219
 20
2447.8641383383601
 30
0.0
 40
102.5891975502981
 50
78.380837333272595
 51
247.85625945725451
  0
LINE
  5
7D91
  8
1
 10
2370.306797492553
 20
2373.9887158590068
 30
0.0
 11
1658.730831319293
 21
2548.351072304994
 31
0.0
  0
LINE
  5
7D92
  8
1
 10
2281.3101412278161
 20
2088.2248111878898
 30
0.0
 11
1599.3997014367401
 21
2352.841802524315
 31
0.0
  0
LINE
  5
7D93
  8
1
 10
3054.5155503706669
 20
2551.0685875123122
 30
0.0
 11
3176.5155503706669
 21
2551.0685875123122
 31
0.0
  0
LINE
  5
7D94
  8
1
 10
3176.5155503706669
 20
2517.6959724761819
 30
0.0
 11
3176.5155503706669
 21
2551.0685875123131
 31
0.0
  0
LINE
  5
7D95
  8
1
 10
3054.5155503706692
 20
2078.0685875123122
 30
0.0
 11
3176.5155503706692
 21
2078.0685875123122
 31
0.0
  0
ARC
  5
7D9B
  8
1
 10
4227.0155503706674
 20
2164.0685875123099
 30
0.0
 40
4.0
 50
90.0
 51
180.0
  0
ARC
  5
7D9C
  8
1
 10
4221.0155503706674
 20
2148.0685875123099
 30
0.0
 40
2.0
 50
269.9999999999992
 51
0.0
  0
LINE
  5
7D9D
  8
1
 10
4223.0155503706674
 20
2164.0685875123099
 30
0.0
 11
4223.0155503706674
 21
2148.0685875123099
 31
0.0
  0
ARC
  5
7D9E
  8
1
 10
4258.0155503706674
 20
2170.0685875123099
 30
0.0
 40
2.0
 50
270.0000000000004
 51
0.0000000000008142
  0
LINE
  5
7D9F
  8
1
 10
4227.0155503706674
 20
2168.0685875123108
 30
0.0
 11
4258.0155503706674
 21
2168.0685875123108
 31
0.0
  0
LINE
  5
7DA0
  8
1
 10
4260.0155503706674
 20
2171.0685875123099
 30
0.0
 11
4260.0155503706674
 21
2170.0685875123099
 31
0.0
  0
LINE
  5
7DA1
  8
1
 10
4220.0155503706674
 20
2171.0685875123099
 30
0.0
 11
4260.0155503706674
 21
2171.0685875123099
 31
0.0
  0
LINE
  5
7DA2
  8
1
 10
4220.0155503706674
 20
2146.0685875123099
 30
0.0
 11
4221.0155503706674
 21
2146.0685875123099
 31
0.0
  0
LINE
  5
7DA3
  8
1
 10
4220.0155503706674
 20
2171.0685875123099
 30
0.0
 11
4220.0155503706674
 21
2146.0685875123099
 31
0.0
  0
LINE
  5
7DA4
  8
1
 10
4219.8155503706676
 20
2036.0892599295919
 30
0.0
 11
4219.8155503706676
 21
2051.0892599295921
 31
0.0
  0
LINE
  5
7DA5
  8
1
 10
4219.8155503706676
 20
2076.0892599295921
 30
0.0
 11
4221.8155503706676
 21
2076.0892599295921
 31
0.0
  0
ARC
  5
7DA6
  8
1
 10
4221.8155503706676
 20
2073.0892599295921
 30
0.0
 40
3.0
 50
0.0
 51
90.0
  0
LINE
  5
7DA7
  8
1
 10
4224.8155503706676
 20
2073.0892599295921
 30
0.0
 11
4224.8155503706676
 21
2051.0892599295921
 31
0.0
  0
ARC
  5
7DA8
  8
1
 10
4229.3155503706676
 20
2045.5892599295919
 30
0.0
 40
4.5
 50
180.0
 51
270.0
  0
LINE
  5
7DA9
  8
1
 10
4229.3155503706676
 20
2041.0892599295919
 30
0.0
 11
4256.8155503706676
 21
2041.0892599295919
 31
0.0
  0
ARC
  5
7DAA
  8
1
 10
4256.8155503706676
 20
2038.0892599295919
 30
0.0
 40
3.0
 50
0.0
 51
90.0
  0
LINE
  5
7DAB
  8
1
 10
4259.8155503706676
 20
2038.0892599295919
 30
0.0
 11
4259.8155503706676
 21
2036.0892599295919
 31
0.0
  0
LINE
  5
7DAC
  8
1
 10
4259.8155503706676
 20
2036.0892599295919
 30
0.0
 11
4219.8155503706676
 21
2036.0892599295919
 31
0.0
  0
LINE
  5
7DAD
  8
1
 10
4219.8155503706676
 20
2051.0892599295921
 30
0.0
 11
4219.8155503706676
 21
2076.0892599295921
 31
0.0
  0
LINE
  5
7DC0
  8
1
 10
3160.0155503706669
 20
1976.0892599295919
 30
0.0
 11
3160.0155503706669
 21
2051.0892599295921
 31
0.0
  0
LINE
  5
7DC1
  8
1
 10
3160.0155503706669
 20
1881.0892599295919
 30
0.0
 11
4260.0155503706701
 21
1881.0892599295919
 31
0.0
  0
LINE
  5
7DC2
  8
1
 10
3160.0155503706669
 20
1806.0892599295919
 30
0.0
 11
4260.0155503706701
 21
1806.0892599295919
 31
0.0
  0
LINE
  5
7DC3
  8
1
 10
3160.0155503706669
 20
1881.0892599295919
 30
0.0
 11
3160.0155503706669
 21
1806.0892599295919
 31
0.0
  0
LINE
  5
7DC4
  8
1
 10
4260.0155503706701
 20
1881.0892599295919
 30
0.0
 11
4260.0155503706701
 21
1806.0892599295919
 31
0.0
  0
LINE
  5
7DC5
  8
2
 10
1635.576605973728
 20
3088.8263814629458
 30
0.0
 11
1635.576605973728
 21
1746.769001367554
 31
0.0
  0
LINE
  5
7DC6
  8
1
 10
2535.576605973728
 20
2051.0639604100402
 30
0.0
 11
2535.576605973728
 21
1976.068587506101
 31
0.0
  0
LINE
  5
7DC7
  8
1
 10
2535.576605973728
 20
1881.0639604085461
 30
0.0
 11
2535.576605973728
 21
1806.063960407555
 31
0.0
  0
DIMENSION
  5
7DC8
  8
3
  2
*D3
 10
1635.576605973728
 20
1629.4188721027931
 30
0.0
 11
2085.576605973728
 21
1691.9188721027931
 31
0.0
 70
     0
 13
2535.576605973728
 23
1806.063960407555
 33
0.0
 14
1635.576605973728
 24
1746.769001367554
 34
0.0
1001
ACAD
1000
DSTYLE
1002
{
1070
   287
1070
     3
1070
    40
1040
25.0
1070
   143
1040
0.039
1070
   172
1070
     1
1070
   271
1070
     0
1070
   279
1070
     0
1070
   288
1070
     1
1002
}
  0
LINE
  5
7DC9
  8
1
 10
1385.576605973728
 20
2051.0698728038069
 30
0.0
 11
1385.576605973728
 21
1976.068587506101
 31
0.0
  0
LINE
  5
7DCA
  8
1
 10
1385.576605973728
 20
1881.068587506101
 30
0.0
 11
1385.576605973728
 21
1806.068587506101
 31
0.0
  0
DIMENSION
  5
7DCB
  8
3
  2
*D4
 10
1385.576605973728
 20
1629.5274674773841
 30
0.0
 11
1510.576605973728
 21
1684.557131600842
 31
0.0
 12
0.0
 22
73.917154723701969
 32
0.0
 70
   128
 13
1635.576605973728
 23
1746.769001367554
 33
0.0
 14
1385.576605973728
 24
1806.0698728013219
 34
0.0
1001
ACAD
1000
DSTYLE
1002
{
1070
   288
1070
     1
1070
   172
1070
     1
1070
    40
1040
25.0
1070
   271
1070
     0
1070
   143
1040
0.039
1002
}
  0
DIMENSION
  5
7DCD
  8
3
  2
*D5
 10
4005.0155503706669
 20
1649.68418247823
 30
0.0
 11
3582.5155503706669
 21
1712.18418247823
 31
0.0
 70
     0
 13
3160.0155503706669
 23
1806.0892599295919
 33
0.0
 14
4005.0155503706669
 24
1759.4910835340049
 34
0.0
1001
ACAD
1000
DSTYLE
1002
{
1070
   287
1070
     3
1070
    40
1040
25.0
1070
   143
1040
0.039
1070
   172
1070
     1
1070
   271
1070
     0
1070
   279
1070
     0
1070
   288
1070
     1
1002
}
  0
DIMENSION
  5
7DCE
  8
3
  2
*D6
 10
4260.0155503706701
 20
1649.8911737768301
 30
0.0
 11
4132.5155503706683
 21
1716.263296512428
 31
0.0
 12
0.0
 22
73.917154723701969
 32
0.0
 70
   128
 13
4005.0155503706669
 23
1759.4910835340049
 33
0.0
 14
4260.0155503706701
 24
1806.0892599295919
 34
0.0
1001
ACAD
1000
DSTYLE
1002
{
1070
   288
1070
     1
1070
   172
1070
     1
1070
    40
1040
25.0
1070
   271
1070
     0
1070
   143
1040
0.039
1002
}
  0
LINE
  5
7DD0
  8
1
 10
1248.579819236322
 20
3076.0705771468729
 30
0.0
 11
1245.576605973728
 21
3076.0705925870288
 31
0.0
  0
LINE
  5
7DD1
  8
1
 10
1248.576580272781
 20
2446.0705771552002
 30
0.0
 11
1245.576580272821
 21
2446.0705925788361
 31
0.0
  0
LINE
  5
7DD2
  8
2
 10
2193.4375737706691
 20
2451.0685875061008
 30
0.0
 11
1176.06032121114
 21
2451.0685875061008
 31
0.0
  0
LINE
  5
7DD3
  8
1
 10
1270.579690696085
 20
3051.0685875061008
 30
0.0
 11
1248.5796906957951
 21
3051.0685875060999
 31
0.0
  0
DIMENSION
  5
7DD4
  8
3
  2
*D7
 10
968.67183107258006
 20
2451.0685875061008
 30
0.0
 11
906.17183107257961
 21
2751.0685875061022
 31
0.0
 70
     0
 13
1248.5796906957951
 23
3051.0685875060999
 33
0.0
 14
1176.06032121114
 24
2451.0685875061008
 34
0.0
 50
270.0
1001
ACAD
1000
DSTYLE
1002
{
1070
   287
1070
     3
1070
    40
1040
25.0
1070
   143
1040
0.039
1070
   172
1070
     1
1070
   271
1070
     0
1070
   279
1070
     0
1070
   288
1070
     1
1002
}
  0
LINE
  5
7DD5
  8
1
 10
1305.7094329318229
 20
2471.0685875061008
 30
0.0
 11
1248.579690695801
 21
2471.0685875061008
 31
0.0
  0
LINE
  5
7DD6
  8
1
 10
1301.576436318147
 20
2418.0703046713402
 30
0.0
 11
1304.1185564111811
 21
2451.0685875061008
 31
0.0
  0
DIMENSION
  5
7DD7
  8
3
  2
*D8
 10
1104.160858350572
 20
2471.0685875061008
 30
0.0
 11
1041.6608583505711
 21
2761.0685875061022
 31
0.0
 70
     0
 13
1248.5796906957951
 23
3051.0685875060999
 33
0.0
 14
1270.5767087931411
 24
2471.0685875061008
 34
0.0
 50
270.0
1001
ACAD
1000
DSTYLE
1002
{
1070
   287
1070
     3
1070
    40
1040
25.0
1070
   143
1040
0.039
1070
   172
1070
     1
1070
   271
1070
     0
1070
   279
1070
     0
1070
   288
1070
     1
1002
}
  0
LINE
  5
7DD8
  8
1
 10
2535.576605973728
 20
1976.068587506101
 30
0.0
 11
1385.576605973728
 21
1976.068587506101
 31
0.0
  0
LINE
  5
7DD9
  8
1
 10
2535.576605973728
 20
1881.068587506101
 30
0.0
 11
1385.576605973728
 21
1881.068587506101
 31
0.0
  0
LINE
  5
7DDA
  8
1
 10
2535.576605973728
 20
1806.068587506101
 30
0.0
 11
1385.576605973728
 21
1806.068587506101
 31
0.0
  0
DIMENSION
  5
7DDB
  8
3
  2
*D9
 10
968.97314413282982
 20
1976.068587506101
 30
0.0
 11
968.97314413282936
 21
2242.4261120834121
 31
0.0
 70
   128
 13
1176.06032121114
 23
2451.0685875061008
 33
0.0
 14
1385.576605973728
 24
1976.068587506101
 34
0.0
 50
270.0
1001
ACAD
1000
DSTYLE
1002
{
1070
   287
1070
     3
1070
    40
1040
25.0
1070
   143
1040
0.039
1070
   172
1070
     1
1070
   271
1070
     0
1070
   279
1070
     0
1070
   288
1070
     1
1002
}
  0
DIMENSION
  5
7DDC
  8
3
  2
*D10
 10
968.67183107258006
 20
1881.068587506101
 30
0.0
 11
880.45513364286296
 21
1939.5747108811661
 31
0.0
 12
0.0
 22
130.91715472370191
 32
0.0
 70
   128
  1
(<>)
 13
1385.576605973728
 23
1976.068587506101
 33
0.0
 14
1385.576605973728
 24
1881.068587506101
 34
0.0
 50
270.0
1001
ACAD
1000
DSTYLE
1002
{
1070
   288
1070
     1
1070
   172
1070
     1
1070
    40
1040
25.0
1070
   271
1070
     0
1070
     7
1000
_DOT
1070
   143
1040
0.039
1002
}
  0
DIMENSION
  5
7DDD
  8
3
  2
*D11
 10
968.67183107258006
 20
1806.068587506101
 30
0.0
 11
906.17183107257972
 21
1620.354301791815
 31
0.0
 70
     0
 13
1385.576605973728
 23
1881.068587506101
 33
0.0
 14
1385.576605973728
 24
1806.068587506101
 34
0.0
 50
270.0
1001
ACAD
1000
DSTYLE
1002
{
1070
   287
1070
     3
1070
    40
1040
25.0
1070
   143
1040
0.039
1070
   172
1070
     1
1070
   271
1070
     0
1070
   279
1070
     0
1070
   288
1070
     1
1070
     6
1000
DOT
1002
}
  0
LINE
  5
7DDF
  8
1
 10
1245.576605973728
 20
3076.0705925870288
 30
0.0
 11
1245.576605973728
 21
2446.0705925787029
 31
0.0
  0
DIMENSION
  5
7DE0
  8
3
  2
*D12
 10
1635.576605973728
 20
3208.040732082417
 30
0.0
 11
1440.576605973728
 21
3270.540732082417
 31
0.0
 70
     0
 13
1245.576605973728
 23
3076.0705925870288
 33
0.0
 14
1635.576605973728
 24
3088.8263814629458
 34
0.0
1001
ACAD
1000
DSTYLE
1002
{
1070
   287
1070
     3
1070
    40
1040
25.0
1070
   143
1040
0.039
1070
   172
1070
     1
1070
   271
1070
     0
1070
   279
1070
     0
1070
   288
1070
     1
1002
}
  0
LINE
  5
7DE1
  8
1
 10
2119.576605973728
 20
2493.5454163263971
 30
0.0
 11
2119.576605973728
 21
2492.592190546683
 31
0.0
  0
DIMENSION
  5
7DE2
  8
3
  2
*D13
 10
2119.576605973728
 20
3208.040732082417
 30
0.0
 11
1877.576605973728
 21
3270.540732082417
 31
0.0
 70
     0
 13
1635.576605973728
 23
3088.8263814629458
 33
0.0
 14
2119.576605973728
 24
2493.5454163263971
 34
0.0
1001
ACAD
1000
DSTYLE
1002
{
1070
   287
1070
     3
1070
    40
1040
25.0
1070
   143
1040
0.039
1070
   172
1070
     1
1070
   271
1070
     0
1070
   279
1070
     0
1070
   288
1070
     1
1002
}
  0
DIMENSION
  5
7DE3
  8
3
  2
*D14
 10
2535.576605973728
 20
3348.140107826745
 30
0.0
 11
1890.576605973728
 21
3410.640107826745
 31
0.0
 70
     0
 13
1245.576605973728
 23
3076.0705925870288
 33
0.0
 14
2535.576605973728
 24
2051.0639604100402
 34
0.0
1001
ACAD
1000
DSTYLE
1002
{
1070
   287
1070
     3
1070
    40
1040
25.0
1070
   143
1040
0.039
1070
   172
1070
     1
1070
   271
1070
     0
1070
   279
1070
     0
1070
   288
1070
     1
1002
}
  0
LINE
  5
7DE4
  8
1
 10
2097.4346027742349
 20
2334.6662129946999
 30
0.0
 11
2097.4345565033268
 21
2325.666212994819
 31
0.0
  0
DIMENSION
  5
7DE5
  8
3
  2
*D15
 10
3054.5155503706692
 20
3325.2960691160611
 30
0.0
 11
3529.7655503706692
 21
3450.2960691160611
 31
0.0
 70
     0
  1
MAX\P1010
 13
4005.0155503706692
 23
3267.9685653750171
 33
0.0
 14
3054.5155503706692
 24
2551.0685875123122
 34
0.0
1001
ACAD
1000
DSTYLE
1002
{
1070
   287
1070
     3
1070
    40
1040
25.0
1070
   143
1040
0.039
1070
   172
1070
     1
1070
   271
1070
     0
1070
   279
1070
     0
1070
   288
1070
     1
1002
}
  0
LINE
  5
7DE6
  8
2
 10
1210.019747535757
 20
4884.752272076109
 30
0.0
 11
2176.9485118826178
 21
4884.7575278976456
 31
0.0
  0
LINE
  5
7DE7
  8
1
 10
1245.572218102511
 20
4672.252465321375
 30
0.0
 11
2119.57221808961
 21
4672.2572160209011
 31
0.0
  0
LINE
  5
7DE8
  8
1
 10
1245.572350312448
 20
4647.2524653217242
 30
0.0
 11
1245.5698251026531
 21
5124.7524653150513
 31
0.0
  0
LINE
  5
7DE9
  8
1
 10
2119.57221808961
 20
4672.2572160209011
 30
0.0
 11
2119.5699572996882
 21
5099.7572160149284
 31
0.0
  0
LINE
  5
7DEA
  8
1
 10
1245.572350312448
 20
4647.2524653217242
 30
0.0
 11
1250.5723503123741
 21
4647.2524924996378
 31
0.0
  0
LINE
  5
7DEB
  8
1
 10
1245.569821423016
 20
5124.7524653150303
 30
0.0
 11
1250.569825102579
 21
5124.7524924929658
 31
0.0
  0
LINE
  5
7DEC
  8
1
 10
1250.5723503123779
 20
4647.252491763712
 30
0.0
 11
1250.569825102579
 21
5124.7524924929658
 31
0.0
  0
LINE
  5
7DED
  8
1
 10
1285.572218101921
 20
4672.2526827446936
 30
0.0
 11
1285.569957312
 21
5099.752682738721
 31
0.0
  0
LINE
  5
7DEE
  8
1
 10
1885.56979839622
 20
5099.7559440876466
 30
0.0
 11
1885.5695809729009
 21
5139.7559440870564
 31
0.0
  0
LINE
  5
7DEF
  8
1
 10
1385.5697984036069
 20
5099.753226296154
 30
0.0
 11
1385.569580980288
 21
5139.7532262955647
 31
0.0
  0
LINE
  5
7DF0
  8
1
 10
1610.575293301285
 20
3987.754320784104
 30
0.0
 11
1610.56805348378
 21
4672.2544492865254
 31
0.0
  0
LINE
  5
7DF1
  8
1
 10
1660.575293298489
 20
3987.7548496238519
 30
0.0
 11
1660.5680534837029
 21
4672.2547210656749
 31
0.0
  0
LINE
  5
7DF2
  8
1
 10
2424.595967738976
 20
3967.7595829803522
 30
0.0
 11
2246.5959677489318
 21
3967.7577003108509
 31
0.0
  0
LINE
  5
7DF3
  8
1
 10
2424.5966340770578
 20
3904.759582983876
 30
0.0
 11
2246.5966340870141
 21
3904.7577003143751
 31
0.0
  0
LINE
  5
7DF4
  8
1
 10
2490.5968456092642
 20
3884.760281053464
 30
0.0
 11
1535.5763827153601
 21
3884.7535275302448
 31
0.0
  0
LINE
  5
7DF6
  8
1
 10
2490.5968456092642
 20
3884.760281053464
 30
0.0
 11
2490.5955552402802
 21
4006.7602810466401
 31
0.0
  0
LINE
  5
7DF7
  8
1
 10
2490.5955552402802
 20
4006.7602810466401
 30
0.0
 11
2349.5751536781572
 21
4006.7587895027532
 31
0.0
  0
LINE
  5
7DF8
  8
1
 10
2424.5966340770578
 20
3904.759582983876
 30
0.0
 11
2424.595967738976
 21
3967.759582980354
 31
0.0
  0
LINE
  5
7DF9
  8
1
 10
2370.5750626352269
 20
3989.7590116135461
 30
0.0
 11
2300.5750626391432
 21
3989.7582712378999
 31
0.0
  0
LINE
  5
7DFA
  8
1
 10
2370.5752953247161
 20
3967.7590116147771
 30
0.0
 11
2370.5750626352269
 21
3989.7590116135461
 31
0.0
  0
LINE
  5
7DFB
  8
1
 10
2300.5752953286319
 20
3967.75827123913
 30
0.0
 11
2300.5750626391432
 21
3989.7582712378999
 31
0.0
  0
LINE
  5
7DFC
  8
1
 10
1680.5752932973701
 20
3987.7550611597499
 30
0.0
 11
1590.5752933024039
 21
3987.7541092482052
 31
0.0
  0
LINE
  5
7DFD
  8
1
 10
2246.5959677489318
 20
3967.7577003108509
 30
0.0
 11
1558.075504840124
 21
3967.7537655034871
 31
0.0
  0
LINE
  5
7DFE
  8
1
 10
2246.5966340870141
 20
3904.7577003143751
 30
0.0
 11
1558.0761711782061
 21
3904.7537655070109
 31
0.0
  0
LINE
  5
7DFF
  8
1
 10
1708.0761711698101
 20
3904.755352026255
 30
0.0
 11
1708.0755048317269
 21
3967.7553520227302
 31
0.0
  0
LINE
  5
7E00
  8
1
 10
2246.5966340870141
 20
3904.7577003143751
 30
0.0
 11
2246.5959677489318
 21
3967.7577003108509
 31
0.0
  0
LINE
  5
7E01
  8
1
 10
1680.575504833269
 20
3967.755061160869
 30
0.0
 11
1680.5752932973701
 21
3987.7550611597499
 31
0.0
  0
LINE
  5
7E02
  8
1
 10
1563.0761711779271
 20
3904.753818390986
 30
0.0
 11
1563.0755048398451
 21
3967.7538183874622
 31
0.0
  0
LINE
  5
7E03
  8
1
 10
1535.5763827153601
 20
3884.7535275302439
 30
0.0
 11
1535.5750923463761
 21
4006.75352752342
 31
0.0
  0
LINE
  5
7E04
  8
1
 10
1568.9477073806411
 20
4006.7538804987271
 30
0.0
 11
1535.5750923463761
 21
4006.75352752342
 31
0.0
  0
LINE
  5
7E05
  8
1
 10
1590.575504838303
 20
3967.7541092493229
 30
0.0
 11
1590.5752933024039
 21
3987.7541092482052
 31
0.0
  0
LINE
  5
7E06
  8
1
 10
1385.573793203477
 20
4077.75322629525
 30
0.0
 11
1610.574341376145
 21
4077.7556060799138
 31
0.0
  0
LINE
  5
7E07
  8
1
 10
1385.5755601215669
 20
4039.7532263118128
 30
0.0
 11
1385.575137049769
 21
4079.7532263095759
 31
0.0
  0
LINE
  5
7E08
  8
1
 10
1885.568510059823
 20
4577.2585146647862
 30
0.0
 11
1660.5690582642701
 21
4577.2561348917206
 31
0.0
  0
LINE
  5
7E09
  8
1
 10
1385.572638495715
 20
4577.2532263109752
 30
0.0
 11
1385.572122115331
 21
4672.2532263024686
 31
0.0
  0
LINE
  5
7E0A
  8
1
 10
1610.5690582670661
 20
4577.2556060519737
 30
0.0
 11
1385.5685100943981
 21
4577.2532262673112
 31
0.0
  0
LINE
  5
7E0B
  8
1
 10
1660.574341373348
 20
4077.7561349196621
 30
0.0
 11
1885.5737931689009
 21
4077.7585146927299
 31
0.0
  0
LINE
  5
7E0C
  8
1
 10
1610.575092377587
 20
4006.75097325055
 30
0.0
 11
1535.575092381783
 21
4006.750179990921
 31
0.0
  0
LINE
  5
7E0D
  8
1
 10
1610.574743306589
 20
4039.7544493135429
 30
0.0
 11
1385.5755601215669
 21
4039.7532263118128
 31
0.0
  0
LINE
  5
7E0E
  8
1
 10
1385.573793203476
 20
4077.7532262952509
 30
0.0
 11
1385.5685100943981
 21
4577.2532262673112
 31
0.0
  0
LINE
  5
7E0F
  8
1
 10
1885.5737931689009
 20
4077.7585146927299
 30
0.0
 11
1885.5685100598221
 21
4577.2585146647862
 31
0.0
  0
DIMENSION
  5
7E10
  8
3
  2
*D16
 10
1385.5792712478481
 20
3688.8788547792069
 30
0.0
 11
1960.5786101584031
 21
3751.384936432808
 31
0.0
 70
     0
 13
2535.575560104578
 23
4039.7594772322418
 33
0.0
 14
1385.5755601215669
 24
4039.7532263118128
 34
0.0
 50
0.000606005711532
1001
ACAD
1000
DSTYLE
1002
{
1070
   287
1070
     3
1070
    40
1040
25.0
1070
   143
1040
0.039
1070
   172
1070
     1
1070
   271
1070
     0
1070
   279
1070
     0
1070
   288
1070
     1
1002
}
  0
DIMENSION
  5
7E11
  8
3
  2
*D17
 10
1885.5677802027531
 20
5310.0126387145892
 30
0.0
 11
1635.5671191703559
 21
5372.5099945123548
 31
0.0
 70
     0
 13
1385.569580980288
 23
5139.7532262955647
 33
0.0
 14
1885.5695809729009
 24
5139.7559440870564
 34
0.0
 50
0.000606005711532
1001
ACAD
1000
DSTYLE
1002
{
1070
   287
1070
     3
1070
    40
1040
25.0
1070
   143
1040
0.039
1070
   172
1070
     1
1070
   271
1070
     0
1070
   279
1070
     0
1070
   288
1070
     1
1002
}
  0
LINE
  5
7E12
  8
1
 10
2535.5755601045721
 20
4039.7594772322418
 30
0.0
 11
2535.5740999451032
 21
4639.7594772331686
 31
0.0
  0
DIMENSION
  5
7E13
  8
3
  2
*D18
 10
2535.5677801578049
 20
5310.019513631305
 30
0.0
 11
2210.5671191305951
 21
5372.5160761694497
 31
0.0
 70
     0
 13
1885.5695809729009
 23
5139.7559440870564
 33
0.0
 14
2535.5749582689241
 24
4631.3535141004186
 34
0.0
 50
0.000606005711532
1001
ACAD
1000
DSTYLE
1002
{
1070
   287
1070
     3
1070
    40
1040
25.0
1070
   143
1040
0.039
1070
   172
1070
     1
1070
   271
1070
     0
1070
   279
1070
     0
1070
   288
1070
     1
1002
}
  0
LINE
  5
7E14
  8
1
 10
2535.576605973728
 20
2051.0685875061008
 30
0.0
 11
1385.576605973728
 21
2051.0685875061008
 31
0.0
  0
LINE
  5
7E15
  8
1
 10
3792.5155503706678
 20
2471.0685875123122
 30
0.0
 11
4217.515550370671
 21
2471.0685875123122
 31
0.0
  0
LINE
  5
7E16
  8
1
 10
4217.515550370671
 20
3051.0685875123122
 30
0.0
 11
3792.5155503706669
 21
2471.0685875123122
 31
0.0
  0
LINE
  5
7E17
  8
1
 10
3792.5155503706678
 20
3051.0685875123122
 30
0.0
 11
4217.5155503706692
 21
2471.0685875123122
 31
0.0
  0
LINE
  5
7E18
  8
1
 10
4224.8155503706676
 20
2045.5892599295919
 30
0.0
 11
4224.8155503706676
 21
2051.0892599295921
 31
0.0
  0
LINE
  5
7E19
  8
1
 10
3767.515550370666
 20
3076.0685875123108
 30
0.0
 11
4242.515550370671
 21
3076.0685875123131
 31
0.0
  0
LINE
  5
7E1A
  8
1
 10
3767.515550370666
 20
2476.0685875123131
 30
0.0
 11
3767.515550370666
 21
3076.0685875123108
 31
0.0
  0
LINE
  5
7E1C
  8
1
 10
4242.5155503706701
 20
2734.068587512314
 30
0.0
 11
4242.515550370671
 21
3076.0685875123131
 31
0.0
  0
LINE
  5
7E1D
  8
1
 10
4217.5155503706692
 20
2471.0685875123122
 30
0.0
 11
4217.515550370671
 21
3051.0685875123122
 31
0.0
  0
LINE
  5
7E1E
  8
1
 10
3792.5155503706669
 20
2471.0685875123122
 30
0.0
 11
3792.5155503706678
 21
3051.0685875123122
 31
0.0
  0
LINE
  5
7E1F
  8
1
 10
2193.5732677793112
 20
4049.7571395052132
 30
0.0
 11
2193.5693966723579
 21
4415.7571394847419
 31
0.0
  0
LINE
  5
7E20
  8
1
 10
2477.573267763426
 20
4049.760143314978
 30
0.0
 11
2477.5693966564731
 21
4415.7601432945057
 31
0.0
  0
LINE
  5
7E21
  8
1
 10
2477.573267763426
 20
4049.760143314978
 30
0.0
 11
2193.5732677793112
 21
4049.7571395052132
 31
0.0
  0
LINE
  5
7E22
  8
1
 10
2477.569396656475
 20
4415.7601432945057
 30
0.0
 11
2193.5693966723602
 21
4415.7571394847409
 31
0.0
  0
LINE
  5
7E23
  8
1
 10
2321.5749975029689
 20
4049.7584933532612
 30
0.0
 11
2321.575215423079
 21
3989.7584933522112
 31
0.0
  0
LINE
  5
7E24
  8
1
 10
2349.5749975020781
 20
4049.7587895035199
 30
0.0
 11
2349.5752154221882
 21
3989.7587895024681
 31
0.0
  0
LINE
  5
7E25
  8
1
 10
2321.5750338236389
 20
4039.7583140146239
 30
0.0
 11
1660.574743306511
 21
4039.7547210926941
 31
0.0
  0
LINE
  5
7E26
  8
1
 10
2321.5751536790472
 20
4006.7584933524909
 30
0.0
 11
1660.575092374791
 21
4006.7515020903038
 31
0.0
  0
LINE
  5
7E27
  8
1
 10
3198.0155503706669
 20
2247.09088404563
 30
0.0
 11
3159.5155503706669
 21
2247.0906166710952
 31
0.0
  0
LINE
  5
7E28
  8
1
 10
3198.0155503706678
 20
2219.0908840449551
 30
0.0
 11
3159.5155503706678
 21
2219.0906166704199
 31
0.0
  0
DIMENSION
  5
7E29
  8
3
  2
*D19
 10
1070.884997175413
 20
4039.7532263118128
 30
0.0
 11
1008.384997175412
 21
4589.7532263036892
 31
0.0
 70
     0
 13
1385.569580980288
 23
5139.7532262955647
 33
0.0
 14
1385.5755601215669
 24
4039.7532263118128
 34
0.0
 50
90.0
1001
ACAD
1000
DSTYLE
1002
{
1070
   287
1070
     3
1070
    40
1040
25.0
1070
   143
1040
0.039
1070
   172
1070
     1
1070
   271
1070
     0
1070
   279
1070
     0
1070
   288
1070
     1
1002
}
  0
DIMENSION
  5
7E2A
  8
3
  2
*D20
 10
2734.7428874709422
 20
4039.7594772322418
 30
0.0
 11
2672.2428874709408
 21
4339.7594772327056
 31
0.0
 70
     0
 13
2535.5740999451032
 23
4639.7594772331686
 33
0.0
 14
2535.5755601045721
 24
4039.7594772322418
 34
0.0
 50
90.0
1001
ACAD
1000
DSTYLE
1002
{
1070
   287
1070
     3
1070
    40
1040
25.0
1070
   143
1040
0.039
1070
   172
1070
     1
1070
   271
1070
     0
1070
   279
1070
     0
1070
   288
1070
     1
1002
}
  0
LINE
  5
7E2B
  8
1
 10
3219.5141965236699
 20
2375.0919171241312
 30
0.0
 11
3585.514196503198
 21
2375.0957882310831
 31
0.0
  0
LINE
  5
7E2C
  8
1
 10
3219.5172003334342
 20
2091.091917140016
 30
0.0
 11
3219.5141965236699
 21
2375.0919171241312
 31
0.0
  0
LINE
  5
7E2D
  8
1
 10
3219.5158465219761
 20
2219.0901874013639
 30
0.0
 11
3159.5158465209252
 21
2219.0899694812538
 31
0.0
  0
LINE
  5
7E2E
  8
1
 10
3219.5155503717178
 20
2247.090187400473
 30
0.0
 11
3159.5155503706669
 21
2247.0899694803629
 31
0.0
  0
LINE
  5
7E2F
  8
1
 10
3219.5172003334342
 20
2091.091917140016
 30
0.0
 11
3585.5172003129628
 21
2091.0957882469688
 31
0.0
  0
LINE
  5
7E30
  8
1
 10
3585.5172003129628
 20
2091.095788246967
 30
0.0
 11
3585.5141965031971
 21
2375.0957882310822
 31
0.0
  0
LINE
  5
7E31
  8
1
 10
3198.0155503706678
 20
2247.0901093124339
 30
0.0
 11
3198.0155503706692
 21
2384.6685875123121
 31
0.0
  0
LINE
  5
8232
  8
4
 10
4625.0
 20
1250.0
 30
0.0
 11
4625.0
 21
750.0
 31
0.0
  0
LINE
  5
8233
  8
4
 10
2875.0
 20
1250.0
 30
0.0
 11
2875.0
 21
750.0
 31
0.0
  0
LINE
  5
8234
  8
4
 10
1625.0
 20
1250.0
 30
0.0
 11
1625.0
 21
750.0
 31
0.0
  0
LINE
  5
8237
  8
4
 10
1625.0
 20
750.0
 30
0.0
 11
4625.0
 21
750.0
 31
0.0
  0
LINE
  5
8238
  8
4
 10
1625.0
 20
1000.0
 30
0.0
 11
4625.0
 21
1000.0
 31
0.0
  0
TEXT
  5
8239
  8
4
 10
1721.2552021172539
 20
1078.857564666532
 30
0.0
 40
125.0
  1
機器名称
  0
TEXT
  5
823A
  8
4
 10
1715.6452650619931
 20
804.11289183002725
 30
0.0
 40
125.0
  1
機器型番
  0
TEXT
  5
823B
  8
4
 10
2895.9705737254849
 20
1056.0440408650741
 30
0.0
 40
112.5
  1
ミツヤ多翼送風機
  0
TEXT
  5
823C
  8
4
 10
2966.6362389637011
 20
792.89896069985843
 30
0.0
 40
125.0
  1
MF#3 1/2-1
  0
TEXT
  5
823E
  8
4
 10
2066.6391669710752
 20
5958.5721033312893
 30
0.0
 40
135.0
  1
床置防振ベット
  0
TEXT
  5
823F
  8
4
 10
790.41898332361586
 20
6334.7024404982449
 30
0.0
 40
180.0
  1
遠心式片吸込片持多翼ファン
  0
LINE
  5
8240
  8
4
 10
625.0
 20
6173.5218856620122
 30
0.0
 11
4625.0
 21
6173.5218856620122
 31
0.0
  0
LINE
  5
8241
  8
4
 10
625.0
 20
6673.5218856620122
 30
0.0
 11
4625.0
 21
6673.5218856620122
 31
0.0
  0
LINE
  5
8242
  8
4
 10
1625.0
 20
1250.0
 30
0.0
 11
4625.0
 21
1250.0
 31
0.0
  0
LINE
  5
8243
  8
4
 10
625.0
 20
6673.5218856620122
 30
0.0
 11
625.0
 21
6173.5218856620122
 31
0.0
  0
TEXT
  5
8244
  8
4
 10
976.99208636432024
 20
5955.7986938658578
 30
0.0
 40
135.0
  1
左回転左横向
  0
TEXT
  5
8245
  8
4
 10
3672.4238981232238
 20
6765.1527037382721
 30
0.0
 40
140.0
  1
No.
  0
TEXT
  5
8246
  8
4
 10
3278.2401565000318
 20
5958.5721033312893
 30
0.0
 40
135.0
  1
縮尺：1/25
  0
LINE
  5
8247
  8
4
 10
4625.0
 20
6673.5218856620122
 30
0.0
 11
4625.0
 21
6173.5218856620122
 31
0.0
  0
LINE
  5
8248
  8
4
 10
5250.0
 20
7375.0
 30
0.0
 11
5250.0
 21
7375.0
 31
0.0
  0
LINE
  5
8249
  8
4
 10
3601.543555899661
 20
6703.1589578135026
 30
0.0
 11
3601.543555899661
 21
6966.6306538743811
 31
0.0
  0
LINE
  5
824A
  8
4
 10
3601.543555899661
 20
6966.6306538743811
 30
0.0
 11
4625.0
 21
6966.6306538743811
 31
0.0
  0
LINE
  5
824B
  8
4
 10
4625.0
 20
6966.6306538743811
 30
0.0
 11
4625.0
 21
6703.1589578135026
 31
0.0
  0
LINE
  5
824C
  8
4
 10
4625.0
 20
6703.1589578135026
 30
0.0
 11
3601.543555899661
 21
6703.1589578135026
 31
0.0
  0
LINE
  5
824D
  8
4
 10
0.0
 20
0.0
 30
0.0
 11
0.0
 21
7375.0
 31
0.0
  0
LINE
  5
824E
  8
4
 10
0.0
 20
7375.0
 30
0.0
 11
5250.0
 21
7375.0
 31
0.0
  0
LINE
  5
824F
  8
4
 10
5250.0
 20
7375.0
 30
0.0
 11
5250.0
 21
0.0
 31
0.0
  0
LINE
  5
8250
  8
4
 10
5250.0
 20
0.0
 30
0.0
 11
0.0
 21
0.0
 31
0.0
  0
DIMENSION
  5
82CD
  8
3
  2
*D22
 10
749.64089829334648
 20
1806.068587506101
 30
0.0
 11
749.64089829334625
 21
2463.4546736438751
 31
0.0
 70
   128
 13
1245.576605973728
 23
3076.0705925870288
 33
0.0
 14
1385.576605973728
 24
1806.068587506101
 34
0.0
 50
90.0
1001
ACAD
1000
DSTYLE
1002
{
1070
   287
1070
     3
1070
    40
1040
25.0
1070
   143
1040
0.039
1070
   172
1070
     1
1070
   271
1070
     0
1070
   279
1070
     0
1070
   288
1070
     1
1002
}
  0
DIMENSION
  5
8359
  8
3
  2
*D23
 10
4220.0155503706674
 20
3325.2960691160611
 30
0.0
 11
4112.5155503706692
 21
3388.8663668023578
 31
0.0
 12
0.0
 22
130.91715472370191
 32
0.0
 70
   128
 13
4005.0155503706692
 23
3267.9685653750171
 33
0.0
 14
4220.0155503706674
 24
2446.0685875123122
 34
0.0
1001
ACAD
1000
DSTYLE
1002
{
1070
   288
1070
     1
1070
   172
1070
     1
1070
    75
1070
     1
1070
    40
1040
25.0
1070
   271
1070
     0
1070
   143
1040
0.039
1002
}
  0
LINE
  5
838F
  8
1
 10
4220.0155503706674
 20
2731.068587512314
 30
0.0
 11
4220.0155503706674
 21
2756.068587512314
 31
0.0
  0
LINE
  5
8390
  8
1
 10
4220.0155503706674
 20
2756.068587512314
 30
0.0
 11
4221.0155503706674
 21
2756.068587512314
 31
0.0
  0
LINE
  5
8391
  8
1
 10
4220.0155503706674
 20
2731.068587512314
 30
0.0
 11
4260.0155503706674
 21
2731.068587512314
 31
0.0
  0
LINE
  5
8392
  8
1
 10
4260.0155503706674
 20
2731.068587512314
 30
0.0
 11
4260.0155503706674
 21
2732.068587512314
 31
0.0
  0
LINE
  5
8393
  8
1
 10
4227.0155503706674
 20
2734.068587512314
 30
0.0
 11
4258.0155503706674
 21
2734.068587512314
 31
0.0
  0
ARC
  5
8394
  8
1
 10
4258.0155503706674
 20
2732.068587512314
 30
0.0
 40
2.0
 50
359.9999999999992
 51
89.999999999999588
  0
LINE
  5
8395
  8
1
 10
4223.0155503706674
 20
2738.068587512314
 30
0.0
 11
4223.0155503706674
 21
2754.068587512314
 31
0.0
  0
ARC
  5
8396
  8
1
 10
4221.0155503706674
 20
2754.068587512314
 30
0.0
 40
2.0
 50
0.0
 51
90.00000000000081
  0
ARC
  5
8397
  8
1
 10
4227.0155503706674
 20
2738.068587512314
 30
0.0
 40
4.0
 50
180.0
 51
270.0
  0
LINE
  5
8398
  8
1
 10
4220.0155503706674
 20
2756.0685875123122
 30
0.0
 11
4220.0155503706674
 21
2731.0685875123131
 31
0.0
  0
LINE
  5
8399
  8
1
 10
4223.0155503706674
 20
2738.068587512314
 30
0.0
 11
4223.0155503706656
 21
2451.0685875123131
 31
0.0
  0
LINE
  5
839A
  8
1
 10
4220.0155503706674
 20
2451.0685875123122
 30
0.0
 11
4220.0155503706674
 21
2741.0685875123131
 31
0.0
  0
ENDSEC
  0
EOF
