  0
SECTION
  2
HEADER
  9
$ACADVER
  1
AC1009
  9
$INSBASE
 10
0.0
 20
0.0
 30
0.0
  9
$EXTMIN
 10
0.0
 20
0.0
 30
0.0
  9
$EXTMAX
 10
5250.0
 20
7375.0
 30
0.0
  9
$LIMMIN
 10
0.0
 20
0.0
  9
$LIMMAX
 10
297.0
 20
210.0
  9
$ORTHOMODE
 70
     0
  9
$REGENMODE
 70
     1
  9
$FILLMODE
 70
     0
  9
$QTEXTMODE
 70
     0
  9
$MIRRTEXT
 70
     1
  9
$DRAGMODE
 70
     2
  9
$LTSCALE
 40
100.0
  9
$OSMODE
 70
    37
  9
$ATTMODE
 70
     1
  9
$TEXTSIZE
 40
180.0
  9
$TRACEWID
 40
0.05
  9
$TEXTSTYLE
  7
STANDARD
  9
$CLAYER
  8
1
  9
$CELTYPE
  6
BYLAYER
  9
$CECOLOR
 62
   256
  9
$DIMSCALE
 40
25.0
  9
$DIMASZ
 40
2.0
  9
$DIMEXO
 40
0.5
  9
$DIMDLI
 40
10.0
  9
$DIMRND
 40
0.0
  9
$DIMDLE
 40
0.0
  9
$DIMEXE
 40
1.0
  9
$DIMTP
 40
1.0
  9
$DIMTM
 40
1.0
  9
$DIMTXT
 40
3.0
  9
$DIMCEN
 40
0.0
  9
$DIMTSZ
 40
0.0
  9
$DIMTOL
 70
     0
  9
$DIMLIM
 70
     0
  9
$DIMTIH
 70
     0
  9
$DIMTOH
 70
     0
  9
$DIMSE1
 70
     0
  9
$DIMSE2
 70
     0
  9
$DIMTAD
 70
     1
  9
$DIMZIN
 70
     8
  9
$DIMBLK
  1

  9
$DIMASO
 70
     1
  9
$DIMSHO
 70
     1
  9
$DIMPOST
  1

  9
$DIMAPOST
  1

  9
$DIMALT
 70
     0
  9
$DIMALTD
 70
     2
  9
$DIMALTF
 40
0.039
  9
$DIMLFAC
 40
1.0
  9
$DIMTOFL
 70
     1
  9
$DIMTVP
 40
0.0
  9
$DIMTIX
 70
     0
  9
$DIMSOXD
 70
     0
  9
$DIMSAH
 70
     1
  9
$DIMBLK1
  1
OPEN
  9
$DIMBLK2
  1
OPEN
  9
$DIMSTYLE
  2
IGA
  9
$DIMCLRD
 70
     0
  9
$DIMCLRE
 70
     0
  9
$DIMCLRT
 70
     0
  9
$DIMTFAC
 40
10.0
  9
$DIMGAP
 40
1.0
  9
$LUNITS
 70
     2
  9
$LUPREC
 70
     3
  9
$SKETCHINC
 40
0.1
  9
$FILLETRAD
 40
50.0
  9
$AUNITS
 70
     0
  9
$AUPREC
 70
     0
  9
$MENU
  1
acad
  9
$ELEVATION
 40
0.0
  9
$PELEVATION
 40
0.0
  9
$THICKNESS
 40
0.0
  9
$LIMCHECK
 70
     0
  9
$BLIPMODE
 70
     0
  9
$CHAMFERA
 40
0.5
  9
$CHAMFERB
 40
0.5
  9
$SKPOLY
 70
     0
  9
$TDCREATE
 40
2451612.615211227
  9
$TDUPDATE
 40
2454953.755532037
  9
$TDINDWG
 40
0.0468974884
  9
$TDUSRTIMER
 40
0.0468974884
  9
$USRTIMER
 70
     1
  9
$ANGBASE
 50
0.0
  9
$ANGDIR
 70
     0
  9
$PDMODE
 70
     0
  9
$PDSIZE
 40
0.0
  9
$PLINEWID
 40
0.0
  9
$COORDS
 70
     1
  9
$SPLFRAME
 70
     0
  9
$SPLINETYPE
 70
     6
  9
$SPLINESEGS
 70
     8
  9
$ATTDIA
 70
     0
  9
$ATTREQ
 70
     1
  9
$HANDLING
 70
 10241
  9
$HANDSEED
  5
847F
  9
$SURFTAB1
 70
     6
  9
$SURFTAB2
 70
     6
  9
$SURFTYPE
 70
     6
  9
$SURFU
 70
     6
  9
$SURFV
 70
     6
  9
$UCSNAME
  2

  9
$UCSORG
 10
0.0
 20
0.0
 30
0.0
  9
$UCSXDIR
 10
1.0
 20
0.0
 30
0.0
  9
$UCSYDIR
 10
0.0
 20
1.0
 30
0.0
  9
$PUCSNAME
  2

  9
$PUCSORG
 10
0.0
 20
0.0
 30
0.0
  9
$PUCSXDIR
 10
1.0
 20
0.0
 30
0.0
  9
$PUCSYDIR
 10
0.0
 20
1.0
 30
0.0
  9
$USERI1
 70
     0
  9
$USERI2
 70
     0
  9
$USERI3
 70
     0
  9
$USERI4
 70
     0
  9
$USERI5
 70
     0
  9
$USERR1
 40
0.0
  9
$USERR2
 40
0.0
  9
$USERR3
 40
0.0
  9
$USERR4
 40
0.0
  9
$USERR5
 40
0.0
  9
$WORLDVIEW
 70
     1
  9
$SHADEDGE
 70
     3
  9
$SHADEDIF
 70
    70
  9
$TILEMODE
 70
     1
  9
$MAXACTVP
 70
    16
  9
$PLIMCHECK
 70
     0
  9
$PEXTMIN
 10
1.0000000000000000E+020
 20
1.0000000000000000E+020
 30
1.0000000000000000E+020
  9
$PEXTMAX
 10
-1.0000000000000000E+020
 20
-1.0000000000000000E+020
 30
-1.0000000000000000E+020
  9
$PLIMMIN
 10
0.0
 20
0.0
  9
$PLIMMAX
 10
12.0
 20
9.0
  9
$UNITMODE
 70
     0
  9
$VISRETAIN
 70
     0
  9
$PLINEGEN
 70
     0
  9
$PSLTSCALE
 70
     1
  0
ENDSEC
  0
SECTION
  2
TABLES
  0
TABLE
  2
VPORT
 70
     2
  0
VPORT
  2
*ACTIVE
 70
     0
 10
0.0
 20
0.0
 11
1.0
 21
1.0
 12
8841.5248971284218
 22
3687.5000171712591
 13
0.0
 23
0.0
 14
10.0
 24
10.0
 15
10.0
 25
10.0
 16
0.0
 26
0.0
 36
1.0
 17
0.0
 27
0.0
 37
0.0
 40
7431.5372075423384
 41
3.1666666666666661
 42
50.0
 43
0.0
 44
0.0
 50
0.0
 51
0.0
 71
     0
 72
   100
 73
     1
 74
     0
 75
     0
 76
     0
 77
     0
 78
     0
  0
ENDTAB
  0
TABLE
  2
LTYPE
 70
     2
  0
LTYPE
  2
CONTINUOUS
 70
     0
  3
Solid line
 72
    65
 73
     0
 40
0.0
  0
LTYPE
  2
CENTER
 70
     0
  3
____ _ ____ _ ____ _ ____ _ ____ _ ____ _ ____ 
 72
    65
 73
     4
 40
2.0
 49
1.25
 49
-0.25
 49
0.25
 49
-0.25
  0
ENDTAB
  0
TABLE
  2
LAYER
 70
     6
  0
LAYER
  2
0
 70
     0
 62
     7
  6
CONTINUOUS
  0
LAYER
  2
3
 70
     0
 62
     2
  6
CONTINUOUS
  0
LAYER
  2
2
 70
     0
 62
     3
  6
CENTER
  0
LAYER
  2
1
 70
     0
 62
     4
  6
CONTINUOUS
  0
LAYER
  2
4
 70
     0
 62
     7
  6
CONTINUOUS
  0
LAYER
  2
DEFPOINTS
 70
     0
 62
     7
  6
CONTINUOUS
  0
ENDTAB
  0
TABLE
  2
STYLE
 70
     1
  0
STYLE
  2
STANDARD
 70
     0
 40
0.0
 41
1.0
 50
0.0
 71
     0
 42
180.0
  3
simplex.shx
  4
extfont.shx
  0
ENDTAB
  0
TABLE
  2
VIEW
 70
     0
  0
ENDTAB
  0
TABLE
  2
UCS
 70
     0
  0
ENDTAB
  0
TABLE
  2
APPID
 70
     1
  0
APPID
  2
ACAD
 70
     0
  0
ENDTAB
  0
TABLE
  2
DIMSTYLE
 70
     1
  0
DIMSTYLE
  2
IGA
 70
     0
  3

  4

  5

  6
OPEN
  7
OPEN
 40
2.0
 41
2.0
 42
0.5
 43
10.0
 44
1.0
 45
0.0
 46
0.0
 47
1.0
 48
1.0
140
3.0
141
0.0
142
0.0
143
0.03937
144
1.0
145
0.0
146
10.0
147
1.0
 71
     0
 72
     0
 73
     0
 74
     0
 75
     0
 76
     0
 77
     1
 78
     8
170
     0
171
     2
172
     0
173
     1
174
     0
175
     0
176
     0
177
     0
178
     0
  0
ENDTAB
  0
ENDSEC
  0
SECTION
  2
BLOCKS
  0
BLOCK
  8
0
  2
$MODEL_SPACE
 70
     0
 10
0.0
 20
0.0
 30
0.0
  3
$MODEL_SPACE
  1

  0
ENDBLK
  5
1B
  8
0
  0
BLOCK
 67
     1
  8
0
  2
$PAPER_SPACE
 70
     0
 10
0.0
 20
0.0
 30
0.0
  3
$PAPER_SPACE
  1

  0
ENDBLK
  5
18
 67
     1
  8
0
  0
BLOCK
  8
0
  2
_OPEN
 70
     0
 10
0.0
 20
0.0
 30
0.0
  3
_OPEN
  1

  0
LINE
  5
79FD
  8
0
  6
BYBLOCK
 62
     0
 10
-1.0
 20
0.1666666666666666
 30
0.0
 11
0.0
 21
0.0
 31
0.0
  0
LINE
  5
79FE
  8
0
  6
BYBLOCK
 62
     0
 10
0.0
 20
0.0
 30
0.0
 11
-1.0
 21
-0.1666666666666666
 31
0.0
  0
LINE
  5
79FF
  8
0
  6
BYBLOCK
 62
     0
 10
0.0
 20
0.0
 30
0.0
 11
-1.0
 21
0.0
 31
0.0
  0
ENDBLK
  5
7A01
  8
0
  0
BLOCK
  8
0
  2
*D1
 70
     1
 10
0.0
 20
0.0
 30
0.0
  3
*D1
  1

  0
LINE
  5
83A8
  8
3
 62
     0
 10
3792.5155503706678
 20
2948.5966220587502
 30
0.0
 11
3792.5155503706678
 21
3071.4448237657612
 31
0.0
  0
LINE
  5
83A9
  8
3
 62
     0
 10
4217.515550370671
 20
2948.5966220587502
 30
0.0
 11
4217.515550370671
 21
3071.4448237657612
 31
0.0
  0
LINE
  5
83AA
  8
3
 62
     0
 10
3842.5155503706669
 20
3046.4448237657612
 30
0.0
 11
4167.515550370671
 21
3046.4448237657612
 31
0.0
  0
INSERT
  5
83AB
  8
3
 62
     0
  2
_OPEN
 10
3792.5155503706678
 20
3046.4448237657612
 30
0.0
 41
50.0
 42
50.0
 43
50.0
 50
180.0
  0
INSERT
  5
83AC
  8
3
 62
     0
  2
_OPEN
 10
4217.515550370671
 20
3046.4448237657612
 30
0.0
 41
50.0
 42
50.0
 43
50.0
  0
TEXT
  8
3
  40
75
  5
846A
  62
0
  72
0
  71
0
 10
3866.93
 20
2976.19
 30
0.000000
  1
425
  0
POINT
  5
83AE
  8
DEFPOINTS
 62
     0
 10
3792.5155503706678
 20
2936.0966220587502
 30
0.0
  0
POINT
  5
83AF
  8
DEFPOINTS
 62
     0
 10
4217.515550370671
 20
2936.0966220587502
 30
0.0
  0
POINT
  5
83B0
  8
DEFPOINTS
 62
     0
 10
4217.515550370671
 20
3046.4448237657612
 30
0.0
  0
ENDBLK
  5
8184
  8
0
  0
BLOCK
  8
0
  2
*D2
 70
     1
 10
0.0
 20
0.0
 30
0.0
  3
*D2
  1

  0
LINE
  5
83B1
  8
3
 62
     0
 10
4274.3155503706703
 20
2851.0966220587502
 30
0.0
 11
4438.6278381594702
 21
2851.0966220587502
 31
0.0
  0
LINE
  5
83B2
  8
3
 62
     0
 10
4274.3155503706703
 20
2291.0966220587479
 30
0.0
 11
4438.6278381594702
 21
2291.0966220587479
 31
0.0
  0
LINE
  5
83B3
  8
3
 62
     0
 10
4413.6278381594693
 20
2801.0966220587502
 30
0.0
 11
4413.6278381594693
 21
2341.0966220587488
 31
0.0
  0
INSERT
  5
83B4
  8
3
 62
     0
  2
_OPEN
 10
4413.6278381594693
 20
2851.0966220587502
 30
0.0
 41
50.0
 42
50.0
 43
50.0
 50
90.0
  0
INSERT
  5
83B5
  8
3
 62
     0
  2
_OPEN
 10
4413.6278381594693
 20
2291.0966220587479
 30
0.0
 41
50.0
 42
50.0
 43
50.0
 50
270.0
  0
TEXT
  8
3
  40
75
  5
846B
  62
0
  72
0
  71
0
 10
4201.13
 20
2438.35
 30
0.000000
  1
560
  0
POINT
  5
83B7
  8
DEFPOINTS
 62
     0
 10
4261.8155503706703
 20
2851.0966220587502
 30
0.0
  0
POINT
  5
83B8
  8
DEFPOINTS
 62
     0
 10
4261.8155503706703
 20
2291.0966220587479
 30
0.0
  0
POINT
  5
83B9
  8
DEFPOINTS
 62
     0
 10
4413.6278381594693
 20
2291.0966220587479
 30
0.0
  0
ENDBLK
  5
814B
  8
0
  0
BLOCK
  8
0
  2
*D3
 70
     1
 10
0.0
 20
0.0
 30
0.0
  3
*D3
  1

  0
LINE
  5
83BA
  8
3
 62
     0
 10
2535.576605973728
 20
1735.5919949539939
 30
0.0
 11
2535.576605973728
 21
1582.934666472667
 31
0.0
  0
LINE
  5
83BB
  8
3
 62
     0
 10
1635.576605973728
 20
1697.011482369898
 30
0.0
 11
1635.576605973728
 21
1582.934666472667
 31
0.0
  0
LINE
  5
83BC
  8
3
 62
     0
 10
2485.576605973728
 20
1607.934666472667
 30
0.0
 11
1685.576605973728
 21
1607.934666472667
 31
0.0
  0
INSERT
  5
83BD
  8
3
 62
     0
  2
_OPEN
 10
2535.576605973728
 20
1607.934666472667
 30
0.0
 41
50.0
 42
50.0
 43
50.0
  0
INSERT
  5
83BE
  8
3
 62
     0
  2
_OPEN
 10
1635.576605973728
 20
1607.934666472667
 30
0.0
 41
50.0
 42
50.0
 43
50.0
 50
180.0
  0
TEXT
  8
3
  40
75
  5
846C
  62
0
  72
0
  71
0
 10
1935.58
 20
1537.68
 30
0.000000
  1
900
  0
POINT
  5
83C0
  8
DEFPOINTS
 62
     0
 10
2535.576605973728
 20
1748.091994953993
 30
0.0
  0
POINT
  5
83C1
  8
DEFPOINTS
 62
     0
 10
1635.576605973728
 20
1709.511482369898
 30
0.0
  0
POINT
  5
83C2
  8
DEFPOINTS
 62
     0
 10
1635.576605973728
 20
1607.934666472667
 30
0.0
  0
ENDBLK
  5
8287
  8
0
  0
BLOCK
  8
0
  2
*D4
 70
     1
 10
0.0
 20
0.0
 30
0.0
  3
*D4
  1

  0
LINE
  5
8289
  8
0
  6
BYBLOCK
 62
     0
 10
1635.576605973728
 20
1697.011482369898
 30
0.0
 11
1635.576605973728
 21
1583.870117939181
 31
0.0
  0
LINE
  5
828A
  8
0
  6
BYBLOCK
 62
     0
 10
1385.576605973728
 20
1735.5979073477599
 30
0.0
 11
1385.576605973728
 21
1583.870117939181
 31
0.0
  0
LINE
  5
828B
  8
0
  6
BYBLOCK
 62
     0
 10
1585.576605973728
 20
1608.870117939181
 30
0.0
 11
1435.576605973728
 21
1608.870117939181
 31
0.0
  0
TEXT
  5
828C
  8
1
 62
     0
 10
1423.800818539883
 20
1627.16673638989
 30
0.0
 40
75.0
  1
250
  0
INSERT
  5
828D
  8
0
  6
BYBLOCK
 62
     0
  2
_OPEN
 10
1635.576605973728
 20
1608.870117939181
 30
0.0
 41
50.0
 42
50.0
 43
50.0
  0
INSERT
  5
828E
  8
0
  6
BYBLOCK
 62
     0
  2
_OPEN
 10
1385.576605973728
 20
1608.870117939181
 30
0.0
 41
50.0
 42
50.0
 43
50.0
 50
180.0
  0
POINT
  5
828F
  8
DEFPOINTS
  6
BYBLOCK
 62
     0
 10
1635.576605973728
 20
1709.511482369898
 30
0.0
  0
POINT
  5
8290
  8
DEFPOINTS
  6
BYBLOCK
 62
     0
 10
1385.576605973728
 20
1748.0979073477599
 30
0.0
  0
POINT
  5
8291
  8
DEFPOINTS
  6
BYBLOCK
 62
     0
 10
1385.576605973728
 20
1608.870117939181
 30
0.0
  0
ENDBLK
  5
8292
  8
0
  0
BLOCK
  8
0
  2
*D5
 70
     1
 10
0.0
 20
0.0
 30
0.0
  3
*D5
  1

  0
LINE
  5
83C3
  8
3
 62
     0
 10
2535.576605973728
 20
1735.5919949539939
 30
0.0
 11
2535.576605973728
 21
1435.700366984523
 31
0.0
  0
LINE
  5
83C4
  8
3
 62
     0
 10
1385.576605973728
 20
1735.5979073477599
 30
0.0
 11
1385.576605973728
 21
1435.700366984523
 31
0.0
  0
LINE
  5
83C5
  8
3
 62
     0
 10
2485.576605973728
 20
1460.700366984523
 30
0.0
 11
1435.576605973728
 21
1460.700366984523
 31
0.0
  0
INSERT
  5
83C6
  8
3
 62
     0
  2
_OPEN
 10
2535.576605973728
 20
1460.700366984523
 30
0.0
 41
50.0
 42
50.0
 43
50.0
  0
INSERT
  5
83C7
  8
3
 62
     0
  2
_OPEN
 10
1385.576605973728
 20
1460.700366984523
 30
0.0
 41
50.0
 42
50.0
 43
50.0
 50
180.0
  0
TEXT
  8
3
  40
75
  5
846D
  62
0
  72
0
  71
0
 10
1810.58
 20
1390.45
 30
0.000000
  1
1150
  0
POINT
  5
83C9
  8
DEFPOINTS
 62
     0
 10
2535.576605973728
 20
1748.091994953993
 30
0.0
  0
POINT
  5
83CA
  8
DEFPOINTS
 62
     0
 10
1385.576605973728
 20
1748.0979073477599
 30
0.0
  0
POINT
  5
83CB
  8
DEFPOINTS
 62
     0
 10
1385.576605973728
 20
1460.700366984523
 30
0.0
  0
ENDBLK
  5
8271
  8
0
  0
BLOCK
  8
0
  2
*D6
 70
     1
 10
0.0
 20
0.0
 30
0.0
  3
*D6
  1

  0
LINE
  5
83CC
  8
3
 62
     0
 10
3160.0155503706669
 20
1735.59662205875
 30
0.0
 11
3160.0155503706669
 21
1565.0667313025231
 31
0.0
  0
LINE
  5
83CD
  8
3
 62
     0
 10
4005.0155503706669
 20
1688.998445663163
 30
0.0
 11
4005.0155503706669
 21
1565.0667313025231
 31
0.0
  0
LINE
  5
83CE
  8
3
 62
     0
 10
3210.0155503706669
 20
1590.0667313025231
 30
0.0
 11
3955.0155503706669
 21
1590.0667313025231
 31
0.0
  0
INSERT
  5
83CF
  8
3
 62
     0
  2
_OPEN
 10
3160.0155503706669
 20
1590.0667313025231
 30
0.0
 41
50.0
 42
50.0
 43
50.0
 50
180.0
  0
INSERT
  5
83D0
  8
3
 62
     0
  2
_OPEN
 10
4005.0155503706669
 20
1590.0667313025231
 30
0.0
 41
50.0
 42
50.0
 43
50.0
  0
TEXT
  8
3
  40
75
  5
846E
  62
0
  72
0
  71
0
 10
3432.52
 20
1519.82
 30
0.000000
  1
845
  0
POINT
  5
83D2
  8
DEFPOINTS
 62
     0
 10
3160.0155503706669
 20
1748.09662205875
 30
0.0
  0
POINT
  5
83D3
  8
DEFPOINTS
 62
     0
 10
4005.0155503706669
 20
1701.498445663163
 30
0.0
  0
POINT
  5
83D4
  8
DEFPOINTS
 62
     0
 10
4005.0155503706669
 20
1590.0667313025231
 30
0.0
  0
ENDBLK
  5
8245
  8
0
  0
BLOCK
  8
0
  2
*D7
 70
     1
 10
0.0
 20
0.0
 30
0.0
  3
*D7
  1

  0
LINE
  5
8252
  8
0
  6
BYBLOCK
 62
     0
 10
4005.0155503706669
 20
1688.998445663163
 30
0.0
 11
4005.0155503706669
 21
1564.89528057294
 31
0.0
  0
LINE
  5
8253
  8
0
  6
BYBLOCK
 62
     0
 10
4260.0155503706701
 20
1735.59662205875
 30
0.0
 11
4260.0155503706701
 21
1564.89528057294
 31
0.0
  0
LINE
  5
8254
  8
0
  6
BYBLOCK
 62
     0
 10
4055.0155503706678
 20
1589.89528057294
 30
0.0
 11
4210.0155503706692
 21
1589.89528057294
 31
0.0
  0
TEXT
  5
8255
  8
1
 62
     0
 10
4041.9351688545398
 20
1612.5196344510291
 30
0.0
 40
75.0
  1
255
  0
INSERT
  5
8256
  8
0
  6
BYBLOCK
 62
     0
  2
_OPEN
 10
4005.0155503706669
 20
1589.89528057294
 30
0.0
 41
50.0
 42
50.0
 43
50.0
 50
180.0
  0
INSERT
  5
8257
  8
0
  6
BYBLOCK
 62
     0
  2
_OPEN
 10
4260.0155503706701
 20
1589.89528057294
 30
0.0
 41
50.0
 42
50.0
 43
50.0
  0
POINT
  5
8258
  8
DEFPOINTS
  6
BYBLOCK
 62
     0
 10
4005.0155503706669
 20
1701.498445663163
 30
0.0
  0
POINT
  5
8259
  8
DEFPOINTS
  6
BYBLOCK
 62
     0
 10
4260.0155503706701
 20
1748.09662205875
 30
0.0
  0
POINT
  5
825A
  8
DEFPOINTS
  6
BYBLOCK
 62
     0
 10
4260.0155503706701
 20
1589.89528057294
 30
0.0
  0
ENDBLK
  5
825B
  8
0
  0
BLOCK
  8
0
  2
*D8
 70
     1
 10
0.0
 20
0.0
 30
0.0
  3
*D8
  1

  0
LINE
  5
83D5
  8
3
 62
     0
 10
3160.0155503706669
 20
1735.59662205875
 30
0.0
 11
3160.0155503706669
 21
1419.600373753326
 31
0.0
  0
LINE
  5
83D6
  8
3
 62
     0
 10
4260.0155503706701
 20
1735.59662205875
 30
0.0
 11
4260.0155503706701
 21
1419.600373753326
 31
0.0
  0
LINE
  5
83D7
  8
3
 62
     0
 10
3210.0155503706669
 20
1444.600373753326
 30
0.0
 11
4210.0155503706692
 21
1444.600373753326
 31
0.0
  0
INSERT
  5
83D8
  8
3
 62
     0
  2
_OPEN
 10
3160.0155503706669
 20
1444.600373753326
 30
0.0
 41
50.0
 42
50.0
 43
50.0
 50
180.0
  0
INSERT
  5
83D9
  8
3
 62
     0
  2
_OPEN
 10
4260.0155503706701
 20
1444.600373753326
 30
0.0
 41
50.0
 42
50.0
 43
50.0
  0
TEXT
  8
3
  40
75
  5
846F
  62
0
  72
0
  71
0
 10
3560.02
 20
1374.35
 30
0.000000
  1
1100
  0
POINT
  5
83DB
  8
DEFPOINTS
 62
     0
 10
3160.0155503706669
 20
1748.09662205875
 30
0.0
  0
POINT
  5
83DC
  8
DEFPOINTS
 62
     0
 10
4260.0155503706701
 20
1748.09662205875
 30
0.0
  0
POINT
  5
83DD
  8
DEFPOINTS
 62
     0
 10
4260.0155503706701
 20
1444.600373753326
 30
0.0
  0
ENDBLK
  5
823A
  8
0
  0
BLOCK
  8
0
  2
*D9
 70
     1
 10
0.0
 20
0.0
 30
0.0
  3
*D9
  1

  0
LINE
  5
83DE
  8
3
 62
     0
 10
1236.0796906957939
 20
1971.096622052539
 30
0.0
 11
971.31170685122822
 21
1971.096622052539
 31
0.0
  0
LINE
  5
83DF
  8
3
 62
     0
 10
1163.56032121114
 20
2571.0966220525388
 30
0.0
 11
971.31170685122845
 21
2571.0966220525388
 31
0.0
  0
LINE
  5
83E0
  8
3
 62
     0
 10
996.31170685122822
 20
2021.096622052539
 30
0.0
 11
996.31170685122845
 21
2521.0966220525388
 31
0.0
  0
INSERT
  5
83E1
  8
3
 62
     0
  2
_OPEN
 10
996.31170685122822
 20
1971.096622052539
 30
0.0
 41
50.0
 42
50.0
 43
50.0
 50
270.0
  0
INSERT
  5
83E2
  8
3
 62
     0
  2
_OPEN
 10
996.31170685122845
 20
2571.0966220525388
 30
0.0
 41
50.0
 42
50.0
 43
50.0
 50
90.0
  0
TEXT
  8
3
  40
75
  5
8470
  62
0
  72
0
  71
0
 10
783.812
 20
2138.35
 30
0.000000
  1
600
  0
POINT
  5
83E4
  8
DEFPOINTS
 62
     0
 10
1248.5796906957951
 20
1971.096622052539
 30
0.0
  0
POINT
  5
83E5
  8
DEFPOINTS
 62
     0
 10
1176.06032121114
 20
2571.0966220525388
 30
0.0
  0
POINT
  5
83E6
  8
DEFPOINTS
 62
     0
 10
996.31170685122845
 20
2571.0966220525388
 30
0.0
  0
ENDBLK
  5
80F1
  8
0
  0
BLOCK
  8
0
  2
*D10
 70
     1
 10
0.0
 20
0.0
 30
0.0
  3
*D10
  1

  0
LINE
  5
83E7
  8
3
 62
     0
 10
1236.0796906957939
 20
1971.096622052539
 30
0.0
 11
1108.3350759677801
 21
1971.096622052539
 31
0.0
  0
LINE
  5
83E8
  8
3
 62
     0
 10
1258.0767087931411
 20
2551.0966220525388
 30
0.0
 11
1108.3350759677801
 21
2551.0966220525388
 31
0.0
  0
LINE
  5
83E9
  8
3
 62
     0
 10
1133.3350759677801
 20
2021.096622052539
 30
0.0
 11
1133.3350759677801
 21
2501.0966220525388
 31
0.0
  0
INSERT
  5
83EA
  8
3
 62
     0
  2
_OPEN
 10
1133.3350759677801
 20
1971.096622052539
 30
0.0
 41
50.0
 42
50.0
 43
50.0
 50
270.0
  0
INSERT
  5
83EB
  8
3
 62
     0
  2
_OPEN
 10
1133.3350759677801
 20
2551.0966220525388
 30
0.0
 41
50.0
 42
50.0
 43
50.0
 50
90.0
  0
TEXT
  8
3
  40
75
  5
8471
  62
0
  72
0
  71
0
 10
920.835
 20
2128.35
 30
0.000000
  1
580
  0
POINT
  5
83ED
  8
DEFPOINTS
 62
     0
 10
1248.5796906957951
 20
1971.096622052539
 30
0.0
  0
POINT
  5
83EE
  8
DEFPOINTS
 62
     0
 10
1270.5767087931411
 20
2551.0966220525388
 30
0.0
  0
POINT
  5
83EF
  8
DEFPOINTS
 62
     0
 10
1133.3350759677801
 20
2551.0966220525388
 30
0.0
  0
ENDBLK
  5
82DF
  8
0
  0
BLOCK
  8
0
  2
*D11
 70
     1
 10
0.0
 20
0.0
 30
0.0
  3
*D11
  1

  0
LINE
  5
83F0
  8
3
 62
     0
 10
4005.0155503706692
 20
3177.6001746324482
 30
0.0
 11
4005.0155503706692
 21
3271.5328476824302
 31
0.0
  0
LINE
  5
83F1
  8
3
 62
     0
 10
3054.5155503706692
 20
2683.5966220587502
 30
0.0
 11
3054.5155503706692
 21
3271.5328476824302
 31
0.0
  0
LINE
  5
83F2
  8
3
 62
     0
 10
3955.0155503706692
 20
3246.5328476824302
 30
0.0
 11
3104.5155503706692
 21
3246.5328476824302
 31
0.0
  0
INSERT
  5
83F3
  8
3
 62
     0
  2
_OPEN
 10
4005.0155503706692
 20
3246.5328476824302
 30
0.0
 41
50.0
 42
50.0
 43
50.0
  0
INSERT
  5
83F4
  8
3
 62
     0
  2
_OPEN
 10
3054.5155503706692
 20
3246.5328476824302
 30
0.0
 41
50.0
 42
50.0
 43
50.0
 50
180.0
  0
TEXT
  8
3
  40
75
  5
8472
  62
0
  72
0
  71
0
 10
3379.77
 20
3176.28
 30
0.000000
  1
1000
  0
POINT
  5
83F6
  8
DEFPOINTS
 62
     0
 10
4005.0155503706692
 20
3165.1001746324469
 30
0.0
  0
POINT
  5
83F7
  8
DEFPOINTS
 62
     0
 10
3054.5155503706692
 20
2671.0966220587511
 30
0.0
  0
POINT
  5
83F8
  8
DEFPOINTS
 62
     0
 10
3054.5155503706692
 20
3246.5328476824302
 30
0.0
  0
ENDBLK
  5
82B3
  8
0
  0
BLOCK
  8
0
  2
*D12
 70
     1
 10
0.0
 20
0.0
 30
0.0
  3
*D12
  1

  0
LINE
  5
83F9
  8
3
 62
     0
 10
2535.5756923145159
 20
4278.2046665030812
 30
0.0
 11
2535.579915794091
 21
3878.8890331523871
 31
0.0
  0
LINE
  5
83FA
  8
3
 62
     0
 10
1385.5756923315039
 20
4278.1984155826522
 30
0.0
 11
1385.5799158736129
 21
3878.8768698381932
 31
0.0
  0
LINE
  5
83FB
  8
3
 62
     0
 10
2485.5796513770142
 20
3903.8885043112418
 30
0.0
 11
1435.5796514509429
 21
3903.8773986765418
 31
0.0
  0
INSERT
  5
83FC
  8
3
 62
     0
  2
_OPEN
 10
2535.5796513742171
 20
3903.8890331509888
 30
0.0
 41
50.0
 42
50.0
 43
50.0
 50
0.000606005711532
  0
INSERT
  5
83FD
  8
3
 62
     0
  2
_OPEN
 10
1385.579651453739
 20
3903.8768698367949
 30
0.0
 41
50.0
 42
50.0
 43
50.0
 50
180.00060600571149
  0
TEXT
  8
3
  40
75
  5
8473
  62
0
  72
0
  71
0
 10
1810.58
 20
3833.63
 30
0.000000
  1
1150
  0
POINT
  5
83FF
  8
DEFPOINTS
 62
     0
 10
2535.5755601045789
 20
4290.7046665023827
 30
0.0
  0
POINT
  5
8400
  8
DEFPOINTS
 62
     0
 10
1385.5755601215669
 20
4290.6984155819518
 30
0.0
  0
POINT
  5
8401
  8
DEFPOINTS
 62
     0
 10
1385.579651453739
 20
3903.8768698367949
 30
0.0
  0
ENDBLK
  5
81BB
  8
0
  0
BLOCK
  8
0
  2
*D13
 70
     1
 10
0.0
 20
0.0
 30
0.0
  3
*D13
  1

  0
LINE
  5
8402
  8
3
 62
     0
 10
1385.5694487703511
 20
5403.1984155650052
 30
0.0
 11
1385.566970037615
 21
5637.554167702564
 31
0.0
  0
LINE
  5
8403
  8
3
 62
     0
 10
1885.5694487629639
 20
5403.201133356496
 30
0.0
 11
1885.5669700030401
 21
5637.5594561000389
 31
0.0
  0
LINE
  5
8404
  8
3
 62
     0
 10
1435.567234454692
 20
5612.5546965437097
 30
0.0
 11
1835.56723442571
 21
5612.5589272616908
 31
0.0
  0
INSERT
  5
8405
  8
3
 62
     0
  2
_OPEN
 10
1385.567234457488
 20
5612.5541677039619
 30
0.0
 41
50.0
 42
50.0
 43
50.0
 50
180.00060600571149
  0
INSERT
  5
8406
  8
3
 62
     0
  2
_OPEN
 10
1885.5672344229131
 20
5612.5594561014386
 30
0.0
 41
50.0
 42
50.0
 43
50.0
 50
0.0006060057115299
  0
TEXT
  8
3
  40
75
  5
8474
  62
0
  72
0
  71
0
 10
1485.57
 20
5542.31
 30
0.000000
  1
500
  0
POINT
  5
8408
  8
DEFPOINTS
 62
     0
 10
1385.569580980288
 20
5390.6984155657037
 30
0.0
  0
POINT
  5
8409
  8
DEFPOINTS
 62
     0
 10
1885.5695809729009
 20
5390.7011333571963
 30
0.0
  0
POINT
  5
840A
  8
DEFPOINTS
 62
     0
 10
1885.5672344229131
 20
5612.5594561014386
 30
0.0
  0
ENDBLK
  5
818F
  8
0
  0
BLOCK
  8
0
  2
*D14
 70
     1
 10
0.0
 20
0.0
 30
0.0
  3
*D14
  1

  0
LINE
  5
840B
  8
3
 62
     0
 10
1885.5694487629639
 20
5403.201133356496
 30
0.0
 11
1885.5669700030401
 21
5637.5594561000353
 31
0.0
  0
LINE
  5
840C
  8
3
 62
     0
 10
2535.5748260589871
 20
4894.798703369861
 30
0.0
 11
2535.5669699580922
 21
5637.5663310167538
 31
0.0
  0
LINE
  5
840D
  8
3
 62
     0
 10
1935.5672344201159
 20
5612.5599849411819
 30
0.0
 11
2485.5672343807628
 21
5612.5658021784047
 31
0.0
  0
INSERT
  5
840E
  8
3
 62
     0
  2
_OPEN
 10
1885.5672344229131
 20
5612.5594561014341
 30
0.0
 41
50.0
 42
50.0
 43
50.0
 50
180.00060600571149
  0
INSERT
  5
840F
  8
3
 62
     0
  2
_OPEN
 10
2535.5672343779661
 20
5612.5663310181526
 30
0.0
 41
50.0
 42
50.0
 43
50.0
 50
0.0006060057115299
  0
TEXT
  8
3
  40
75
  5
8475
  62
0
  72
0
  71
0
 10
2060.57
 20
5542.31
 30
0.000000
  1
650
  0
POINT
  5
8411
  8
DEFPOINTS
 62
     0
 10
1885.5695809729009
 20
5390.7011333571963
 30
0.0
  0
POINT
  5
8412
  8
DEFPOINTS
 62
     0
 10
2535.5749582689241
 20
4882.2987033705595
 30
0.0
  0
POINT
  5
8413
  8
DEFPOINTS
 62
     0
 10
2535.5672343779661
 20
5612.5663310181526
 30
0.0
  0
ENDBLK
  5
819A
  8
0
  0
BLOCK
  8
0
  2
*D15
 70
     1
 10
0.0
 20
0.0
 30
0.0
  3
*D15
  1

  0
LINE
  5
8414
  8
3
 62
     0
 10
1623.076605973728
 20
2971.0966220525388
 30
0.0
 11
842.7179678447028
 21
2971.0966220525388
 31
0.0
  0
LINE
  5
8415
  8
3
 62
     0
 10
1163.4584236986209
 20
2571.0966220525388
 30
0.0
 11
842.7179678447028
 21
2571.0966220525388
 31
0.0
  0
LINE
  5
8416
  8
3
 62
     0
 10
867.7179678447028
 20
2921.0966220525388
 30
0.0
 11
867.7179678447028
 21
2621.0966220525388
 31
0.0
  0
INSERT
  5
8417
  8
3
 62
     0
  2
_OPEN
 10
867.7179678447028
 20
2971.0966220525388
 30
0.0
 41
50.0
 42
50.0
 43
50.0
 50
90.0
  0
INSERT
  5
8418
  8
3
 62
     0
  2
_OPEN
 10
867.7179678447028
 20
2571.0966220525388
 30
0.0
 41
50.0
 42
50.0
 43
50.0
 50
270.0
  0
TEXT
  8
3
  40
75
  5
8476
  62
0
  72
0
  71
0
 10
655.218
 20
2638.35
 30
0.000000
  1
400
  0
POINT
  5
841A
  8
DEFPOINTS
 62
     0
 10
1635.576605973728
 20
2971.0966220525388
 30
0.0
  0
POINT
  5
841B
  8
DEFPOINTS
 62
     0
 10
1175.9584236986209
 20
2571.0966220525388
 30
0.0
  0
POINT
  5
841C
  8
DEFPOINTS
 62
     0
 10
867.7179678447028
 20
2571.0966220525388
 30
0.0
  0
ENDBLK
  5
82D4
  8
0
  0
BLOCK
  8
0
  2
*D16
 70
     1
 10
0.0
 20
0.0
 30
0.0
  3
*D16
  1

  0
LINE
  5
841D
  8
3
 62
     0
 10
1163.4584236986209
 20
2571.0966220525388
 30
0.0
 11
842.7179678447028
 21
2571.0966220525388
 31
0.0
  0
LINE
  5
841E
  8
3
 62
     0
 10
1373.076605973728
 20
1861.096622052539
 30
0.0
 11
842.7179678447028
 21
1861.096622052539
 31
0.0
  0
LINE
  5
841F
  8
3
 62
     0
 10
867.7179678447028
 20
2521.0966220525388
 30
0.0
 11
867.7179678447028
 21
1911.096622052539
 31
0.0
  0
INSERT
  5
8420
  8
3
 62
     0
  2
_OPEN
 10
867.7179678447028
 20
2571.0966220525388
 30
0.0
 41
50.0
 42
50.0
 43
50.0
 50
90.0
  0
INSERT
  5
8421
  8
3
 62
     0
  2
_OPEN
 10
867.7179678447028
 20
1861.096622052539
 30
0.0
 41
50.0
 42
50.0
 43
50.0
 50
270.0
  0
TEXT
  8
3
  40
75
  5
8477
  62
0
  72
0
  71
0
 10
655.218
 20
2083.35
 30
0.000000
  1
710
  0
POINT
  5
8423
  8
DEFPOINTS
 62
     0
 10
1175.9584236986209
 20
2571.0966220525388
 30
0.0
  0
POINT
  5
8424
  8
DEFPOINTS
 62
     0
 10
1385.576605973728
 20
1861.096622052539
 30
0.0
  0
POINT
  5
8425
  8
DEFPOINTS
 62
     0
 10
867.7179678447028
 20
1861.096622052539
 30
0.0
  0
ENDBLK
  5
82C9
  8
0
  0
BLOCK
  8
0
  2
*D17
 70
     1
 10
0.0
 20
0.0
 30
0.0
  3
*D17
  1

  0
LINE
  5
8426
  8
3
 62
     0
 10
1245.576605973728
 20
2588.5946169799358
 30
0.0
 11
1245.576605973728
 21
3185.0394575449659
 31
0.0
  0
LINE
  5
8427
  8
3
 62
     0
 10
1635.576605973728
 20
3102.9645198475018
 30
0.0
 11
1635.576605973728
 21
3185.0394575449659
 31
0.0
  0
LINE
  5
8428
  8
3
 62
     0
 10
1295.5766059737291
 20
3160.0394575449659
 30
0.0
 11
1585.576605973728
 21
3160.0394575449659
 31
0.0
  0
INSERT
  5
8429
  8
3
 62
     0
  2
_OPEN
 10
1245.576605973728
 20
3160.0394575449659
 30
0.0
 41
50.0
 42
50.0
 43
50.0
 50
180.0
  0
INSERT
  5
842A
  8
3
 62
     0
  2
_OPEN
 10
1635.576605973728
 20
3160.0394575449659
 30
0.0
 41
50.0
 42
50.0
 43
50.0
  0
TEXT
  8
3
  40
75
  5
8478
  62
0
  72
0
  71
0
 10
1290.58
 20
3089.79
 30
0.000000
  1
390
  0
POINT
  5
842C
  8
DEFPOINTS
 62
     0
 10
1245.576605973728
 20
2576.0946169799358
 30
0.0
  0
POINT
  5
842D
  8
DEFPOINTS
 62
     0
 10
1635.576605973728
 20
3090.4645198475018
 30
0.0
  0
POINT
  5
842E
  8
DEFPOINTS
 62
     0
 10
1635.576605973728
 20
3160.0394575449659
 30
0.0
  0
ENDBLK
  5
8140
  8
0
  0
BLOCK
  8
0
  2
*D18
 70
     1
 10
0.0
 20
0.0
 30
0.0
  3
*D18
  1

  0
LINE
  5
842F
  8
3
 62
     0
 10
1635.576605973728
 20
3102.9645198475018
 30
0.0
 11
1635.576605973728
 21
3185.0394575449659
 31
0.0
  0
LINE
  5
8430
  8
3
 62
     0
 10
2119.576605973728
 20
2583.5966220525388
 30
0.0
 11
2119.576605973728
 21
3185.0394575449659
 31
0.0
  0
LINE
  5
8431
  8
3
 62
     0
 10
1685.576605973728
 20
3160.0394575449659
 30
0.0
 11
2069.576605973728
 21
3160.0394575449659
 31
0.0
  0
INSERT
  5
8432
  8
3
 62
     0
  2
_OPEN
 10
1635.576605973728
 20
3160.0394575449659
 30
0.0
 41
50.0
 42
50.0
 43
50.0
 50
180.0
  0
INSERT
  5
8433
  8
3
 62
     0
  2
_OPEN
 10
2119.576605973728
 20
3160.0394575449659
 30
0.0
 41
50.0
 42
50.0
 43
50.0
  0
TEXT
  8
3
  40
75
  5
8479
  62
0
  72
0
  71
0
 10
1727.58
 20
3089.79
 30
0.000000
  1
484
  0
POINT
  5
8435
  8
DEFPOINTS
 62
     0
 10
1635.576605973728
 20
3090.4645198475018
 30
0.0
  0
POINT
  5
8436
  8
DEFPOINTS
 62
     0
 10
2119.576605973728
 20
2571.0966220525388
 30
0.0
  0
POINT
  5
8437
  8
DEFPOINTS
 62
     0
 10
2119.576605973728
 20
3160.0394575449659
 30
0.0
  0
ENDBLK
  5
811D
  8
0
  0
BLOCK
  8
0
  2
*D19
 70
     1
 10
0.0
 20
0.0
 30
0.0
  3
*D19
  1

  0
LINE
  5
8438
  8
3
 62
     0
 10
1373.069580980288
 20
5390.6984155657037
 30
0.0
 11
1003.536701586847
 21
5390.6984155657037
 31
0.0
  0
LINE
  5
8439
  8
3
 62
     0
 10
1373.075560121566
 20
4290.6984155819528
 30
0.0
 11
1003.536701586847
 21
4290.6984155819528
 31
0.0
  0
LINE
  5
843A
  8
3
 62
     0
 10
1028.5367015868469
 20
5340.6984155657046
 30
0.0
 11
1028.536701586846
 21
4340.6984155819528
 31
0.0
  0
INSERT
  5
843B
  8
3
 62
     0
  2
_OPEN
 10
1028.5367015868469
 20
5390.6984155657037
 30
0.0
 41
50.0
 42
50.0
 43
50.0
 50
90.0
  0
INSERT
  5
843C
  8
3
 62
     0
  2
_OPEN
 10
1028.536701586846
 20
4290.6984155819528
 30
0.0
 41
50.0
 42
50.0
 43
50.0
 50
270.0
  0
TEXT
  8
3
  40
75
  5
847A
  62
0
  72
0
  71
0
 10
816.037
 20
4707.95
 30
0.000000
  1
1100
  0
POINT
  5
843E
  8
DEFPOINTS
 62
     0
 10
1385.569580980288
 20
5390.6984155657037
 30
0.0
  0
POINT
  5
843F
  8
DEFPOINTS
 62
     0
 10
1385.5755601215669
 20
4290.6984155819528
 30
0.0
  0
POINT
  5
8440
  8
DEFPOINTS
 62
     0
 10
1028.536701586846
 20
4290.6984155819528
 30
0.0
  0
ENDBLK
  5
81A5
  8
0
  0
BLOCK
  8
0
  2
*D20
 70
     1
 10
0.0
 20
0.0
 30
0.0
  3
*D20
  1

  0
LINE
  5
8441
  8
3
 62
     0
 10
2548.0740999451032
 20
4890.7046665033076
 30
0.0
 11
2828.404966246736
 21
4890.7046665033076
 31
0.0
  0
LINE
  5
8442
  8
3
 62
     0
 10
2548.0755601045721
 20
4290.7046665023818
 30
0.0
 11
2828.404966246736
 21
4290.7046665023818
 31
0.0
  0
LINE
  5
8443
  8
3
 62
     0
 10
2803.404966246736
 20
4840.7046665033095
 30
0.0
 11
2803.404966246736
 21
4340.7046665023818
 31
0.0
  0
INSERT
  5
8444
  8
3
 62
     0
  2
_OPEN
 10
2803.404966246736
 20
4890.7046665033076
 30
0.0
 41
50.0
 42
50.0
 43
50.0
 50
90.0
  0
INSERT
  5
8445
  8
3
 62
     0
  2
_OPEN
 10
2803.404966246736
 20
4290.7046665023818
 30
0.0
 41
50.0
 42
50.0
 43
50.0
 50
270.0
  0
TEXT
  8
3
  40
75
  5
847B
  62
0
  72
0
  71
0
 10
2590.90
 20
4457.95
 30
0.000000
  1
600
  0
POINT
  5
8447
  8
DEFPOINTS
 62
     0
 10
2535.5740999451032
 20
4890.7046665033076
 30
0.0
  0
POINT
  5
8448
  8
DEFPOINTS
 62
     0
 10
2535.5755601045721
 20
4290.7046665023818
 30
0.0
  0
POINT
  5
8449
  8
DEFPOINTS
 62
     0
 10
2803.404966246736
 20
4290.7046665023818
 30
0.0
  0
ENDBLK
  5
81B0
  8
0
  0
BLOCK
  8
0
  2
*D21
 70
     1
 10
0.0
 20
0.0
 30
0.0
  3
*D21
  1

  0
LINE
  5
844A
  8
3
 62
     0
 10
1245.576605973728
 20
2588.5946169799358
 30
0.0
 11
1245.576605973728
 21
3351.6272554568968
 31
0.0
  0
LINE
  5
844B
  8
3
 62
     0
 10
2535.576605973728
 20
1948.596622052539
 30
0.0
 11
2535.576605973728
 21
3351.6272554568968
 31
0.0
  0
LINE
  5
844C
  8
3
 62
     0
 10
1295.5766059737291
 20
3326.6272554568968
 30
0.0
 11
2485.576605973728
 21
3326.6272554568968
 31
0.0
  0
INSERT
  5
844D
  8
3
 62
     0
  2
_OPEN
 10
1245.576605973728
 20
3326.6272554568968
 30
0.0
 41
50.0
 42
50.0
 43
50.0
 50
180.0
  0
INSERT
  5
844E
  8
3
 62
     0
  2
_OPEN
 10
2535.576605973728
 20
3326.6272554568968
 30
0.0
 41
50.0
 42
50.0
 43
50.0
  0
TEXT
  8
3
  40
75
  5
847C
  62
0
  72
0
  71
0
 10
1740.58
 20
3256.38
 30
0.000000
  1
1290
  0
POINT
  5
8450
  8
DEFPOINTS
 62
     0
 10
1245.576605973728
 20
2576.0946169799358
 30
0.0
  0
POINT
  5
8451
  8
DEFPOINTS
 62
     0
 10
2535.576605973728
 20
1936.096622052539
 30
0.0
  0
POINT
  5
8452
  8
DEFPOINTS
 62
     0
 10
2535.576605973728
 20
3326.6272554568968
 30
0.0
  0
ENDBLK
  5
82BE
  8
0
  0
BLOCK
  8
0
  2
*D22
 70
     1
 10
0.0
 20
0.0
 30
0.0
  3
*D22
  1

  0
LINE
  5
8453
  8
3
 62
     0
 10
1623.076605973728
 20
2971.0966220525388
 30
0.0
 11
658.70066525209984
 21
2971.0966220525388
 31
0.0
  0
LINE
  5
8454
  8
3
 62
     0
 10
1373.076605973728
 20
1748.096622052539
 30
0.0
 11
658.7006652520995
 21
1748.096622052539
 31
0.0
  0
LINE
  5
8455
  8
3
 62
     0
 10
683.70066525209984
 20
2921.0966220525388
 30
0.0
 11
683.70066525209961
 21
1798.096622052539
 31
0.0
  0
INSERT
  5
8456
  8
3
 62
     0
  2
_OPEN
 10
683.70066525209984
 20
2971.0966220525388
 30
0.0
 41
50.0
 42
50.0
 43
50.0
 50
90.0
  0
INSERT
  5
8457
  8
3
 62
     0
  2
_OPEN
 10
683.7006652520995
 20
1748.096622052539
 30
0.0
 41
50.0
 42
50.0
 43
50.0
 50
270.0
  0
TEXT
  8
3
  40
75
  5
847D
  62
0
  72
0
  71
0
 10
471.201
 20
2226.85
 30
0.000000
  1
1223
  0
POINT
  5
8459
  8
DEFPOINTS
 62
     0
 10
1635.576605973728
 20
2971.0966220525388
 30
0.0
  0
POINT
  5
845A
  8
DEFPOINTS
 62
     0
 10
1385.576605973728
 20
1748.096622052539
 30
0.0
  0
POINT
  5
845B
  8
DEFPOINTS
 62
     0
 10
683.7006652520995
 20
1748.096622052539
 30
0.0
  0
ENDBLK
  5
80C1
  8
0
  0
BLOCK
  8
0
  2
*D23
 70
     1
 10
0.0
 20
0.0
 30
0.0
  3
*D23
  1

  0
LINE
  5
8342
  8
0
  6
BYBLOCK
 62
     0
 10
1373.076605973728
 20
1823.096622052539
 30
0.0
 11
842.7179678447028
 21
1823.096622052539
 31
0.0
  0
LINE
  5
8343
  8
0
  6
BYBLOCK
 62
     0
 10
867.7179678447028
 20
1911.096622052539
 30
0.0
 11
867.7179678447028
 21
1961.096622052539
 31
0.0
  0
LINE
  5
8344
  8
0
  6
BYBLOCK
 62
     0
 10
867.7179678447028
 20
1773.096622052539
 30
0.0
 11
867.7179678447028
 21
1723.096622052539
 31
0.0
  0
TEXT
  5
8345
  8
1
 62
     0
 10
805.2179678447028
 20
1781.382336338253
 30
0.0
 40
75.0
  1
38
 50
90.0
  0
LINE
  5
8346
  8
0
  6
BYBLOCK
 62
     0
 10
867.7179678447028
 20
1861.096622052539
 30
0.0
 11
867.7179678447028
 21
1823.096622052539
 31
0.0
  0
INSERT
  5
8347
  8
0
  6
BYBLOCK
 62
     0
  2
_OPEN
 10
867.7179678447028
 20
1861.096622052539
 30
0.0
 41
50.0
 42
50.0
 43
50.0
 50
270.0
  0
INSERT
  5
8348
  8
0
  6
BYBLOCK
 62
     0
  2
_DOT
 10
867.7179678447028
 20
1823.096622052539
 30
0.0
 41
50.0
 42
50.0
 43
50.0
 50
90.0
  0
POINT
  5
8349
  8
DEFPOINTS
  6
BYBLOCK
 62
     0
 10
1385.576605973728
 20
1861.096622052539
 30
0.0
  0
POINT
  5
834A
  8
DEFPOINTS
  6
BYBLOCK
 62
     0
 10
1385.576605973728
 20
1823.096622052539
 30
0.0
  0
POINT
  5
834B
  8
DEFPOINTS
  6
BYBLOCK
 62
     0
 10
867.7179678447028
 20
1823.096622052539
 30
0.0
  0
ENDBLK
  5
834C
  8
0
  0
BLOCK
  8
0
  2
*D24
 70
     1
 10
0.0
 20
0.0
 30
0.0
  3
*D24
  1

  0
LINE
  5
845C
  8
3
 62
     0
 10
1373.076605973728
 20
1823.096622052539
 30
0.0
 11
842.7179678447028
 21
1823.096622052539
 31
0.0
  0
LINE
  5
845D
  8
3
 62
     0
 10
1373.076605973728
 20
1748.096622052539
 30
0.0
 11
842.7179678447028
 21
1748.096622052539
 31
0.0
  0
LINE
  5
845E
  8
3
 62
     0
 10
867.7179678447028
 20
1873.096622052539
 30
0.0
 11
867.7179678447028
 21
1923.096622052539
 31
0.0
  0
LINE
  5
845F
  8
3
 62
     0
 10
867.7179678447028
 20
1698.096622052539
 30
0.0
 11
867.7179678447028
 21
1476.6680506239679
 31
0.0
  0
LINE
  5
8460
  8
3
 62
     0
 10
867.7179678447028
 20
1823.096622052539
 30
0.0
 11
867.7179678447028
 21
1748.096622052539
 31
0.0
  0
INSERT
  5
8461
  8
3
 62
     0
  2
_DOT
 10
867.7179678447028
 20
1823.096622052539
 30
0.0
 41
50.0
 42
50.0
 43
50.0
 50
270.0
  0
INSERT
  5
8462
  8
3
 62
     0
  2
_OPEN
 10
867.7179678447028
 20
1748.096622052539
 30
0.0
 41
50.0
 42
50.0
 43
50.0
 50
90.0
  0
TEXT
  8
3
  40
75
  5
847E
  62
0
  72
0
  71
0
 10
655.218
 20
1429.63
 30
0.000000
  1
75
  0
POINT
  5
8464
  8
DEFPOINTS
 62
     0
 10
1385.576605973728
 20
1823.096622052539
 30
0.0
  0
POINT
  5
8465
  8
DEFPOINTS
 62
     0
 10
1385.576605973728
 20
1748.096622052539
 30
0.0
  0
POINT
  5
8466
  8
DEFPOINTS
 62
     0
 10
867.7179678447028
 20
1748.096622052539
 30
0.0
  0
ENDBLK
  5
8372
  8
0
  0
BLOCK
  8
0
  2
_DOT
 70
     0
 10
0.0
 20
0.0
 30
0.0
  3
_DOT
  1

  0
POLYLINE
  5
8376
  8
0
  6
BYBLOCK
 62
     0
 66
     1
 10
0.0
 20
0.0
 30
0.0
 70
     1
 40
0.25
 41
0.25
  0
VERTEX
  5
8467
  8
0
  6
BYBLOCK
 62
     0
 10
-0.125
 20
0.0
 30
0.0
 42
1.0
  0
VERTEX
  5
8468
  8
0
  6
BYBLOCK
 62
     0
 10
0.125
 20
0.0
 30
0.0
 42
1.0
  0
SEQEND
  5
8469
  8
0
  6
BYBLOCK
 62
     0
  0
LINE
  5
837A
  8
0
  6
BYBLOCK
 62
     0
 10
-0.25
 20
0.0
 30
0.0
 11
-1.0
 21
0.0
 31
0.0
  0
ENDBLK
  5
8340
  8
0
  0
ENDSEC
  0
SECTION
  2
ENTITIES
  0
LINE
  5
7CBF
  8
1
 10
3192.5155503706669
 20
2507.8966220587508
 30
0.0
 11
3707.5155503706669
 21
2507.8966220587508
 31
0.0
  0
LINE
  5
7CC0
  8
1
 10
3198.0155503706669
 20
1936.09662205875
 30
0.0
 11
3198.0155503706669
 21
2099.0972220191161
 31
0.0
  0
LINE
  5
7CC1
  8
1
 10
3200.0155503706669
 20
1936.09662205875
 30
0.0
 11
4260.0155503706701
 21
1936.09662205875
 31
0.0
  0
LINE
  5
7CC2
  8
1
 10
3160.0155503706669
 20
1861.09662205875
 30
0.0
 11
4260.0155503706701
 21
1861.09662205875
 31
0.0
  0
LINE
  5
7CC3
  8
1
 10
1415.5772044137091
 20
2454.6954909874439
 30
0.0
 11
1270.5772044156231
 21
2454.694745511707
 31
0.0
  0
LINE
  5
7CC4
  8
1
 10
1415.577250684617
 20
2445.6954909875622
 30
0.0
 11
1270.577250686531
 21
2445.694745511827
 31
0.0
  0
LINE
  5
7CC5
  8
1
 10
2112.9234165416751
 20
2445.6990761920192
 30
0.0
 11
1855.5772506788039
 21
2445.6977531208299
 31
0.0
  0
LINE
  5
7CC6
  8
1
 10
2114.288871260519
 20
2454.6990832122301
 30
0.0
 11
1855.577204407896
 21
2454.6977531207108
 31
0.0
  0
LINE
  5
7CC7
  8
1
 10
1855.578662455609
 20
1936.097753124458
 30
0.0
 11
1855.5769473472969
 21
2504.69775312005
 31
0.0
  0
LINE
  5
7CC8
  8
1
 10
1415.5786624614241
 20
1936.0954909911909
 30
0.0
 11
1415.5769473531111
 21
2504.6954909867832
 31
0.0
  0
LINE
  5
7CC9
  8
1
 10
1385.5769309016291
 20
2507.8953367503809
 30
0.0
 11
1885.576930895021
 21
2507.8979073563669
 31
0.0
  0
LINE
  5
7CCA
  8
1
 10
3157.5155503706669
 20
2596.0966220587502
 30
0.0
 11
3792.5155503706669
 21
2596.0966220587502
 31
0.0
  0
LINE
  5
7CCB
  8
1
 10
3157.5155503706678
 20
2546.0966220587511
 30
0.0
 11
3790.5155503706678
 21
2546.0966220587511
 31
0.0
  0
LINE
  5
7CCC
  8
1
 10
3157.5155503706669
 20
2526.0966220587502
 30
0.0
 11
3157.5155503706669
 21
2616.0966220587502
 31
0.0
  0
LINE
  5
7CCD
  8
1
 10
3137.515550370666
 20
2024.0757002191781
 30
0.0
 11
3137.515550370666
 21
2202.0757002191781
 31
0.0
  0
LINE
  5
7CCE
  8
1
 10
3074.5155503706669
 20
2024.0757002191781
 30
0.0
 11
3074.5155503706669
 21
2202.0757002191781
 31
0.0
  0
LINE
  5
7CCF
  8
1
 10
3137.5155503706669
 20
2616.0966220587502
 30
0.0
 11
3157.5155503706669
 21
2616.0966220587502
 31
0.0
  0
LINE
  5
7CD0
  8
1
 10
3137.5155503706669
 20
2526.0966220587502
 30
0.0
 11
3157.5155503706669
 21
2526.0966220587502
 31
0.0
  0
LINE
  5
7CD1
  8
1
 10
3159.5155503706669
 20
2078.0963726364598
 30
0.0
 11
3159.5155503706669
 21
2148.0963726364598
 31
0.0
  0
LINE
  5
7CD2
  8
1
 10
3137.515550370666
 20
2148.0963726364598
 30
0.0
 11
3159.5155503706669
 21
2148.0963726364598
 31
0.0
  0
LINE
  5
7CD3
  8
1
 10
3137.515550370666
 20
2078.0963726364598
 30
0.0
 11
3159.5155503706669
 21
2078.0963726364598
 31
0.0
  0
LINE
  5
7CD4
  8
1
 10
3054.5155503706678
 20
1958.075700219179
 30
0.0
 11
3054.5155503706692
 21
2671.0966220587511
 31
0.0
  0
LINE
  5
7CD5
  8
1
 10
3176.5155503706678
 20
1958.0757002191799
 30
0.0
 11
3176.5155503706669
 21
1974.26004864333
 31
0.0
  0
LINE
  5
7CD6
  8
2
 10
3023.6353086566291
 20
2571.0966220587511
 30
0.0
 11
4288.4420062418349
 21
2571.0966220587511
 31
0.0
  0
LINE
  5
7CD7
  8
2
 10
3023.6353086566291
 20
2113.0963726364589
 30
0.0
 11
3637.259318036562
 21
2113.0963726364589
 31
0.0
  0
LINE
  5
7CD8
  8
1
 10
2535.575560104578
 20
4290.7046665023818
 30
0.0
 11
2349.575033823271
 21
4290.7036554810857
 31
0.0
  0
LINE
  5
7CD9
  8
1
 10
1385.5755601215669
 20
4290.6984155819528
 30
0.0
 11
1385.575353569413
 21
4328.6984155818946
 31
0.0
  0
LINE
  5
7CDA
  8
1
 10
1385.569580980288
 20
5390.6984155657037
 30
0.0
 11
1885.5695809729009
 21
5390.7011333571963
 31
0.0
  0
LINE
  5
7CDB
  8
1
 10
1885.5722987643919
 20
4890.7011333645796
 30
0.0
 11
1885.5721221079441
 21
4923.2011333641012
 31
0.0
  0
LINE
  5
7CDC
  8
1
 10
2535.5740999451032
 20
4890.7046665033076
 30
0.0
 11
1885.5722987643919
 21
4890.7011333645814
 31
0.0
  0
LINE
  5
7CDD
  8
1
 10
1245.5699573125901
 20
5350.6976545855414
 30
0.0
 11
2119.5699572996882
 21
5350.7024052850666
 31
0.0
  0
LINE
  5
7CDE
  8
2
 10
2335.5731453295411
 20
4810.6630943965702
 30
0.0
 11
2335.5759249738489
 21
4045.3429117538858
 31
0.0
  0
LINE
  5
7CDF
  8
2
 10
1635.5768619188859
 20
4045.0845888226208
 30
0.0
 11
1635.569570893229
 21
5423.7679592314162
 31
0.0
  0
LINE
  5
7CE6
  8
1
 10
2465.5747808325068
 20
1981.096853406483
 30
0.0
 11
2415.574780833168
 21
1981.0971104670809
 31
0.0
  0
LINE
  5
7CE7
  8
1
 10
2465.5747808325068
 20
1981.096853406483
 30
0.0
 11
2465.5748579506871
 21
1996.0968534062849
 31
0.0
  0
LINE
  5
7CE8
  8
1
 10
2465.5748579506871
 20
1996.0968534062849
 30
0.0
 11
2416.9213391290659
 21
1996.0971035443381
 31
0.0
  0
LINE
  5
7CE9
  8
1
 10
2415.5748531969389
 20
1995.1723463161879
 30
0.0
 11
2415.574780833168
 21
1981.0971104670809
 31
0.0
  0
LINE
  5
7CEA
  8
1
 10
2398.974031815636
 20
1985.4774958060709
 30
0.0
 11
2272.1755748929122
 21
1985.478147703815
 31
0.0
  0
LINE
  5
7CEB
  8
1
 10
2465.5748579506871
 20
1996.0968534062849
 30
0.0
 11
2451.5457561631629
 21
2030.289670166718
 31
0.0
  0
LINE
  5
7CEC
  8
1
 10
2205.5748579541232
 20
1996.098190121397
 30
0.0
 11
2219.6043113259429
 21
2030.2908626268511
 31
0.0
  0
LINE
  5
7CED
  8
1
 10
2255.574853199053
 20
1995.173168910103
 30
0.0
 11
2255.5747808352821
 21
1981.0979330609971
 31
0.0
  0
LINE
  5
7CEE
  8
1
 10
2205.5748579541232
 20
1996.098190121397
 30
0.0
 11
2254.2283767757458
 21
1996.0979399833441
 31
0.0
  0
LINE
  5
7CEF
  8
1
 10
2205.5747808359429
 20
1981.0981901215951
 30
0.0
 11
2205.5748579541232
 21
1996.098190121397
 31
0.0
  0
LINE
  5
7CF0
  8
2
 10
2559.088094519781
 20
2113.0963726364589
 30
0.0
 11
2183.0754594762211
 21
2113.0983057971198
 31
0.0
  0
ARC
  5
7CF1
  8
1
 10
2335.5754594742052
 20
2113.097521762294
 30
0.0
 40
142.0
 50
296.41708569015321
 51
243.58232517035151
  0
CIRCLE
  5
7CF2
  8
1
 10
2335.5754594742052
 20
2113.097521762294
 30
0.0
 40
19.0
  0
LINE
  5
7CF3
  8
2
 10
2335.574498055089
 20
1926.0905963567
 30
0.0
 11
2335.576243509031
 21
2265.5975217602791
 31
0.0
  0
LINE
  5
7D0C
  8
1
 10
1270.5796907057329
 20
1971.094745518099
 30
0.0
 11
1641.855674299158
 21
2005.3167268566419
 31
0.0
  0
ARC
  5
7D0D
  8
1
 10
1668.5764363132971
 20
2604.0967917120979
 30
0.0
 40
367.0
 50
89.330378845451733
 51
180.00029456974821
  0
ARC
  5
7D0E
  8
1
 10
1677.576821904076
 20
2529.0968379839969
 30
0.0
 40
442.0
 50
359.94336520208299
 51
90.610732694264058
  0
ARC
  5
7D0F
  8
1
 10
1593.5768219051861
 20
2529.0964061221912
 30
0.0
 40
526.0
 50
275.26629886697953
 51
0.0519161801936452
  0
LINE
  5
7D4A
  8
1
 10
1365.5769473537721
 20
2504.6952339261838
 30
0.0
 11
1905.576947346636
 21
2504.6980101806489
 31
0.0
  0
LINE
  5
7D4B
  8
1
 10
1365.57720441437
 20
2454.695233926845
 30
0.0
 11
1365.5769473537721
 21
2504.6952339261838
 31
0.0
  0
LINE
  5
7D4C
  8
1
 10
1905.5772044072351
 20
2454.6980101813101
 30
0.0
 11
1905.576947346636
 21
2504.6980101806489
 31
0.0
  0
LINE
  5
7D4D
  8
1
 10
4221.8155503706703
 20
2571.0966220587511
 30
0.0
 11
4221.8155503706703
 21
2551.0966220587502
 31
0.0
  0
DIMENSION
  5
7D4E
  8
3
  2
*D1
 10
4217.515550370671
 20
3046.4448237657612
 30
0.0
 11
4016.9284327231562
 21
3046.4448237657612
 31
0.0
 70
   128
 13
3792.5155503706678
 23
2936.0966220587502
 33
0.0
 14
4217.515550370671
 24
2936.0966220587502
 34
0.0
1001
ACAD
1000
DSTYLE
1002
{
1070
   287
1070
     3
1070
    40
1040
25.0
1070
   143
1040
0.039
1070
   172
1070
     1
1070
   271
1070
     0
1070
   279
1070
     0
1070
   288
1070
     1
1002
}
  0
LINE
  5
7D4F
  8
1
 10
3137.515550370666
 20
2202.0757002191781
 30
0.0
 11
3137.5155503706669
 21
2648.596622058747
 31
0.0
  0
LINE
  5
7D50
  8
1
 10
3074.5155503706669
 20
2202.0757002191781
 30
0.0
 11
3074.5155503706669
 21
2648.596622058747
 31
0.0
  0
LINE
  5
7D51
  8
1
 10
1248.5798192363229
 20
1946.094632411766
 30
0.0
 11
1248.576580272781
 21
2576.0946324034398
 31
0.0
  0
LINE
  5
7D52
  8
1
 10
4217.5155503706656
 20
1971.09662205875
 30
0.0
 11
4217.5155503706692
 21
2591.0966220587511
 31
0.0
  0
LINE
  5
7D53
  8
1
 10
3792.515550370666
 20
1971.09662205875
 30
0.0
 11
3792.5155503706669
 21
2566.0966220587511
 31
0.0
  0
LINE
  5
7D54
  8
1
 10
3192.5155503706669
 20
2504.6966220587501
 30
0.0
 11
3707.5155503706669
 21
2504.696622058751
 31
0.0
  0
LINE
  5
7D55
  8
1
 10
3707.5155503706669
 20
2507.8966220587508
 30
0.0
 11
3707.5155503706669
 21
2504.696622058751
 31
0.0
  0
LINE
  5
7D56
  8
1
 10
3697.5155503706669
 20
2504.696622058751
 30
0.0
 11
3697.5155503706669
 21
1936.09662205875
 31
0.0
  0
LINE
  5
7D57
  8
1
 10
3192.5155503706669
 20
2507.8966220587508
 30
0.0
 11
3192.5155503706669
 21
2504.6966220587501
 31
0.0
  0
LINE
  5
7D63
  8
1
 10
3725.5155503706669
 20
2454.696622058751
 30
0.0
 11
3790.5155503706669
 21
2454.696622058751
 31
0.0
  0
LINE
  5
7D64
  8
1
 10
3725.5155503706669
 20
2448.696622058751
 30
0.0
 11
3790.5155503706669
 21
2448.696622058751
 31
0.0
  0
LINE
  5
7D65
  8
1
 10
3725.5155503706669
 20
2448.696622058751
 30
0.0
 11
3725.5155503706669
 21
2454.696622058751
 31
0.0
  0
LINE
  5
7D66
  8
1
 10
1385.5769309016291
 20
2507.8953367503809
 30
0.0
 11
1385.576947353507
 21
2504.6953367504229
 31
0.0
  0
LINE
  5
7D67
  8
1
 10
1885.576930895021
 20
2507.8979073563669
 30
0.0
 11
1885.576947346899
 21
2504.6979073564089
 31
0.0
  0
ARC
  5
7D6A
  8
1
 10
1531.5713639981921
 20
2579.125816407146
 30
0.0
 40
227.59448069142181
 50
182.0217292917753
 51
221.9100624659458
  0
ARC
  5
7D6B
  8
1
 10
1316.9774630179741
 20
2404.3949840646078
 30
0.0
 40
50.600000000000001
 50
253.08308233687509
 51
26.662664889143191
  0
LINE
  5
7D6C
  8
1
 10
1248.5776279733179
 20
2372.3098940076011
 30
0.0
 11
1302.2536372870991
 21
2355.9845620890992
 31
0.0
  0
LINE
  5
7D6D
  8
1
 10
4221.8155503706703
 20
2551.0966220587502
 30
0.0
 11
4221.8155503706703
 21
2281.0966220587502
 31
0.0
  0
LINE
  5
7D6E
  8
1
 10
4260.0155503706701
 20
1861.09662205875
 30
0.0
 11
4260.0155503706701
 21
1936.09662205875
 31
0.0
  0
LINE
  5
7D6F
  8
2
 10
4005.0155503706669
 20
1701.498445663163
 30
0.0
 11
4005.0155503706692
 21
3039.9100130092311
 31
0.0
  0
LINE
  5
7D70
  8
1
 10
3200.0155503706669
 20
1861.09662205875
 30
0.0
 11
3160.0155503706669
 21
1861.09662205875
 31
0.0
  0
LINE
  5
7D71
  8
1
 10
3160.0155503706669
 20
1861.09662205875
 30
0.0
 11
3160.0155503706669
 21
1862.9002457509771
 31
0.0
  0
LINE
  5
7D72
  8
1
 10
3160.0155503706669
 20
1934.2929983665231
 30
0.0
 11
3160.0155503706669
 21
1936.09662205875
 31
0.0
  0
LINE
  5
7D73
  8
1
 10
3160.0155503706669
 20
1936.09662205875
 30
0.0
 11
3200.0155503706669
 21
1936.09662205875
 31
0.0
  0
CIRCLE
  5
7D76
  8
1
 10
1635.576605973728
 20
2571.0966220525388
 30
0.0
 40
72.5
  0
CIRCLE
  5
7D77
  8
1
 10
2335.5754594742052
 20
2113.097521762294
 30
0.0
 40
89.0
  0
LINE
  5
7D78
  8
1
 10
3074.5155503706669
 20
2643.596622058747
 30
0.0
 11
3137.5155503706669
 21
2643.596622058747
 31
0.0
  0
LINE
  5
7D79
  8
1
 10
3074.5155503706669
 20
2498.5966220587538
 30
0.0
 11
3137.5155503706669
 21
2498.5966220587538
 31
0.0
  0
LINE
  5
7D7A
  8
1
 10
3074.5155503706669
 20
2202.0757002191781
 30
0.0
 11
3137.515550370666
 21
2202.0757002191781
 31
0.0
  0
LINE
  5
7D7B
  8
1
 10
3074.5155503706669
 20
2024.0757002191781
 30
0.0
 11
3137.5155503706678
 21
2024.0757002191781
 31
0.0
  0
LINE
  5
7D7C
  8
1
 10
4221.8155503706703
 20
2266.0966220587502
 30
0.0
 11
4221.8155503706703
 21
2291.0966220587502
 31
0.0
  0
LINE
  5
7D7D
  8
1
 10
1270.579690705734
 20
1971.094745518099
 30
0.0
 11
1270.5767087931411
 21
2551.0966220525388
 31
0.0
  0
LINE
  5
7D7E
  8
1
 10
4224.8155503706703
 20
2284.0966220587479
 30
0.0
 11
4224.8155503706703
 21
2571.0966220587511
 31
0.0
  0
LINE
  5
7D7F
  8
1
 10
4261.8155503706703
 20
2291.0966220587479
 30
0.0
 11
4261.8155503706703
 21
2851.0966220587502
 31
0.0
  0
DIMENSION
  5
7D80
  8
3
  2
*D2
 10
4413.6278381594693
 20
2291.0966220587479
 30
0.0
 11
4413.6278381594693
 21
2571.0966220587502
 31
0.0
 70
   128
 13
4261.8155503706703
 23
2851.0966220587502
 33
0.0
 14
4261.8155503706703
 24
2291.0966220587479
 34
0.0
 50
90.0
1001
ACAD
1000
DSTYLE
1002
{
1070
   287
1070
     3
1070
    40
1040
25.0
1070
   143
1040
0.039
1070
   172
1070
     1
1070
   271
1070
     0
1070
   279
1070
     0
1070
   288
1070
     1
1002
}
  0
ARC
  5
7D81
  8
1
 10
2335.5754594742052
 20
2113.097521762294
 30
0.0
 40
150.0
 50
233.630424124162
 51
60.158533866720738
  0
ARC
  5
7D82
  8
1
 10
1638.0687995702219
 20
2567.8921728847981
 30
0.0
 40
102.5891975502981
 50
60.158533866720738
 51
233.630424124162
  0
LINE
  5
7D83
  8
1
 10
3054.5155503706669
 20
2671.0966220587511
 30
0.0
 11
3176.5155503706669
 21
2671.0966220587511
 31
0.0
  0
LINE
  5
7D84
  8
1
 10
3176.5155503706669
 20
2637.7240070226198
 30
0.0
 11
3176.5155503706669
 21
2671.0966220587511
 31
0.0
  0
LINE
  5
7D85
  8
1
 10
3054.5155503706678
 20
1958.075700219179
 30
0.0
 11
3176.5155503706678
 21
1958.0757002191799
 31
0.0
  0
LINE
  5
7D87
  8
1
 10
4242.5155503706692
 20
2851.0966220587502
 30
0.0
 11
4261.8155503706703
 21
2851.0966220587502
 31
0.0
  0
LINE
  5
7D88
  8
1
 10
4261.8155503706703
 20
2851.0966220587502
 30
0.0
 11
4261.8155503706703
 21
2852.0966220587502
 31
0.0
  0
LINE
  5
7D89
  8
1
 10
4242.5155503706701
 20
2854.0966220587511
 30
0.0
 11
4259.8155503706703
 21
2854.0966220587511
 31
0.0
  0
ARC
  5
7D8A
  8
1
 10
4259.8155503706703
 20
2852.0966220587502
 30
0.0
 40
2.0
 50
359.9999999999992
 51
89.999999999999588
  0
ARC
  5
7D8B
  8
1
 10
4228.8155503706703
 20
2284.0966220587479
 30
0.0
 40
4.0
 50
90.0
 51
180.0
  0
ARC
  5
7D8C
  8
1
 10
4222.8155503706703
 20
2268.0966220587479
 30
0.0
 40
2.0
 50
269.9999999999992
 51
0.0
  0
LINE
  5
7D8D
  8
1
 10
4224.8155503706703
 20
2284.0966220587479
 30
0.0
 11
4224.8155503706703
 21
2268.0966220587479
 31
0.0
  0
ARC
  5
7D8E
  8
1
 10
4259.8155503706703
 20
2290.0966220587488
 30
0.0
 40
2.0
 50
270.0000000000004
 51
0.0000000000008142
  0
LINE
  5
7D8F
  8
1
 10
4228.8155503706703
 20
2288.0966220587479
 30
0.0
 11
4259.8155503706703
 21
2288.0966220587479
 31
0.0
  0
LINE
  5
7D90
  8
1
 10
4261.8155503706703
 20
2291.0966220587479
 30
0.0
 11
4261.8155503706703
 21
2290.0966220587488
 31
0.0
  0
LINE
  5
7D91
  8
1
 10
4221.8155503706703
 20
2291.0966220587479
 30
0.0
 11
4261.8155503706703
 21
2291.0966220587479
 31
0.0
  0
LINE
  5
7D92
  8
1
 10
4221.8155503706703
 20
2266.0966220587488
 30
0.0
 11
4222.8155503706703
 21
2266.0966220587488
 31
0.0
  0
LINE
  5
7D93
  8
1
 10
4221.8155503706703
 20
2291.0966220587479
 30
0.0
 11
4221.8155503706703
 21
2266.0966220587488
 31
0.0
  0
LINE
  5
7DA6
  8
1
 10
3160.0155503706669
 20
1861.09662205875
 30
0.0
 11
3160.0155503706669
 21
1936.09662205875
 31
0.0
  0
LINE
  5
7DA7
  8
1
 10
3160.0155503706669
 20
1823.09662205875
 30
0.0
 11
4260.0155503706701
 21
1823.09662205875
 31
0.0
  0
LINE
  5
7DA8
  8
1
 10
3160.0155503706669
 20
1748.09662205875
 30
0.0
 11
4260.0155503706701
 21
1748.09662205875
 31
0.0
  0
LINE
  5
7DA9
  8
1
 10
3160.0155503706669
 20
1823.09662205875
 30
0.0
 11
3160.0155503706669
 21
1748.09662205875
 31
0.0
  0
LINE
  5
7DAA
  8
1
 10
4260.0155503706701
 20
1823.09662205875
 30
0.0
 11
4260.0155503706701
 21
1748.09662205875
 31
0.0
  0
LINE
  5
7DAB
  8
2
 10
1635.576605973728
 20
3090.4645198475018
 30
0.0
 11
1635.576605973728
 21
1709.511482369898
 31
0.0
  0
LINE
  5
7DAC
  8
1
 10
2535.576605973728
 20
1936.096622052539
 30
0.0
 11
2535.576605973728
 21
1861.096622052539
 31
0.0
  0
LINE
  5
7DAD
  8
1
 10
2535.576605973728
 20
1823.0919949549841
 30
0.0
 11
2535.576605973728
 21
1748.091994953993
 31
0.0
  0
DIMENSION
  5
7DAE
  8
3
  2
*D3
 10
1635.576605973728
 20
1607.934666472667
 30
0.0
 11
2085.576605973728
 21
1670.434666472667
 31
0.0
 70
     0
 13
2535.576605973728
 23
1748.091994953993
 33
0.0
 14
1635.576605973728
 24
1709.511482369898
 34
0.0
1001
ACAD
1000
DSTYLE
1002
{
1070
   287
1070
     3
1070
    40
1040
25.0
1070
   143
1040
0.039
1070
   172
1070
     1
1070
   271
1070
     0
1070
   279
1070
     0
1070
   288
1070
     1
1002
}
  0
LINE
  5
7DAF
  8
1
 10
1385.576605973728
 20
1936.0979073502449
 30
0.0
 11
1385.576605973728
 21
1861.096622052539
 31
0.0
  0
LINE
  5
7DB0
  8
1
 10
1385.576605973728
 20
1823.096622052539
 30
0.0
 11
1385.576605973728
 21
1748.096622052539
 31
0.0
  0
DIMENSION
  5
7DB1
  8
3
  2
*D4
 10
1385.576605973728
 20
1608.870117939181
 30
0.0
 11
1520.2293899684551
 21
1664.66673638989
 31
0.0
 70
   128
 13
1635.576605973728
 23
1709.511482369898
 33
0.0
 14
1385.576605973728
 24
1748.0979073477599
 34
0.0
1001
ACAD
1000
DSTYLE
1002
{
1070
   288
1070
     1
1070
   172
1070
     1
1070
    40
1040
25.0
1070
   271
1070
     0
1070
   143
1040
0.039
1002
}
  0
DIMENSION
  5
7DB2
  8
3
  2
*D5
 10
1385.576605973728
 20
1460.700366984523
 30
0.0
 11
1960.576605973728
 21
1523.200366984523
 31
0.0
 70
     0
 13
2535.576605973728
 23
1748.091994953993
 33
0.0
 14
1385.576605973728
 24
1748.0979073477599
 34
0.0
1001
ACAD
1000
DSTYLE
1002
{
1070
   287
1070
     3
1070
    40
1040
25.0
1070
   143
1040
0.039
1070
   172
1070
     1
1070
   271
1070
     0
1070
   279
1070
     0
1070
   288
1070
     1
1002
}
  0
DIMENSION
  5
7DB3
  8
3
  2
*D6
 10
4005.0155503706669
 20
1590.0667313025231
 30
0.0
 11
3582.5155503706669
 21
1652.5667313025231
 31
0.0
 70
     0
 13
3160.0155503706669
 23
1748.09662205875
 33
0.0
 14
4005.0155503706669
 24
1701.498445663163
 34
0.0
1001
ACAD
1000
DSTYLE
1002
{
1070
   287
1070
     3
1070
    40
1040
25.0
1070
   143
1040
0.039
1070
   172
1070
     1
1070
   271
1070
     0
1070
   279
1070
     0
1070
   288
1070
     1
1002
}
  0
DIMENSION
  5
7DB4
  8
3
  2
*D7
 10
4260.0155503706701
 20
1589.89528057294
 30
0.0
 11
4138.3637402831118
 21
1650.0196344510291
 31
0.0
 70
   128
 13
4005.0155503706669
 23
1701.498445663163
 33
0.0
 14
4260.0155503706701
 24
1748.09662205875
 34
0.0
1001
ACAD
1000
DSTYLE
1002
{
1070
   288
1070
     1
1070
   172
1070
     1
1070
    40
1040
25.0
1070
   271
1070
     0
1070
   143
1040
0.039
1002
}
  0
DIMENSION
  5
7DB5
  8
3
  2
*D8
 10
4260.0155503706701
 20
1444.600373753326
 30
0.0
 11
3710.0155503706678
 21
1507.100373753326
 31
0.0
 70
     0
 13
3160.0155503706669
 23
1748.09662205875
 33
0.0
 14
4260.0155503706701
 24
1748.09662205875
 34
0.0
1001
ACAD
1000
DSTYLE
1002
{
1070
   287
1070
     3
1070
    40
1040
25.0
1070
   143
1040
0.039
1070
   172
1070
     1
1070
   271
1070
     0
1070
   279
1070
     0
1070
   288
1070
     1
1002
}
  0
LINE
  5
7DB6
  8
1
 10
1248.579819236322
 20
1946.094632411766
 30
0.0
 11
1245.576605973728
 21
1946.0946169716101
 31
0.0
  0
LINE
  5
7DB7
  8
1
 10
1248.576580272781
 20
2576.0946324034398
 30
0.0
 11
1245.576580272821
 21
2576.094616979804
 31
0.0
  0
LINE
  5
7DB8
  8
2
 10
1175.9584236986209
 20
2571.0966220525388
 30
0.0
 11
2361.5003901398181
 21
2571.0966220525388
 31
0.0
  0
LINE
  5
7DB9
  8
1
 10
1270.579690696085
 20
1971.096622052539
 30
0.0
 11
1248.5796906957951
 21
1971.096622052539
 31
0.0
  0
DIMENSION
  5
7DBA
  8
3
  2
*D9
 10
996.31170685122845
 20
2571.0966220525388
 30
0.0
 11
933.81170685122777
 21
2271.0966220525388
 31
0.0
 70
     0
 13
1248.5796906957951
 23
1971.096622052539
 33
0.0
 14
1176.06032121114
 24
2571.0966220525388
 34
0.0
 50
270.0
1001
ACAD
1000
DSTYLE
1002
{
1070
   287
1070
     3
1070
    40
1040
25.0
1070
   143
1040
0.039
1070
   172
1070
     1
1070
   271
1070
     0
1070
   279
1070
     0
1070
   288
1070
     1
1002
}
  0
LINE
  5
7DBB
  8
1
 10
1305.7094329318229
 20
2551.0966220525388
 30
0.0
 11
1248.579690695801
 21
2551.0966220525388
 31
0.0
  0
LINE
  5
7DBC
  8
1
 10
1301.576436318147
 20
2604.0949048872999
 30
0.0
 11
1304.1185564111811
 21
2571.0966220525388
 31
0.0
  0
DIMENSION
  5
7DBD
  8
3
  2
*D10
 10
1133.3350759677801
 20
2551.0966220525388
 30
0.0
 11
1070.8350759677801
 21
2261.0966220525388
 31
0.0
 70
     0
 13
1248.5796906957951
 23
1971.096622052539
 33
0.0
 14
1270.5767087931411
 24
2551.0966220525388
 34
0.0
 50
270.0
1001
ACAD
1000
DSTYLE
1002
{
1070
   287
1070
     3
1070
    40
1040
25.0
1070
   143
1040
0.039
1070
   172
1070
     1
1070
   271
1070
     0
1070
   279
1070
     0
1070
   288
1070
     1
1002
}
  0
LINE
  5
7DBE
  8
1
 10
2535.576605973728
 20
1861.096622052539
 30
0.0
 11
1385.576605973728
 21
1861.096622052539
 31
0.0
  0
LINE
  5
7DBF
  8
1
 10
2535.576605973728
 20
1823.096622052539
 30
0.0
 11
1385.576605973728
 21
1823.096622052539
 31
0.0
  0
LINE
  5
7DC0
  8
1
 10
2535.576605973728
 20
1748.096622052539
 30
0.0
 11
1385.576605973728
 21
1748.096622052539
 31
0.0
  0
LINE
  5
7DC1
  8
1
 10
1245.576605973728
 20
1946.0946169716101
 30
0.0
 11
1245.576605973728
 21
2576.0946169799372
 31
0.0
  0
DIMENSION
  5
7DC3
  8
3
  2
*D11
 10
3054.5155503706692
 20
3246.5328476824302
 30
0.0
 11
3529.7655503706692
 21
3309.0328476824302
 31
0.0
 70
     0
  1
1000
 13
4005.0155503706692
 23
3165.1001746324469
 33
0.0
 14
3054.5155503706692
 24
2671.0966220587511
 34
0.0
1001
ACAD
1000
DSTYLE
1002
{
1070
   287
1070
     3
1070
    40
1040
25.0
1070
   143
1040
0.039
1070
   172
1070
     1
1070
   271
1070
     0
1070
   279
1070
     0
1070
   288
1070
     1
1002
}
  0
LINE
  5
7DC4
  8
2
 10
1210.019747535757
 20
5135.6974613462498
 30
0.0
 11
2176.9485118826178
 21
5135.7027171677846
 31
0.0
  0
LINE
  5
7DC5
  8
1
 10
1245.572218102511
 20
4923.1976545915149
 30
0.0
 11
2119.57221808961
 21
4923.202405291041
 31
0.0
  0
LINE
  5
7DC6
  8
1
 10
1245.572350312448
 20
4898.1976545918642
 30
0.0
 11
1245.5698251026531
 21
5375.6976545851912
 31
0.0
  0
LINE
  5
7DC7
  8
1
 10
2119.57221808961
 20
4923.202405291041
 30
0.0
 11
2119.5699572996882
 21
5350.7024052850684
 31
0.0
  0
LINE
  5
7DC8
  8
1
 10
1245.572350312448
 20
4898.1976545918642
 30
0.0
 11
1250.5723503123741
 21
4898.1976817697778
 31
0.0
  0
LINE
  5
7DC9
  8
1
 10
1245.569821423016
 20
5375.6976545851703
 30
0.0
 11
1250.569825102579
 21
5375.6976817631057
 31
0.0
  0
LINE
  5
7DCA
  8
1
 10
1250.5723503123779
 20
4898.1976810338529
 30
0.0
 11
1250.569825102579
 21
5375.6976817631057
 31
0.0
  0
LINE
  5
7DCB
  8
1
 10
1285.572218101921
 20
4923.1978720148354
 30
0.0
 11
1285.569957312
 21
5350.69787200886
 31
0.0
  0
LINE
  5
7DCC
  8
1
 10
1885.56979839622
 20
5350.7011333577857
 30
0.0
 11
1885.5695809729009
 21
5390.7011333571963
 31
0.0
  0
LINE
  5
7DCD
  8
1
 10
1385.5697984036069
 20
5350.698415566294
 30
0.0
 11
1385.569580980288
 21
5390.6984155657037
 31
0.0
  0
LINE
  5
7DCE
  8
1
 10
1610.575293301285
 20
4238.6995100542435
 30
0.0
 11
1610.56805348378
 21
4923.1996385566672
 31
0.0
  0
LINE
  5
7DCF
  8
1
 10
1660.575293298489
 20
4238.7000388939923
 30
0.0
 11
1660.5680534837029
 21
4923.1999103358148
 31
0.0
  0
LINE
  5
7DD0
  8
1
 10
2424.595967738976
 20
4218.7047722504922
 30
0.0
 11
2246.5959677489318
 21
4218.7028895809908
 31
0.0
  0
LINE
  5
7DD1
  8
1
 10
2424.5966340770578
 20
4155.7047722540174
 30
0.0
 11
2246.5966340870141
 21
4155.7028895845151
 31
0.0
  0
LINE
  5
7DD2
  8
1
 10
2490.5968456092642
 20
4135.7054703236035
 30
0.0
 11
1535.5763827153601
 21
4135.6987168003852
 31
0.0
  0
LINE
  5
7DD4
  8
1
 10
2490.5968456092642
 20
4135.7054703236035
 30
0.0
 11
2490.5955552402802
 21
4257.7054703167787
 31
0.0
  0
LINE
  5
7DD5
  8
1
 10
2490.5955552402802
 20
4257.7054703167787
 30
0.0
 11
2349.5751536781572
 21
4257.7039787728927
 31
0.0
  0
LINE
  5
7DD6
  8
1
 10
2424.5966340770578
 20
4155.7047722540174
 30
0.0
 11
2424.595967738976
 21
4218.704772250494
 31
0.0
  0
LINE
  5
7DD7
  8
1
 10
2370.5750626352269
 20
4240.7042008836861
 30
0.0
 11
2300.5750626391432
 21
4240.7034605080398
 31
0.0
  0
LINE
  5
7DD8
  8
1
 10
2370.5752953247161
 20
4218.7042008849166
 30
0.0
 11
2370.5750626352269
 21
4240.7042008836861
 31
0.0
  0
LINE
  5
7DD9
  8
1
 10
2300.5752953286319
 20
4218.7034605092704
 30
0.0
 11
2300.5750626391432
 21
4240.7034605080398
 31
0.0
  0
LINE
  5
7DDA
  8
1
 10
1680.5752932973701
 20
4238.7002504298898
 30
0.0
 11
1590.5752933024039
 21
4238.6992985183451
 31
0.0
  0
LINE
  5
7DDB
  8
1
 10
2246.5959677489318
 20
4218.7028895809908
 30
0.0
 11
1558.075504840124
 21
4218.6989547736266
 31
0.0
  0
LINE
  5
7DDC
  8
1
 10
2246.5966340870141
 20
4155.7028895845151
 30
0.0
 11
1558.0761711782061
 21
4155.6989547771518
 31
0.0
  0
LINE
  5
7DDD
  8
1
 10
1708.0761711698101
 20
4155.7005412963936
 30
0.0
 11
1708.0755048317269
 21
4218.7005412928711
 31
0.0
  0
LINE
  5
7DDE
  8
1
 10
2246.5966340870141
 20
4155.7028895845151
 30
0.0
 11
2246.5959677489318
 21
4218.7028895809908
 31
0.0
  0
LINE
  5
7DDF
  8
1
 10
1680.575504833269
 20
4218.7002504310094
 30
0.0
 11
1680.5752932973701
 21
4238.7002504298898
 31
0.0
  0
LINE
  5
7DE0
  8
1
 10
1563.0761711779271
 20
4155.6990076611264
 30
0.0
 11
1563.0755048398451
 21
4218.6990076576021
 31
0.0
  0
LINE
  5
7DE1
  8
1
 10
1535.5763827153601
 20
4135.6987168003834
 30
0.0
 11
1535.5750923463761
 21
4257.6987167935604
 31
0.0
  0
LINE
  5
7DE2
  8
1
 10
1568.9477073806411
 20
4257.6990697688661
 30
0.0
 11
1535.5750923463761
 21
4257.6987167935604
 31
0.0
  0
LINE
  5
7DE3
  8
1
 10
1590.575504838303
 20
4218.6992985194638
 30
0.0
 11
1590.5752933024039
 21
4238.6992985183451
 31
0.0
  0
LINE
  5
7DE4
  8
1
 10
1385.573793203477
 20
4328.69841556539
 30
0.0
 11
1610.574341376145
 21
4328.7007953500542
 31
0.0
  0
LINE
  5
7DE5
  8
1
 10
1385.5755601215669
 20
4290.6984155819528
 30
0.0
 11
1385.575137049769
 21
4330.6984155797172
 31
0.0
  0
LINE
  5
7DE6
  8
1
 10
1885.568510059823
 20
4828.203703934927
 30
0.0
 11
1660.5690582642701
 21
4828.2013241618597
 31
0.0
  0
LINE
  5
7DE7
  8
1
 10
1385.572638495715
 20
4828.198415581116
 30
0.0
 11
1385.572122115331
 21
4923.1984155726104
 31
0.0
  0
LINE
  5
7DE8
  8
1
 10
1610.5690582670661
 20
4828.2007953221137
 30
0.0
 11
1385.5685100943981
 21
4828.1984155374512
 31
0.0
  0
LINE
  5
7DE9
  8
1
 10
1660.574341373348
 20
4328.7013241898021
 30
0.0
 11
1885.5737931689009
 21
4328.7037039628713
 31
0.0
  0
LINE
  5
7DEA
  8
1
 10
1610.575092377587
 20
4257.6961625206905
 30
0.0
 11
1535.575092381783
 21
4257.6953692610596
 31
0.0
  0
LINE
  5
7DEB
  8
1
 10
1610.574743306589
 20
4290.6996385836837
 30
0.0
 11
1385.5755601215669
 21
4290.6984155819528
 31
0.0
  0
LINE
  5
7DEC
  8
1
 10
1385.573793203476
 20
4328.6984155653909
 30
0.0
 11
1385.5685100943981
 21
4828.1984155374512
 31
0.0
  0
LINE
  5
7DED
  8
1
 10
1885.5737931689009
 20
4328.7037039628713
 30
0.0
 11
1885.5685100598221
 21
4828.203703934927
 31
0.0
  0
DIMENSION
  5
7DEE
  8
3
  2
*D12
 10
1385.579651453739
 20
3903.8768698367949
 30
0.0
 11
1960.5789903642931
 21
3966.382951490396
 31
0.0
 70
     0
 13
2535.575560104578
 23
4290.7046665023818
 33
0.0
 14
1385.5755601215669
 24
4290.6984155819528
 34
0.0
 50
0.000606005711532
1001
ACAD
1000
DSTYLE
1002
{
1070
   287
1070
     3
1070
    40
1040
25.0
1070
   143
1040
0.039
1070
   172
1070
     1
1070
   271
1070
     0
1070
   279
1070
     0
1070
   288
1070
     1
1002
}
  0
DIMENSION
  5
7DEF
  8
3
  2
*D13
 10
1885.5672344229131
 20
5612.5594561014386
 30
0.0
 11
1635.5665733905171
 21
5675.0568118992051
 31
0.0
 70
     0
 13
1385.569580980288
 23
5390.6984155657037
 33
0.0
 14
1885.5695809729009
 24
5390.7011333571963
 34
0.0
 50
0.000606005711532
1001
ACAD
1000
DSTYLE
1002
{
1070
   287
1070
     3
1070
    40
1040
25.0
1070
   143
1040
0.039
1070
   172
1070
     1
1070
   271
1070
     0
1070
   279
1070
     0
1070
   288
1070
     1
1002
}
  0
LINE
  5
7DF0
  8
1
 10
2535.5755601045721
 20
4290.7046665023818
 30
0.0
 11
2535.5740999451032
 21
4890.7046665033076
 31
0.0
  0
DIMENSION
  5
7DF1
  8
3
  2
*D14
 10
2535.5672343779661
 20
5612.5663310181526
 30
0.0
 11
2210.5665733507549
 21
5675.0628935562972
 31
0.0
 70
     0
 13
1885.5695809729009
 23
5390.7011333571963
 33
0.0
 14
2535.5749582689241
 24
4882.2987033705595
 34
0.0
 50
0.000606005711532
1001
ACAD
1000
DSTYLE
1002
{
1070
   287
1070
     3
1070
    40
1040
25.0
1070
   143
1040
0.039
1070
   172
1070
     1
1070
   271
1070
     0
1070
   279
1070
     0
1070
   288
1070
     1
1002
}
  0
LINE
  5
7DF2
  8
1
 10
2535.576605973728
 20
1936.096622052539
 30
0.0
 11
1385.576605973728
 21
1936.096622052539
 31
0.0
  0
LINE
  5
7DF3
  8
1
 10
4217.5155503706692
 20
2591.0966220587511
 30
0.0
 11
4217.515550370671
 21
2971.0966220587502
 31
0.0
  0
LINE
  5
7DF4
  8
1
 10
3792.5155503706678
 20
2571.0966220587511
 30
0.0
 11
3792.515550370666
 21
2971.0966220587502
 31
0.0
  0
LINE
  5
7DF5
  8
1
 10
2193.5732677793112
 20
4300.7023287753518
 30
0.0
 11
2193.5693966723579
 21
4666.7023287548818
 31
0.0
  0
LINE
  5
7DF6
  8
1
 10
2477.573267763426
 20
4300.7053325851184
 30
0.0
 11
2477.5693966564731
 21
4666.7053325646457
 31
0.0
  0
LINE
  5
7DF7
  8
1
 10
2477.573267763426
 20
4300.7053325851184
 30
0.0
 11
2193.5732677793112
 21
4300.7023287753518
 31
0.0
  0
LINE
  5
7DF8
  8
1
 10
2477.569396656475
 20
4666.7053325646457
 30
0.0
 11
2193.5693966723602
 21
4666.7023287548809
 31
0.0
  0
LINE
  5
7DF9
  8
1
 10
2321.5749975029689
 20
4300.7036826234007
 30
0.0
 11
2321.575215423079
 21
4240.7036826223502
 31
0.0
  0
LINE
  5
7DFA
  8
1
 10
2349.5749975020781
 20
4300.7039787736594
 30
0.0
 11
2349.5752154221882
 21
4240.703978772608
 31
0.0
  0
LINE
  5
7DFB
  8
1
 10
2321.5750338236389
 20
4290.7035032847634
 30
0.0
 11
1660.574743306511
 21
4290.6999103628341
 31
0.0
  0
LINE
  5
7DFC
  8
1
 10
2321.5751536790472
 20
4257.7036826226304
 30
0.0
 11
1660.575092374791
 21
4257.6966913604438
 31
0.0
  0
LINE
  5
7DFD
  8
1
 10
3198.0155503706669
 20
2127.0979967524981
 30
0.0
 11
3159.5155503706669
 21
2127.097729377962
 31
0.0
  0
LINE
  5
7DFE
  8
1
 10
3198.0155503706669
 20
2099.0979967518219
 30
0.0
 11
3159.5155503706678
 21
2099.0977293772871
 31
0.0
  0
LINE
  5
7DFF
  8
1
 10
4224.8155503706703
 20
2858.096622058752
 30
0.0
 11
4224.8155503706703
 21
2571.0966220587511
 31
0.0
  0
LINE
  5
7E00
  8
1
 10
4221.8155503706703
 20
2571.0966220587511
 30
0.0
 11
4221.8155503706703
 21
2861.0966220587511
 31
0.0
  0
LINE
  5
7E01
  8
1
 10
4221.8155503706703
 20
2851.0966220587529
 30
0.0
 11
4221.8155503706703
 21
2876.0966220587529
 31
0.0
  0
ARC
  5
7E02
  8
1
 10
4259.8155503706703
 20
2852.096622058752
 30
0.0
 40
2.0
 50
359.9999999999992
 51
89.999999999999588
  0
LINE
  5
7E03
  8
1
 10
4221.8155503706703
 20
2876.0966220587502
 30
0.0
 11
4221.8155503706703
 21
2851.0966220587502
 31
0.0
  0
LINE
  5
7E04
  8
1
 10
4228.8155503706703
 20
2854.096622058752
 30
0.0
 11
4259.8155503706703
 21
2854.096622058752
 31
0.0
  0
LINE
  5
7E05
  8
1
 10
4221.8155503706703
 20
2876.0966220587529
 30
0.0
 11
4222.8155503706703
 21
2876.0966220587529
 31
0.0
  0
LINE
  5
7E06
  8
1
 10
4224.8155503706703
 20
2858.096622058752
 30
0.0
 11
4224.8155503706703
 21
2874.096622058752
 31
0.0
  0
ARC
  5
7E07
  8
1
 10
4222.8155503706703
 20
2874.096622058752
 30
0.0
 40
2.0
 50
0.0
 51
90.00000000000081
  0
ARC
  5
7E08
  8
1
 10
4228.8155503706703
 20
2858.096622058752
 30
0.0
 40
4.0
 50
180.0
 51
270.0
  0
LINE
  5
7E09
  8
1
 10
4221.8155503706703
 20
2851.0966220587529
 30
0.0
 11
4261.8155503706703
 21
2851.0966220587529
 31
0.0
  0
LINE
  5
7E0A
  8
1
 10
4261.8155503706703
 20
2851.0966220587529
 30
0.0
 11
4261.8155503706703
 21
2852.096622058752
 31
0.0
  0
LINE
  5
7E0B
  8
1
 10
1689.117374114287
 20
2656.8786128126499
 30
0.0
 11
2410.2157370517298
 21
2243.208355143493
 31
0.0
  0
LINE
  5
7E0C
  8
1
 10
1577.2342873370831
 20
2485.2864492612489
 30
0.0
 11
2246.6267489581992
 21
1992.3162032666769
 31
0.0
  0
LINE
  5
7E0D
  8
1
 10
1674.0664766187419
 20
2632.535859171257
 30
0.0
 11
2382.8250937832581
 21
2188.5194818114792
 31
0.0
  0
LINE
  5
7E0E
  8
1
 10
1594.6934240539031
 20
2511.2232937993799
 30
0.0
 11
2285.387829255385
 21
2039.5978498377281
 31
0.0
  0
DIMENSION
  5
7E0F
  8
3
  2
*D15
 10
867.7179678447028
 20
2571.0966220525388
 30
0.0
 11
805.21796784470234
 21
2771.0966220525388
 31
0.0
 70
     0
 13
1635.576605973728
 23
2971.0966220525388
 33
0.0
 14
1175.9584236986209
 24
2571.0966220525388
 34
0.0
 50
90.0
1001
ACAD
1000
DSTYLE
1002
{
1070
   287
1070
     3
1070
    40
1040
25.0
1070
   143
1040
0.039
1070
   172
1070
     1
1070
   271
1070
     0
1070
   279
1070
     0
1070
   288
1070
     1
1002
}
  0
DIMENSION
  5
7E10
  8
3
  2
*D16
 10
867.7179678447028
 20
1861.096622052539
 30
0.0
 11
805.21796784470246
 21
2216.0966220525388
 31
0.0
 70
     0
 13
1175.9584236986209
 23
2571.0966220525388
 33
0.0
 14
1385.576605973728
 24
1861.096622052539
 34
0.0
 50
90.0
1001
ACAD
1000
DSTYLE
1002
{
1070
   287
1070
     3
1070
    40
1040
25.0
1070
   143
1040
0.039
1070
   172
1070
     1
1070
   271
1070
     0
1070
   279
1070
     0
1070
   288
1070
     1
1002
}
  0
DIMENSION
  5
7E13
  8
3
  2
*D17
 10
1635.576605973728
 20
3160.0394575449659
 30
0.0
 11
1440.576605973728
 21
3222.5394575449659
 31
0.0
 70
     0
 13
1245.576605973728
 23
2576.0946169799358
 33
0.0
 14
1635.576605973728
 24
3090.4645198475018
 34
0.0
1001
ACAD
1000
DSTYLE
1002
{
1070
   287
1070
     3
1070
    40
1040
25.0
1070
   143
1040
0.039
1070
   172
1070
     1
1070
   271
1070
     0
1070
   279
1070
     0
1070
   288
1070
     1
1002
}
  0
DIMENSION
  5
7E14
  8
3
  2
*D18
 10
2119.576605973728
 20
3160.0394575449659
 30
0.0
 11
1877.576605973728
 21
3222.5394575449659
 31
0.0
 70
     0
 13
1635.576605973728
 23
3090.4645198475018
 33
0.0
 14
2119.576605973728
 24
2571.0966220525388
 34
0.0
1001
ACAD
1000
DSTYLE
1002
{
1070
   287
1070
     3
1070
    40
1040
25.0
1070
   143
1040
0.039
1070
   172
1070
     1
1070
   271
1070
     0
1070
   279
1070
     0
1070
   288
1070
     1
1002
}
  0
DIMENSION
  5
7E15
  8
3
  2
*D19
 10
1028.536701586846
 20
4290.6984155819528
 30
0.0
 11
966.03670158684622
 21
4840.6984155738292
 31
0.0
 70
     0
 13
1385.569580980288
 23
5390.6984155657037
 33
0.0
 14
1385.5755601215669
 24
4290.6984155819528
 34
0.0
 50
90.0
1001
ACAD
1000
DSTYLE
1002
{
1070
   287
1070
     3
1070
    40
1040
25.0
1070
   143
1040
0.039
1070
   172
1070
     1
1070
   271
1070
     0
1070
   279
1070
     0
1070
   288
1070
     1
1002
}
  0
DIMENSION
  5
7E16
  8
3
  2
*D20
 10
2803.404966246736
 20
4290.7046665023818
 30
0.0
 11
2740.904966246736
 21
4590.7046665028474
 31
0.0
 70
     0
 13
2535.5740999451032
 23
4890.7046665033076
 33
0.0
 14
2535.5755601045721
 24
4290.7046665023818
 34
0.0
 50
90.0
1001
ACAD
1000
DSTYLE
1002
{
1070
   287
1070
     3
1070
    40
1040
25.0
1070
   143
1040
0.039
1070
   172
1070
     1
1070
   271
1070
     0
1070
   279
1070
     0
1070
   288
1070
     1
1002
}
  0
LINE
  5
7E17
  8
1
 10
3792.515550370666
 20
2971.0966220587502
 30
0.0
 11
4217.5155503706701
 21
2971.0966220587502
 31
0.0
  0
LINE
  5
7E18
  8
1
 10
3792.515550370666
 20
1971.09662205875
 30
0.0
 11
4217.5155503706656
 21
1971.09662205875
 31
0.0
  0
LINE
  5
7E19
  8
1
 10
3792.515550370666
 20
2551.0966220587502
 30
0.0
 11
4217.5155503706656
 21
2551.0966220587502
 31
0.0
  0
LINE
  5
7E1A
  8
1
 10
4217.5155503706692
 20
2551.0966220587502
 30
0.0
 11
3792.515550370666
 21
1971.09662205875
 31
0.0
  0
LINE
  5
7E1B
  8
1
 10
3792.5155503706669
 20
2551.0966220587502
 30
0.0
 11
4217.5155503706656
 21
1971.09662205875
 31
0.0
  0
LINE
  5
7E1C
  8
1
 10
3585.5172003129619
 20
1971.102900953834
 30
0.0
 11
3585.5141965031971
 21
2255.102900937949
 31
0.0
  0
LINE
  5
7E1D
  8
1
 10
3219.5141965236689
 20
2255.099029830998
 30
0.0
 11
3585.5141965031971
 21
2255.1029009379508
 31
0.0
  0
LINE
  5
7E1E
  8
1
 10
3219.5172003334342
 20
1971.099029846883
 30
0.0
 11
3585.5172003129619
 21
1971.1029009538361
 31
0.0
  0
LINE
  5
7E1F
  8
1
 10
3219.5172003334342
 20
1971.099029846883
 30
0.0
 11
3219.5141965236689
 21
2255.099029830998
 31
0.0
  0
LINE
  5
7E20
  8
1
 10
3219.5158465219761
 20
2099.0973001082311
 30
0.0
 11
3159.5158465209252
 21
2099.097082188121
 31
0.0
  0
LINE
  5
7E21
  8
1
 10
3219.5155503717169
 20
2127.0973001073398
 30
0.0
 11
3159.5155503706669
 21
2127.0970821872302
 31
0.0
  0
LINE
  5
7E22
  8
1
 10
3198.0155503706669
 20
2127.0972220193012
 30
0.0
 11
3198.0155503706692
 21
2504.6966220587501
 31
0.0
  0
LINE
  5
7E23
  8
1
 10
3260.0136560242431
 20
1971.099458169592
 30
0.0
 11
3260.0136560242422
 21
1936.09662205875
 31
0.0
  0
LINE
  5
7E24
  8
1
 10
3519.7711463107498
 20
1971.102205571304
 30
0.0
 11
3519.7711463107489
 21
1936.09662205875
 31
0.0
  0
DIMENSION
  5
7E25
  8
3
  2
*D21
 10
2535.576605973728
 20
3326.6272554568968
 30
0.0
 11
1890.576605973728
 21
3389.1272554568968
 31
0.0
 70
     0
 13
1245.576605973728
 23
2576.0946169799358
 33
0.0
 14
2535.576605973728
 24
1936.096622052539
 34
0.0
1001
ACAD
1000
DSTYLE
1002
{
1070
   287
1070
     3
1070
    40
1040
25.0
1070
   143
1040
0.039
1070
   172
1070
     1
1070
   271
1070
     0
1070
   279
1070
     0
1070
   288
1070
     1
1002
}
  0
DIMENSION
  5
7E27
  8
3
  2
*D22
 10
683.7006652520995
 20
1748.096622052539
 30
0.0
 11
621.20066525209916
 21
2359.5966220525388
 31
0.0
 70
     0
 13
1635.576605973728
 23
2971.0966220525388
 33
0.0
 14
1385.576605973728
 24
1748.096622052539
 34
0.0
 50
90.0
1001
ACAD
1000
DSTYLE
1002
{
1070
   287
1070
     3
1070
    40
1040
25.0
1070
   143
1040
0.039
1070
   172
1070
     1
1070
   271
1070
     0
1070
   279
1070
     0
1070
   288
1070
     1
1002
}
  0
LINE
  5
8056
  8
4
 10
4625.0
 20
1250.0
 30
0.0
 11
4625.0
 21
750.0
 31
0.0
  0
LINE
  5
8057
  8
4
 10
2875.0
 20
1250.0
 30
0.0
 11
2875.0
 21
750.0
 31
0.0
  0
LINE
  5
8058
  8
4
 10
1625.0
 20
1250.0
 30
0.0
 11
1625.0
 21
750.0
 31
0.0
  0
LINE
  5
805B
  8
4
 10
1625.0
 20
750.0
 30
0.0
 11
4625.0
 21
750.0
 31
0.0
  0
LINE
  5
805C
  8
4
 10
1625.0
 20
1000.0
 30
0.0
 11
4625.0
 21
1000.0
 31
0.0
  0
TEXT
  5
805D
  8
4
 10
1721.2552021172539
 20
1078.857564666532
 30
0.0
 40
125.0
  1
機器名称
  0
TEXT
  5
805E
  8
4
 10
1715.6452650619931
 20
804.11289183002725
 30
0.0
 40
125.0
  1
機器型番
  0
TEXT
  5
805F
  8
4
 10
2882.4055143897599
 20
1055.6703547538921
 30
0.0
 40
112.5
  1
ミツヤ多翼送風機
  0
TEXT
  5
8060
  8
4
 10
2966.6362389637011
 20
792.89896069985843
 30
0.0
 40
125.0
  1
MF#3 1/2-1
  0
TEXT
  5
8062
  8
4
 10
2038.735556249288
 20
5958.5721033312893
 30
0.0
 40
135.0
  1
床置防振ベット
  0
TEXT
  5
8063
  8
4
 10
790.41898332361586
 20
6334.7024404982449
 30
0.0
 40
180.0
  1
遠心式片吸込片持多翼ファン
  0
LINE
  5
8064
  8
4
 10
625.0
 20
6173.5218856620122
 30
0.0
 11
4625.0
 21
6173.5218856620122
 31
0.0
  0
LINE
  5
8065
  8
4
 10
625.0
 20
6673.5218856620122
 30
0.0
 11
4625.0
 21
6673.5218856620122
 31
0.0
  0
LINE
  5
8066
  8
4
 10
1625.0
 20
1250.0
 30
0.0
 11
4625.0
 21
1250.0
 31
0.0
  0
LINE
  5
8067
  8
4
 10
625.0
 20
6673.5218856620122
 30
0.0
 11
625.0
 21
6173.5218856620122
 31
0.0
  0
TEXT
  5
8068
  8
4
 10
949.08847564253301
 20
5955.7986938658578
 30
0.0
 40
135.0
  1
右回転左横向
  0
TEXT
  5
8069
  8
4
 10
3672.4238981232238
 20
6765.1527037382721
 30
0.0
 40
140.0
  1
No.
  0
TEXT
  5
806A
  8
4
 10
3278.2401565000318
 20
5958.5721033312893
 30
0.0
 40
135.0
  1
縮尺：1/25
  0
LINE
  5
806B
  8
4
 10
4625.0
 20
6673.5218856620122
 30
0.0
 11
4625.0
 21
6173.5218856620122
 31
0.0
  0
LINE
  5
806C
  8
4
 10
5250.0
 20
7375.0
 30
0.0
 11
5250.0
 21
7375.0
 31
0.0
  0
LINE
  5
806D
  8
4
 10
3601.543555899661
 20
6703.1589578135026
 30
0.0
 11
3601.543555899661
 21
6966.6306538743811
 31
0.0
  0
LINE
  5
806E
  8
4
 10
3601.543555899661
 20
6966.6306538743811
 30
0.0
 11
4625.0
 21
6966.6306538743811
 31
0.0
  0
LINE
  5
806F
  8
4
 10
4625.0
 20
6966.6306538743811
 30
0.0
 11
4625.0
 21
6703.1589578135026
 31
0.0
  0
LINE
  5
8070
  8
4
 10
4625.0
 20
6703.1589578135026
 30
0.0
 11
3601.543555899661
 21
6703.1589578135026
 31
0.0
  0
LINE
  5
8071
  8
4
 10
0.0
 20
0.0
 30
0.0
 11
0.0
 21
7375.0
 31
0.0
  0
LINE
  5
8072
  8
4
 10
0.0
 20
7375.0
 30
0.0
 11
5250.0
 21
7375.0
 31
0.0
  0
LINE
  5
8073
  8
4
 10
5250.0
 20
7375.0
 30
0.0
 11
5250.0
 21
0.0
 31
0.0
  0
LINE
  5
8074
  8
4
 10
5250.0
 20
0.0
 30
0.0
 11
0.0
 21
0.0
 31
0.0
  0
LINE
  5
82E7
  8
1
 10
2160.5745494819989
 20
1936.0984214767291
 30
0.0
 11
2170.5747808364049
 21
1981.098370064014
 31
0.0
  0
LINE
  5
82E8
  8
1
 10
2170.5747808364049
 20
1981.098370064014
 30
0.0
 11
2500.5747808320439
 21
1981.096673464064
 31
0.0
  0
LINE
  5
82E9
  8
1
 10
2500.5747808320439
 20
1981.096673464064
 30
0.0
 11
2510.5745494773728
 21
1936.096622052539
 31
0.0
  0
LINE
  5
82EA
  8
1
 10
3697.5155503706669
 20
2454.696622058751
 30
0.0
 11
3747.5155503706669
 21
2454.696622058751
 31
0.0
  0
LINE
  5
82EB
  8
1
 10
3747.5155503706669
 20
2454.696622058751
 30
0.0
 11
3747.5155503706669
 21
2456.196622058751
 31
0.0
  0
ARC
  5
82EC
  8
1
 10
3743.0155503706669
 20
2456.196622058751
 30
0.0
 40
4.5
 50
0.0
 51
90.0
  0
LINE
  5
82ED
  8
1
 10
3743.0155503706669
 20
2460.696622058751
 30
0.0
 11
3710.0155503706669
 21
2460.696622058751
 31
0.0
  0
ARC
  5
82EE
  8
1
 10
3710.0155503706669
 20
2467.196622058751
 30
0.0
 40
6.5
 50
180.0
 51
270.0
  0
LINE
  5
82EF
  8
1
 10
3703.5155503706669
 20
2467.196622058751
 30
0.0
 11
3703.5155503706669
 21
2500.196622058751
 31
0.0
  0
ARC
  5
82F0
  8
1
 10
3699.0155503706669
 20
2500.196622058751
 30
0.0
 40
4.5
 50
0.0
 51
90.0
  0
LINE
  5
82F1
  8
1
 10
3699.0155503706669
 20
2504.696622058751
 30
0.0
 11
3697.5155503706669
 21
2504.696622058751
 31
0.0
  0
LINE
  5
82F2
  8
1
 10
3697.5155503706669
 20
2504.696622058751
 30
0.0
 11
3697.5155503706669
 21
2454.696622058751
 31
0.0
  0
DIMENSION
  5
830B
  8
3
  2
*D23
 10
867.7179678447028
 20
1823.096622052539
 30
0.0
 11
767.7179678447028
 21
1842.096622052539
 31
0.0
 70
     0
 13
1385.576605973728
 23
1861.096622052539
 33
0.0
 14
1385.576605973728
 24
1823.096622052539
 34
0.0
 50
90.0
1001
ACAD
1000
DSTYLE
1002
{
1070
   288
1070
     1
1070
   172
1070
     1
1070
    75
1070
     1
1070
    40
1040
25.0
1070
   271
1070
     0
1070
     7
1000
_DOT
1070
   143
1040
0.039
1002
}
  0
DIMENSION
  5
831B
  8
3
  2
*D24
 10
867.7179678447028
 20
1748.096622052539
 30
0.0
 11
805.21796784470246
 21
1562.382336338253
 31
0.0
 70
     0
 13
1385.576605973728
 23
1823.096622052539
 33
0.0
 14
1385.576605973728
 24
1748.096622052539
 34
0.0
 50
90.0
1001
ACAD
1000
DSTYLE
1002
{
1070
   287
1070
     3
1070
    40
1040
25.0
1070
   143
1040
0.039
1070
   172
1070
     1
1070
   271
1070
     0
1070
   279
1070
     0
1070
   288
1070
     1
1070
     6
1000
DOT
1002
}
  0
ENDSEC
  0
EOF
