  0
SECTION
  2
HEADER
  9
$ACADVER
  1
AC1009
  9
$INSBASE
 10
0.0
 20
0.0
 30
0.0
  9
$EXTMIN
 10
0.0
 20
0.0
 30
0.0
  9
$EXTMAX
 10
5250.0
 20
7375.0
 30
0.0
  9
$LIMMIN
 10
0.0
 20
0.0
  9
$LIMMAX
 10
297.0
 20
210.0
  9
$ORTHOMODE
 70
     0
  9
$REGENMODE
 70
     1
  9
$FILLMODE
 70
     0
  9
$QTEXTMODE
 70
     0
  9
$MIRRTEXT
 70
     1
  9
$DRAGMODE
 70
     2
  9
$LTSCALE
 40
100.0
  9
$OSMODE
 70
    37
  9
$ATTMODE
 70
     1
  9
$TEXTSIZE
 40
180.0
  9
$TRACEWID
 40
0.05
  9
$TEXTSTYLE
  7
STANDARD
  9
$CLAYER
  8
1
  9
$CELTYPE
  6
BYLAYER
  9
$CECOLOR
 62
   256
  9
$DIMSCALE
 40
25.0
  9
$DIMASZ
 40
2.0
  9
$DIMEXO
 40
0.5
  9
$DIMDLI
 40
10.0
  9
$DIMRND
 40
0.0
  9
$DIMDLE
 40
0.0
  9
$DIMEXE
 40
1.0
  9
$DIMTP
 40
1.0
  9
$DIMTM
 40
1.0
  9
$DIMTXT
 40
3.0
  9
$DIMCEN
 40
0.0
  9
$DIMTSZ
 40
0.0
  9
$DIMTOL
 70
     0
  9
$DIMLIM
 70
     0
  9
$DIMTIH
 70
     0
  9
$DIMTOH
 70
     0
  9
$DIMSE1
 70
     0
  9
$DIMSE2
 70
     0
  9
$DIMTAD
 70
     1
  9
$DIMZIN
 70
     8
  9
$DIMBLK
  1

  9
$DIMASO
 70
     1
  9
$DIMSHO
 70
     1
  9
$DIMPOST
  1

  9
$DIMAPOST
  1

  9
$DIMALT
 70
     0
  9
$DIMALTD
 70
     2
  9
$DIMALTF
 40
0.039
  9
$DIMLFAC
 40
1.0
  9
$DIMTOFL
 70
     1
  9
$DIMTVP
 40
0.0
  9
$DIMTIX
 70
     0
  9
$DIMSOXD
 70
     0
  9
$DIMSAH
 70
     1
  9
$DIMBLK1
  1
OPEN
  9
$DIMBLK2
  1
OPEN
  9
$DIMSTYLE
  2
IGA
  9
$DIMCLRD
 70
     0
  9
$DIMCLRE
 70
     0
  9
$DIMCLRT
 70
     0
  9
$DIMTFAC
 40
10.0
  9
$DIMGAP
 40
1.0
  9
$LUNITS
 70
     2
  9
$LUPREC
 70
     3
  9
$SKETCHINC
 40
0.1
  9
$FILLETRAD
 40
50.0
  9
$AUNITS
 70
     0
  9
$AUPREC
 70
     0
  9
$MENU
  1
acad
  9
$ELEVATION
 40
0.0
  9
$PELEVATION
 40
0.0
  9
$THICKNESS
 40
0.0
  9
$LIMCHECK
 70
     0
  9
$BLIPMODE
 70
     0
  9
$CHAMFERA
 40
0.5
  9
$CHAMFERB
 40
0.5
  9
$SKPOLY
 70
     0
  9
$TDCREATE
 40
2451604.5623556711
  9
$TDUPDATE
 40
2454953.7554237149
  9
$TDINDWG
 40
0.057840625
  9
$TDUSRTIMER
 40
0.057840625
  9
$USRTIMER
 70
     1
  9
$ANGBASE
 50
0.0
  9
$ANGDIR
 70
     0
  9
$PDMODE
 70
     0
  9
$PDSIZE
 40
0.0
  9
$PLINEWID
 40
0.0
  9
$COORDS
 70
     1
  9
$SPLFRAME
 70
     0
  9
$SPLINETYPE
 70
     6
  9
$SPLINESEGS
 70
     8
  9
$ATTDIA
 70
     0
  9
$ATTREQ
 70
     1
  9
$HANDLING
 70
 10241
  9
$HANDSEED
  5
8438
  9
$SURFTAB1
 70
     6
  9
$SURFTAB2
 70
     6
  9
$SURFTYPE
 70
     6
  9
$SURFU
 70
     6
  9
$SURFV
 70
     6
  9
$UCSNAME
  2

  9
$UCSORG
 10
0.0
 20
0.0
 30
0.0
  9
$UCSXDIR
 10
1.0
 20
0.0
 30
0.0
  9
$UCSYDIR
 10
0.0
 20
1.0
 30
0.0
  9
$PUCSNAME
  2

  9
$PUCSORG
 10
0.0
 20
0.0
 30
0.0
  9
$PUCSXDIR
 10
1.0
 20
0.0
 30
0.0
  9
$PUCSYDIR
 10
0.0
 20
1.0
 30
0.0
  9
$USERI1
 70
     0
  9
$USERI2
 70
     0
  9
$USERI3
 70
     0
  9
$USERI4
 70
     0
  9
$USERI5
 70
     0
  9
$USERR1
 40
0.0
  9
$USERR2
 40
0.0
  9
$USERR3
 40
0.0
  9
$USERR4
 40
0.0
  9
$USERR5
 40
0.0
  9
$WORLDVIEW
 70
     1
  9
$SHADEDGE
 70
     3
  9
$SHADEDIF
 70
    70
  9
$TILEMODE
 70
     1
  9
$MAXACTVP
 70
    16
  9
$PLIMCHECK
 70
     0
  9
$PEXTMIN
 10
1.0000000000000000E+020
 20
1.0000000000000000E+020
 30
1.0000000000000000E+020
  9
$PEXTMAX
 10
-1.0000000000000000E+020
 20
-1.0000000000000000E+020
 30
-1.0000000000000000E+020
  9
$PLIMMIN
 10
0.0
 20
0.0
  9
$PLIMMAX
 10
12.0
 20
9.0
  9
$UNITMODE
 70
     0
  9
$VISRETAIN
 70
     0
  9
$PLINEGEN
 70
     0
  9
$PSLTSCALE
 70
     1
  0
ENDSEC
  0
SECTION
  2
TABLES
  0
TABLE
  2
VPORT
 70
     2
  0
VPORT
  2
*ACTIVE
 70
     0
 10
0.0
 20
0.0
 11
1.0
 21
1.0
 12
8841.5248971284218
 22
3687.5000171712591
 13
0.0
 23
0.0
 14
10.0
 24
10.0
 15
10.0
 25
10.0
 16
0.0
 26
0.0
 36
1.0
 17
0.0
 27
0.0
 37
0.0
 40
7431.5372075423384
 41
3.1666666666666661
 42
50.0
 43
0.0
 44
0.0
 50
0.0
 51
0.0
 71
     0
 72
   100
 73
     1
 74
     0
 75
     0
 76
     0
 77
     0
 78
     0
  0
ENDTAB
  0
TABLE
  2
LTYPE
 70
     2
  0
LTYPE
  2
CONTINUOUS
 70
     0
  3
Solid line
 72
    65
 73
     0
 40
0.0
  0
LTYPE
  2
CENTER
 70
     0
  3
____ _ ____ _ ____ _ ____ _ ____ _ ____ _ ____ 
 72
    65
 73
     4
 40
2.0
 49
1.25
 49
-0.25
 49
0.25
 49
-0.25
  0
ENDTAB
  0
TABLE
  2
LAYER
 70
     6
  0
LAYER
  2
0
 70
     0
 62
     7
  6
CONTINUOUS
  0
LAYER
  2
3
 70
     0
 62
     2
  6
CONTINUOUS
  0
LAYER
  2
2
 70
     0
 62
     3
  6
CENTER
  0
LAYER
  2
1
 70
     0
 62
     4
  6
CONTINUOUS
  0
LAYER
  2
4
 70
     0
 62
     7
  6
CONTINUOUS
  0
LAYER
  2
DEFPOINTS
 70
     0
 62
     7
  6
CONTINUOUS
  0
ENDTAB
  0
TABLE
  2
STYLE
 70
     1
  0
STYLE
  2
STANDARD
 70
     0
 40
0.0
 41
1.0
 50
0.0
 71
     0
 42
180.0
  3
simplex.shx
  4
extfont.shx
  0
ENDTAB
  0
TABLE
  2
VIEW
 70
     0
  0
ENDTAB
  0
TABLE
  2
UCS
 70
     0
  0
ENDTAB
  0
TABLE
  2
APPID
 70
     1
  0
APPID
  2
ACAD
 70
     0
  0
ENDTAB
  0
TABLE
  2
DIMSTYLE
 70
     1
  0
DIMSTYLE
  2
IGA
 70
     0
  3

  4

  5

  6
OPEN
  7
OPEN
 40
2.0
 41
2.0
 42
0.5
 43
10.0
 44
1.0
 45
0.0
 46
0.0
 47
1.0
 48
1.0
140
3.0
141
0.0
142
0.0
143
0.03937
144
1.0
145
0.0
146
10.0
147
1.0
 71
     0
 72
     0
 73
     0
 74
     0
 75
     0
 76
     0
 77
     1
 78
     8
170
     0
171
     2
172
     0
173
     1
174
     0
175
     0
176
     0
177
     0
178
     0
  0
ENDTAB
  0
ENDSEC
  0
SECTION
  2
BLOCKS
  0
BLOCK
  8
0
  2
$MODEL_SPACE
 70
     0
 10
0.0
 20
0.0
 30
0.0
  3
$MODEL_SPACE
  1

  0
ENDBLK
  5
1B
  8
0
  0
BLOCK
 67
     1
  8
0
  2
$PAPER_SPACE
 70
     0
 10
0.0
 20
0.0
 30
0.0
  3
$PAPER_SPACE
  1

  0
ENDBLK
  5
18
 67
     1
  8
0
  0
BLOCK
  8
0
  2
_OPEN
 70
     0
 10
0.0
 20
0.0
 30
0.0
  3
_OPEN
  1

  0
LINE
  5
79FD
  8
0
  6
BYBLOCK
 62
     0
 10
-1.0
 20
0.1666666666666666
 30
0.0
 11
0.0
 21
0.0
 31
0.0
  0
LINE
  5
79FE
  8
0
  6
BYBLOCK
 62
     0
 10
0.0
 20
0.0
 30
0.0
 11
-1.0
 21
-0.1666666666666666
 31
0.0
  0
LINE
  5
79FF
  8
0
  6
BYBLOCK
 62
     0
 10
0.0
 20
0.0
 30
0.0
 11
-1.0
 21
0.0
 31
0.0
  0
ENDBLK
  5
7A01
  8
0
  0
BLOCK
  8
0
  2
*D1
 70
     1
 10
0.0
 20
0.0
 30
0.0
  3
*D1
  1

  0
LINE
  5
8357
  8
3
 62
     0
 10
3792.5155503706678
 20
3081.8548855434829
 30
0.0
 11
3792.5155503706678
 21
3204.7030872504938
 31
0.0
  0
LINE
  5
8358
  8
3
 62
     0
 10
4217.515550370671
 20
3081.8548855434829
 30
0.0
 11
4217.515550370671
 21
3204.7030872504938
 31
0.0
  0
LINE
  5
8359
  8
3
 62
     0
 10
3842.5155503706669
 20
3179.7030872504938
 30
0.0
 11
4167.515550370671
 21
3179.7030872504938
 31
0.0
  0
INSERT
  5
835A
  8
3
 62
     0
  2
_OPEN
 10
3792.5155503706678
 20
3179.7030872504938
 30
0.0
 41
50.0
 42
50.0
 43
50.0
 50
180.0
  0
INSERT
  5
835B
  8
3
 62
     0
  2
_OPEN
 10
4217.515550370671
 20
3179.7030872504938
 30
0.0
 41
50.0
 42
50.0
 43
50.0
  0
TEXT
  8
3
  40
75
  5
8424
  62
0
  72
0
  71
0
 10
3866.93
 20
3109.45
 30
0.000000
  1
425
  0
POINT
  5
835D
  8
DEFPOINTS
 62
     0
 10
3792.5155503706678
 20
3069.3548855434829
 30
0.0
  0
POINT
  5
835E
  8
DEFPOINTS
 62
     0
 10
4217.515550370671
 20
3069.3548855434829
 30
0.0
  0
POINT
  5
835F
  8
DEFPOINTS
 62
     0
 10
4217.515550370671
 20
3179.7030872504938
 30
0.0
  0
ENDBLK
  5
8135
  8
0
  0
BLOCK
  8
0
  2
*D2
 70
     1
 10
0.0
 20
0.0
 30
0.0
  3
*D2
  1

  0
LINE
  5
8374
  8
3
 62
     0
 10
4274.3155503706703
 20
2749.3548855434819
 30
0.0
 11
4438.6278381594702
 21
2749.3548855434819
 31
0.0
  0
LINE
  5
8375
  8
3
 62
     0
 10
4274.3155503706703
 20
2189.354885543481
 30
0.0
 11
4438.6278381594702
 21
2189.354885543481
 31
0.0
  0
LINE
  5
8376
  8
3
 62
     0
 10
4413.6278381594693
 20
2699.3548855434829
 30
0.0
 11
4413.6278381594693
 21
2239.354885543481
 31
0.0
  0
INSERT
  5
8377
  8
3
 62
     0
  2
_OPEN
 10
4413.6278381594693
 20
2749.3548855434819
 30
0.0
 41
50.0
 42
50.0
 43
50.0
 50
90.0
  0
INSERT
  5
8378
  8
3
 62
     0
  2
_OPEN
 10
4413.6278381594693
 20
2189.354885543481
 30
0.0
 41
50.0
 42
50.0
 43
50.0
 50
270.0
  0
TEXT
  8
3
  40
75
  5
8425
  62
0
  72
0
  71
0
 10
4201.13
 20
2336.60
 30
0.000000
  1
560
  0
POINT
  5
837A
  8
DEFPOINTS
 62
     0
 10
4261.8155503706703
 20
2749.3548855434819
 30
0.0
  0
POINT
  5
837B
  8
DEFPOINTS
 62
     0
 10
4261.8155503706703
 20
2189.354885543481
 30
0.0
  0
POINT
  5
837C
  8
DEFPOINTS
 62
     0
 10
4413.6278381594693
 20
2189.354885543481
 30
0.0
  0
ENDBLK
  5
812A
  8
0
  0
BLOCK
  8
0
  2
*D3
 70
     1
 10
0.0
 20
0.0
 30
0.0
  3
*D3
  1

  0
LINE
  5
837D
  8
3
 62
     0
 10
735.57660597372876
 20
1868.8502584387249
 30
0.0
 11
735.57660597372876
 21
1704.9344044640679
 31
0.0
  0
LINE
  5
837E
  8
3
 62
     0
 10
1635.576605973728
 20
1830.2697458546299
 30
0.0
 11
1635.576605973728
 21
1704.9344044640679
 31
0.0
  0
LINE
  5
837F
  8
3
 62
     0
 10
785.57660597372876
 20
1729.9344044640679
 30
0.0
 11
1585.5766059737291
 21
1729.9344044640679
 31
0.0
  0
INSERT
  5
8380
  8
3
 62
     0
  2
_OPEN
 10
735.57660597372876
 20
1729.9344044640679
 30
0.0
 41
50.0
 42
50.0
 43
50.0
 50
180.0
  0
INSERT
  5
8381
  8
3
 62
     0
  2
_OPEN
 10
1635.576605973728
 20
1729.9344044640679
 30
0.0
 41
50.0
 42
50.0
 43
50.0
  0
TEXT
  8
3
  40
75
  5
8426
  62
0
  72
0
  71
0
 10
1035.58
 20
1659.68
 30
0.000000
  1
900
  0
POINT
  5
8383
  8
DEFPOINTS
 62
     0
 10
735.57660597372876
 20
1881.3502584387249
 30
0.0
  0
POINT
  5
8384
  8
DEFPOINTS
 62
     0
 10
1635.576605973728
 20
1842.7697458546311
 30
0.0
  0
POINT
  5
8385
  8
DEFPOINTS
 62
     0
 10
1635.576605973728
 20
1729.9344044640679
 30
0.0
  0
ENDBLK
  5
8235
  8
0
  0
BLOCK
  8
0
  2
*D4
 70
     1
 10
0.0
 20
0.0
 30
0.0
  3
*D4
  1

  0
LINE
  5
824D
  8
0
  6
BYBLOCK
 62
     0
 10
1635.576605973728
 20
1830.2697458546299
 30
0.0
 11
1635.576605973728
 21
1704.9344044640679
 31
0.0
  0
LINE
  5
824E
  8
0
  6
BYBLOCK
 62
     0
 10
1885.576605973728
 20
1868.856170832493
 30
0.0
 11
1885.576605973728
 21
1704.9344044640679
 31
0.0
  0
LINE
  5
824F
  8
0
  6
BYBLOCK
 62
     0
 10
1685.576605973728
 20
1729.9344044640679
 30
0.0
 11
1835.576605973728
 21
1729.9344044640679
 31
0.0
  0
TEXT
  5
8250
  8
1
 62
     0
 10
1666.4813231098569
 20
1748.5786800813109
 30
0.0
 40
75.0
  1
250
  0
INSERT
  5
8251
  8
0
  6
BYBLOCK
 62
     0
  2
_OPEN
 10
1635.576605973728
 20
1729.9344044640679
 30
0.0
 41
50.0
 42
50.0
 43
50.0
 50
180.0
  0
INSERT
  5
8252
  8
0
  6
BYBLOCK
 62
     0
  2
_OPEN
 10
1885.576605973728
 20
1729.9344044640679
 30
0.0
 41
50.0
 42
50.0
 43
50.0
  0
POINT
  5
8253
  8
DEFPOINTS
  6
BYBLOCK
 62
     0
 10
1635.576605973728
 20
1842.7697458546311
 30
0.0
  0
POINT
  5
8254
  8
DEFPOINTS
  6
BYBLOCK
 62
     0
 10
1885.576605973728
 20
1881.356170832493
 30
0.0
  0
POINT
  5
8255
  8
DEFPOINTS
  6
BYBLOCK
 62
     0
 10
1885.576605973728
 20
1729.9344044640679
 30
0.0
  0
ENDBLK
  5
8256
  8
0
  0
BLOCK
  8
0
  2
*D5
 70
     1
 10
0.0
 20
0.0
 30
0.0
  3
*D5
  1

  0
LINE
  5
8386
  8
3
 62
     0
 10
735.57660597372876
 20
1868.8502584387249
 30
0.0
 11
735.57660597372876
 21
1544.5891267841059
 31
0.0
  0
LINE
  5
8387
  8
3
 62
     0
 10
1885.576605973728
 20
1868.856170832493
 30
0.0
 11
1885.576605973728
 21
1544.5891267841059
 31
0.0
  0
LINE
  5
8388
  8
3
 62
     0
 10
785.57660597372876
 20
1569.5891267841059
 30
0.0
 11
1835.576605973728
 21
1569.5891267841059
 31
0.0
  0
INSERT
  5
8389
  8
3
 62
     0
  2
_OPEN
 10
735.57660597372876
 20
1569.5891267841059
 30
0.0
 41
50.0
 42
50.0
 43
50.0
 50
180.0
  0
INSERT
  5
838A
  8
3
 62
     0
  2
_OPEN
 10
1885.576605973728
 20
1569.5891267841059
 30
0.0
 41
50.0
 42
50.0
 43
50.0
  0
TEXT
  8
3
  40
75
  5
8427
  62
0
  72
0
  71
0
 10
1160.58
 20
1499.34
 30
0.000000
  1
1150
  0
POINT
  5
838C
  8
DEFPOINTS
 62
     0
 10
735.57660597372876
 20
1881.3502584387249
 30
0.0
  0
POINT
  5
838D
  8
DEFPOINTS
 62
     0
 10
1885.576605973728
 20
1881.356170832493
 30
0.0
  0
POINT
  5
838E
  8
DEFPOINTS
 62
     0
 10
1885.576605973728
 20
1569.5891267841059
 30
0.0
  0
ENDBLK
  5
824B
  8
0
  0
BLOCK
  8
0
  2
*D6
 70
     1
 10
0.0
 20
0.0
 30
0.0
  3
*D6
  1

  0
LINE
  5
838F
  8
3
 62
     0
 10
3160.0155503706669
 20
1868.8755579607621
 30
0.0
 11
3160.0155503706669
 21
1708.246787424755
 31
0.0
  0
LINE
  5
8390
  8
3
 62
     0
 10
4005.0155503706669
 20
1822.2773815651749
 30
0.0
 11
4005.0155503706669
 21
1708.246787424755
 31
0.0
  0
LINE
  5
8391
  8
3
 62
     0
 10
3210.0155503706669
 20
1733.246787424755
 30
0.0
 11
3955.0155503706669
 21
1733.246787424755
 31
0.0
  0
INSERT
  5
8392
  8
3
 62
     0
  2
_OPEN
 10
3160.0155503706669
 20
1733.246787424755
 30
0.0
 41
50.0
 42
50.0
 43
50.0
 50
180.0
  0
INSERT
  5
8393
  8
3
 62
     0
  2
_OPEN
 10
4005.0155503706669
 20
1733.246787424755
 30
0.0
 41
50.0
 42
50.0
 43
50.0
  0
TEXT
  8
3
  40
75
  5
8428
  62
0
  72
0
  71
0
 10
3432.52
 20
1663.00
 30
0.000000
  1
845
  0
POINT
  5
8395
  8
DEFPOINTS
 62
     0
 10
3160.0155503706669
 20
1881.3755579607621
 30
0.0
  0
POINT
  5
8396
  8
DEFPOINTS
 62
     0
 10
4005.0155503706669
 20
1834.7773815651749
 30
0.0
  0
POINT
  5
8397
  8
DEFPOINTS
 62
     0
 10
4005.0155503706669
 20
1733.246787424755
 30
0.0
  0
ENDBLK
  5
81F3
  8
0
  0
BLOCK
  8
0
  2
*D7
 70
     1
 10
0.0
 20
0.0
 30
0.0
  3
*D7
  1

  0
LINE
  5
820B
  8
0
  6
BYBLOCK
 62
     0
 10
4005.0155503706669
 20
1822.2773815651749
 30
0.0
 11
4005.0155503706669
 21
1708.0160438565181
 31
0.0
  0
LINE
  5
820C
  8
0
  6
BYBLOCK
 62
     0
 10
4260.0155503706701
 20
1868.8755579607621
 30
0.0
 11
4260.0155503706701
 21
1708.0160438565181
 31
0.0
  0
LINE
  5
820D
  8
0
  6
BYBLOCK
 62
     0
 10
4055.0155503706678
 20
1733.0160438565181
 30
0.0
 11
4210.0155503706692
 21
1733.0160438565181
 31
0.0
  0
TEXT
  5
820E
  8
1
 62
     0
 10
4037.5562613233342
 20
1750.8956239159561
 30
0.0
 40
75.0
  1
255
  0
INSERT
  5
820F
  8
0
  6
BYBLOCK
 62
     0
  2
_OPEN
 10
4005.0155503706669
 20
1733.0160438565181
 30
0.0
 41
50.0
 42
50.0
 43
50.0
 50
180.0
  0
INSERT
  5
8210
  8
0
  6
BYBLOCK
 62
     0
  2
_OPEN
 10
4260.0155503706701
 20
1733.0160438565181
 30
0.0
 41
50.0
 42
50.0
 43
50.0
  0
POINT
  5
8211
  8
DEFPOINTS
  6
BYBLOCK
 62
     0
 10
4005.0155503706669
 20
1834.7773815651749
 30
0.0
  0
POINT
  5
8212
  8
DEFPOINTS
  6
BYBLOCK
 62
     0
 10
4260.0155503706701
 20
1881.3755579607621
 30
0.0
  0
POINT
  5
8213
  8
DEFPOINTS
  6
BYBLOCK
 62
     0
 10
4260.0155503706701
 20
1733.0160438565181
 30
0.0
  0
ENDBLK
  5
8214
  8
0
  0
BLOCK
  8
0
  2
*D8
 70
     1
 10
0.0
 20
0.0
 30
0.0
  3
*D8
  1

  0
LINE
  5
8398
  8
3
 62
     0
 10
3160.0155503706669
 20
1868.8755579607621
 30
0.0
 11
3160.0155503706669
 21
1540.6147372107221
 31
0.0
  0
LINE
  5
8399
  8
3
 62
     0
 10
4260.0155503706701
 20
1868.8755579607621
 30
0.0
 11
4260.0155503706701
 21
1540.6147372107221
 31
0.0
  0
LINE
  5
839A
  8
3
 62
     0
 10
3210.0155503706669
 20
1565.6147372107221
 30
0.0
 11
4210.0155503706692
 21
1565.6147372107221
 31
0.0
  0
INSERT
  5
839B
  8
3
 62
     0
  2
_OPEN
 10
3160.0155503706669
 20
1565.6147372107221
 30
0.0
 41
50.0
 42
50.0
 43
50.0
 50
180.0
  0
INSERT
  5
839C
  8
3
 62
     0
  2
_OPEN
 10
4260.0155503706701
 20
1565.6147372107221
 30
0.0
 41
50.0
 42
50.0
 43
50.0
  0
TEXT
  8
3
  40
75
  5
8429
  62
0
  72
0
  71
0
 10
3560.02
 20
1495.36
 30
0.000000
  1
1100
  0
POINT
  5
839E
  8
DEFPOINTS
 62
     0
 10
3160.0155503706669
 20
1881.3755579607621
 30
0.0
  0
POINT
  5
839F
  8
DEFPOINTS
 62
     0
 10
4260.0155503706701
 20
1881.3755579607621
 30
0.0
  0
POINT
  5
83A0
  8
DEFPOINTS
 62
     0
 10
4260.0155503706701
 20
1565.6147372107221
 30
0.0
  0
ENDBLK
  5
821F
  8
0
  0
BLOCK
  8
0
  2
*D9
 70
     1
 10
0.0
 20
0.0
 30
0.0
  3
*D9
  1

  0
LINE
  5
83A1
  8
3
 62
     0
 10
2035.073521251662
 20
3069.354885537271
 30
0.0
 11
2362.435789349498
 21
3069.354885537271
 31
0.0
  0
LINE
  5
83A2
  8
3
 62
     0
 10
2107.5928907363159
 20
2469.354885537271
 30
0.0
 11
2362.435789349498
 21
2469.354885537271
 31
0.0
  0
LINE
  5
83A3
  8
3
 62
     0
 10
2337.435789349498
 20
3019.354885537271
 30
0.0
 11
2337.435789349498
 21
2519.354885537271
 31
0.0
  0
INSERT
  5
83A4
  8
3
 62
     0
  2
_OPEN
 10
2337.435789349498
 20
3069.354885537271
 30
0.0
 41
50.0
 42
50.0
 43
50.0
 50
90.0
  0
INSERT
  5
83A5
  8
3
 62
     0
  2
_OPEN
 10
2337.435789349498
 20
2469.354885537271
 30
0.0
 41
50.0
 42
50.0
 43
50.0
 50
270.0
  0
TEXT
  8
3
  40
75
  5
842A
  62
0
  72
0
  71
0
 10
2124.94
 20
2636.60
 30
0.000000
  1
600
  0
POINT
  5
83A7
  8
DEFPOINTS
 62
     0
 10
2022.573521251662
 20
3069.354885537271
 30
0.0
  0
POINT
  5
83A8
  8
DEFPOINTS
 62
     0
 10
2095.092890736315
 20
2469.354885537271
 30
0.0
  0
POINT
  5
83A9
  8
DEFPOINTS
 62
     0
 10
2337.435789349498
 20
2469.354885537271
 30
0.0
  0
ENDBLK
  5
81AB
  8
0
  0
BLOCK
  8
0
  2
*D10
 70
     1
 10
0.0
 20
0.0
 30
0.0
  3
*D10
  1

  0
LINE
  5
83AA
  8
3
 62
     0
 10
2035.073521251662
 20
3069.354885537271
 30
0.0
 11
2191.9923535968842
 21
3069.354885537271
 31
0.0
  0
LINE
  5
83AB
  8
3
 62
     0
 10
2013.0765031543151
 20
2489.354885537271
 30
0.0
 11
2191.9923535968842
 21
2489.354885537271
 31
0.0
  0
LINE
  5
83AC
  8
3
 62
     0
 10
2166.9923535968842
 20
3019.354885537271
 30
0.0
 11
2166.9923535968842
 21
2539.354885537271
 31
0.0
  0
INSERT
  5
83AD
  8
3
 62
     0
  2
_OPEN
 10
2166.9923535968842
 20
3069.354885537271
 30
0.0
 41
50.0
 42
50.0
 43
50.0
 50
90.0
  0
INSERT
  5
83AE
  8
3
 62
     0
  2
_OPEN
 10
2166.9923535968842
 20
2489.354885537271
 30
0.0
 41
50.0
 42
50.0
 43
50.0
 50
270.0
  0
TEXT
  8
3
  40
75
  5
842B
  62
0
  72
0
  71
0
 10
1954.49
 20
2646.60
 30
0.000000
  1
580
  0
POINT
  5
83B0
  8
DEFPOINTS
 62
     0
 10
2022.573521251662
 20
3069.354885537271
 30
0.0
  0
POINT
  5
83B1
  8
DEFPOINTS
 62
     0
 10
2000.5765031543151
 20
2489.354885537271
 30
0.0
  0
POINT
  5
83B2
  8
DEFPOINTS
 62
     0
 10
2166.9923535968842
 20
2489.354885537271
 30
0.0
  0
ENDBLK
  5
80DB
  8
0
  0
BLOCK
  8
0
  2
*D11
 70
     1
 10
0.0
 20
0.0
 30
0.0
  3
*D11
  1

  0
LINE
  5
83B3
  8
3
 62
     0
 10
2107.5928907363159
 20
2469.354885537271
 30
0.0
 11
2362.435789349498
 21
2469.354885537271
 31
0.0
  0
LINE
  5
83B4
  8
3
 62
     0
 10
1898.076605973728
 20
1994.354885537271
 30
0.0
 11
2362.435789349498
 21
1994.354885537271
 31
0.0
  0
LINE
  5
83B5
  8
3
 62
     0
 10
2337.435789349498
 20
2419.354885537271
 30
0.0
 11
2337.435789349498
 21
2044.354885537271
 31
0.0
  0
INSERT
  5
83B6
  8
3
 62
     0
  2
_OPEN
 10
2337.435789349498
 20
2469.354885537271
 30
0.0
 41
50.0
 42
50.0
 43
50.0
 50
90.0
  0
INSERT
  5
83B7
  8
3
 62
     0
  2
_OPEN
 10
2337.435789349498
 20
1994.354885537271
 30
0.0
 41
50.0
 42
50.0
 43
50.0
 50
270.0
  0
TEXT
  8
3
  40
75
  5
842C
  62
0
  72
0
  71
0
 10
2124.94
 20
2099.10
 30
0.000000
  1
475
  0
POINT
  5
83B9
  8
DEFPOINTS
 62
     0
 10
2095.092890736315
 20
2469.354885537271
 30
0.0
  0
POINT
  5
83BA
  8
DEFPOINTS
 62
     0
 10
1885.576605973728
 20
1994.354885537271
 30
0.0
  0
POINT
  5
83BB
  8
DEFPOINTS
 62
     0
 10
2337.435789349498
 20
1994.354885537271
 30
0.0
  0
ENDBLK
  5
81A0
  8
0
  0
BLOCK
  8
0
  2
*D12
 70
     1
 10
0.0
 20
0.0
 30
0.0
  3
*D12
  1

  0
LINE
  5
8323
  8
0
  6
BYBLOCK
 62
     0
 10
1898.076605973728
 20
1994.354885537271
 30
0.0
 11
2362.435789349498
 21
1994.354885537271
 31
0.0
  0
LINE
  5
8324
  8
0
  6
BYBLOCK
 62
     0
 10
1898.076605973728
 20
1956.354885537271
 30
0.0
 11
2362.435789349498
 21
1956.354885537271
 31
0.0
  0
LINE
  5
8325
  8
0
  6
BYBLOCK
 62
     0
 10
2337.435789349498
 20
2044.354885537271
 30
0.0
 11
2337.435789349498
 21
2094.354885537271
 31
0.0
  0
LINE
  5
8326
  8
0
  6
BYBLOCK
 62
     0
 10
2337.435789349498
 20
1906.354885537271
 30
0.0
 11
2337.435789349498
 21
1856.354885537271
 31
0.0
  0
TEXT
  5
8327
  8
1
 62
     0
 10
2482.0786464923549
 20
1913.4302605708799
 30
0.0
 40
75.0
  1
(38)
 50
90.0
  0
LINE
  5
8328
  8
0
  6
BYBLOCK
 62
     0
 10
2337.435789349498
 20
1994.354885537271
 30
0.0
 11
2337.435789349498
 21
1956.354885537271
 31
0.0
  0
INSERT
  5
8329
  8
0
  6
BYBLOCK
 62
     0
  2
_OPEN
 10
2337.435789349498
 20
1994.354885537271
 30
0.0
 41
50.0
 42
50.0
 43
50.0
 50
270.0
  0
INSERT
  5
832A
  8
0
  6
BYBLOCK
 62
     0
  2
_DOT
 10
2337.435789349498
 20
1956.354885537271
 30
0.0
 41
50.0
 42
50.0
 43
50.0
 50
90.0
  0
POINT
  5
832B
  8
DEFPOINTS
  6
BYBLOCK
 62
     0
 10
1885.576605973728
 20
1994.354885537271
 30
0.0
  0
POINT
  5
832C
  8
DEFPOINTS
  6
BYBLOCK
 62
     0
 10
1885.576605973728
 20
1956.354885537271
 30
0.0
  0
POINT
  5
832D
  8
DEFPOINTS
  6
BYBLOCK
 62
     0
 10
2337.435789349498
 20
1956.354885537271
 30
0.0
  0
ENDBLK
  5
832E
  8
0
  0
BLOCK
  8
0
  2
*D13
 70
     1
 10
0.0
 20
0.0
 30
0.0
  3
*D13
  1

  0
LINE
  5
83BC
  8
3
 62
     0
 10
1898.076605973728
 20
1956.354885537271
 30
0.0
 11
2362.435789349498
 21
1956.354885537271
 31
0.0
  0
LINE
  5
83BD
  8
3
 62
     0
 10
1898.076605973728
 20
1881.354885537271
 30
0.0
 11
2362.435789349498
 21
1881.354885537271
 31
0.0
  0
LINE
  5
83BE
  8
3
 62
     0
 10
2337.435789349498
 20
2006.354885537271
 30
0.0
 11
2337.435789349498
 21
2056.354885537271
 31
0.0
  0
LINE
  5
83BF
  8
3
 62
     0
 10
2337.435789349498
 20
1831.354885537271
 30
0.0
 11
2337.435789349498
 21
1609.9263141086999
 31
0.0
  0
LINE
  5
83C0
  8
3
 62
     0
 10
2337.435789349498
 20
1956.354885537271
 30
0.0
 11
2337.435789349498
 21
1881.354885537271
 31
0.0
  0
INSERT
  5
83C1
  8
3
 62
     0
  2
_DOT
 10
2337.435789349498
 20
1956.354885537271
 30
0.0
 41
50.0
 42
50.0
 43
50.0
 50
270.0
  0
INSERT
  5
83C2
  8
3
 62
     0
  2
_OPEN
 10
2337.435789349498
 20
1881.354885537271
 30
0.0
 41
50.0
 42
50.0
 43
50.0
 50
90.0
  0
TEXT
  8
3
  40
75
  5
842D
  62
0
  72
0
  71
0
 10
2124.94
 20
1562.89
 30
0.000000
  1
75
  0
POINT
  5
83C4
  8
DEFPOINTS
 62
     0
 10
1885.576605973728
 20
1956.354885537271
 30
0.0
  0
POINT
  5
83C5
  8
DEFPOINTS
 62
     0
 10
1885.576605973728
 20
1881.354885537271
 30
0.0
  0
POINT
  5
83C6
  8
DEFPOINTS
 62
     0
 10
2337.435789349498
 20
1881.354885537271
 30
0.0
  0
ENDBLK
  5
82E2
  8
0
  0
BLOCK
  8
0
  2
*D14
 70
     1
 10
0.0
 20
0.0
 30
0.0
  3
*D14
  1

  0
LINE
  5
83C7
  8
3
 62
     0
 10
2035.073521251662
 20
3069.354885537271
 30
0.0
 11
2569.169735003421
 21
3069.354885537271
 31
0.0
  0
LINE
  5
83C8
  8
3
 62
     0
 10
1898.076605973728
 20
1881.354885537271
 30
0.0
 11
2569.169735003421
 21
1881.354885537271
 31
0.0
  0
LINE
  5
83C9
  8
3
 62
     0
 10
2544.169735003421
 20
3019.354885537271
 30
0.0
 11
2544.169735003421
 21
1931.354885537271
 31
0.0
  0
INSERT
  5
83CA
  8
3
 62
     0
  2
_OPEN
 10
2544.169735003421
 20
3069.354885537271
 30
0.0
 41
50.0
 42
50.0
 43
50.0
 50
90.0
  0
INSERT
  5
83CB
  8
3
 62
     0
  2
_OPEN
 10
2544.169735003421
 20
1881.354885537271
 30
0.0
 41
50.0
 42
50.0
 43
50.0
 50
270.0
  0
TEXT
  8
3
  40
75
  5
842E
  62
0
  72
0
  71
0
 10
2331.67
 20
2342.60
 30
0.000000
  1
1188
  0
POINT
  5
83CD
  8
DEFPOINTS
 62
     0
 10
2022.573521251662
 20
3069.354885537271
 30
0.0
  0
POINT
  5
83CE
  8
DEFPOINTS
 62
     0
 10
1885.576605973728
 20
1881.354885537271
 30
0.0
  0
POINT
  5
83CF
  8
DEFPOINTS
 62
     0
 10
2544.169735003421
 20
1881.354885537271
 30
0.0
  0
ENDBLK
  5
817B
  8
0
  0
BLOCK
  8
0
  2
*D15
 70
     1
 10
0.0
 20
0.0
 30
0.0
  3
*D15
  1

  0
LINE
  5
83D0
  8
3
 62
     0
 10
2025.5766059737291
 20
3106.8568906181999
 30
0.0
 11
2025.5766059737291
 21
3251.3270301135872
 31
0.0
  0
LINE
  5
83D1
  8
3
 62
     0
 10
1635.576605973728
 20
3119.612679494116
 30
0.0
 11
1635.576605973728
 21
3251.3270301135872
 31
0.0
  0
LINE
  5
83D2
  8
3
 62
     0
 10
1975.5766059737291
 20
3226.3270301135872
 30
0.0
 11
1685.576605973728
 21
3226.3270301135872
 31
0.0
  0
INSERT
  5
83D3
  8
3
 62
     0
  2
_OPEN
 10
2025.5766059737291
 20
3226.3270301135872
 30
0.0
 41
50.0
 42
50.0
 43
50.0
  0
INSERT
  5
83D4
  8
3
 62
     0
  2
_OPEN
 10
1635.576605973728
 20
3226.3270301135872
 30
0.0
 41
50.0
 42
50.0
 43
50.0
 50
180.0
  0
TEXT
  8
3
  40
75
  5
842F
  62
0
  72
0
  71
0
 10
1680.58
 20
3156.08
 30
0.000000
  1
390
  0
POINT
  5
83D6
  8
DEFPOINTS
 62
     0
 10
2025.5766059737291
 20
3094.3568906181999
 30
0.0
  0
POINT
  5
83D7
  8
DEFPOINTS
 62
     0
 10
1635.576605973728
 20
3107.112679494116
 30
0.0
  0
POINT
  5
83D8
  8
DEFPOINTS
 62
     0
 10
1635.576605973728
 20
3226.3270301135872
 30
0.0
  0
ENDBLK
  5
80E6
  8
0
  0
BLOCK
  8
0
  2
*D16
 70
     1
 10
0.0
 20
0.0
 30
0.0
  3
*D16
  1

  0
LINE
  5
83D9
  8
3
 62
     0
 10
1635.576605973728
 20
3119.612679494116
 30
0.0
 11
1635.576605973728
 21
3251.3270301135872
 31
0.0
  0
LINE
  5
83DA
  8
3
 62
     0
 10
1151.576605973728
 20
2524.3317143575669
 30
0.0
 11
1151.576605973728
 21
3251.3270301135872
 31
0.0
  0
LINE
  5
83DB
  8
3
 62
     0
 10
1585.5766059737291
 20
3226.3270301135872
 30
0.0
 11
1201.576605973728
 21
3226.3270301135872
 31
0.0
  0
INSERT
  5
83DC
  8
3
 62
     0
  2
_OPEN
 10
1635.576605973728
 20
3226.3270301135872
 30
0.0
 41
50.0
 42
50.0
 43
50.0
  0
INSERT
  5
83DD
  8
3
 62
     0
  2
_OPEN
 10
1151.576605973728
 20
3226.3270301135872
 30
0.0
 41
50.0
 42
50.0
 43
50.0
 50
180.0
  0
TEXT
  8
3
  40
75
  5
8430
  62
0
  72
0
  71
0
 10
1243.58
 20
3156.08
 30
0.000000
  1
484
  0
POINT
  5
83DF
  8
DEFPOINTS
 62
     0
 10
1635.576605973728
 20
3107.112679494116
 30
0.0
  0
POINT
  5
83E0
  8
DEFPOINTS
 62
     0
 10
1151.576605973728
 20
2511.8317143575669
 30
0.0
  0
POINT
  5
83E1
  8
DEFPOINTS
 62
     0
 10
1151.576605973728
 20
3226.3270301135872
 30
0.0
  0
ENDBLK
  5
80D0
  8
0
  0
BLOCK
  8
0
  2
*D17
 70
     1
 10
0.0
 20
0.0
 30
0.0
  3
*D17
  1

  0
LINE
  5
83E2
  8
3
 62
     0
 10
2025.5766059737291
 20
3106.8568906181999
 30
0.0
 11
2025.5766059737291
 21
3391.4264058579151
 31
0.0
  0
LINE
  5
83E3
  8
3
 62
     0
 10
735.57660597372876
 20
2081.850258441209
 30
0.0
 11
735.57660597372887
 21
3391.4264058579151
 31
0.0
  0
LINE
  5
83E4
  8
3
 62
     0
 10
1975.5766059737291
 20
3366.4264058579151
 30
0.0
 11
785.57660597372887
 21
3366.4264058579151
 31
0.0
  0
INSERT
  5
83E5
  8
3
 62
     0
  2
_OPEN
 10
2025.5766059737291
 20
3366.4264058579151
 30
0.0
 41
50.0
 42
50.0
 43
50.0
  0
INSERT
  5
83E6
  8
3
 62
     0
  2
_OPEN
 10
735.57660597372887
 20
3366.4264058579151
 30
0.0
 41
50.0
 42
50.0
 43
50.0
 50
180.0
  0
TEXT
  8
3
  40
75
  5
8431
  62
0
  72
0
  71
0
 10
1230.58
 20
3296.18
 30
0.000000
  1
1290
  0
POINT
  5
83E8
  8
DEFPOINTS
 62
     0
 10
2025.5766059737291
 20
3094.3568906181999
 30
0.0
  0
POINT
  5
83E9
  8
DEFPOINTS
 62
     0
 10
735.57660597372876
 20
2069.350258441209
 30
0.0
  0
POINT
  5
83EA
  8
DEFPOINTS
 62
     0
 10
735.57660597372887
 20
3366.4264058579151
 30
0.0
  0
ENDBLK
  5
8081
  8
0
  0
BLOCK
  8
0
  2
*D18
 70
     1
 10
0.0
 20
0.0
 30
0.0
  3
*D18
  1

  0
LINE
  5
83EB
  8
3
 62
     0
 10
4005.0155503706692
 20
3301.3425207722189
 30
0.0
 11
4005.0155503706692
 21
3401.6466928673608
 31
0.0
  0
LINE
  5
83EC
  8
3
 62
     0
 10
3054.5155503706692
 20
2581.8548855434829
 30
0.0
 11
3054.5155503706692
 21
3401.6466928673608
 31
0.0
  0
LINE
  5
83ED
  8
3
 62
     0
 10
3955.0155503706692
 20
3376.6466928673599
 30
0.0
 11
3104.5155503706692
 21
3376.6466928673599
 31
0.0
  0
INSERT
  5
83EE
  8
3
 62
     0
  2
_OPEN
 10
4005.0155503706692
 20
3376.6466928673599
 30
0.0
 41
50.0
 42
50.0
 43
50.0
  0
INSERT
  5
83EF
  8
3
 62
     0
  2
_OPEN
 10
3054.5155503706692
 20
3376.6466928673599
 30
0.0
 41
50.0
 42
50.0
 43
50.0
 50
180.0
  0
TEXT
  8
3
  40
75
  5
8432
  62
0
  72
0
  71
0
 10
3379.77
 20
3306.40
 30
0.000000
  1
1000
  0
POINT
  5
83F1
  8
DEFPOINTS
 62
     0
 10
4005.0155503706692
 20
3288.8425207722189
 30
0.0
  0
POINT
  5
83F2
  8
DEFPOINTS
 62
     0
 10
3054.5155503706692
 20
2569.3548855434829
 30
0.0
  0
POINT
  5
83F3
  8
DEFPOINTS
 62
     0
 10
3054.5155503706692
 20
3376.6466928673599
 30
0.0
  0
ENDBLK
  5
826C
  8
0
  0
BLOCK
  8
0
  2
*D19
 70
     1
 10
0.0
 20
0.0
 30
0.0
  3
*D19
  1

  0
LINE
  5
83F4
  8
3
 62
     0
 10
1898.069910561969
 20
5288.9593232509169
 30
0.0
 11
2323.1147760627791
 21
5288.9593232509169
 31
0.0
  0
LINE
  5
83F5
  8
3
 62
     0
 10
1898.075565895138
 20
4188.9593232654552
 30
0.0
 11
2323.1147760627791
 21
4188.9593232654543
 31
0.0
  0
LINE
  5
83F6
  8
3
 62
     0
 10
2298.1147760627791
 20
5238.9593232509169
 30
0.0
 11
2298.1147760627791
 21
4238.9593232654533
 31
0.0
  0
INSERT
  5
83F7
  8
3
 62
     0
  2
_OPEN
 10
2298.1147760627791
 20
5288.9593232509169
 30
0.0
 41
50.0
 42
50.0
 43
50.0
 50
90.0
  0
INSERT
  5
83F8
  8
3
 62
     0
  2
_OPEN
 10
2298.1147760627791
 20
4188.9593232654543
 30
0.0
 41
50.0
 42
50.0
 43
50.0
 50
270.0
  0
TEXT
  8
3
  40
75
  5
8433
  62
0
  72
0
  71
0
 10
2085.61
 20
4606.21
 30
0.000000
  1
1100
  0
POINT
  5
83FA
  8
DEFPOINTS
 62
     0
 10
1885.569910561969
 20
5288.9593232509169
 30
0.0
  0
POINT
  5
83FB
  8
DEFPOINTS
 62
     0
 10
1885.575565895138
 20
4188.9593232654552
 30
0.0
  0
POINT
  5
83FC
  8
DEFPOINTS
 62
     0
 10
2298.1147760627791
 20
4188.9593232654543
 30
0.0
  0
ENDBLK
  5
803B
  8
0
  0
BLOCK
  8
0
  2
*D20
 70
     1
 10
0.0
 20
0.0
 30
0.0
  3
*D20
  1

  0
LINE
  5
83FD
  8
3
 62
     0
 10
735.5755659103379
 20
4176.4534108716871
 30
0.0
 11
735.5755659103379
 21
3842.8125581913141
 31
0.0
  0
LINE
  5
83FE
  8
3
 62
     0
 10
1885.575565895138
 20
4176.4593232654552
 30
0.0
 11
1885.575565895138
 21
3842.8125581913141
 31
0.0
  0
LINE
  5
83FF
  8
3
 62
     0
 10
785.5755659103379
 20
3867.8125581913141
 30
0.0
 11
1835.575565895138
 21
3867.8125581913141
 31
0.0
  0
INSERT
  5
8400
  8
3
 62
     0
  2
_OPEN
 10
735.5755659103379
 20
3867.8125581913141
 30
0.0
 41
50.0
 42
50.0
 43
50.0
 50
180.0
  0
INSERT
  5
8401
  8
3
 62
     0
  2
_OPEN
 10
1885.575565895138
 20
3867.8125581913141
 30
0.0
 41
50.0
 42
50.0
 43
50.0
  0
TEXT
  8
3
  40
75
  5
8434
  62
0
  72
0
  71
0
 10
1160.58
 20
3797.56
 30
0.000000
  1
1150
  0
POINT
  5
8403
  8
DEFPOINTS
 62
     0
 10
735.5755659103379
 20
4188.9534108716871
 30
0.0
  0
POINT
  5
8404
  8
DEFPOINTS
 62
     0
 10
1885.575565895138
 20
4188.9593232654552
 30
0.0
  0
POINT
  5
8405
  8
DEFPOINTS
 62
     0
 10
1885.575565895138
 20
3867.8125581913141
 30
0.0
  0
ENDBLK
  5
80BA
  8
0
  0
BLOCK
  8
0
  2
*D21
 70
     1
 10
0.0
 20
0.0
 30
0.0
  3
*D21
  1

  0
LINE
  5
8406
  8
3
 62
     0
 10
723.0755659103379
 20
4188.9534108716871
 30
0.0
 11
500.41205349429561
 21
4188.9534108716871
 31
0.0
  0
LINE
  5
8407
  8
3
 62
     0
 10
723.07248118315135
 20
4788.9534108637581
 30
0.0
 11
500.41205349429578
 21
4788.9534108637581
 31
0.0
  0
LINE
  5
8408
  8
3
 62
     0
 10
525.41205349429561
 20
4238.9534108716871
 30
0.0
 11
525.41205349429583
 21
4738.9534108637581
 31
0.0
  0
INSERT
  5
8409
  8
3
 62
     0
  2
_OPEN
 10
525.41205349429561
 20
4188.9534108716871
 30
0.0
 41
50.0
 42
50.0
 43
50.0
 50
270.0
  0
INSERT
  5
840A
  8
3
 62
     0
  2
_OPEN
 10
525.41205349429583
 20
4788.9534108637581
 30
0.0
 41
50.0
 42
50.0
 43
50.0
 50
90.0
  0
TEXT
  8
3
  40
75
  5
8435
  62
0
  72
0
  71
0
 10
312.912
 20
4356.20
 30
0.000000
  1
600
  0
POINT
  5
840C
  8
DEFPOINTS
 62
     0
 10
735.5755659103379
 20
4188.9534108716871
 30
0.0
  0
POINT
  5
840D
  8
DEFPOINTS
 62
     0
 10
735.57248118315135
 20
4788.9534108637581
 30
0.0
  0
POINT
  5
840E
  8
DEFPOINTS
 62
     0
 10
525.41205349429583
 20
4788.9534108637581
 30
0.0
  0
ENDBLK
  5
80C5
  8
0
  0
BLOCK
  8
0
  2
*D22
 70
     1
 10
0.0
 20
0.0
 30
0.0
  3
*D22
  1

  0
LINE
  5
840F
  8
3
 62
     0
 10
1885.569910561969
 20
5301.4593232509169
 30
0.0
 11
1885.569910561969
 21
5484.2134472819844
 31
0.0
  0
LINE
  5
8410
  8
3
 62
     0
 10
1385.5699105685781
 20
5301.4567526449318
 30
0.0
 11
1385.5699105685781
 21
5484.2134472819844
 31
0.0
  0
LINE
  5
8411
  8
3
 62
     0
 10
1835.569910561969
 20
5459.2134472819844
 30
0.0
 11
1435.5699105685781
 21
5459.2134472819844
 31
0.0
  0
INSERT
  5
8412
  8
3
 62
     0
  2
_OPEN
 10
1885.569910561969
 20
5459.2134472819844
 30
0.0
 41
50.0
 42
50.0
 43
50.0
  0
INSERT
  5
8413
  8
3
 62
     0
  2
_OPEN
 10
1385.5699105685781
 20
5459.2134472819844
 30
0.0
 41
50.0
 42
50.0
 43
50.0
 50
180.0
  0
TEXT
  8
3
  40
75
  5
8436
  62
0
  72
0
  71
0
 10
1485.57
 20
5388.96
 30
0.000000
  1
500
  0
POINT
  5
8415
  8
DEFPOINTS
 62
     0
 10
1885.569910561969
 20
5288.9593232509169
 30
0.0
  0
POINT
  5
8416
  8
DEFPOINTS
 62
     0
 10
1385.5699105685781
 20
5288.9567526449309
 30
0.0
  0
POINT
  5
8417
  8
DEFPOINTS
 62
     0
 10
1385.5699105685781
 20
5459.2134472819844
 30
0.0
  0
ENDBLK
  5
80F1
  8
0
  0
BLOCK
  8
0
  2
*D23
 70
     1
 10
0.0
 20
0.0
 30
0.0
  3
*D23
  1

  0
LINE
  5
8418
  8
3
 62
     0
 10
1385.5699105685781
 20
5301.4567526449318
 30
0.0
 11
1385.5699105685781
 21
5484.2134472819844
 31
0.0
  0
LINE
  5
8419
  8
3
 62
     0
 10
735.56991057716914
 20
4793.0474477131393
 30
0.0
 11
735.56991057716914
 21
5484.2134472819844
 31
0.0
  0
LINE
  5
841A
  8
3
 62
     0
 10
1335.5699105685781
 20
5459.2134472819844
 30
0.0
 11
785.56991057716914
 21
5459.2134472819844
 31
0.0
  0
INSERT
  5
841B
  8
3
 62
     0
  2
_OPEN
 10
1385.5699105685781
 20
5459.2134472819844
 30
0.0
 41
50.0
 42
50.0
 43
50.0
  0
INSERT
  5
841C
  8
3
 62
     0
  2
_OPEN
 10
735.56991057716914
 20
5459.2134472819844
 30
0.0
 41
50.0
 42
50.0
 43
50.0
 50
180.0
  0
TEXT
  8
3
  40
75
  5
8437
  62
0
  72
0
  71
0
 10
910.570
 20
5388.96
 30
0.000000
  1
650
  0
POINT
  5
841E
  8
DEFPOINTS
 62
     0
 10
1385.5699105685781
 20
5288.9567526449309
 30
0.0
  0
POINT
  5
841F
  8
DEFPOINTS
 62
     0
 10
735.56991057716914
 20
4780.5474477131384
 30
0.0
  0
POINT
  5
8420
  8
DEFPOINTS
 62
     0
 10
735.56991057716914
 20
5459.2134472819844
 30
0.0
  0
ENDBLK
  5
80AF
  8
0
  0
BLOCK
  8
0
  2
_DOT
 70
     0
 10
0.0
 20
0.0
 30
0.0
  3
_DOT
  1

  0
POLYLINE
  5
82EC
  8
0
  6
BYBLOCK
 62
     0
 66
     1
 10
0.0
 20
0.0
 30
0.0
 70
     1
 40
0.25
 41
0.25
  0
VERTEX
  5
8421
  8
0
  6
BYBLOCK
 62
     0
 10
-0.125
 20
0.0
 30
0.0
 42
1.0
  0
VERTEX
  5
8422
  8
0
  6
BYBLOCK
 62
     0
 10
0.125
 20
0.0
 30
0.0
 42
1.0
  0
SEQEND
  5
8423
  8
0
  6
BYBLOCK
 62
     0
  0
LINE
  5
82F0
  8
0
  6
BYBLOCK
 62
     0
 10
-0.25
 20
0.0
 30
0.0
 11
-1.0
 21
0.0
 31
0.0
  0
ENDBLK
  5
82C8
  8
0
  0
ENDSEC
  0
SECTION
  2
ENTITIES
  0
LINE
  5
7CB7
  8
1
 10
3192.5155503706669
 20
2406.154885543483
 30
0.0
 11
3707.5155503706669
 21
2406.154885543483
 31
0.0
  0
LINE
  5
7CB8
  8
1
 10
3198.0155503706669
 20
2069.3755579607619
 30
0.0
 11
3198.0155503706692
 21
2402.9548855434832
 31
0.0
  0
LINE
  5
7CB9
  8
1
 10
3200.0155503706669
 20
2069.3755579607619
 30
0.0
 11
4260.0155503706701
 21
2069.3755579607619
 31
0.0
  0
LINE
  5
7CBA
  8
1
 10
3160.0155503706669
 20
1994.3755579607621
 30
0.0
 11
4260.0155503706701
 21
1994.3755579607621
 31
0.0
  0
LINE
  5
7CBB
  8
1
 10
1415.57720441371
 20
2352.9537544721761
 30
0.0
 11
1173.718609173221
 21
2352.9525110258701
 31
0.0
  0
LINE
  5
7CBC
  8
1
 10
1415.577250684616
 20
2343.9537544722939
 30
0.0
 11
1173.7186554441289
 21
2343.9525110259892
 31
0.0
  0
LINE
  5
7CBD
  8
1
 10
1968.078604983973
 20
2343.956594998871
 30
0.0
 11
1855.5772506788039
 21
2343.9560166055621
 31
0.0
  0
LINE
  5
7CBE
  8
1
 10
1968.0785587130649
 20
2352.9565949987532
 30
0.0
 11
1855.577204407896
 21
2352.956016605443
 31
0.0
  0
LINE
  5
7CBF
  8
1
 10
1855.578662455609
 20
2069.3560166091902
 30
0.0
 11
1855.5769473472969
 21
2402.9560166047818
 31
0.0
  0
LINE
  5
7CC0
  8
1
 10
1415.5786624614241
 20
2069.3537544759229
 30
0.0
 11
1415.5769473531111
 21
2402.9537544715149
 31
0.0
  0
LINE
  5
7CC1
  8
1
 10
1385.576930901628
 20
2406.1536002351131
 30
0.0
 11
1885.576930895021
 21
2406.1561708410991
 31
0.0
  0
LINE
  5
7CC2
  8
1
 10
3157.5155503706669
 20
2494.3548855434829
 30
0.0
 11
3762.5155503706678
 21
2494.3548855434829
 31
0.0
  0
LINE
  5
7CC3
  8
1
 10
3157.5155503706678
 20
2444.3548855434829
 30
0.0
 11
3790.5155503706678
 21
2444.3548855434829
 31
0.0
  0
LINE
  5
7CC4
  8
1
 10
3157.5155503706669
 20
2424.3548855434829
 30
0.0
 11
3157.5155503706669
 21
2514.3548855434819
 31
0.0
  0
LINE
  5
7CC5
  8
1
 10
3137.5155503706669
 20
2162.354885543481
 30
0.0
 11
3137.5155503706669
 21
2340.354885543481
 31
0.0
  0
LINE
  5
7CC6
  8
1
 10
3074.5155503706669
 20
2162.354885543481
 30
0.0
 11
3074.5155503706669
 21
2340.354885543481
 31
0.0
  0
LINE
  5
7CC7
  8
1
 10
3137.5155503706669
 20
2514.3548855434819
 30
0.0
 11
3157.5155503706669
 21
2514.3548855434819
 31
0.0
  0
LINE
  5
7CC8
  8
1
 10
3137.5155503706669
 20
2424.3548855434829
 30
0.0
 11
3157.5155503706669
 21
2424.3548855434829
 31
0.0
  0
LINE
  5
7CC9
  8
1
 10
3159.5155503706669
 20
2216.3755579607619
 30
0.0
 11
3159.5155503706669
 21
2286.3755579607619
 31
0.0
  0
LINE
  5
7CCA
  8
1
 10
3137.5155503706669
 20
2286.3755579607619
 30
0.0
 11
3159.5155503706669
 21
2286.3755579607619
 31
0.0
  0
LINE
  5
7CCB
  8
1
 10
3137.5155503706669
 20
2216.3755579607619
 30
0.0
 11
3159.5155503706669
 21
2216.3755579607619
 31
0.0
  0
LINE
  5
7CCC
  8
1
 10
3054.5155503706692
 20
2096.3548855434829
 30
0.0
 11
3054.5155503706692
 21
2569.3548855434829
 31
0.0
  0
LINE
  5
7CCD
  8
1
 10
3176.5155503706692
 20
2096.3548855434829
 30
0.0
 11
3176.5155503706669
 21
2112.5392339676341
 31
0.0
  0
LINE
  5
7CCE
  8
2
 10
3023.6353086566291
 20
2469.3548855434829
 30
0.0
 11
4288.4420062418349
 21
2469.3548855434829
 31
0.0
  0
LINE
  5
7CCF
  8
2
 10
3023.6353086566291
 20
2251.3755579607619
 30
0.0
 11
3365.320001819025
 21
2251.3755579607619
 31
0.0
  0
LINE
  5
7CD0
  8
1
 10
735.5755659103379
 20
4188.9534108716871
 30
0.0
 11
921.57609219193455
 21
4188.9543671398178
 31
0.0
  0
LINE
  5
7CD1
  8
1
 10
1885.575565895138
 20
4188.9593232654552
 30
0.0
 11
1885.575370529084
 21
4226.9593232654552
 31
0.0
  0
LINE
  5
7CD2
  8
1
 10
1885.569910561969
 20
5288.9593232509169
 30
0.0
 11
1385.5699105685781
 21
5288.9567526449309
 31
0.0
  0
LINE
  5
7CD3
  8
1
 10
1385.5724811745631
 20
4788.9567526515393
 30
0.0
 11
1385.5723140851751
 21
4821.4567526511109
 31
0.0
  0
LINE
  5
7CD4
  8
1
 10
735.57067999284197
 20
4788.9534108544976
 30
0.0
 11
1385.5724811745631
 21
4788.9567526515402
 31
0.0
  0
LINE
  5
7CD5
  8
1
 10
2025.569957301683
 20
5248.9600430203036
 30
0.0
 11
1151.5699573132249
 21
5248.9555496010416
 31
0.0
  0
LINE
  5
7CD6
  8
2
 10
935.57321512318583
 20
4603.2315151833109
 30
0.0
 11
935.57779617084805
 21
3943.5937714920469
 31
0.0
  0
LINE
  5
7CD7
  8
2
 10
1635.5768619188859
 20
3943.342852307353
 30
0.0
 11
1635.569570893229
 21
5322.0262227161484
 31
0.0
  0
LINE
  5
7CDE
  8
1
 10
805.57843111494913
 20
2114.3506183360269
 30
0.0
 11
855.57843111428883
 21
2114.3508753966248
 31
0.0
  0
LINE
  5
7CDF
  8
1
 10
805.57843111494913
 20
2114.3506183360269
 30
0.0
 11
805.57835399676969
 21
2129.3506183358281
 31
0.0
  0
LINE
  5
7CE0
  8
1
 10
805.57835399676969
 20
2129.3506183358281
 30
0.0
 11
854.23187281839091
 21
2129.3508684738808
 31
0.0
  0
LINE
  5
7CE1
  8
1
 10
855.57835875051751
 20
2128.426111245732
 30
0.0
 11
855.57843111428883
 21
2114.3508753966248
 31
0.0
  0
LINE
  5
7CE2
  8
1
 10
872.17918013182043
 20
2118.7312607356139
 30
0.0
 11
998.97763705454418
 21
2118.7319126333591
 31
0.0
  0
LINE
  5
7CE3
  8
1
 10
805.57835399676969
 20
2129.3506183358281
 30
0.0
 11
819.60745578429385
 21
2163.5434350962619
 31
0.0
  0
LINE
  5
7CE4
  8
1
 10
1065.5783539933329
 20
2129.35195505094
 30
0.0
 11
1051.548900621513
 21
2163.544627556395
 31
0.0
  0
LINE
  5
7CE5
  8
1
 10
1015.578358748402
 20
2128.4269338396471
 30
0.0
 11
1015.578431112174
 21
2114.3516979905398
 31
0.0
  0
LINE
  5
7CE6
  8
1
 10
1065.5783539933329
 20
2129.35195505094
 30
0.0
 11
1016.92483517171
 21
2129.3517049128868
 31
0.0
  0
LINE
  5
7CE7
  8
1
 10
1065.5784311115131
 20
2114.3519550511392
 30
0.0
 11
1065.5783539933329
 21
2129.35195505094
 31
0.0
  0
LINE
  5
7CE8
  8
2
 10
712.06511742767543
 20
2246.350137566003
 30
0.0
 11
1088.077752471235
 21
2246.3520707266639
 31
0.0
  0
ARC
  5
7CE9
  8
1
 10
935.57775247325105
 20
2246.3512866918381
 30
0.0
 40
142.0
 50
296.41767482964838
 51
243.5829143098467
  0
CIRCLE
  5
7CEA
  8
1
 10
935.57775247325105
 20
2246.3512866918381
 30
0.0
 40
19.0
  0
LINE
  5
7CEB
  8
2
 10
935.57871389236698
 20
2059.3488598414319
 30
0.0
 11
935.57696843842496
 21
2398.8512866898232
 31
0.0
  0
POLYLINE
  5
7CEC
  8
1
 66
     1
 10
0.0
 20
0.0
 30
0.0
 70
     1
  0
VERTEX
  5
8352
  8
1
 10
760.57866247008315
 20
2069.350386982082
 30
0.0
  0
VERTEX
  5
8353
  8
1
 10
1110.578662465457
 20
2069.3521864062718
 30
0.0
  0
VERTEX
  5
8354
  8
1
 10
1100.578431111051
 20
2114.3521349935581
 30
0.0
  0
VERTEX
  5
8355
  8
1
 10
770.57843111541285
 20
2114.3504383936079
 30
0.0
  0
SEQEND
  5
8356
  8
1
  0
LINE
  5
7D04
  8
1
 10
2000.5735212417239
 20
3069.3567620717108
 30
0.0
 11
1629.297537648298
 21
3035.1347807331681
 31
0.0
  0
ARC
  5
7D05
  8
1
 10
1602.576775634159
 20
2436.3547158777119
 30
0.0
 40
367.0
 50
269.33037884545172
 51
0.0002945697482667
  0
ARC
  5
7D06
  8
1
 10
1593.576390043381
 20
2511.3546696058129
 30
0.0
 40
442.0
 50
179.94336520208299
 51
270.61073269426402
  0
ARC
  5
7D07
  8
1
 10
1677.5763900422701
 20
2511.3551014676191
 30
0.0
 40
526.0
 50
95.266298866979525
 51
180.05191618019359
  0
LINE
  5
7D42
  8
1
 10
1365.5769473537721
 20
2402.953497410916
 30
0.0
 11
1905.576947346636
 21
2402.9562736653811
 31
0.0
  0
LINE
  5
7D43
  8
1
 10
1365.57720441437
 20
2352.9534974115768
 30
0.0
 11
1365.5769473537721
 21
2402.953497410916
 31
0.0
  0
LINE
  5
7D44
  8
1
 10
1905.5772044072351
 20
2352.9562736660419
 30
0.0
 11
1905.576947346636
 21
2402.9562736653811
 31
0.0
  0
LINE
  5
7D45
  8
1
 10
4221.8155503706676
 20
2469.3548855434829
 30
0.0
 11
4221.8155503706703
 21
2449.3548855434819
 31
0.0
  0
DIMENSION
  5
7D46
  8
3
  2
*D1
 10
4217.515550370671
 20
3179.7030872504938
 30
0.0
 11
4016.9284327231562
 21
3179.7030872504938
 31
0.0
 70
   128
 13
3792.5155503706678
 23
3069.3548855434829
 33
0.0
 14
4217.515550370671
 24
3069.3548855434829
 34
0.0
1001
ACAD
1000
DSTYLE
1002
{
1070
   287
1070
     3
1070
    40
1040
25.0
1070
   143
1040
0.039
1070
   172
1070
     1
1070
   271
1070
     0
1070
   279
1070
     0
1070
   288
1070
     1
1002
}
  0
LINE
  5
7D47
  8
1
 10
3137.5155503706669
 20
2340.354885543481
 30
0.0
 11
3137.5155503706669
 21
2546.8548855434792
 31
0.0
  0
LINE
  5
7D48
  8
1
 10
3074.5155503706669
 20
2340.354885543481
 30
0.0
 11
3074.5155503706669
 21
2546.8548855434801
 31
0.0
  0
LINE
  5
7D49
  8
1
 10
2022.5733927111339
 20
3094.356875178044
 30
0.0
 11
2022.5766316746749
 21
2464.35687518637
 31
0.0
  0
LINE
  5
7D4A
  8
1
 10
4217.5155503706656
 20
2069.3755579607619
 30
0.0
 11
4217.5155503706692
 21
2459.3548855434829
 31
0.0
  0
LINE
  5
7D4B
  8
1
 10
3792.515550370666
 20
2069.3755579607619
 30
0.0
 11
3792.5155503706678
 21
2459.3548855434829
 31
0.0
  0
LINE
  5
7D4C
  8
1
 10
3192.5155503706669
 20
2402.9548855434832
 30
0.0
 11
3707.5155503706669
 21
2402.9548855434832
 31
0.0
  0
LINE
  5
7D4D
  8
1
 10
3707.5155503706669
 20
2406.154885543483
 30
0.0
 11
3707.5155503706669
 21
2402.9548855434832
 31
0.0
  0
LINE
  5
7D4E
  8
1
 10
3697.5155503706669
 20
2402.9548855434832
 30
0.0
 11
3697.5155503706669
 21
2069.3755579607619
 31
0.0
  0
LINE
  5
7D4F
  8
1
 10
3192.5155503706669
 20
2406.154885543483
 30
0.0
 11
3192.5155503706669
 21
2402.9548855434832
 31
0.0
  0
POLYLINE
  5
7D50
  8
1
 66
     1
 10
0.0
 20
0.0
 30
0.0
 70
     1
  0
VERTEX
  5
8360
  8
1
 10
3697.5155503706669
 20
2352.9548855434832
 30
0.0
  0
VERTEX
  5
8361
  8
1
 10
3747.5155503706669
 20
2352.9548855434832
 30
0.0
  0
VERTEX
  5
8362
  8
1
 10
3747.5155503706669
 20
2354.4548855434832
 30
0.0
 42
0.4142135623730951
  0
VERTEX
  5
8363
  8
1
 10
3743.0155503706669
 20
2358.9548855434832
 30
0.0
  0
VERTEX
  5
8364
  8
1
 10
3710.0155503706669
 20
2358.9548855434832
 30
0.0
 42
-0.4142135623730951
  0
VERTEX
  5
8365
  8
1
 10
3703.5155503706669
 20
2365.4548855434832
 30
0.0
  0
VERTEX
  5
8366
  8
1
 10
3703.5155503706669
 20
2398.4548855434832
 30
0.0
 42
0.4142135623730951
  0
VERTEX
  5
8367
  8
1
 10
3699.0155503706669
 20
2402.9548855434832
 30
0.0
  0
VERTEX
  5
8368
  8
1
 10
3697.5155503706669
 20
2402.9548855434832
 30
0.0
  0
SEQEND
  5
8369
  8
1
  0
LINE
  5
7D5B
  8
1
 10
3725.5155503706669
 20
2352.9548855434832
 30
0.0
 11
3790.5155503706669
 21
2352.9548855434832
 31
0.0
  0
LINE
  5
7D5C
  8
1
 10
3725.5155503706669
 20
2346.9548855434832
 30
0.0
 11
3790.5155503706669
 21
2346.9548855434832
 31
0.0
  0
LINE
  5
7D5D
  8
1
 10
3725.5155503706669
 20
2346.9548855434832
 30
0.0
 11
3725.5155503706669
 21
2352.9548855434832
 31
0.0
  0
POLYLINE
  5
7D5E
  8
1
 66
     1
 10
0.0
 20
0.0
 30
0.0
 70
     1
  0
VERTEX
  5
836A
  8
1
 10
3790.5155503706669
 20
2069.3755579607619
 30
0.0
  0
VERTEX
  5
836B
  8
1
 10
3790.5155503706669
 20
2109.3755579607619
 30
0.0
  0
VERTEX
  5
836C
  8
1
 10
3788.5155503706678
 20
2109.3755579607619
 30
0.0
 42
0.4142135623730951
  0
VERTEX
  5
836D
  8
1
 10
3785.5155503706669
 20
2106.3755579607619
 30
0.0
  0
VERTEX
  5
836E
  8
1
 10
3785.5155503706669
 20
2078.8755579607619
 30
0.0
 42
-0.4142135623730951
  0
VERTEX
  5
836F
  8
1
 10
3781.0155503706669
 20
2074.3755579607632
 30
0.0
  0
VERTEX
  5
8370
  8
1
 10
3753.5155503706669
 20
2074.3755579607632
 30
0.0
 42
0.4142135623730951
  0
VERTEX
  5
8371
  8
1
 10
3750.5155503706669
 20
2071.3755579607632
 30
0.0
  0
VERTEX
  5
8372
  8
1
 10
3750.5155503706669
 20
2069.3755579607619
 30
0.0
  0
SEQEND
  5
8373
  8
1
  0
LINE
  5
7D69
  8
1
 10
1385.576930901628
 20
2406.1536002351131
 30
0.0
 11
1385.576947353507
 21
2402.9536002351551
 31
0.0
  0
LINE
  5
7D6A
  8
1
 10
1885.576930895021
 20
2406.1561708410991
 30
0.0
 11
1885.576947346899
 21
2402.9561708411411
 31
0.0
  0
LINE
  5
7D6B
  8
1
 10
1968.078604983973
 20
2343.956594998871
 30
0.0
 11
1968.0785587130649
 21
2352.9565949987532
 31
0.0
  0
LINE
  5
7D6C
  8
1
 10
3792.5155503706678
 20
3069.3548855434829
 30
0.0
 11
4217.515550370671
 21
3069.3548855434829
 31
0.0
  0
ARC
  5
7D6F
  8
1
 10
1739.5818479492641
 20
2461.3256911826652
 30
0.0
 40
227.59448069142181
 50
2.0217292917753742
 51
7.0741700859340151
  0
LINE
  5
7D72
  8
1
 10
4221.8155503706703
 20
2449.3548855434819
 30
0.0
 11
4221.8155503706703
 21
2179.3548855434819
 31
0.0
  0
LINE
  5
7D73
  8
1
 10
4260.0155503706701
 20
1994.3755579607621
 30
0.0
 11
4260.0155503706701
 21
2069.3755579607619
 31
0.0
  0
LINE
  5
7D74
  8
2
 10
4005.0155503706669
 20
1834.7773815651749
 30
0.0
 11
4005.0155503706692
 21
3173.1682764939642
 31
0.0
  0
LINE
  5
7D75
  8
1
 10
3200.0155503706669
 20
1994.3755579607621
 30
0.0
 11
3160.0155503706669
 21
1994.3755579607621
 31
0.0
  0
LINE
  5
7D76
  8
1
 10
3160.0155503706669
 20
1994.3755579607621
 30
0.0
 11
3160.0155503706669
 21
1996.179181652989
 31
0.0
  0
LINE
  5
7D77
  8
1
 10
3160.0155503706669
 20
2067.5719342685361
 30
0.0
 11
3160.0155503706669
 21
2069.3755579607619
 31
0.0
  0
LINE
  5
7D78
  8
1
 10
3160.0155503706669
 20
2069.3755579607619
 30
0.0
 11
3200.0155503706669
 21
2069.3755579607619
 31
0.0
  0
CIRCLE
  5
7D7B
  8
1
 10
1635.576605973728
 20
2469.354885537271
 30
0.0
 40
72.5
  0
CIRCLE
  5
7D7C
  8
1
 10
935.57775247325105
 20
2246.3512866918381
 30
0.0
 40
89.0
  0
LINE
  5
7D7D
  8
1
 10
3074.5155503706669
 20
2541.8548855434792
 30
0.0
 11
3137.5155503706669
 21
2541.8548855434792
 31
0.0
  0
LINE
  5
7D7E
  8
1
 10
3074.5155503706669
 20
2396.854885543486
 30
0.0
 11
3137.5155503706669
 21
2396.854885543486
 31
0.0
  0
LINE
  5
7D7F
  8
1
 10
3074.5155503706669
 20
2340.354885543481
 30
0.0
 11
3137.5155503706669
 21
2340.354885543481
 31
0.0
  0
LINE
  5
7D80
  8
1
 10
3074.5155503706669
 20
2162.354885543481
 30
0.0
 11
3137.5155503706692
 21
2162.354885543481
 31
0.0
  0
LINE
  5
7D81
  8
1
 10
4221.8155503706703
 20
2164.3548855434819
 30
0.0
 11
4221.8155503706703
 21
2189.3548855434829
 31
0.0
  0
LINE
  5
7D82
  8
1
 10
1615.5821852870549
 20
2539.0432858733702
 30
0.0
 11
911.03287742340387
 21
2331.8998057251179
 31
0.0
  0
LINE
  5
7D83
  8
1
 10
1658.686696506775
 20
2400.6368113824001
 30
0.0
 11
963.94738085174856
 21
2161.993926694824
 31
0.0
  0
LINE
  5
7D84
  8
1
 10
2000.573521241723
 20
3069.3567620717108
 30
0.0
 11
2000.5765031543151
 21
2489.354885537271
 31
0.0
  0
LINE
  5
7D85
  8
1
 10
4224.8155503706703
 20
2182.354885543481
 30
0.0
 11
4224.8155503706703
 21
2469.3548855434829
 31
0.0
  0
LINE
  5
7D86
  8
1
 10
4261.8155503706703
 20
2189.354885543481
 30
0.0
 11
4261.8155503706703
 21
2749.3548855434819
 31
0.0
  0
DIMENSION
  5
7D87
  8
3
  2
*D2
 10
4413.6278381594693
 20
2189.354885543481
 30
0.0
 11
4413.6278381594693
 21
2469.3548855434819
 31
0.0
 70
   128
 13
4261.8155503706703
 23
2749.3548855434819
 33
0.0
 14
4261.8155503706703
 24
2189.354885543481
 34
0.0
 50
90.0
1001
ACAD
1000
DSTYLE
1002
{
1070
   287
1070
     3
1070
    40
1040
25.0
1070
   143
1040
0.039
1070
   172
1070
     1
1070
   271
1070
     0
1070
   279
1070
     0
1070
   288
1070
     1
1002
}
  0
ARC
  5
7D88
  8
1
 10
935.57775247325105
 20
2246.3512866918381
 30
0.0
 40
150.0
 50
103.3878876697971
 51
291.20886316928932
  0
ARC
  5
7D89
  8
1
 10
1633.084412377234
 20
2466.1504363695308
 30
0.0
 40
102.5891975502981
 50
292.14374054274538
 51
101.61916266672741
  0
LINE
  5
7D8A
  8
1
 10
900.84641445490342
 20
2392.275013890177
 30
0.0
 11
1612.4223806281641
 21
2566.6373703361642
 31
0.0
  0
LINE
  5
7D8B
  8
1
 10
989.84307071964031
 20
2106.51110921906
 30
0.0
 11
1671.7535105107161
 21
2371.1281005554852
 31
0.0
  0
LINE
  5
7D8C
  8
1
 10
3054.5155503706669
 20
2569.3548855434829
 30
0.0
 11
3176.5155503706669
 21
2569.3548855434829
 31
0.0
  0
LINE
  5
7D8D
  8
1
 10
3176.5155503706669
 20
2535.982270507352
 30
0.0
 11
3176.5155503706669
 21
2569.3548855434829
 31
0.0
  0
LINE
  5
7D8E
  8
1
 10
3054.5155503706692
 20
2096.3548855434829
 30
0.0
 11
3176.5155503706692
 21
2096.3548855434829
 31
0.0
  0
LINE
  5
7D8F
  8
1
 10
3771.5671417664498
 20
2469.3548855434829
 30
0.0
 11
3771.5671417664498
 21
2469.3548855434829
 31
0.0
  0
LINE
  5
7D90
  8
1
 10
4242.5155503706692
 20
2749.3548855434819
 30
0.0
 11
4261.8155503706703
 21
2749.3548855434819
 31
0.0
  0
LINE
  5
7D91
  8
1
 10
4261.8155503706703
 20
2749.3548855434819
 30
0.0
 11
4261.8155503706703
 21
2750.3548855434829
 31
0.0
  0
LINE
  5
7D92
  8
1
 10
4242.5155503706701
 20
2752.3548855434819
 30
0.0
 11
4259.8155503706703
 21
2752.3548855434819
 31
0.0
  0
ARC
  5
7D93
  8
1
 10
4259.8155503706703
 20
2750.3548855434829
 30
0.0
 40
2.0
 50
359.9999999999992
 51
89.999999999999588
  0
ARC
  5
7D94
  8
1
 10
4228.8155503706703
 20
2182.354885543481
 30
0.0
 40
4.0
 50
90.0
 51
180.0
  0
ARC
  5
7D95
  8
1
 10
4222.8155503706703
 20
2166.354885543481
 30
0.0
 40
2.0
 50
269.9999999999992
 51
0.0
  0
LINE
  5
7D96
  8
1
 10
4224.8155503706703
 20
2182.354885543481
 30
0.0
 11
4224.8155503706703
 21
2166.354885543481
 31
0.0
  0
ARC
  5
7D97
  8
1
 10
4259.8155503706703
 20
2188.354885543481
 30
0.0
 40
2.0
 50
270.0000000000004
 51
0.0000000000008142
  0
LINE
  5
7D98
  8
1
 10
4228.8155503706703
 20
2186.354885543481
 30
0.0
 11
4259.8155503706703
 21
2186.354885543481
 31
0.0
  0
LINE
  5
7D99
  8
1
 10
4261.8155503706703
 20
2189.354885543481
 30
0.0
 11
4261.8155503706703
 21
2188.354885543481
 31
0.0
  0
LINE
  5
7D9A
  8
1
 10
4221.8155503706703
 20
2189.354885543481
 30
0.0
 11
4261.8155503706703
 21
2189.354885543481
 31
0.0
  0
LINE
  5
7D9B
  8
1
 10
4221.8155503706703
 20
2164.354885543481
 30
0.0
 11
4222.8155503706703
 21
2164.354885543481
 31
0.0
  0
LINE
  5
7D9C
  8
1
 10
4221.8155503706703
 20
2189.354885543481
 30
0.0
 11
4221.8155503706703
 21
2164.354885543481
 31
0.0
  0
LINE
  5
7D9D
  8
1
 10
4219.8155503706676
 20
2054.3755579607619
 30
0.0
 11
4219.8155503706676
 21
2069.3755579607619
 31
0.0
  0
LINE
  5
7D9E
  8
1
 10
4219.8155503706676
 20
2094.3755579607619
 30
0.0
 11
4221.8155503706676
 21
2094.3755579607619
 31
0.0
  0
ARC
  5
7D9F
  8
1
 10
4221.8155503706676
 20
2091.3755579607619
 30
0.0
 40
3.0
 50
0.0
 51
90.0
  0
LINE
  5
7DA0
  8
1
 10
4224.8155503706676
 20
2091.3755579607619
 30
0.0
 11
4224.8155503706676
 21
2069.3755579607619
 31
0.0
  0
ARC
  5
7DA1
  8
1
 10
4229.3155503706676
 20
2063.8755579607619
 30
0.0
 40
4.5
 50
180.0
 51
270.0
  0
LINE
  5
7DA2
  8
1
 10
4229.3155503706676
 20
2059.3755579607619
 30
0.0
 11
4256.8155503706676
 21
2059.3755579607619
 31
0.0
  0
ARC
  5
7DA3
  8
1
 10
4256.8155503706676
 20
2056.3755579607619
 30
0.0
 40
3.0
 50
0.0
 51
90.0
  0
LINE
  5
7DA4
  8
1
 10
4259.8155503706676
 20
2056.3755579607619
 30
0.0
 11
4259.8155503706676
 21
2054.3755579607619
 31
0.0
  0
LINE
  5
7DA5
  8
1
 10
4259.8155503706676
 20
2054.3755579607619
 30
0.0
 11
4219.8155503706676
 21
2054.3755579607619
 31
0.0
  0
LINE
  5
7DA6
  8
1
 10
4219.8155503706676
 20
2069.3755579607619
 30
0.0
 11
4219.8155503706676
 21
2094.3755579607619
 31
0.0
  0
LINE
  5
7DB9
  8
1
 10
3160.0155503706669
 20
1994.3755579607621
 30
0.0
 11
3160.0155503706669
 21
2069.3755579607619
 31
0.0
  0
LINE
  5
7DBA
  8
1
 10
3160.0155503706669
 20
1956.3755579607621
 30
0.0
 11
4260.0155503706701
 21
1956.3755579607621
 31
0.0
  0
LINE
  5
7DBB
  8
1
 10
3160.0155503706669
 20
1881.3755579607621
 30
0.0
 11
4260.0155503706701
 21
1881.3755579607621
 31
0.0
  0
LINE
  5
7DBC
  8
1
 10
3160.0155503706669
 20
1956.3755579607621
 30
0.0
 11
3160.0155503706669
 21
1881.3755579607621
 31
0.0
  0
LINE
  5
7DBD
  8
1
 10
4260.0155503706701
 20
1956.3755579607621
 30
0.0
 11
4260.0155503706701
 21
1881.3755579607621
 31
0.0
  0
LINE
  5
7DBE
  8
2
 10
1635.576605973728
 20
3107.112679494116
 30
0.0
 11
1635.576605973728
 21
1842.7697458546311
 31
0.0
  0
LINE
  5
7DBF
  8
1
 10
735.57660597372876
 20
2069.350258441209
 30
0.0
 11
735.57660597372876
 21
1994.354885537271
 31
0.0
  0
LINE
  5
7DC0
  8
1
 10
735.57660597372876
 20
1956.350258439717
 30
0.0
 11
735.57660597372876
 21
1881.3502584387249
 31
0.0
  0
DIMENSION
  5
7DC1
  8
3
  2
*D3
 10
1635.576605973728
 20
1729.9344044640679
 30
0.0
 11
1185.576605973728
 21
1792.4344044640679
 31
0.0
 70
     0
 13
735.57660597372876
 23
1881.3502584387249
 33
0.0
 14
1635.576605973728
 24
1842.7697458546311
 34
0.0
1001
ACAD
1000
DSTYLE
1002
{
1070
   287
1070
     3
1070
    40
1040
25.0
1070
   143
1040
0.039
1070
   172
1070
     1
1070
   271
1070
     0
1070
   279
1070
     0
1070
   288
1070
     1
1002
}
  0
LINE
  5
7DC2
  8
1
 10
1885.576605973728
 20
2069.3561708349771
 30
0.0
 11
1885.576605973728
 21
1994.354885537271
 31
0.0
  0
LINE
  5
7DC3
  8
1
 10
1885.576605973728
 20
1956.354885537271
 30
0.0
 11
1885.576605973728
 21
1881.354885537271
 31
0.0
  0
DIMENSION
  5
7DC4
  8
3
  2
*D4
 10
1885.576605973728
 20
1729.9344044640679
 30
0.0
 11
1762.909894538428
 21
1786.0786800813109
 31
0.0
 70
   128
 13
1635.576605973728
 23
1842.7697458546311
 33
0.0
 14
1885.576605973728
 24
1881.356170832493
 34
0.0
1001
ACAD
1000
DSTYLE
1002
{
1070
   288
1070
     1
1070
   172
1070
     1
1070
    40
1040
25.0
1070
   271
1070
     0
1070
   143
1040
0.039
1002
}
  0
DIMENSION
  5
7DC5
  8
3
  2
*D5
 10
1885.576605973728
 20
1569.5891267841059
 30
0.0
 11
1310.5766059737291
 21
1632.0891267841059
 31
0.0
 70
     0
 13
735.57660597372876
 23
1881.3502584387249
 33
0.0
 14
1885.576605973728
 24
1881.356170832493
 34
0.0
1001
ACAD
1000
DSTYLE
1002
{
1070
   287
1070
     3
1070
    40
1040
25.0
1070
   143
1040
0.039
1070
   172
1070
     1
1070
   271
1070
     0
1070
   279
1070
     0
1070
   288
1070
     1
1002
}
  0
DIMENSION
  5
7DC6
  8
3
  2
*D6
 10
4005.0155503706669
 20
1733.246787424755
 30
0.0
 11
3582.5155503706669
 21
1795.746787424755
 31
0.0
 70
     0
 13
3160.0155503706669
 23
1881.3755579607621
 33
0.0
 14
4005.0155503706669
 24
1834.7773815651749
 34
0.0
1001
ACAD
1000
DSTYLE
1002
{
1070
   287
1070
     3
1070
    40
1040
25.0
1070
   143
1040
0.039
1070
   172
1070
     1
1070
   271
1070
     0
1070
   279
1070
     0
1070
   288
1070
     1
1002
}
  0
DIMENSION
  5
7DC7
  8
3
  2
*D7
 10
4260.0155503706701
 20
1733.0160438565181
 30
0.0
 11
4133.9848327519057
 21
1788.3956239159561
 31
0.0
 70
   128
 13
4005.0155503706669
 23
1834.7773815651749
 33
0.0
 14
4260.0155503706701
 24
1881.3755579607621
 34
0.0
1001
ACAD
1000
DSTYLE
1002
{
1070
   288
1070
     1
1070
   172
1070
     1
1070
    40
1040
25.0
1070
   271
1070
     0
1070
   143
1040
0.039
1002
}
  0
DIMENSION
  5
7DC8
  8
3
  2
*D8
 10
4260.0155503706701
 20
1565.6147372107221
 30
0.0
 11
3710.0155503706678
 21
1628.1147372107221
 31
0.0
 70
     0
 13
3160.0155503706669
 23
1881.3755579607621
 33
0.0
 14
4260.0155503706701
 24
1881.3755579607621
 34
0.0
1001
ACAD
1000
DSTYLE
1002
{
1070
   287
1070
     3
1070
    40
1040
25.0
1070
   143
1040
0.039
1070
   172
1070
     1
1070
   271
1070
     0
1070
   279
1070
     0
1070
   288
1070
     1
1002
}
  0
LINE
  5
7DC9
  8
1
 10
2022.5733927111339
 20
3094.356875178044
 30
0.0
 11
2025.5766059737291
 21
3094.3568906181999
 31
0.0
  0
LINE
  5
7DCA
  8
1
 10
2022.5766316746749
 20
2464.35687518637
 30
0.0
 11
2025.5766316746351
 21
2464.3568906100058
 31
0.0
  0
LINE
  5
7DCB
  8
2
 10
1077.715638176787
 20
2469.354885537271
 30
0.0
 11
2095.092890736315
 21
2469.354885537271
 31
0.0
  0
LINE
  5
7DCC
  8
1
 10
2000.5735212513721
 20
3069.354885537271
 30
0.0
 11
2022.573521251662
 21
3069.354885537271
 31
0.0
  0
DIMENSION
  5
7DCD
  8
3
  2
*D9
 10
2337.435789349498
 20
2469.354885537271
 30
0.0
 11
2274.9357893494971
 21
2769.354885537271
 31
0.0
 70
     0
 13
2022.573521251662
 23
3069.354885537271
 33
0.0
 14
2095.092890736315
 24
2469.354885537271
 34
0.0
 50
90.0
1001
ACAD
1000
DSTYLE
1002
{
1070
   287
1070
     3
1070
    40
1040
25.0
1070
   143
1040
0.039
1070
   172
1070
     1
1070
   271
1070
     0
1070
   279
1070
     0
1070
   288
1070
     1
1002
}
  0
LINE
  5
7DCE
  8
1
 10
1965.443779015633
 20
2489.3548855372719
 30
0.0
 11
2022.5735212516561
 21
2489.354885537271
 31
0.0
  0
LINE
  5
7DCF
  8
1
 10
1969.5767756293089
 20
2436.3566027025099
 30
0.0
 11
1967.0346555362751
 21
2469.354885537271
 31
0.0
  0
DIMENSION
  5
7DD0
  8
3
  2
*D10
 10
2166.9923535968842
 20
2489.354885537271
 30
0.0
 11
2104.4923535968842
 21
2779.3548855372719
 31
0.0
 70
     0
 13
2022.573521251662
 23
3069.354885537271
 33
0.0
 14
2000.5765031543151
 24
2489.354885537271
 34
0.0
 50
90.0
1001
ACAD
1000
DSTYLE
1002
{
1070
   287
1070
     3
1070
    40
1040
25.0
1070
   143
1040
0.039
1070
   172
1070
     1
1070
   271
1070
     0
1070
   279
1070
     0
1070
   288
1070
     1
1002
}
  0
LINE
  5
7DD1
  8
1
 10
735.57660597372876
 20
1994.354885537271
 30
0.0
 11
1885.576605973728
 21
1994.354885537271
 31
0.0
  0
LINE
  5
7DD2
  8
1
 10
735.57660597372876
 20
1956.354885537271
 30
0.0
 11
1885.576605973728
 21
1956.354885537271
 31
0.0
  0
LINE
  5
7DD3
  8
1
 10
735.57660597372876
 20
1881.354885537271
 30
0.0
 11
1885.576605973728
 21
1881.354885537271
 31
0.0
  0
DIMENSION
  5
7DD4
  8
3
  2
*D11
 10
2337.435789349498
 20
1994.354885537271
 30
0.0
 11
2274.9357893494971
 21
2231.854885537271
 31
0.0
 70
     0
 13
2095.092890736315
 23
2469.354885537271
 33
0.0
 14
1885.576605973728
 24
1994.354885537271
 34
0.0
 50
90.0
1001
ACAD
1000
DSTYLE
1002
{
1070
   287
1070
     3
1070
    40
1040
25.0
1070
   143
1040
0.039
1070
   172
1070
     1
1070
   271
1070
     0
1070
   279
1070
     0
1070
   288
1070
     1
1002
}
  0
DIMENSION
  5
7DD5
  8
3
  2
*D12
 10
2337.435789349498
 20
1956.354885537271
 30
0.0
 11
2457.0786464923549
 21
2022.3588319994519
 31
0.0
 70
   128
  1
(<>)
 13
1885.576605973728
 23
1994.354885537271
 33
0.0
 14
1885.576605973728
 24
1956.354885537271
 34
0.0
 50
90.0
1001
ACAD
1000
DSTYLE
1002
{
1070
   288
1070
     1
1070
   172
1070
     1
1070
    40
1040
25.0
1070
   271
1070
     0
1070
     7
1000
_DOT
1070
   143
1040
0.039
1002
}
  0
DIMENSION
  5
7DD6
  8
3
  2
*D13
 10
2337.435789349498
 20
1881.354885537271
 30
0.0
 11
2274.9357893494971
 21
1695.640599822985
 31
0.0
 70
     0
 13
1885.576605973728
 23
1956.354885537271
 33
0.0
 14
1885.576605973728
 24
1881.354885537271
 34
0.0
 50
90.0
1001
ACAD
1000
DSTYLE
1002
{
1070
   287
1070
     3
1070
    40
1040
25.0
1070
   143
1040
0.039
1070
   172
1070
     1
1070
   271
1070
     0
1070
   279
1070
     0
1070
   288
1070
     1
1070
     6
1000
DOT
1002
}
  0
DIMENSION
  5
7DD7
  8
3
  2
*D14
 10
2544.169735003421
 20
1881.354885537271
 30
0.0
 11
2544.169735003421
 21
2475.354885537271
 31
0.0
 70
   128
 13
2022.573521251662
 23
3069.354885537271
 33
0.0
 14
1885.576605973728
 24
1881.354885537271
 34
0.0
 50
90.0
1001
ACAD
1000
DSTYLE
1002
{
1070
   287
1070
     3
1070
    40
1040
25.0
1070
   143
1040
0.039
1070
   172
1070
     1
1070
   271
1070
     0
1070
   279
1070
     0
1070
   288
1070
     1
1002
}
  0
LINE
  5
7DD8
  8
1
 10
2025.5766059737291
 20
3094.3568906181999
 30
0.0
 11
2025.576605973728
 21
2464.3568906098731
 31
0.0
  0
DIMENSION
  5
7DD9
  8
3
  2
*D15
 10
1635.576605973728
 20
3226.3270301135872
 30
0.0
 11
1830.5766059737291
 21
3288.8270301135872
 31
0.0
 70
     0
 13
2025.5766059737291
 23
3094.3568906181999
 33
0.0
 14
1635.576605973728
 24
3107.112679494116
 34
0.0
1001
ACAD
1000
DSTYLE
1002
{
1070
   287
1070
     3
1070
    40
1040
25.0
1070
   143
1040
0.039
1070
   172
1070
     1
1070
   271
1070
     0
1070
   279
1070
     0
1070
   288
1070
     1
1002
}
  0
LINE
  5
7DDA
  8
1
 10
1151.576605973728
 20
2511.8317143575669
 30
0.0
 11
1151.576605973728
 21
2510.8784885778532
 31
0.0
  0
DIMENSION
  5
7DDB
  8
3
  2
*D16
 10
1151.576605973728
 20
3226.3270301135872
 30
0.0
 11
1393.5766059737291
 21
3288.8270301135872
 31
0.0
 70
     0
 13
1635.576605973728
 23
3107.112679494116
 33
0.0
 14
1151.576605973728
 24
2511.8317143575669
 34
0.0
1001
ACAD
1000
DSTYLE
1002
{
1070
   287
1070
     3
1070
    40
1040
25.0
1070
   143
1040
0.039
1070
   172
1070
     1
1070
   271
1070
     0
1070
   279
1070
     0
1070
   288
1070
     1
1002
}
  0
DIMENSION
  5
7DDC
  8
3
  2
*D17
 10
735.57660597372887
 20
3366.4264058579151
 30
0.0
 11
1380.576605973728
 21
3428.9264058579151
 31
0.0
 70
     0
 13
2025.5766059737291
 23
3094.3568906181999
 33
0.0
 14
735.57660597372876
 24
2069.350258441209
 34
0.0
1001
ACAD
1000
DSTYLE
1002
{
1070
   287
1070
     3
1070
    40
1040
25.0
1070
   143
1040
0.039
1070
   172
1070
     1
1070
   271
1070
     0
1070
   279
1070
     0
1070
   288
1070
     1
1002
}
  0
LINE
  5
7DDD
  8
1
 10
1173.718609173221
 20
2352.9525110258701
 30
0.0
 11
1173.7186554441289
 21
2343.9525110259892
 31
0.0
  0
DIMENSION
  5
7DDE
  8
3
  2
*D18
 10
3054.5155503706692
 20
3376.6466928673599
 30
0.0
 11
3529.7655503706692
 21
3439.1466928673599
 31
0.0
 70
     0
  1
1000
 13
4005.0155503706692
 23
3288.8425207722189
 33
0.0
 14
3054.5155503706692
 24
2569.3548855434829
 34
0.0
1001
ACAD
1000
DSTYLE
1002
{
1070
   287
1070
     3
1070
    40
1040
25.0
1070
   143
1040
0.039
1070
   172
1070
     1
1070
   271
1070
     0
1070
   279
1070
     0
1070
   288
1070
     1
1002
}
  0
DIMENSION
  5
7DDF
  8
3
  2
*D19
 10
2298.1147760627791
 20
4188.9593232654543
 30
0.0
 11
2235.6147760627782
 21
4738.9593232581856
 31
0.0
 70
     0
 13
1885.569910561969
 23
5288.9593232509169
 33
0.0
 14
1885.575565895138
 24
4188.9593232654552
 34
0.0
 50
90.0
1001
ACAD
1000
DSTYLE
1002
{
1070
   287
1070
     3
1070
    40
1040
25.0
1070
   143
1040
0.039
1070
   172
1070
     1
1070
   271
1070
     0
1070
   279
1070
     0
1070
   288
1070
     1
1002
}
  0
LINE
  5
7DE0
  8
2
 10
2061.1224410894861
 20
5033.9602258003197
 30
0.0
 11
1094.19367674112
 21
5033.9552546145796
 31
0.0
  0
LINE
  5
7DE1
  8
1
 10
2025.5722180916041
 20
4821.4600430262781
 30
0.0
 11
1151.572218103146
 21
4821.4555496070161
 31
0.0
  0
LINE
  5
7DE2
  8
1
 10
2025.5723503015411
 20
4796.4600430266282
 30
0.0
 11
2025.569825091746
 21
5273.9600430199544
 31
0.0
  0
LINE
  5
7DE3
  8
1
 10
1151.572218103146
 20
4821.4555496070161
 30
0.0
 11
1151.5699573132249
 21
5248.9555496010416
 31
0.0
  0
LINE
  5
7DE4
  8
1
 10
2025.5723503015411
 20
4796.4600430266273
 30
0.0
 11
2020.5723503016079
 21
4796.4600173205672
 31
0.0
  0
LINE
  5
7DE5
  8
1
 10
2025.569828771384
 20
5273.9600430199744
 30
0.0
 11
2020.5698250918131
 21
5273.9600173138952
 31
0.0
  0
LINE
  5
7DE6
  8
1
 10
2020.5723503016111
 20
4796.4600165846396
 30
0.0
 11
2020.5698250918131
 21
5273.9600173138952
 31
0.0
  0
LINE
  5
7DE7
  8
1
 10
1985.572218092133
 20
4821.459837377799
 30
0.0
 11
1985.5699573022121
 21
5248.9598373718254
 31
0.0
  0
LINE
  5
7DE8
  8
1
 10
1385.5701162170569
 20
5248.9567526454621
 30
0.0
 11
1385.5699105685781
 21
5288.9567526449309
 31
0.0
  0
LINE
  5
7DE9
  8
1
 10
1885.5701162104481
 20
5248.9593232514453
 30
0.0
 11
1885.569910561969
 21
5288.9593232509169
 31
0.0
  0
LINE
  5
7DEA
  8
1
 10
1660.5763827097669
 20
4136.9580379646113
 30
0.0
 11
1660.5763827097669
 21
4821.4581665053211
 31
0.0
  0
LINE
  5
7DEB
  8
1
 10
1610.5763827097669
 20
4136.9580379646122
 30
0.0
 11
1610.5763827097669
 21
4821.4579094447208
 31
0.0
  0
LINE
  5
7DEC
  8
1
 10
846.55591979785083
 20
4116.9546904322178
 30
0.0
 11
1024.5559197978509
 21
4116.9546904322178
 31
0.0
  0
LINE
  5
7DED
  8
1
 10
846.55591979785083
 20
4053.9546904322169
 30
0.0
 11
1024.5559197978509
 21
4053.9546904322169
 31
0.0
  0
LINE
  5
7DEE
  8
1
 10
780.55591979785174
 20
4033.9546904322192
 30
0.0
 11
1735.5763827097669
 21
4033.9580379646118
 31
0.0
  0
LINE
  5
7DEF
  8
1
 10
935.57659221513131
 20
4003.0744487181792
 30
0.0
 11
935.57659221513131
 21
4171.909606060668
 31
0.0
  0
LINE
  5
7DF0
  8
1
 10
780.55591979785174
 20
4033.9546904322192
 30
0.0
 11
780.55591979785174
 21
4155.9546904322196
 31
0.0
  0
LINE
  5
7DF1
  8
1
 10
780.55591979785174
 20
4155.9546904322196
 30
0.0
 11
921.57632136786287
 21
4155.9546904322033
 31
0.0
  0
LINE
  5
7DF2
  8
1
 10
846.55591979785083
 20
4053.9546904322169
 30
0.0
 11
846.55591979785083
 21
4116.9546904322187
 31
0.0
  0
LINE
  5
7DF3
  8
1
 10
900.57659221513131
 20
4138.9546904322178
 30
0.0
 11
970.57659221513131
 21
4138.9546904322178
 31
0.0
  0
LINE
  5
7DF4
  8
1
 10
900.57659221513131
 20
4116.9546904322178
 30
0.0
 11
900.57659221513131
 21
4138.9546904322178
 31
0.0
  0
LINE
  5
7DF5
  8
1
 10
970.57659221513131
 20
4116.9546904322178
 30
0.0
 11
970.57659221513131
 21
4138.9546904322178
 31
0.0
  0
LINE
  5
7DF6
  8
1
 10
1590.5763827097669
 20
4136.9580379646113
 30
0.0
 11
1680.5763827097669
 21
4136.9580379646113
 31
0.0
  0
LINE
  5
7DF7
  8
1
 10
1024.55591979785
 20
4116.9546904322178
 30
0.0
 11
1713.076382709763
 21
4116.9580379646113
 31
0.0
  0
LINE
  5
7DF8
  8
1
 10
1024.5559197978509
 20
4053.9546904322169
 30
0.0
 11
1713.0763827097639
 21
4053.9580379646109
 31
0.0
  0
LINE
  5
7DF9
  8
1
 10
1563.0763827097701
 20
4053.9580379646109
 30
0.0
 11
1563.0763827097701
 21
4116.9580379646113
 31
0.0
  0
LINE
  5
7DFA
  8
1
 10
1024.5559197978509
 20
4053.9546904322169
 30
0.0
 11
1024.55591979785
 21
4116.9546904322178
 31
0.0
  0
LINE
  5
7DFB
  8
1
 10
1590.5763827097669
 20
4116.9580379646113
 30
0.0
 11
1590.5763827097669
 21
4136.9580379646113
 31
0.0
  0
LINE
  5
7DFC
  8
1
 10
1708.0763827097639
 20
4053.9580379646109
 30
0.0
 11
1708.076382709763
 21
4116.9580379646113
 31
0.0
  0
LINE
  5
7DFD
  8
1
 10
1735.5763827097669
 20
4033.9580379646118
 30
0.0
 11
1735.5763827097669
 21
4155.9580379646113
 31
0.0
  0
LINE
  5
7DFE
  8
1
 10
1702.2037676736361
 20
4155.9580379646113
 30
0.0
 11
1735.576382709768
 21
4155.9580379646113
 31
0.0
  0
LINE
  5
7DFF
  8
1
 10
1680.5763827097669
 20
4116.9580379646113
 30
0.0
 11
1680.5763827097669
 21
4136.9580379646113
 31
0.0
  0
LINE
  5
7E00
  8
1
 10
1885.576930895021
 20
4226.9593232654543
 30
0.0
 11
1660.5763827097669
 21
4226.9593232654561
 31
0.0
  0
LINE
  5
7E01
  8
1
 10
1885.575565895138
 20
4188.9593232654552
 30
0.0
 11
1885.575565895138
 21
4228.9593232654552
 31
0.0
  0
LINE
  5
7E02
  8
1
 10
1385.576930901628
 20
4726.4593232654543
 30
0.0
 11
1610.5763827097669
 21
4726.4593232654533
 31
0.0
  0
LINE
  5
7E03
  8
1
 10
1885.572802493703
 20
4726.4593232654533
 30
0.0
 11
1885.572314078566
 21
4821.4593232570951
 31
0.0
  0
LINE
  5
7E04
  8
1
 10
1660.5763827097669
 20
4726.4593232654552
 30
0.0
 11
1885.576930895021
 21
4726.4593232654543
 31
0.0
  0
LINE
  5
7E05
  8
1
 10
1610.5763827097669
 20
4226.9593232654561
 30
0.0
 11
1385.576930901628
 21
4226.9593232654561
 31
0.0
  0
LINE
  5
7E06
  8
1
 10
1660.5763827097669
 20
4155.9546904321187
 30
0.0
 11
1735.5763827097669
 21
4155.9546904321114
 31
0.0
  0
LINE
  5
7E07
  8
1
 10
1660.5763827097669
 20
4188.9581664969583
 30
0.0
 11
1885.575565895138
 21
4188.9593232654552
 31
0.0
  0
LINE
  5
7E08
  8
1
 10
1885.576930895021
 20
4226.9593232654552
 30
0.0
 11
1885.576930895021
 21
4726.4593232654543
 31
0.0
  0
LINE
  5
7E09
  8
1
 10
1385.576930901628
 20
4226.9593232654561
 30
0.0
 11
1385.576930901628
 21
4726.4593232654543
 31
0.0
  0
DIMENSION
  5
7E0A
  8
3
  2
*D20
 10
1885.575565895138
 20
3867.8125581913141
 30
0.0
 11
1310.5755659027379
 21
3930.3125581913141
 31
0.0
 70
     0
 13
735.5755659103379
 23
4188.9534108716871
 33
0.0
 14
1885.575565895138
 24
4188.9593232654552
 34
0.0
1001
ACAD
1000
DSTYLE
1002
{
1070
   287
1070
     3
1070
    40
1040
25.0
1070
   143
1040
0.039
1070
   172
1070
     1
1070
   271
1070
     0
1070
   279
1070
     0
1070
   288
1070
     1
1002
}
  0
DIMENSION
  5
7E0B
  8
3
  2
*D21
 10
525.41205349429583
 20
4788.9534108637581
 30
0.0
 11
462.91205349429498
 21
4488.9534108677217
 31
0.0
 70
     0
 13
735.5755659103379
 23
4188.9534108716871
 33
0.0
 14
735.57248118315135
 24
4788.9534108637581
 34
0.0
 50
90.0
1001
ACAD
1000
DSTYLE
1002
{
1070
   287
1070
     3
1070
    40
1040
25.0
1070
   143
1040
0.039
1070
   172
1070
     1
1070
   271
1070
     0
1070
   279
1070
     0
1070
   288
1070
     1
1002
}
  0
DIMENSION
  5
7E0C
  8
3
  2
*D22
 10
1385.5699105685781
 20
5459.2134472819844
 30
0.0
 11
1635.5699105652741
 21
5521.7134472819844
 31
0.0
 70
     0
 13
1885.569910561969
 23
5288.9593232509169
 33
0.0
 14
1385.5699105685781
 24
5288.9567526449309
 34
0.0
1001
ACAD
1000
DSTYLE
1002
{
1070
   287
1070
     3
1070
    40
1040
25.0
1070
   143
1040
0.039
1070
   172
1070
     1
1070
   271
1070
     0
1070
   279
1070
     0
1070
   288
1070
     1
1002
}
  0
LINE
  5
7E0D
  8
1
 10
735.57556591034324
 20
4188.9534108716871
 30
0.0
 11
735.57067999284197
 21
4788.9534108544976
 31
0.0
  0
DIMENSION
  5
7E0E
  8
3
  2
*D23
 10
735.56991057716914
 20
5459.2134472819844
 30
0.0
 11
1060.5699105728729
 21
5521.7134472819844
 31
0.0
 70
     0
 13
1385.5699105685781
 23
5288.9567526449309
 33
0.0
 14
735.56991057716914
 24
4780.5474477131384
 34
0.0
1001
ACAD
1000
DSTYLE
1002
{
1070
   287
1070
     3
1070
    40
1040
25.0
1070
   143
1040
0.039
1070
   172
1070
     1
1070
   271
1070
     0
1070
   279
1070
     0
1070
   288
1070
     1
1002
}
  0
LINE
  5
7E0F
  8
1
 10
735.57660597372876
 20
2069.354885537271
 30
0.0
 11
1885.576605973728
 21
2069.354885537271
 31
0.0
  0
LINE
  5
7E10
  8
1
 10
3792.5155503706678
 20
2489.3548855434829
 30
0.0
 11
4217.515550370671
 21
2489.3548855434829
 31
0.0
  0
LINE
  5
7E11
  8
1
 10
4217.515550370671
 20
3069.3548855434829
 30
0.0
 11
3792.5155503706669
 21
2489.3548855434829
 31
0.0
  0
LINE
  5
7E12
  8
1
 10
3792.5155503706678
 20
3069.3548855434829
 30
0.0
 11
4217.5155503706692
 21
2489.3548855434829
 31
0.0
  0
LINE
  5
7E13
  8
1
 10
4224.8155503706676
 20
2063.8755579607619
 30
0.0
 11
4224.8155503706676
 21
2069.3755579607619
 31
0.0
  0
LINE
  5
7E18
  8
1
 10
4217.5155503706692
 20
2489.3548855434829
 30
0.0
 11
4217.515550370671
 21
3069.3548855434829
 31
0.0
  0
LINE
  5
7E19
  8
1
 10
3792.5155503706669
 20
2489.3548855434829
 30
0.0
 11
3792.5155503706678
 21
3069.3548855434829
 31
0.0
  0
LINE
  5
7E1A
  8
1
 10
1077.5777524732509
 20
4198.9546904322178
 30
0.0
 11
1077.5777524732509
 21
4564.9546904322187
 31
0.0
  0
LINE
  5
7E1B
  8
1
 10
793.57775247325105
 20
4198.954690432216
 30
0.0
 11
793.57775247325105
 21
4564.9546904322169
 31
0.0
  0
LINE
  5
7E1C
  8
1
 10
793.57775247325105
 20
4198.954690432216
 30
0.0
 11
1077.5777524732509
 21
4198.9546904322178
 31
0.0
  0
LINE
  5
7E1D
  8
1
 10
793.57775247324935
 20
4564.9546904322169
 30
0.0
 11
1077.5777524732489
 21
4564.9546904322178
 31
0.0
  0
LINE
  5
7E1E
  8
1
 10
949.57602274243345
 20
4198.9546904322178
 30
0.0
 11
949.5764394300204
 21
4138.9546904322178
 31
0.0
  0
LINE
  5
7E1F
  8
1
 10
921.57602274175861
 20
4198.9546904322178
 30
0.0
 11
921.57643942934556
 21
4138.9546904322169
 31
0.0
  0
LINE
  5
7E20
  8
1
 10
949.57609219160986
 20
4188.9545110937534
 30
0.0
 11
1610.5763827097669
 21
4188.9579094363617
 31
0.0
  0
LINE
  5
7E21
  8
1
 10
949.57632136853772
 20
4155.9546904321987
 30
0.0
 11
1610.5763827097669
 21
4155.954690432126
 31
0.0
  0
LINE
  5
7E22
  8
1
 10
3198.0155503706669
 20
2265.3771820768002
 30
0.0
 11
3159.5155503706669
 21
2265.3769147022649
 31
0.0
  0
LINE
  5
7E23
  8
1
 10
3198.0155503706678
 20
2237.3771820761258
 30
0.0
 11
3159.5155503706678
 21
2237.3769147015901
 31
0.0
  0
LINE
  5
826E
  8
4
 10
4625.0
 20
1250.0
 30
0.0
 11
4625.0
 21
750.0
 31
0.0
  0
LINE
  5
826F
  8
4
 10
2875.0
 20
1250.0
 30
0.0
 11
2875.0
 21
750.0
 31
0.0
  0
LINE
  5
8270
  8
4
 10
1625.0
 20
1250.0
 30
0.0
 11
1625.0
 21
750.0
 31
0.0
  0
LINE
  5
8273
  8
4
 10
1625.0
 20
750.0
 30
0.0
 11
4625.0
 21
750.0
 31
0.0
  0
LINE
  5
8274
  8
4
 10
1625.0
 20
1000.0
 30
0.0
 11
4625.0
 21
1000.0
 31
0.0
  0
TEXT
  5
8275
  8
4
 10
1721.2552021172539
 20
1078.857564666532
 30
0.0
 40
125.0
  1
機器名称
  0
TEXT
  5
8276
  8
4
 10
1715.6452650619931
 20
804.11289183002725
 30
0.0
 40
125.0
  1
機器型番
  0
TEXT
  5
8277
  8
4
 10
2885.4915223331982
 20
1053.5799427345221
 30
0.0
 40
112.5
  1
ミツヤリミットロードファン
  0
TEXT
  5
8278
  8
4
 10
2966.6362389637011
 20
792.89896069985843
 30
0.0
 40
125.0
  1
MF#3 1/2-1
  0
TEXT
  5
827A
  8
4
 10
1968.9765578034089
 20
5958.5721033312893
 30
0.0
 40
135.0
  1
床置防振ベット
  0
TEXT
  5
827B
  8
4
 10
790.41898332361586
 20
6334.7024404982449
 30
0.0
 40
180.0
  1
遠心式片吸込片持多翼ファン
  0
LINE
  5
827C
  8
4
 10
625.0
 20
6173.5218856620122
 30
0.0
 11
4625.0
 21
6173.5218856620122
 31
0.0
  0
LINE
  5
827D
  8
4
 10
625.0
 20
6673.5218856620122
 30
0.0
 11
4625.0
 21
6673.5218856620122
 31
0.0
  0
LINE
  5
827E
  8
4
 10
1625.0
 20
1250.0
 30
0.0
 11
4625.0
 21
1250.0
 31
0.0
  0
LINE
  5
827F
  8
4
 10
625.0
 20
6673.5218856620122
 30
0.0
 11
625.0
 21
6173.5218856620122
 31
0.0
  0
TEXT
  5
8280
  8
4
 10
697.95603586361165
 20
5955.7986938658578
 30
0.0
 40
135.0
  1
右回転右横向
  0
TEXT
  5
8281
  8
4
 10
3672.4238981232238
 20
6765.1527037382721
 30
0.0
 40
140.0
  1
No.
  0
TEXT
  5
8282
  8
4
 10
3278.2401565000318
 20
5958.5721033312893
 30
0.0
 40
135.0
  1
縮尺：1/25
  0
LINE
  5
8283
  8
4
 10
4625.0
 20
6673.5218856620122
 30
0.0
 11
4625.0
 21
6173.5218856620122
 31
0.0
  0
LINE
  5
8284
  8
4
 10
5250.0
 20
7375.0
 30
0.0
 11
5250.0
 21
7375.0
 31
0.0
  0
LINE
  5
8285
  8
4
 10
3601.543555899661
 20
6703.1589578135026
 30
0.0
 11
3601.543555899661
 21
6966.6306538743811
 31
0.0
  0
LINE
  5
8286
  8
4
 10
3601.543555899661
 20
6966.6306538743811
 30
0.0
 11
4625.0
 21
6966.6306538743811
 31
0.0
  0
LINE
  5
8287
  8
4
 10
4625.0
 20
6966.6306538743811
 30
0.0
 11
4625.0
 21
6703.1589578135026
 31
0.0
  0
LINE
  5
8288
  8
4
 10
4625.0
 20
6703.1589578135026
 30
0.0
 11
3601.543555899661
 21
6703.1589578135026
 31
0.0
  0
LINE
  5
8289
  8
4
 10
0.0
 20
0.0
 30
0.0
 11
0.0
 21
7375.0
 31
0.0
  0
LINE
  5
828A
  8
4
 10
0.0
 20
7375.0
 30
0.0
 11
5250.0
 21
7375.0
 31
0.0
  0
LINE
  5
828B
  8
4
 10
5250.0
 20
7375.0
 30
0.0
 11
5250.0
 21
0.0
 31
0.0
  0
LINE
  5
828C
  8
4
 10
5250.0
 20
0.0
 30
0.0
 11
0.0
 21
0.0
 31
0.0
  0
LINE
  5
82FB
  8
1
 10
4224.8155503706703
 20
2756.3548855434842
 30
0.0
 11
4224.8155503706694
 21
2469.3548855434829
 31
0.0
  0
LINE
  5
82FC
  8
1
 10
4221.8155503706703
 20
2469.3548855434829
 30
0.0
 11
4221.8155503706703
 21
2759.3548855434829
 31
0.0
  0
LINE
  5
82FD
  8
1
 10
4221.8155503706703
 20
2749.3548855434851
 30
0.0
 11
4221.8155503706703
 21
2774.3548855434842
 31
0.0
  0
LINE
  5
82FE
  8
1
 10
4221.8155503706703
 20
2774.3548855434842
 30
0.0
 11
4222.8155503706703
 21
2774.3548855434842
 31
0.0
  0
LINE
  5
82FF
  8
1
 10
4221.8155503706703
 20
2749.3548855434851
 30
0.0
 11
4261.8155503706703
 21
2749.3548855434851
 31
0.0
  0
LINE
  5
8300
  8
1
 10
4228.8155503706703
 20
2752.3548855434842
 30
0.0
 11
4259.8155503706703
 21
2752.3548855434842
 31
0.0
  0
LINE
  5
8301
  8
1
 10
4224.8155503706703
 20
2756.3548855434842
 30
0.0
 11
4224.8155503706703
 21
2772.3548855434842
 31
0.0
  0
ARC
  5
8302
  8
1
 10
4222.8155503706703
 20
2772.3548855434842
 30
0.0
 40
2.0
 50
0.0
 51
90.00000000000081
  0
ARC
  5
8303
  8
1
 10
4228.8155503706703
 20
2756.3548855434842
 30
0.0
 40
4.0
 50
180.0
 51
270.0
  0
LINE
  5
8304
  8
1
 10
4221.8155503706703
 20
2774.3548855434819
 30
0.0
 11
4221.8155503706703
 21
2749.3548855434819
 31
0.0
  0
LINE
  5
8305
  8
1
 10
4261.8155503706703
 20
2749.3548855434851
 30
0.0
 11
4261.8155503706703
 21
2750.3548855434842
 31
0.0
  0
ARC
  5
8306
  8
1
 10
4259.8155503706703
 20
2750.3548855434842
 30
0.0
 40
2.0
 50
359.9999999999992
 51
89.999999999999588
  0
LINE
  5
8310
  8
1
 10
3762.5155503706678
 20
3099.3548855434819
 30
0.0
 11
4247.5155503706719
 21
3099.3548855434819
 31
0.0
  0
LINE
  5
8311
  8
1
 10
3762.5155503706669
 20
2459.3548855434829
 30
0.0
 11
3762.5155503706669
 21
3099.3548855434819
 31
0.0
  0
LINE
  5
8312
  8
1
 10
4247.5155503706692
 20
2459.3548855434829
 30
0.0
 11
4247.5155503706701
 21
3099.3548855434819
 31
0.0
  0
LINE
  5
8313
  8
1
 10
3762.5155503706669
 20
2459.3548855434829
 30
0.0
 11
4247.5155503706692
 21
2459.3548855434829
 31
0.0
  0
ENDSEC
  0
EOF
